#TITLE:Lisa-RICCIA;
#ARTIST:DJ YOSHITAKA;
#BANNER:Lisa-RICCIA.png;
#BACKGROUND:Lisa-RICCIA-bg.png;
#CDTITLE:./CDTitles/Pastel-kun to Smith-shi no RUNRUN marathon!.png;
#MUSIC:Lisa-RICCIA.ogg;
#SAMPLESTART:99.512;
#SAMPLELENGTH:15;
#BPMS:0=205;
#STAGE:30;

//--------------- dance-single - Fred-104 ----------------
#NOTES:
     dance-single:
     Fred-104:
     Beginner:
     8:
     :
0000
0000
0000
0000
,
0000
0000
0000
0000
,
0000
0000
0000
0000
,
1000
0000
0000
1000
0000
0000
1000
0000
,
0000
0001
0001
0000
,
0100
0000
0000
0100
0000
0000
0100
0000
,
0000
0010
0010
0000
,
1000
1000
0001
0001
,
1000
0000
1000
0000
0001
0000
0000
2002
,
0000
0000
0000
0000
,
0000
0000
3003
0000
,
1001
0000
0000
0000
,
0000
0100
0000
0000
0010
0000
0010
0000
,
0100
0110
0000
0000
,
0000
0001
0000
0000
1000
0000
1000
0000
,
0001
1000
0000
0001
,
0000
0100
0000
0010
,
0010
0000
0000
0100
0000
0000
0010
0000
,
0000
1000
0000
0000
0001
0000
0001
0000
,
1000
0001
0000
0100
,
0010
0100
0000
0001
,
1000
0001
0000
1000
,
0010
1000
0001
0001
,
1000
0001
0000
0001
,
0100
0010
0000
0010
,
0100
0000
0000
0001
0000
0000
0000
1000
,
0000
0000
0001
1000
,
1001
0000
0000
0010
0000
0010
0000
0010
,
0000
0100
0001
0000
,
1000
0000
0000
0010
0000
0010
0000
0010
,
0000
1000
0100
0000
,
1000
0000
0000
0001
0000
0001
0000
0001
,
0000
1000
0001
0000
,
0100
0000
0010
0000
,
0010
0000
0100
0100
,
0100
0000
0000
0010
0000
0010
0000
0010
,
0000
1000
0001
0000
,
0100
0000
0000
0001
0000
0001
0000
0010
,
0000
0001
0100
0000
,
0001
0000
0000
1000
0000
1000
0000
0010
,
0000
0000
1000
0000
0100
0000
0000
1000
,
0000
0000
0010
0000
1000
0000
0000
0002
,
0000
0000
0003
1001
,
1000
0000
0000
0010
0000
1000
0000
0000
,
0001
0001
0100
0010
,
0100
0000
0000
0001
0000
0001
0000
0001
,
0000
0100
0010
0100
,
0010
0010
1000
0001
,
1000
0000
0000
0001
0000
0000
1000
0000
,
0001
0000
0000
1000
0000
0001
0000
2002
,
0000
0000
0000
3003
,
1001
0000
0000
0000
,
0000
0010
0000
0000
0100
0000
0100
0000
,
0010
0100
0000
0000
,
0000
0001
0000
0000
1000
0000
0001
0000
,
1000
0001
0000
0001
,
0100
0010
0000
1000
,
0001
0000
0000
1000
0000
0000
0001
0000
,
0100
0000
0010
0000
0100
0010
0100
0000
,
0010
1001
0000
0001
,
0000
1000
0000
0010
,
1000
0100
0000
0010
,
0000
0000
0001
0000
1000
0001
1000
0000
,
0001
0100
0000
0100
,
0010
0100
0000
0010
,
1000
0000
0000
0001
0000
0000
1000
0000
,
0000
0001
0100
0010
,
2000
0000
0000
0000
,
0000
0000
0000
0000
,
3020
0000
0000
0000
,
0000
0000
0000
0000
,
0230
0000
0000
0000
,
0000
0000
0000
0000
,
0302
0000
0000
0000
,
0000
0000
0000
0000
,
1003
0000
0010
0000
,
1000
0100
0010
0000
,
0001
0000
1000
0000
,
0001
0100
0010
0000
,
1000
1000
0001
0001
,
1000
0000
0001
0000
1000
0000
0000
2002
,
0000
0000
0000
0000
,
0000
0000
0000
3003
,
0110
0000
0000
0000
,
0000
0000
0000
0100
,
0110
0000
0000
0010
0000
0010
0000
1000
,
0000
0001
1000
0000
,
0001
0000
0000
0100
0000
0010
0000
0100
,
0000
0001
1000
0000
,
0010
0000
0000
1000
0000
0100
0000
1000
,
0000
0000
0001
0000
0100
0000
0000
0010
,
0000
0000
0100
0000
0001
0000
0000
1000
,
0000
0001
0100
0100
,
0110
0000
0000
0010
0000
1000
0000
0010
,
0000
1000
0100
0000
,
1000
0000
0000
0100
0000
0100
0000
0010
,
0000
0001
1000
0000
,
0001
0000
0000
0010
0000
0001
0000
0001
,
0000
0000
0100
0000
0010
0000
0000
0100
,
0000
0000
0010
0000
1000
0000
0000
0001
,
0000
1000
0001
1000
,
1001
0000
0000
0010
0000
0010
0000
0000
,
1000
0010
1000
1000
,
0001
0000
0000
0100
0000
0001
0000
0100
,
0000
0001
0100
0010
,
0100
0000
0001
0000
,
1000
1000
0001
1000
,
0001
0000
0000
0100
0000
0010
0000
0100
,
0000
0000
0000
0001
,
2002
0000
0000
0000
,
0000
0000
0000
0000
,
0000
0000
0000
0000
,
0000
0000
0000
0000
,
3003
0000
0000
0000
;

//--------------- dance-single - Fred-104 ----------------
#NOTES:
     dance-single:
     Fred-104:
     Easy:
     12:
     :
0000
0000
0000
0000
,
0000
0000
0000
0000
,
0000
0000
0000
0000
,
0001
0000
0100
0010
0000
1000
0000
0100
,
0000
0000
0010
0000
0001
0000
0000
0000
1000
0000
0000
1000
0000
0000
1000
0000
,
0001
0000
0100
0010
0000
1000
0000
0100
,
0000
0000
0010
0000
0100
0000
0000
0000
1000
0000
0000
1000
0000
0000
1000
0000
,
0001
0100
0001
0000
1000
0100
1000
0000
,
0010
1000
0010
1000
0001
1000
0000
2002
,
0000
0000
0000
0000
,
0000
0000
3003
0000
,
1001
0000
0000
0000
,
0000
0100
0000
0000
1000
0000
0001
0000
,
0100
0110
0000
0000
,
0000
0000
0001
0000
0000
0000
1000
0000
0010
0000
0000
1000
0000
0000
0001
0000
,
0101
0100
0010
1000
,
0001
0000
1000
0000
0100
0000
0010
0010
,
0001
0000
0000
1000
0000
0000
0010
0010
,
0000
0100
0000
0001
1000
0001
0100
0000
,
0010
0000
1010
0000
1000
0001
1000
0001
,
0000
0100
0010
0000
1000
0001
1000
0000
,
0010
0000
1000
0000
0100
1000
0100
1000
,
0000
0001
0100
0000
0010
0100
0010
0000
,
1000
0000
1001
0000
0001
0100
0001
0010
,
0000
0001
1000
0000
0010
0000
1000
0001
,
1000
0000
0000
0001
0000
0000
0100
0100
,
0000
0010
0000
0000
1000
0001
2000
0000
,
3001
0000
0100
0100
0000
0010
0000
1000
,
0000
0000
0010
0000
0100
0000
0000
0000
0001
0000
0000
0010
0000
0000
0100
0000
,
1000
0000
0010
0010
0000
1000
0000
0100
,
0000
0000
0010
0000
0001
0000
0000
0000
0100
0000
0000
0010
0000
0000
0100
0000
,
0001
0000
0010
0010
0000
0001
0000
1000
,
0000
0001
1000
0010
1000
0010
0000
0100
,
0000
0001
0100
0000
0010
1000
0000
0001
,
0000
0100
0100
0000
0001
1000
0001
0000
,
1000
0000
0100
0100
0000
0010
0000
0001
,
0000
0000
1000
0000
0010
0000
0000
0000
0100
0000
0000
0010
0000
0000
0100
0000
,
0001
0000
0010
0010
0000
0001
0000
1000
,
0000
0000
0001
0000
0100
0000
0000
0000
0010
0000
0000
1000
0000
0000
0001
0000
,
1000
0000
0100
0100
0000
1000
0000
0010
,
0000
0100
0010
0100
0001
1000
0000
0001
,
0000
0100
0001
0000
1000
0100
0000
0010
,
0000
0001
1000
0000
0000
0000
1001
0000
,
0001
0000
0100
0100
0000
0010
0000
1000
,
0010
0100
0001
0000
1000
0100
0010
0000
,
0001
0000
0100
0100
0000
0001
0000
0010
,
0000
0001
0000
1000
0010
1000
0100
1000
,
0100
0010
0001
0000
1001
0000
0110
0000
,
1001
0000
0001
0100
0000
0010
1000
0000
,
0001
0100
0001
0100
0000
0010
1000
0002
,
0000
0000
0003
1000
,
1001
0000
0000
0000
,
0000
0010
0000
0000
0100
0000
0001
0000
,
1000
1010
0000
0000
,
0000
0000
0010
0000
0000
0000
0100
0000
0001
0000
0000
1000
0000
0000
0001
0000
,
0100
0101
0000
0001
,
0000
0000
1000
0000
0000
0000
0010
1000
,
0001
0000
0000
1000
0000
0000
0010
0010
,
0000
1000
0000
0001
0100
0001
0100
0010
,
1000
0000
1001
0000
0001
0100
0010
0100
,
0000
0001
0010
0000
0100
1000
0010
0000
,
1000
0100
0000
0010
0100
0000
1000
0010
,
0000
1000
0100
0000
1000
0001
0100
0000
,
0001
0010
0000
0100
0010
0000
0001
0100
,
0000
0100
0010
0000
1000
0001
0100
0010
,
1000
0000
0000
0001
0000
0000
0100
0100
,
0000
0010
0000
0000
1000
0001
1000
0000
,
2001
0000
0000
0000
,
3020
0000
0230
0000
,
0302
0000
0000
0000
,
0023
0000
0230
0000
,
2300
0000
0000
0000
,
3002
0000
0203
0000
,
0320
0000
2030
0000
,
3200
0320
0032
2003
,
3001
0001
0100
0100
,
0010
0010
1000
1000
,
0100
0010
0001
1000
,
0010
0100
0001
1000
,
0001
0100
0001
0100
0010
0100
0010
0100
,
0010
1000
0010
1000
0001
1000
0000
2002
,
0000
0000
0000
0000
,
0000
0000
0000
3003
,
1001
0000
0000
0000
,
0000
0000
0000
1001
,
0001
0000
0100
0100
0000
0010
0000
1010
,
0000
0000
1000
0000
0100
0000
0000
0000
0010
0000
0000
0001
0000
0000
1000
0000
,
0001
0000
0100
0100
0000
0010
1000
0001
,
0000
0000
1000
0000
0100
0000
0000
0000
0010
0000
0000
0100
0000
0000
1000
0000
,
0001
0000
0010
0010
0000
0001
0000
1001
,
0000
1000
0010
0100
0010
1000
0000
1001
,
0000
0001
0100
0000
0010
0100
0000
0010
,
0000
1000
1000
0000
0001
1000
0001
0000
,
0100
0010
0100
0010
0000
1000
0000
1001
,
0000
0000
0001
0000
0100
0000
0000
0000
0010
0000
0000
1000
0000
0000
1000
0000
,
0001
0000
0010
0010
0000
0001
0000
0101
,
0000
0000
0100
0000
0010
0000
0000
0000
1000
0000
0000
0010
0000
0000
0100
0000
,
0100
0000
0010
1000
0000
0001
0000
1001
,
0000
1000
0010
0100
0001
0010
0000
0001
,
0000
1000
0010
0000
1000
0100
0000
0010
,
0000
0100
0100
0000
0000
0000
1001
0000
,
0001
0000
0100
0100
0000
0010
0000
1000
,
0100
0010
0001
0000
1000
0001
0100
0000
,
0001
0000
0010
0010
0000
0001
0000
1001
,
0000
1000
0000
0010
0100
0001
0100
0001
,
1000
0100
1000
0000
0010
0000
0110
0000
,
1001
0000
0001
0100
0000
0010
1000
0000
,
0001
0010
0001
0100
0000
0010
0000
2002
,
0000
0000
0000
3003
,
2002
0000
0000
0000
,
0000
0000
0000
0000
,
0000
0000
0000
0000
,
0000
0000
0000
0000
,
3003
0000
0000
0000
;

//--------------- dance-single - Fred-104 ----------------
#NOTES:
     dance-single:
     Fred-104:
     Medium:
     15:
     :
0000
0000
0000
0000
,
0000
0000
0000
0000
,
0000
0000
0000
0000
,
1000
0010
1000
0200
0000
0310
0001
2000
,
0000
0000
3001
0000
0100
0000
0010
0000
1000
0000
0000
0100
0000
0000
1000
0000
,
0010
1000
0100
0020
0000
0031
0100
0002
,
0000
0000
0013
0000
0001
0000
1000
0000
0001
0000
0000
0100
0000
0000
0010
0000
,
1000
0100
1000
0010
0100
0010
1000
0100
,
1000
0001
1000
0001
1000
0001
1000
0001
1000
0000
0100
0000
0000
0000
0220
0000
,
0000
0000
0000
0330
,
2002
0000
3003
0000
,
1001
0000
0000
0000
,
0000
1010
0000
0000
0101
0000
1100
0000
,
0011
1010
0000
0000
,
1000
0000
0001
0000
0000
0000
0100
0000
0010
0000
0000
1000
0000
0000
0001
0000
,
1000
0000
1001
0000
0001
0010
0001
1000
,
0000
0100
0010
0001
1000
0001
0100
0010
,
1010
0000
1000
1100
0000
0010
0100
0110
,
0000
0011
0000
0001
1000
0001
1000
0001
,
0100
0000
0110
0000
0010
1000
0010
0100
,
0000
0001
0010
0100
1000
0001
0100
0010
,
1000
0000
1100
0000
0100
0010
0001
1000
,
0000
0010
1000
0001
0001
0100
0010
0100
,
0001
0000
1001
0000
1000
0100
0010
0100
,
0000
1000
0001
0100
0010
1000
0100
0010
,
0011
0000
0000
1010
0000
0000
0001
0101
,
0000
0000
1100
0000
0000
0000
0000
0000
0001
1000
0001
1000
0001
0000
0000
0000
,
1000
0010
0100
0110
0000
0101
0000
1001
,
0000
0000
0001
0000
1000
0000
0010
0000
0100
0000
0000
0100
0000
0000
0010
0000
,
1000
0100
1000
1010
0000
0010
0100
0001
,
0000
0000
1000
0000
0100
0000
0010
0000
0001
0000
0000
1000
0000
0000
0001
0000
,
0100
0000
0010
1010
0000
0100
0000
1010
,
0000
0100
0001
0010
0001
0001
0000
1001
,
0000
0010
1000
0100
1000
0010
0100
0001
,
0000
0001
0100
0000
0010
0010
0010
1000
,
0001
0010
0100
1100
0000
1010
0000
0101
,
0000
0000
0001
0000
1000
0000
0010
0000
0100
0000
0000
0001
0000
0000
0010
0000
,
0001
0010
0100
0110
0000
0100
1000
1001
,
0000
0000
1000
0000
0010
0000
0100
0000
0001
0000
0000
0010
0000
0000
0100
0000
,
1000
0001
1000
1010
0000
0010
0000
0101
,
0000
0001
1000
0001
0100
0100
0000
1001
,
0000
1000
0010
1000
0100
1000
0000
0001
,
0000
0100
0220
0000
0330
0000
1001
0000
,
0001
0100
1000
0100
0000
0001
0000
1000
,
0001
0010
0100
1000
0010
0100
0001
1000
,
0001
0010
1000
0010
0000
0001
0000
1000
,
0000
0001
0000
0010
1000
0010
0001
1000
,
0001
0100
0110
0000
1100
0000
1001
0000
,
1010
0000
1000
0100
0010
0001
1000
0000
,
0001
0010
0100
0020
0000
0031
1000
2002
,
0000
0000
0000
3003
,
0110
0000
0000
0000
,
0000
1010
0000
0000
0011
0000
1010
0000
,
0101
1100
0000
0000
,
0000
0000
0100
0000
0000
0000
0100
0000
0010
0000
0000
0010
0000
0000
1000
0000
,
1001
0110
0000
0001
,
0000
0000
1000
0000
0000
0000
1000
0001
,
1001
0000
0000
0110
0000
0000
0001
0100
,
0000
0110
0000
0000
0010
1000
0001
0100
,
0010
1000
0010
1000
0100
1000
0001
0100
,
0001
0010
0001
0010
0001
1000
0001
0000
,
1000
0100
1000
0010
1000
0010
1000
0100
,
1000
0001
0100
0001
0100
0010
0100
0000
,
0001
0010
0100
1000
0001
1000
0100
0010
,
0001
1000
0010
0100
0001
1000
0001
0100
,
0110
0000
0000
1010
0000
0000
1000
1001
,
0000
0000
0001
0000
0000
0000
0100
0000
0001
1000
0001
1000
0001
0000
0000
0000
,
2001
0000
0000
0000
,
3020
0000
0230
0000
,
0302
0000
0000
0000
,
0023
0000
0230
0000
,
1300
0010
0100
0001
,
1000
0100
0010
0001
,
0100
1000
0100
0001
,
0010
0100
1000
0001
,
1000
0100
1000
0020
0000
0130
0010
2000
,
0000
0000
3100
0000
0010
0000
0001
0000
0100
0000
0000
0010
0000
0000
1000
0000
,
0001
0010
1000
0020
0000
0031
0010
0200
,
0000
0000
1300
0000
0010
0000
0100
0000
0001
0000
0000
0010
0000
0000
0001
0000
,
1000
0010
1000
0100
1000
0001
0100
0010
,
0100
0010
0100
0010
0100
0010
0100
0010
0100
0000
0110
0000
0000
0000
0220
0000
,
0000
0000
0000
0000
,
0000
0000
0000
0330
,
1000
0100
1000
0100
0001
0100
0001
0100
,
0000
1000
0001
0000
0000
0000
1001
0000
,
0001
0100
0010
0110
0000
1010
0000
0101
,
0000
0000
0001
0000
1000
0000
0100
0000
1000
0000
0000
0100
0000
0000
0010
0000
,
0001
1000
0001
0101
0000
0100
0010
1010
,
0000
0000
0100
0000
1000
0000
0010
0000
1000
0000
0000
0100
0000
0000
0010
0000
,
0001
1000
0001
0101
0000
0110
0000
1010
,
0000
1000
0100
0001
0100
1000
0000
1001
,
0000
0001
0100
0010
0100
0001
0000
0011
,
0000
0001
1000
0000
0001
0001
1000
1000
,
0100
1000
0010
0110
0000
0001
0010
0110
,
0000
0000
0100
0000
1000
0000
0001
0000
0010
0000
0000
0001
0000
0000
1000
0000
,
0001
0100
0001
0101
0000
0100
0010
1010
,
0000
0000
1000
0000
0010
0000
1000
0000
0100
0000
0000
0010
0000
0000
0001
0000
,
1000
0010
1000
1100
0000
0010
0100
0101
,
0000
0001
0100
1000
0100
0001
0000
1001
,
0000
1000
0100
0001
0100
1000
0000
1001
,
0000
0001
0100
0000
0220
0000
0330
0000
,
1000
0100
0010
0110
0000
1010
0000
0001
,
0010
0000
0001
0000
1000
0000
0001
0000
1000
0000
0010
0100
0010
0000
1000
0000
,
0001
0010
0001
0101
0000
1100
0000
0101
,
0000
0110
0000
1001
0001
0100
0010
1000
,
0100
0010
0011
0000
1001
0000
1010
0000
,
0010
1000
0100
1000
0001
0100
0010
0000
,
1000
0100
0001
0100
0000
1000
0001
2002
,
0000
0000
0000
3003
,
1000
0010
1000
0010
0000
0001
0000
0010
,
0000
0001
0000
0100
0000
0001
0100
2000
,
0000
0000
0000
0000
,
0000
0000
0000
0000
,
3000
0000
0000
0000
;

//--------------- dance-single - Fred-104 ----------------
#NOTES:
     dance-single:
     Fred-104:
     Hard:
     18:
     :
0000
0000
0000
0000
,
0000
0000
0000
0000
,
0000
0000
0000
0000
,
1000
0100
0010
0200
0000
1300
0010
0200
,
0000
0000
0301
0000
0010
0000
0100
0000
0010
0000
0000
0001
0000
0000
0001
0000
,
1000
0010
0100
0020
0000
1030
0001
0200
,
0000
0000
0301
0000
1000
0000
0001
0000
0100
0000
0000
0010
0000
0000
0010
0000
,
1000
0100
0010
0001
0100
0010
1000
0001
0010
0001
0010
0001
0100
0010
0100
0001
,
0010
0001
1000
0010
1000
0001
1000
0001
0100
0000
0110
0000
0000
0000
1001
0000
,
0000
0001
1000
0010
1000
0100
0001
0100
,
0000
2000
0002
0000
0000
0000
3003
0000
,
1001
0000
0000
0000
,
0000
1010
0000
0000
0101
0000
1100
0000
,
0110
1001
0000
0000
,
0001
0000
1000
0000
0001
0000
1000
0000
0000
0000
0000
0000
0000
0000
0000
0000
0000
0000
0001
0000
0000
0000
0000
0000
0100
0000
0000
0000
0000
0000
0000
0000
0000
0010
0000
0000
0000
0000
0000
0000
0000
0000
1000
0000
0000
0000
0000
0000
,
0001
0000
0000
0000
0000
0000
0000
0000
0000
0000
0000
0000
0000
0000
0000
0000
1001
0000
0000
0000
0000
0000
0000
0000
1000
0000
0000
0000
0000
0000
0000
0000
0001
0000
0000
0000
0000
0000
0000
0000
0200
0300
0000
0000
0000
0000
0000
0000
0200
0300
0000
0000
0000
0000
0000
0000
1000
0000
0000
0000
0000
0000
0000
0000
,
0010
0000
0000
0000
0000
0000
0000
0000
0200
0300
0000
0000
0000
0000
0000
0000
0200
0300
0000
0000
0000
0000
0000
0000
1000
0000
0000
0000
0000
0000
0000
0000
0001
0000
0000
0000
0000
0000
0000
0000
0020
0030
0000
0000
0000
0000
0000
0000
0020
0030
0000
0000
0000
0000
0000
0000
1000
0000
0000
0000
0000
0000
0000
0000
,
1001
0000
0000
0110
0000
0000
1000
1001
,
0000
0000
0010
0000
0000
0000
0100
0001
0100
0000
0001
0000
0001
0000
1000
0000
,
1001
0000
1010
0010
0100
0001
0010
0100
,
1000
0000
0010
0000
1000
0000
0001
1000
0100
0000
0100
0000
0010
0000
0010
0000
,
0001
0000
0100
0000
0001
0000
0010
0100
0010
0000
0100
0000
1000
0000
0001
0000
,
0100
0000
0010
0000
1000
0000
0100
0010
0001
0000
0001
0000
1000
0000
1000
0000
,
1001
0000
0000
0000
0110
0000
0010
1000
0001
0000
0100
0000
0010
0000
0100
0010
,
1000
0000
0100
0000
0010
0000
0001
1000
0001
0000
0100
0000
0010
0000
0100
0000
,
0101
0000
0000
1010
0000
0000
0011
1100
,
0000
0000
0110
0000
0000
0000
0001
1000
0001
0100
0010
1000
0002
0000
1000
0000
,
1003
0100
0010
0011
0000
0001
1000
1010
,
0000
0000
0110
0000
0100
0000
0001
0000
0001
0000
0000
0101
0000
0000
0100
0000
,
0001
0100
0010
1010
0000
0001
1000
1100
,
0000
0000
0100
0000
0010
0000
0001
0000
0100
0000
0000
0110
0000
0000
0100
0000
,
0001
1000
0010
0110
0000
0100
0001
1001
,
0000
1000
0100
0010
0001
1001
0000
1010
,
0000
0101
0100
0010
1000
0001
0010
0110
,
0000
0000
0100
0000
1100
0000
0000
0000
1000
0010
0100
0001
1000
0000
0100
0000
,
1100
0000
1000
1010
0000
1001
0000
0011
,
0000
0000
0001
0000
1000
0000
0001
0000
0101
0000
0000
1001
0000
0000
1010
0000
,
1001
0000
1000
1100
0000
0110
0010
0011
,
0000
0000
0001
0000
0100
0000
0010
0000
1010
0000
0000
0101
0000
0000
1100
0000
,
0110
0000
0001
0011
0000
0001
0100
0110
,
0000
1010
0010
0100
0001
0101
0000
1001
,
0000
1010
1000
0001
0100
0110
0000
1001
,
0000
0000
0010
0000
0100
0000
0000
0000
1000
0001
1000
0001
2000
0000
0001
0000
,
3001
0000
0100
0010
0100
0000
0110
0000
0000
0000
1010
0000
0000
0000
1001
0000
,
2000
3200
0302
0203
2300
3200
0302
0203
,
0310
0000
1000
0001
1000
0000
1100
0000
0000
0000
0101
0000
0000
0000
1010
0000
,
0000
0011
0000
0001
1000
0010
0100
0001
,
1000
0000
0001
0010
0001
0000
0100
0000
0110
0000
0000
0000
1001
0000
0000
0000
,
1100
0000
1000
0100
0000
0001
0100
0000
,
1000
0001
0100
0010
0000
0100
0001
2002
,
0000
0000
0000
0000
0000
3003
0100
0000
,
1001
0000
0000
0000
,
0000
1010
0000
0000
0101
0000
1100
0000
,
0110
1001
0000
0000
,
0000
0000
0011
0000
0000
0000
0011
0000
1001
0000
0000
1010
0000
0000
1010
0000
,
1001
0000
0000
0000
0000
0000
0000
0000
0000
0000
0000
0000
0000
0000
0000
0000
0110
0000
0000
0000
0000
0000
0000
0000
0001
0000
0000
0000
0000
0000
0000
0000
1000
0000
0000
0000
0000
0000
0000
0000
0200
0300
0000
0000
0000
0000
0000
0000
0200
0300
0000
0000
0000
0000
0000
0000
0001
0000
0000
0000
0000
0000
0000
0000
,
0010
0000
0000
0000
0000
0000
0000
0000
0200
0300
0000
0000
0000
0000
0000
0000
0200
0300
0000
0000
0000
0000
0000
0000
0001
0000
0000
0000
0000
0000
0000
0000
1000
0000
0000
0000
0000
0000
0000
0000
0200
0300
0000
0000
0000
0000
0000
0000
0200
0300
0000
0000
0000
0000
0000
0000
0001
0000
0000
0000
0000
0000
0000
0000
,
1001
0000
0000
0110
0000
0000
0010
1010
,
0000
0000
1001
0000
0000
0000
0000
0000
1000
0010
0100
0010
1000
0010
0100
0000
,
0001
0100
0001
0100
0001
0000
0100
0010
0100
0010
0100
0000
0010
1000
0010
1000
,
0010
0000
1000
0100
1000
0100
1000
0000
0001
0100
0001
0100
0010
1000
0001
0000
,
1000
0100
1000
0100
0010
0000
0001
0100
0001
0100
0010
0000
1000
0001
0100
0001
,
0100
0000
0001
1000
0100
1000
0100
0010
0001
0000
1000
0000
0010
0000
0100
0000
,
0001
0010
0100
1000
0001
0000
1000
0010
0100
0001
1000
0000
0001
1000
0100
1000
,
0010
0000
1000
0001
0100
0001
0010
0000
0001
0100
0001
0010
0001
1000
0001
0000
,
1001
0000
0000
0110
0000
0000
1000
1010
,
0000
0000
0101
0000
0000
0000
0100
0000
0001
1000
0010
1000
0001
0000
0100
0000
,
0002
0000
0000
0000
0000
0000
0000
2003
,
0000
0000
3002
0000
,
0203
0000
0000
0000
0000
0000
0000
0302
,
0000
0000
0000
0013
0200
0000
0000
0000
,
2300
0000
3001
0020
0000
2030
0000
3020
,
0000
0031
0100
1000
0100
0002
0000
2003
,
0000
3001
0100
0010
0100
0001
1000
0200
,
0000
0301
0200
0000
1300
0001
1000
0001
,
1000
0100
0001
2000
0000
3001
0100
2000
,
0000
0000
3001
0000
1000
0000
0010
0000
0100
0001
0000
0001
0010
0000
0100
0000
,
1000
0010
0001
2000
0000
3001
0010
2000
,
0000
0000
3001
0000
1000
0000
0010
0000
0100
0001
0000
0001
0010
0000
0100
0000
,
1000
0100
1000
0010
1000
0100
0010
0001
0100
0001
0100
0010
0100
0001
1000
0001
,
0100
0010
1000
0001
0010
0100
1000
0001
0100
0000
0110
0000
0000
0000
2002
0000
,
0000
0000
0000
0000
,
0000
0000
0000
3003
,
0001
0100
1000
0100
0001
0010
0100
1000
,
0000
0010
0100
0000
0000
0000
1001
0000
,
1100
0100
0010
0011
0000
0001
1000
1010
,
0000
0000
0010
0000
0100
0000
0001
0000
0011
0000
0000
1001
0000
0000
1010
0000
,
0010
1000
0001
0101
0000
0100
0010
1010
,
0000
0000
1000
0000
0100
0000
0010
0000
0110
0000
0000
0101
0000
0000
0110
0000
,
0100
0000
0010
1000
0001
0000
0011
0000
0000
0000
0001
0000
1000
0000
1001
0000
,
0000
0000
1000
0010
0100
0000
0010
0000
1000
0000
1100
0000
0000
0000
0101
0000
,
0000
1100
1000
0010
0100
0002
0000
0023
,
0000
0031
1001
0000
0001
0100
1000
0100
,
0001
0000
1000
0010
0100
0000
0110
0000
0000
0000
0011
0000
0001
0000
1001
0000
,
0000
0000
1000
0000
0010
0000
0100
0000
0101
0000
0000
0011
0000
0000
0101
0000
,
0100
0000
0010
1000
0100
0000
1100
0000
0000
0000
0100
0000
0010
0000
0011
0000
,
0000
0000
0001
0000
1000
0000
0001
0000
0011
0000
0000
0101
0000
0000
0011
0000
,
0001
0000
1000
0001
0100
0000
0110
0000
0000
0000
0010
0000
1000
0000
1100
0000
,
0000
0000
0100
0010
0001
0000
1000
0000
0010
0000
1010
0000
0000
0000
0101
0000
,
0000
0000
0100
0001
0010
0000
0001
0000
1000
0000
0001
0000
0000
0000
0101
0000
,
0000
0000
0100
0000
0010
0000
0000
0000
1000
0001
0100
0010
2000
0000
0010
0000
,
3010
0000
1000
0010
0200
0000
0001
0010
0000
0000
1000
0010
0300
0000
0110
0000
,
0001
0000
1000
0001
0010
0000
0001
0100
0010
0000
1000
0100
1000
0010
0100
0001
,
1000
0000
0001
1000
0200
0000
1000
0001
0000
0000
0001
1000
0300
0000
0110
0000
,
0000
0000
0001
1000
0010
0000
1000
0100
0010
0001
0010
0100
1000
0001
0100
0010
,
0100
0000
0001
1000
0100
0000
0010
0001
0100
0000
0010
1000
0001
0000
1000
0100
,
0010
0000
0001
0010
0100
0000
1000
0001
0100
0001
1000
0001
0010
0100
1000
0000
,
0001
0000
0100
0010
1000
0010
0100
0000
0001
0000
0011
0000
1001
0000
2002
0000
,
0000
0000
0000
3003
,
1000
0100
0001
1000
0000
0010
0000
0001
,
0000
1000
0000
0100
0000
0001
1000
2002
,
0000
0000
0000
0000
,
0000
0000
0000
0000
,
3003
0000
0000
0000
;

//--------------- dance-single - Fred-104 ----------------
#NOTES:
     dance-single:
     Fred-104:
     Challenge:
     19:
     :
0000
0000
0000
0000
,
0000
0000
0000
0000
,
0000
0000
0000
0000
,
1000
0010
0200
0001
0000
1300
0200
0001
,
0000
0000
1300
0000
0100
0000
0010
0000
0001
1000
0000
0010
0100
0000
0001
0000
,
1000
0001
0200
0010
0000
1300
0200
0001
,
0000
0000
1300
0000
0100
0000
0010
0000
0001
1000
0000
0010
0100
0000
0001
0000
,
1000
0100
0010
0100
1000
0010
1000
0100
1000
0001
0100
0010
0100
0001
0010
0100
,
1000
0100
0010
0001
0010
1000
0010
0001
1000
0000
1010
0000
0000
0000
0202
0000
,
0000
0000
0000
0000
,
0000
0000
0303
0000
,
1001
1000
0010
0100
0010
1000
0100
0010
,
0001
0101
0100
0010
1010
0000
1001
0000
,
1100
0100
0110
0010
0001
1000
0010
0100
,
0001
0000
1000
0000
0100
0000
0010
0000
0000
0000
0000
0000
0001
0000
0000
0000
0000
0000
1000
0000
0000
0000
0000
0000
1010
0000
0000
0000
0000
0000
0000
0000
0000
0101
0000
0000
0000
0000
0000
0000
0000
0000
1100
0000
0000
0000
0000
0000
,
0110
0000
0201
0010
1300
0100
0210
0010
,
0301
1000
2010
0010
3100
0001
0011
0001
,
1001
1000
0100
0110
0010
0001
0101
0101
,
0000
0000
0000
1001
0000
0000
0000
0000
0000
0001
0100
0010
1000
0000
0000
0100
0000
0000
0001
0000
0000
0100
0000
0000
,
1001
0000
0000
0000
0110
0000
0010
0001
1000
0000
0100
0000
0010
0000
0100
1000
,
0001
0000
0100
0000
0010
0000
1000
0100
0010
0000
0001
0000
1000
0000
0001
0100
,
1000
0000
0100
0000
0001
0000
1000
0100
0001
0000
0100
0000
1000
0000
0001
0010
,
0100
0000
0000
0001
0000
0000
0100
0000
0000
0010
0001
1000
0001
0000
0000
0100
0000
0000
0010
0000
0000
1000
0000
0000
,
1001
0000
0000
0000
0101
0000
0001
0010
0100
0000
1000
0000
0001
0000
1000
0010
,
0001
0000
1000
0000
0001
0000
0010
1000
0001
0000
0010
0100
1000
0000
0001
0000
,
1001
0000
0001
0100
0010
0000
0110
0000
0010
1000
0001
0000
0101
0000
1001
0000
,
0000
0000
0010
1000
0001
0010
0100
1000
0001
0100
1000
0100
0002
0000
2003
0000
,
3010
0000
1000
0010
0100
0000
0110
0000
0000
0000
0010
0000
1000
0000
1001
0000
,
0000
0000
0001
0000
0010
0000
0100
0000
1000
0100
0000
0010
1000
0000
0010
0000
,
0100
0000
1000
0001
1000
0000
1100
0000
0000
0000
0001
0000
0100
0000
0110
0000
,
0000
0000
1000
0000
0010
0000
0100
0000
0001
0100
0000
0010
0001
0000
0010
0000
,
0100
0000
0001
1000
0001
0000
0101
0000
0000
0000
0100
0000
0010
0000
1010
0000
,
0000
0000
1100
0000
0100
0000
0010
0000
0001
0010
0100
1000
0001
0000
0101
0000
,
0000
0000
0100
0010
1000
0000
0100
0010
0100
1000
0010
0000
0100
0000
0101
0000
,
0000
0001
1001
0000
0010
0010
0100
0100
,
0001
0000
0100
0001
0010
0000
0110
0000
0000
0000
1100
0000
1000
0000
1010
0000
,
0000
0000
1000
0000
0100
0000
0010
0000
1000
0010
0000
0100
1000
0000
0001
0000
,
0100
0000
0001
0010
0100
0000
0110
0000
0000
0000
1100
0000
0100
0000
0110
0000
,
0000
0000
0001
0000
0100
0000
0010
0000
0001
0010
0000
0100
0001
0000
1000
0000
,
0010
1000
0001
0100
0010
0000
1010
0000
0000
0000
0101
0000
0100
0000
0110
0000
,
0000
0000
0010
1000
0001
0000
0010
0001
1000
0001
0100
0000
0000
0000
0110
0000
,
0000
0000
0010
1000
0100
0000
0010
0000
0100
1000
0010
0100
0001
0000
1001
0000
,
0000
0000
2000
0000
3002
0000
0000
0000
1003
0100
0010
0001
0100
0010
0100
0001
,
1000
0000
0001
0100
0010
0000
1010
0000
0000
0000
0101
0000
0000
0000
1001
0000
,
0001
0000
0010
0100
1000
0000
0010
0100
0001
0010
0001
0100
0001
0010
0001
1000
,
0001
0000
1000
0001
0100
0000
0101
0000
0000
0000
0110
0000
0000
0000
1010
0000
,
0000
0000
1001
0000
0001
0000
0100
0000
0010
1000
0100
0010
0001
0100
0010
1000
,
0001
0000
1000
0001
0100
0000
0001
0010
0100
0000
1000
0010
0100
0000
0001
1000
,
0100
0000
0010
0001
1000
0001
0100
0010
1000
0100
0010
0100
1000
0001
0100
0001
,
1000
0100
0010
0001
1000
0100
0001
0000
0000
0000
0001
0000
0100
0000
2200
0000
,
0000
0000
0000
0000
0000
3300
0110
0000
,
1001
0000
0000
0000
,
0000
0011
0000
0000
1100
0000
0101
0000
,
1010
0110
0000
0000
,
0000
0000
1010
0000
0000
0000
0101
0000
1100
0000
0000
0101
0000
0000
1010
0000
,
1001
0000
0000
0000
1100
0000
0010
0001
1000
0000
0010
0100
0001
0100
0010
0000
,
1000
0001
1000
0001
0010
0000
0100
1000
0001
0100
0010
1000
0100
0010
0001
0000
,
0100
0010
0100
0001
1000
0000
0001
0100
0010
1000
0001
0000
1000
0000
1001
0000
,
0000
0000
1000
0100
0010
0100
1000
0010
0100
0010
0001
0010
1000
0000
0001
0000
,
1000
0100
0010
0001
1000
0000
0001
0100
0010
1000
0001
0000
1000
0100
0010
0100
,
0001
0000
0100
0010
0100
1000
0001
0000
1000
0001
0100
0001
1000
0100
0010
0001
,
1000
0010
0001
0010
0100
0000
0010
1000
0001
0010
0100
0000
1000
0001
0100
0001
,
1000
0000
0001
1000
0010
1000
0001
0100
0010
0000
0010
0000
0100
0000
0100
0000
,
0001
0010
0100
1000
0100
0000
0001
0100
1000
0010
0100
0000
0001
1000
0100
0010
,
0001
0000
0010
1000
0010
0001
0100
0000
0010
1000
0100
1000
0010
0100
0001
1000
,
0001
0010
0100
0010
0001
0100
0001
0100
0010
1000
0010
0100
0010
1000
0001
0000
,
0000
0000
0110
0000
0000
0000
0100
0000
1000
0100
0010
0001
1000
0000
0000
0000
,
2001
0000
0000
0000
0000
0000
0000
3020
,
0000
0000
0230
0000
,
0302
0000
0000
0000
0000
0000
0000
0023
,
0000
0000
0000
0032
2003
0000
0000
0000
,
3200
2300
3200
0320
0000
2030
0000
3020
,
0000
0032
2003
3200
0320
0230
0000
0302
,
0000
0203
2300
3002
0203
0320
0000
2030
,
0000
3200
0302
0000
0203
2300
3002
2003
,
3001
0001
0010
0010
0100
0100
1000
1000
,
0010
0010
0100
0100
0001
0001
1000
1000
,
0100
0100
0001
0001
0100
0100
1000
1000
,
0001
0001
0100
0100
0010
0010
1000
1000
,
0001
0100
0010
0100
0001
0010
0100
1000
0100
0010
0001
1000
0010
0100
0001
0100
,
0010
1000
0100
0001
0100
1000
0010
0100
0001
0000
0101
0000
0000
0000
2002
0000
,
0000
0000
0000
0000
,
0000
0000
0000
3003
,
1000
0100
0001
0010
1000
0100
0001
0010
,
0000
1000
0001
0000
0000
0000
1001
0000
,
1100
0000
1000
0001
0100
0000
0110
0000
0000
0000
1010
0000
1000
0000
1001
0000
,
0000
0000
0001
0000
0010
0000
0100
0000
0001
0100
0000
0010
0001
0000
1000
0000
,
1010
0000
1000
0001
0100
0000
0101
0000
0000
0000
0001
0000
0010
0000
0110
0000
,
0000
0000
0100
0000
1000
0000
0001
0000
1000
0100
0000
0001
0100
0000
1000
0000
,
0010
0000
1000
0001
0100
0000
0110
0000
0000
0000
0001
0000
1000
0000
1001
0000
,
0000
0000
1000
0010
0100
0010
1000
0001
0100
0000
0110
0000
0000
0000
1001
0000
,
0000
0000
0001
1000
0010
0000
1000
0000
0100
0010
0001
1000
0010
0000
1010
0000
,
0000
0000
0110
0000
1001
0000
0000
0000
1000
0000
0100
0010
0001
0000
1000
0000
,
1001
0000
0001
1000
0100
0000
1100
0000
0000
0000
1000
0100
0010
0001
1000
0000
,
0000
0000
0001
1000
0001
0000
0010
0000
0001
0100
0000
1000
0100
0000
0001
0000
,
1001
0000
1000
0100
0010
0000
0011
0000
0000
0000
0010
0001
1000
0001
0100
0000
,
0000
0000
0001
0000
1000
0000
0010
0000
0100
0001
0000
0100
1000
0000
0100
0000
,
0110
0000
0010
0001
0100
0000
0101
0000
0000
0000
0100
0000
0010
0000
1010
0000
,
0000
0001
1000
0100
0001
0100
0010
0001
1000
0000
1100
0000
0000
0000
1001
0000
,
0000
0000
0100
1000
0001
0010
0100
0010
1000
0000
0010
0000
0100
0000
0110
0000
,
0000
0000
0001
0000
0101
0000
0000
0000
0001
0100
1000
0100
0010
1000
0100
0010
,
0001
0000
1000
0100
0020
0000
0001
0100
0030
0000
1000
0100
0010
0001
1000
0001
,
0010
0000
0001
0100
0010
0000
0100
0001
0010
0001
1000
0001
0010
0100
1000
0001
,
1000
0000
0001
1000
0200
0000
1000
0001
0000
0000
0001
1000
0300
0000
0110
0000
,
0000
0000
0010
0001
1000
0001
0100
0010
1000
0100
0010
0100
0001
0100
1000
0001
,
0100
0000
0010
1000
0001
0000
1000
0100
0010
0000
0001
0010
1000
0000
0010
0001
,
0100
0000
0010
1000
0100
1000
0010
0100
0001
0100
0010
1000
0010
0100
0001
0000
,
1000
0100
0010
0001
1000
0100
0001
0000
0000
0000
0100
0000
1000
0000
2002
0000
,
0000
0000
0000
3003
,
1000
0100
0001
1000
0000
0010
0000
0001
,
0000
0100
0000
1000
0000
0001
0010
2002
,
0000
0000
0000
0000
,
0000
0000
0000
0000
,
3003
0000
0000
0000
;

//--------------- dance-double - Fred-104 ----------------
#NOTES:
     dance-double:
     Fred-104:
     Easy:
     12:
     :
00000000
00000000
00000000
00000000
,
00000000
00000000
00000000
00000000
,
00000000
00000000
00000000
00000000
,
00001000
00000000
00010000
00001000
00000000
00100000
00000000
00010000
,
00000000
00000000
10000000
00000000
00100000
00000000
00000000
00000000
01000000
00000000
00000000
01000000
00000000
00000000
01000000
00000000
,
00100000
00000000
10000000
01000000
00000000
00100000
00000000
01000000
,
00000000
00000000
10000000
00000000
00010000
00000000
00000000
00000000
01000000
00000000
00000000
01000000
00000000
00000000
01000000
00000000
,
00010000
01000000
00001000
00000000
00010000
00000100
00001000
00000000
,
00000010
00000100
00000010
00000100
00000001
00001000
00000000
00002002
,
00000000
00000000
00000000
00000000
,
00000000
00000000
00003003
00000000
,
00001001
00000000
00000000
00000000
,
00000000
00000010
00000000
00000000
00010000
00000000
00001000
00000000
,
00100000
00110000
00000000
00000000
,
00000000
00000000
00010000
00000000
00000000
00000000
01000000
00000000
00010000
00000000
00000000
10000000
00000000
00000000
01000000
00000000
,
01100000
00100000
01000000
10000000
,
01000000
00000000
00010000
00000000
00001000
00000000
00000100
00000001
,
00001000
00000000
00000000
00000001
00000000
00000000
00000100
00000100
,
00000000
00000010
00000000
00010000
00001000
00010000
00001000
00000000
,
00100000
00000000
00110000
00000000
00010000
10000000
00010000
10000000
,
00000000
01000000
00100000
00000000
00010000
10000000
00100000
00000000
,
01000000
00000000
00100000
00000000
10000000
01000000
00100000
00001000
,
00000000
00010000
00001000
00000000
01000000
00001000
00010000
00000000
,
00001000
00000000
00011000
00000000
00010000
00000010
00001000
00000010
,
00000000
00000100
00000001
00000000
00001000
00000000
00000100
00000010
,
00000001
00000000
00000000
00000100
00000000
00000000
00010000
00010000
,
00000000
00001000
00000000
00000000
01000000
00100000
02000000
00000000
,
03010000
00000000
10000000
10000000
00000000
01000000
00000000
00100000
,
00000000
00000000
01000000
00000000
10000000
00000000
00000000
00000000
00010000
00000000
00000000
00100000
00000000
00000000
00001000
00000000
,
01000000
00000000
00001000
00001000
00000000
00010000
00000000
00000100
,
00000000
00000000
00001000
00000000
00000100
00000000
00000000
00000000
00000010
00000000
00000000
00000100
00000000
00000000
00001000
00000000
,
00000001
00000000
00000100
00000100
00000000
00000010
00000000
00010000
,
00000000
00001000
00010000
00001000
00100000
00001000
00000000
00010000
,
00000000
00001000
00100000
00000000
00010000
01000000
00000000
00100000
,
00000000
10000000
10000000
00000000
00010000
10000000
00100000
00000000
,
10000000
00000000
00100000
00100000
00000000
01000000
00000000
00010000
,
00000000
00000000
10000000
00000000
01000000
00000000
00000000
00000000
00100000
00000000
00000000
00001000
00000000
00000000
00010000
00000000
,
00000100
00000000
00010000
00001000
00000000
01000000
00000000
00001000
,
00000000
00000000
00010000
00000000
00001000
00000000
00000000
00000000
00010000
00000000
00000000
00000010
00000000
00000000
00001000
00000000
,
00000100
00000000
00010000
00010000
00000000
00000100
00000000
00001000
,
00000000
00000001
00000010
00000100
00000010
00000001
00000000
00000100
,
00000000
00000010
00001000
00000000
00000001
00000010
00000000
00000100
,
00000000
00010000
00001000
00000000
00000000
00000000
00011000
00000000
,
00001000
00000000
00100000
00100000
00000000
00010000
00000000
01000000
,
00100000
10000000
00100000
00000000
01000000
00010000
10000000
00000000
,
00100000
00000000
10000000
01000000
00000000
00100000
00000000
00001000
,
00000000
00010000
00000000
01000000
10000000
00100000
10000000
01000000
,
10000000
01000000
00100000
00000000
01100000
00000000
00110000
00000000
,
00011000
00000000
00001000
00010000
00000000
00001000
00010000
00000000
,
00000100
00001000
00000010
00000100
00000000
00000010
00001000
00000002
,
00000000
00000000
00000003
00001000
,
00001001
00000000
00000000
00000000
,
00000000
00001000
00000000
00000000
00000100
00000000
00010000
00000000
,
00001000
00011000
00000000
00000000
,
00000000
00000000
00001000
00000000
00000000
00000000
00100000
00000000
00001000
00000000
00000000
00001000
00000000
00000000
00001000
00000000
,
00010000
00011000
00000000
00001000
,
00000000
00000000
01000000
00000000
00000000
00000000
00010000
00100000
,
01000000
00000000
00000000
10000000
00000000
00000000
00010000
00010000
,
00000000
01000000
00000000
00100000
10000000
00100000
10000000
00100000
,
01000000
00000000
01100000
00000000
00010000
01000000
00100000
10000000
,
00000000
01000000
00100000
00000000
00001000
00010000
00001000
00000000
,
01000000
00001000
00000000
00010000
00000100
00000000
00010000
00001000
,
00000000
00010000
00000100
00000000
00001000
00000010
00000100
00000000
,
00000001
00000010
00000000
00000100
00000010
00000000
00000001
00000100
,
00000000
00000010
00001000
00000000
00000100
00000010
00010000
00001000
,
00100000
00000000
00000000
00010000
00000000
00000000
10000000
10000000
,
00000000
01000000
00000000
00000000
00100000
00010000
00100000
00000000
,
00012000
00000000
00000000
00000000
,
00203000
00000000
00302000
00000000
,
00023000
00000000
00000000
00000000
,
00030020
00000000
00002030
00000000
,
00003200
00000000
00000000
00000000
,
00020300
00000000
00032000
00000000
,
02003000
00000000
03002000
00000000
,
00023000
00030200
00020300
00032000
,
00013000
00010000
01000000
01000000
,
00100000
00100000
10000000
10000000
,
01000000
00100000
00001000
00010000
,
00000100
00000010
00000001
00001000
,
00000001
00000100
00000001
00000100
00000010
00000100
00000010
00000100
,
00000010
00001000
00000010
00001000
00000100
00010000
00000000
00022000
,
00000000
00000000
00000000
00000000
,
00000000
00000000
00000000
00033000
,
00011000
00000000
00000000
00000000
,
00000000
00000000
00000000
10010000
,
10000000
00000000
00100000
00100000
00000000
10000000
00000000
11000000
,
00000000
00000000
01000000
00000000
00100000
00000000
00000000
00000000
00001000
00000000
00000000
00010000
00000000
00000000
00001000
00000000
,
01000000
00000000
00001000
00001000
00000000
00010000
00000100
00010000
,
00000000
00000000
00000100
00000000
00001000
00000000
00000000
00000000
00000100
00000000
00000000
00000010
00000000
00000000
00000001
00000000
,
00001000
00000000
00000010
00000010
00000000
00000100
00000000
00000101
,
00000000
00000001
00000010
00000001
00000010
00000100
00000000
00011000
,
00000000
00001000
00100000
00000000
00010000
01000000
00000000
00100000
,
00000000
10000000
00010000
00000000
10000000
01000000
10000000
00000000
,
00010000
00100000
01000000
00100000
00000000
00010000
00000000
00011000
,
00000000
00000000
00001000
00000000
01000000
00000000
00000000
00000000
00001000
00000000
00000000
00100000
00000000
00000000
00001000
00000000
,
00010000
00000000
00000010
00000010
00000000
00010000
00000000
00011000
,
00000000
00000000
00100000
00000000
00010000
00000000
00000000
00000000
01000000
00000000
00000000
00100000
00000000
00000000
10000000
00000000
,
00100000
00000000
10000000
01000000
00000000
00100000
00000000
00011000
,
00000000
00001000
00100000
00001000
00010000
00001000
00000000
00010000
,
00000000
00000010
00000100
00000000
00000001
00000100
00000000
00000010
,
00000000
00001000
00001000
00000000
00000000
00000000
00011000
00000000
,
00010000
00000000
00001000
00001000
00000000
00100000
00000000
00010000
,
01000000
00100000
10000000
00000000
00010000
10000000
00010000
00000000
,
10000000
00000000
01000000
01000000
00000000
00100000
00000000
00011000
,
00000000
00001000
00000000
00100000
00001000
00010000
00001000
01000000
,
00001000
00010000
00001000
00000000
00100000
00000000
00011000
00000000
,
00010010
00000000
00000010
00001000
00000000
00000100
00000010
00000000
,
00000001
00000010
00000100
00000010
00000000
00000001
00000000
00002002
,
00000000
00000000
00000000
00003003
,
00002200
00000000
00000000
00000000
,
00000000
00000000
00000000
00000000
,
00000000
00000000
00000000
00000000
,
00000000
00000000
00000000
00000000
,
00003300
00000000
00000000
00000000
;

//--------------- dance-double - Fred-104 ----------------
#NOTES:
     dance-double:
     Fred-104:
     Medium:
     15:
     :
00000000
00000000
00000000
00000000
,
00000000
00000000
00000000
00000000
,
00000000
00000000
00000000
00000000
,
00010000
10000000
01000000
00200000
00000000
01300000
10000000
00200000
,
00000000
00000000
01300000
00000000
00010000
00000000
10000000
00000000
01000000
00000000
00000000
00100000
00000000
00000000
00001000
00000000
,
00010000
00001000
01000000
00002000
00000000
00013000
00000100
00020000
,
00000000
00000000
00031000
00000000
00010000
00000000
00000010
00000000
00001000
00000000
00000000
00000010
00000000
00000000
00000100
00000000
,
00000001
00000100
00000001
00000100
00000010
00001000
00000010
00010000
,
00001000
00010000
00001000
00010000
00001000
00010000
00001000
00010000
00001000
00000000
00010000
00000000
00000000
00000000
00022000
00000000
,
00000000
00000000
00000000
00033000
,
02200000
00000000
03300000
00000000
,
10010000
00000000
00000000
00000000
,
00000000
11000000
00000000
00000000
01010000
00000000
00011000
00000000
,
00010100
00001100
00000000
00000000
,
00000001
00000000
00000100
00000000
00000000
00000000
00001000
00000000
00000100
00000000
00000000
00000001
00000000
00000000
00000010
00000000
,
00000100
00000000
00000110
00000000
00000010
00010000
00001000
00100000
,
00000000
00010000
10000000
01000000
00100000
00010000
00100000
01000000
,
11000000
00000000
01000000
01100000
00000000
00100000
00001000
00011000
,
00000000
01001000
00000000
00001000
00010000
00000100
00001000
00000100
,
00000010
00000000
00000011
00000000
00000001
00000100
00001000
00000100
,
00000000
00000001
00000010
00000100
00010000
00001000
00100000
01000000
,
10000000
00000000
11000000
00000000
00100000
01000000
00010000
01000000
,
00000000
00100000
10000000
00010000
01000000
00100000
10000000
01000000
,
00100000
00000000
00011000
00000000
00000100
00010000
00001000
01000000
,
00000000
00010000
10000000
01000000
00010000
01000000
00010000
00001000
,
00011000
00000000
00000000
00001100
00000000
00000000
00000001
00000101
,
00000000
00000000
00001001
00000000
00000000
00000000
00000000
00000000
00000001
00001000
00000001
00001000
00000001
00000000
00000000
00000000
,
00001000
00000010
00010000
00011000
00000000
00101000
00000000
00011000
,
00000000
00000000
00001000
00000000
00010000
00000000
01000000
00000000
10000000
00000000
00000000
00010000
00000000
00000000
10000000
00000000
,
00010000
01000000
00100000
10100000
00000000
10000000
01000000
00100000
,
00000000
00000000
00001000
00000000
00010000
00000000
00001000
00000000
01000000
00000000
00000000
00001000
00000000
00000000
00010000
00000000
,
00001000
00000000
00100000
00110000
00000000
00001000
00000000
00010010
,
00000000
00010000
00000100
00001000
00000100
00010000
00000000
00011000
,
00000000
00010000
00001000
00000100
00000001
00001000
00000001
00000100
,
00000000
00000010
00001000
00000000
00010000
00010000
00010000
00010000
,
00001000
00100000
00010000
01010000
00000000
01100000
00000000
10100000
,
00000000
00000000
10000000
00000000
01000000
00000000
00100000
00000000
01000000
00000000
00000000
10000000
00000000
00000000
00010000
00000000
,
01000000
00100000
10000000
11000000
00000000
01000000
00100000
00110000
,
00000000
00000000
00001000
00000000
00100000
00000000
00001000
00000000
00010000
00000000
00000000
00000100
00000000
00000000
00010000
00000000
,
00001000
01000000
00001000
00011000
00000000
00001000
00000000
00001010
,
00000000
00000010
00000100
00000010
00001000
00001000
00000000
00001001
,
00000000
00000001
00000100
00001000
00010000
01000000
00000000
10000000
,
00000000
00100000
02200000
00000000
03300000
00000000
10010000
00000000
,
00010000
01000000
00100000
10000000
00000000
01000000
00000000
00100000
,
00010000
10000000
01000000
00010000
00001000
00000100
00000001
00001000
,
00000010
00000100
00000001
00000100
00000000
00000010
00000000
00010000
,
00000000
00001000
00000000
00100000
00010000
10000000
00100000
01000000
,
00010000
01000000
01100000
00000000
10100000
00000000
01010000
00000000
,
10010000
00000000
10000000
01000000
00100000
00010000
10000000
00000000
,
00100000
01000000
00001000
00020000
00000000
00031000
00010000
00022000
,
00000000
00000000
00000000
00033000
,
10010000
00000000
00000000
00000000
,
00000000
01010000
00000000
00000000
11000000
00000000
01010000
00000000
,
00011000
00101000
00000000
00000000
,
00000000
00000000
00001000
00000000
00000000
00000000
00100000
00000000
00001000
00000000
00000000
00010000
00000000
00000000
00001000
00000000
,
00011000
00000110
00000000
00000001
,
00000000
00000000
00001000
00000000
00000000
00000000
00010000
00001000
,
00011000
00000000
00000000
10010000
00000000
00000000
10000000
01000000
,
00000000
01100000
00000000
00000000
00100000
00010000
00100000
00010000
,
10000000
01000000
00100000
01000000
10000000
00100000
01000000
00010000
,
00100000
01000000
00100000
00001000
00010000
00001000
00000100
00000000
,
00000010
00000001
00000100
00000001
00000010
00000001
00001000
00000001
,
00001000
00000100
00010000
00001000
00100000
00010000
10000000
00000000
,
00010000
01000000
10000000
01000000
00010000
10000000
01000000
00100000
,
00001000
00010000
00001000
01000000
00001000
00010000
00001000
00000100
,
00000110
00000000
00000000
00000011
00000000
00000000
00000001
00001001
,
00000000
00000000
00000010
00000000
00000000
00000000
00010000
00000000
00001000
00010000
00001000
00010000
00001000
00000000
00000000
00000000
,
00012000
00000000
00000000
00000000
,
00023000
00000000
00230000
00000000
,
02300000
00000000
00000000
00000000
,
23000000
00000000
30020000
00000000
,
10030000
01000000
00100000
00010000
,
00001000
00000100
00000010
00000001
,
00000100
00001000
00010000
00100000
,
10000000
00010000
01000000
00100000
,
10000000
01000000
00100000
00002000
00000000
00013000
00001000
02000000
,
00000000
00000000
03001000
00000000
00010000
00000000
00000100
00000000
00001000
00000000
00000000
00000100
00000000
00000000
00000010
00000000
,
00000001
00000010
00000100
00000020
00000000
00000031
00000100
00002000
,
00000000
00000000
00003100
00000000
00000001
00000000
00000010
00000000
00000100
00000000
00000000
00010000
00000000
00000000
00001000
00000000
,
00100000
00001000
00100000
00010000
01000000
00100000
10000000
00010000
,
10000000
01000000
10000000
01000000
10000000
01000000
10000000
01000000
00100000
00000000
00110000
00000000
00000000
00000000
00022000
00000000
,
00000000
00000000
00000000
00000000
,
00000000
00000000
00000000
00033000
,
01000000
00010000
00100000
00001000
00010000
00000100
00001000
00000010
,
00000000
00010000
00001000
00000000
00000000
00000000
00011000
00000000
,
00001000
00100000
00010000
10010000
00000000
01100000
00000000
10010000
,
00000000
00000000
10000000
00000000
01000000
00000000
00100000
00000000
10000000
00000000
00000000
00100000
00000000
00000000
00010000
00000000
,
10000000
00100000
01000000
01010000
00000000
00001000
00010000
00011000
,
00000000
00000000
00001000
00000000
00000001
00000000
00000100
00000000
00000010
00000000
00000000
00000001
00000000
00000000
00000010
00000000
,
00001000
00000001
00000100
00000110
00000000
00001100
00000000
00011000
,
00000000
00001000
00010000
01000000
10000000
00010000
00000000
10010000
,
00000000
10000000
01000000
00100000
00001000
00010000
00000000
00011000
,
00000000
00000010
00001000
00000000
00000001
00000001
00001000
00001000
,
00000001
00000100
00000010
00001010
00000000
00010000
00001000
00011000
,
00000000
00000000
00001000
00000000
00100000
00000000
00010000
00000000
10000000
00000000
00000000
01000000
00000000
00000000
00100000
00000000
,
01000000
10000000
00010000
00110000
00000000
00100000
01000000
11000000
,
00000000
00000000
10000000
00000000
00100000
00000000
00010000
00000000
00001000
00000000
00000000
00010000
00000000
00000000
01000000
00000000
,
10000000
00100000
01000000
01100000
00000000
00001000
00010000
00011000
,
00000000
00001000
00000100
00000001
00000100
00001000
00000000
00001001
,
00000000
00001000
00000010
00000001
00000010
00001000
00000000
00011000
,
00000000
00010000
00100000
00000000
20020000
00000000
30030000
00000000
,
00010000
01000000
00100000
10100000
00000000
11000000
00000000
00100000
,
00010000
00000000
10000000
00000000
01000000
00000000
00100000
00000000
00001000
00000000
00010000
00001000
00010000
00000000
00001000
00000000
,
00010000
00000100
00001000
00001100
00000000
00000110
00000000
00000011
,
00000000
00000101
00000000
00001001
00000001
00000100
00000010
00001000
,
00000100
00000010
00000011
00000000
00001010
00000000
00011000
00000000
,
00001000
00010000
00100000
10000000
00010000
01000000
00100000
00000000
,
10000000
01000000
00100000
00001000
00000000
00010000
00001000
00022000
,
00000000
00000000
00000000
00033000
,
00010000
00001000
00010000
00000100
00000000
00001000
00000000
00000010
,
00000000
00000100
00000000
00000001
00000000
00000010
00001000
00020000
,
00000000
00000000
00000000
00000000
,
00000000
00000000
00000000
00000000
,
00030000
00000000
00000000
00000000
;

//--------------- dance-double - Fred-104 ----------------
#NOTES:
     dance-double:
     Fred-104:
     Hard:
     18:
     :
00000000
00000000
00000000
00000000
,
00000000
00000000
00000000
00000000
,
00000000
00000000
00000000
00000000
,
00010000
00001000
00010000
00000020
00000000
00001030
00000010
00020000
,
00000000
00000000
00031000
00000000
00100000
00000000
00010000
00000000
01000000
00000000
00000000
00001000
00000000
00000000
00010000
00000000
,
00000100
00001000
00000100
00020000
00000000
00031000
01000000
00020000
,
00000000
00000000
01030000
00000000
00001000
00000000
00010000
00000000
00000100
00000000
00000000
00001000
00000000
00000000
00000010
00000000
,
00001000
00000010
00001000
00000010
00000100
00000010
00000100
00000010
00001000
00000100
00001000
00000100
00010000
00001000
00010000
00001000
,
00100000
00010000
00100000
00010000
01000000
00100000
01000000
00100000
01000000
00000000
01100000
00000000
00000000
00000000
00022000
00000000
,
00000000
00000000
00000000
00000000
,
00000000
00000000
00033000
00000000
,
10010000
00000000
00000000
00000000
,
00000000
10100000
00000000
00000000
01010000
00000000
11000000
00000000
,
00110000
00011000
00000000
00000000
,
00001000
00000000
00000010
00000000
00001000
00000000
00000010
00000000
00000000
00000000
00000000
00000000
00000000
00000000
00000000
00000000
00000000
00000000
00000100
00000000
00000000
00000000
00000000
00000000
00000001
00000000
00000000
00000000
00000000
00000000
00000000
00000000
00000000
00001000
00000000
00000000
00000000
00000000
00000000
00000000
00000000
00000000
00000001
00000000
00000000
00000000
00000000
00000000
,
00000100
00001001
00000100
00010000
,
01000000
00000000
10010000
00000000
00100000
00000000
00001000
00010000
,
00011000
00000000
00000000
00001010
00000000
00000000
00000011
00000011
,
00000000
00000000
00001001
00000000
00000000
00000000
00000001
00001000
00000001
00000000
00001000
00000000
00000010
00000000
00010000
00000000
,
00011000
00000000
00010100
00010000
00001000
00100000
00010000
10000000
,
00010000
00000000
10000000
00000000
01000000
00000000
00100000
00010000
00100000
00000000
00001000
00000000
00010000
00000000
00001000
00000000
,
01000000
00000000
00001000
00000000
00010000
00000000
00001000
00000100
00001000
00000000
00000100
00000000
00000010
00000000
00001000
00000000
,
00010000
00000000
00001000
00000000
00100000
00000000
01000000
00100000
01000000
00000000
00100000
00000000
00100000
00000000
00100000
00000000
,
10010000
00000000
00000000
00000000
11000000
00000000
01000000
00100000
00010000
00000000
00100000
00000000
00001000
00000000
00010000
00000000
,
00000010
00000000
00001000
00000000
00000100
00000000
00010000
00000000
00000010
00000000
00001000
00000100
00010000
00000000
00001000
00000000
,
00011000
00000000
00000000
01100000
00000000
00000000
10010000
10010000
,
00000000
00000000
00011000
00000000
00000000
00000000
00000000
00000000
00001000
00000001
00001000
00000001
00001000
00000000
00000000
00000000
,
00000001
00000100
00000010
00001010
00000000
00010000
00001000
00011000
,
00000000
00000000
01000000
00000000
00100000
00000000
10000000
00000000
10100000
00000000
00000000
01010000
00000000
00000000
11000000
00000000
,
01000000
00100000
00001000
00011000
00000000
00010000
00000010
00001010
,
00000000
00000000
00000010
00000000
00010000
00000000
00001000
00000000
01001000
00000000
00000000
00010100
00000000
00000000
00011000
00000000
,
00001000
00100000
00010000
10010000
00000000
10000000
01000000
01100000
,
00000000
00001000
00010000
00000010
00001000
00001100
00000000
00000101
,
00000000
00001100
00001000
00000001
00000100
00000010
00000000
00010000
,
00000000
00001000
00011000
00000000
00010000
00010000
00001000
00001000
,
00011000
00001000
00100000
00101000
00000000
00001000
00010000
00010010
,
00000000
00000000
00000010
00000000
00001000
00000000
00000100
00000000
00010100
00000000
00000000
00011000
00000000
00000000
00010100
00000000
,
00010000
00001000
01000000
01010000
00000000
10000000
01000000
01100000
,
00000000
00000000
00010000
00000000
01000000
00000000
00100000
00000000
10100000
00000000
00000000
01100000
00000000
00000000
01010000
00000000
,
10010000
00000000
00001000
00011000
00000000
00000010
00001000
00001001
,
00000000
00001100
00001000
00000001
00000100
00000110
00000000
00001001
,
00000000
00000011
00000001
00001000
00000001
00000011
00000000
00001010
,
00000000
00000000
00010000
00000000
00001000
00000000
00000000
00000000
00010000
00001000
00010000
00001000
00020000
00000000
00032000
00000000
,
00103000
00000000
01000000
11000000
00000000
01010000
00000000
11000000
,
02000000
03200000
00320000
00032000
00003200
00000320
00020030
00032000
,
00013000
00000000
00000100
00010000
00001000
00000000
00011000
00000000
00000000
00000000
01100000
00000000
00000000
00000000
10010000
00000000
,
00000000
00011000
00000000
00001000
00000100
00000001
00001000
00000100
,
00000010
00000000
00000001
00000100
00000001
00000000
00000100
00000000
00000110
00000000
00000000
00000000
00001001
00000000
00000000
00000000
,
00011000
00000000
00000010
00010000
00000000
00100000
10000000
00000000
,
00010000
10000000
01000000
00100000
00000000
00001000
00010000
00022000
,
00000000
00000000
00000000
00000000
00000000
00033000
00001010
00000000
,
00001001
00000000
00000000
00000000
,
00000000
00000101
00000000
00000000
00001100
00000000
00011000
00000000
,
01010000
11000000
00000000
00000000
,
00000000
00000000
10100000
00000000
00000000
00000000
00110000
00000000
10100000
00000000
00000000
00110000
00000000
00000000
00011000
00000000
,
00000100
00001001
00000010
00011000
,
00100000
00000000
10010000
00000000
01000000
00000000
00010000
00001000
,
00011000
00000000
00000000
00001010
00000000
00000000
00000011
00001001
,
00000000
00000000
00000110
00000000
00000000
00000000
00000000
00000000
00010000
00000010
00001000
00000010
00010000
00000100
00001000
00000000
,
00000010
00000100
00000010
00000100
00000010
00000000
00001000
00000100
00001000
00000100
00001000
00000000
00000001
00000100
00000001
00000100
,
00000010
00000000
00001000
00000100
00010000
00001000
00010000
00000000
00001000
00100000
00010000
00000000
10000000
00100000
01000000
00000000
,
00010000
10000000
00010000
10000000
01000000
00000000
00100000
00001000
00010000
00000100
00001000
00000000
00000100
00000010
00000001
00001000
,
00000010
00000000
00000100
00000001
00001000
00000001
00000010
00000000
00000100
00000000
00001000
00000000
00010000
00000000
00100000
00000000
,
01000000
10000000
00010000
01000000
00100000
00000000
10000000
01000000
00100000
00010000
00100000
00000000
00001000
00010000
00000010
00001000
,
00000100
00000000
00010000
00000010
00001000
00000010
00000100
00000000
00000001
00000010
00000100
00000010
00000100
00001000
00000001
00000000
,
00001001
00000000
00000000
00010010
00000000
00000000
00011000
00101000
,
00000000
00000000
00100000
00000000
00000000
00000000
00010000
00000000
10000000
01000000
00100000
00010000
00001000
00000000
00000000
00000000
,
00021000
00000000
00000000
00000000
00000000
00000000
00000000
00030200
,
00000000
00000000
00020300
00000000
,
00030020
00000000
00000000
00000000
00000000
00000000
00000000
00020030
,
00000000
00000000
00000000
00030100
00002000
00000000
00000000
00000000
,
00023000
00000000
00130000
20000000
00000000
30200000
00000000
00320000
,
00000000
01030000
10000000
01000000
00010000
00002000
00000000
00003020
,
00000000
00000031
00000100
00001000
00000100
00000001
00000010
00002000
,
00000000
00013000
02000000
00000000
13000000
00010000
10000000
00010000
,
10000000
01000000
00100000
20000000
00000000
30100000
01000000
20000000
,
00000000
00000000
30100000
00000000
10000000
00000000
00010000
00000000
01000000
00100000
00000000
00001000
00010000
00000000
00000100
00000000
,
00001000
00000010
00000100
00002000
00000000
00003100
00000010
00002000
,
00000000
00000000
00003010
00000000
00001000
00000000
00000001
00000000
00000100
00000010
00000000
00000010
00001000
00000000
00000001
00000000
,
00000100
00000001
00000010
00000001
00001000
00000001
00000010
00000100
00001000
00000100
00010000
00001000
00100000
00010000
00100000
01000000
,
10000000
00010000
00100000
00010000
01000000
00100000
10000000
00010000
01000000
00000000
01100000
00000000
00000000
00000000
20020000
00000000
,
00000000
00000000
00000000
00000000
,
00000000
00000000
00000000
30030000
,
10000000
01000000
00100000
00010000
00001000
00000100
00000010
00000001
,
00000000
00000100
00001000
00000000
00000000
00000000
00011000
00000000
,
00101000
00001000
00010000
00010010
00000000
00000010
00001000
00001100
,
00000000
00000000
00000010
00000000
00010000
00000000
00001000
00000000
00011000
00000000
00000000
01001000
00000000
00000000
00011000
00000000
,
00010000
00000100
00001000
00001010
00000000
00000010
00010000
00011000
,
00000000
00000000
00001000
00000000
00100000
00000000
00010000
00000000
01010000
00000000
00000000
00101000
00000000
00000000
01010000
00000000
,
01000000
00000000
00001000
00010000
00001000
00000000
00001100
00000000
00000000
00000000
00000010
00000000
00000100
00000000
00000110
00000000
,
00000000
00000000
00010000
00000010
00001000
00000000
00000100
00000000
00010000
00000000
00011000
00000000
00000000
00000000
01001000
00000000
,
00000000
00011000
00010000
00000100
00001000
00000020
00000000
00002030
,
00000000
00103000
01100000
00000000
01000000
00001000
00010000
00001000
,
00000010
00000000
00000100
00000010
00000100
00000000
00000110
00000000
00000000
00000000
00011000
00000000
00001000
00000000
00101000
00000000
,
00000000
00000000
00100000
00000000
00010000
00000000
01000000
00000000
01001000
00000000
00000000
00011000
00000000
00000000
00101000
00000000
,
00001000
00000000
00010000
00000010
00001000
00000000
00001100
00000000
00000000
00000000
00000010
00000000
00000100
00000000
00001100
00000000
,
00000000
00000000
00001000
00000000
00010000
00000000
00100000
00000000
01100000
00000000
00000000
01001000
00000000
00000000
00011000
00000000
,
00010000
00000000
00001000
00100000
00001000
00000000
00011000
00000000
00000000
00000000
00001000
00000000
00000010
00000000
00000110
00000000
,
00000000
00000000
00000010
00001000
00000100
00000000
00010000
00000000
00001000
00000000
00011000
00000000
00000000
00000000
00010010
00000000
,
00000000
00000000
00010000
00000100
00001000
00000000
00000100
00000000
00010000
00000000
00001000
00000000
00000000
00000000
01001000
00000000
,
00000000
00000000
01000000
00000000
00100000
00000000
00000000
00000000
00100000
00001000
00010000
00001000
00000010
00000000
00000100
00000000
,
00000001
00000000
00001000
00000001
00000200
00000000
00000001
00001000
00000000
00000000
00001000
00000001
00000300
00000000
00001001
00000000
,
00001000
00000000
00000010
00000100
00000001
00000000
00000100
00000010
00001000
00000000
00000100
00010000
00001000
00010000
00000100
00010000
,
00001000
00000000
00010000
00000100
00002000
00000000
00000100
00010000
00000000
00000000
00010000
00000100
00003000
00000000
00001100
00000000
,
00000000
00000000
00000010
00000001
00001000
00000000
00000010
00000000
00001000
00000010
00010000
00001000
01000000
00010000
00100000
01000000
,
00100000
00000000
00010000
10000000
01000000
00000000
10000000
00100000
01000000
00000000
00100000
10000000
01000000
00000000
00100000
00001000
,
00010000
00000000
00000100
00001000
00000010
00000000
00000100
00000001
00000010
00000100
00000010
00000001
00001000
00000001
00000100
00000000
,
00000010
00010000
00001000
00010000
00000010
00001000
00000010
00000000
00000000
00000000
00010000
00000000
00001000
00000000
02002000
00000000
,
00000000
00000000
00000000
03003000
,
10000000
01000000
00010000
00001000
00000000
00000010
00000000
00000001
,
00000000
00000100
00000000
00001000
00000000
00010000
01000000
22000000
,
00000000
00000000
00000000
00000000
,
00000000
00000000
00000000
00000000
,
33000000
00000000
00000000
00000000
;

//--------------- dance-double - Fred-104 ----------------
#NOTES:
     dance-double:
     Fred-104:
     Challenge:
     19:
     :
00000000
00000000
00000000
00000000
,
00000000
00000000
00000000
00000000
,
00000000
00000000
00000000
00000000
,
00000001
00000100
00000020
00001000
00000030
00000100
00000020
00001000
,
00000030
00000000
00000100
00000000
00000001
00000000
00000010
00000000
00000100
00001000
00000000
00000010
00000100
00000000
00000001
00000000
,
00000100
00001000
00010000
02000000
00000000
03010000
00001000
00000200
,
00000000
00000000
00001300
00000000
00010000
00000000
01000000
00000000
10000000
00100000
00000000
00100000
01000000
00000000
00010000
00000000
,
10000000
01000000
10000000
00100000
01000000
00010000
00100000
00001000
00100000
00001000
00010000
00000100
00001000
00000010
00000100
00000001
,
00000010
00000100
00001000
00010000
00100000
01000000
10000000
00010000
01000000
00000000
01100000
00000000
00000000
00000000
20020000
00000000
,
00000000
00000000
00000000
00000000
,
00000000
00000000
30030000
00000000
,
00001001
00000000
00000000
00000000
,
00000000
00011000
00000000
00000000
10010000
00000000
01001000
00000000
,
00010010
00001001
00000000
00000000
,
00000010
00000000
00010000
00000000
00001000
00000000
00010000
00000000
00000000
00000000
00000000
00000000
00000000
00000000
00000000
00000000
00000000
00000000
00011000
00000000
00000000
00000000
00000000
00000000
00010010
00000000
00000000
00000000
00000000
00000000
00000000
00000000
00000000
00101000
00000000
00000000
00000000
00000000
00000000
00000000
00000000
00000000
00010100
00000000
00000000
00000000
00000000
00000000
,
00011000
00000000
01100000
00100000
10000000
01000000
01100000
00100000
,
00001000
00010000
00011000
00010000
00000010
00001000
00001001
00000001
,
00000101
00000000
00000000
00001010
00000000
00000000
01010000
01010000
,
00000000
00000000
00000000
10010000
00000000
00000000
00000000
00000000
00000000
00010000
00100000
01000000
10000000
00000000
00000000
00010000
00000000
00000000
01000000
00000000
00000000
00100000
00000000
00000000
,
10100000
00000000
00000000
00000000
01010000
00000000
00001000
00010000
00001000
00000000
00000100
00000000
00000010
00000000
00000001
00001000
,
00000010
00000000
00000100
00000000
00000001
00000000
00000010
00000100
00010000
00000000
00001000
00000000
00100000
00000000
01000000
10000000
,
00010000
00000000
01000000
00000000
00100000
00000000
10000000
01000000
00100000
00000000
00001000
00000000
00010000
00000000
00000100
00001000
,
00000010
00000000
00000000
00000100
00000000
00000000
00000001
00000000
00000000
00001000
00000100
00000010
00000001
00000000
00000000
00000100
00000000
00000000
00001000
00000000
00000000
00010000
00000000
00000000
,
00011000
00000000
00000000
00000000
01100000
00000000
10000000
00010000
00100000
00000000
01000000
00000000
10000000
00000000
00010000
10000000
,
01000000
00000000
00100000
00000000
00001000
00000000
00010000
00100000
01000000
00000000
00001000
00010000
00001000
00000000
00000100
00000000
,
00000110
00000000
00000010
00000001
00001000
00000000
00001100
00000000
00001000
00000010
00000100
00000000
00000101
00000000
00001001
00000000
,
00000000
00000000
00000001
00000010
00000100
00010000
00001000
00100000
01000000
10000000
00010000
01000000
00200000
00000000
20300000
00000000
,
30010000
00000000
10000000
00100000
01000000
00000000
01100000
00000000
00000000
00000000
00001000
00000000
00010000
00000000
00011000
00000000
,
00000000
00000000
00000010
00000000
00001000
00000000
00000001
00000000
00001000
00000100
00000000
00000010
00000001
00000000
00000100
00000000
,
00000100
00000000
00000001
00000100
00000010
00000000
00001010
00000000
00000000
00000000
00010000
00000000
00001000
00000000
00011000
00000000
,
00000000
00000000
00100000
00000000
00010000
00000000
10000000
00000000
00010000
00100000
00000000
01000000
00100000
00000000
00010000
00000000
,
01000000
00000000
00100000
10000000
01000000
00000000
01100000
00000000
00000000
00000000
01000000
00000000
00010000
00000000
00110000
00000000
,
00000000
00000000
00101000
00000000
00001000
00000000
00010000
00000000
00000100
00001000
00000001
00000100
00000010
00000000
00002010
00000000
,
00000000
00000000
00003001
00000010
00001000
00000000
00000010
00000001
00000100
00000010
00001000
00000000
00000001
00000000
00000100
00000000
,
00000000
00000010
00001001
00000000
00000001
00001000
00010000
01000000
,
10000000
00000000
00100000
01000000
00010000
00000000
10010000
00000000
00000000
00000000
10000000
00000000
01000000
00000000
01100000
00000000
,
00000000
00000000
00100000
00000000
00001000
00000000
00010000
00000000
00000010
00001000
00000000
00000100
00010000
00000000
00001000
00000000
,
00100000
00000000
01000000
00100000
01000000
00000000
01010000
00000000
00000000
00000000
00011000
00000000
00010000
00000000
00010100
00000000
,
00000000
00000000
00000100
00000000
00001000
00000000
00000010
00000000
00000100
00000010
00000000
00010000
00001000
00000000
00100000
00000000
,
01000000
00100000
00001000
00010000
00001000
00000000
00011000
00000000
00000000
00000000
00010100
00000000
00010000
00000000
00011000
00000000
,
00000000
00000000
00000010
00001000
00000100
00000000
00010000
00001000
00100000
00000000
00110000
00000000
00000000
00000000
10010000
00000000
,
00000000
00000000
10000000
01000000
00100000
00000000
00001000
00000000
00010000
00000100
00001000
00000001
00000100
00000000
00000110
00000000
,
00000000
00000000
00000020
00000000
00002030
00000000
00000000
00000000
00003001
00000010
00000100
00001000
00010000
00100000
01000000
00100000
,
00010000
00000000
10000000
01000000
00010000
00000000
00011000
00000000
00000000
00000000
00001100
00000000
00000000
00000000
00000101
00000000
,
00000001
00000000
00000010
00000001
00000010
00000000
00000100
00001000
00000100
00010000
00001000
00010000
00000010
00001000
00000001
00000100
,
00000010
00000000
00010000
00001000
00010000
00000000
00011000
00000000
00000000
00000000
01100000
00000000
00000000
00000000
10010000
00000000
,
00000000
00000000
00011000
00000000
00010000
00000000
00000100
00000000
00001000
00000100
00000010
00000001
00001000
00000010
00000100
00000001
,
00001000
00000000
00000001
00001000
00000010
00000000
00010000
00000100
00001000
00000000
00000010
00010000
00001000
00000000
00100000
00010000
,
10000000
00000000
00100000
10000000
01000000
10000000
00100000
01000000
00100000
00010000
00001000
00000100
00000010
00000100
00001000
00000000
,
00010000
00100000
01000000
10000000
00010000
01000000
00100000
00000000
00000000
00000000
10000000
00000000
01000000
00000000
02200000
00000000
,
00000000
00000000
00000000
00000000
00000000
03300000
01000000
00000000
,
00011000
00000000
00000000
00000000
,
00000000
00001001
00000000
00000000
00010010
00000000
00011000
00000000
,
01001000
10010000
00000000
00000000
,
00000000
00000000
01001000
00000000
00000000
00000000
00010100
00000000
00010100
00000000
00000000
00101000
00000000
00000000
00010010
00000000
,
00011000
00000000
00000000
00000000
01100000
00000000
00010000
00100000
01000000
00000000
10000000
00000000
00100000
10000000
01000000
00100000
,
00001000
00000000
00010000
00000100
00001000
00000010
00000100
00000001
00001000
00000000
00000100
00000010
00000001
00000000
00001000
00000000
,
00000001
00000010
00000100
00001000
00010000
00000000
00001000
00010000
00100000
01000000
10000000
00000000
00010000
00000000
10010000
00000000
,
00000000
00000000
10000000
01000000
00010000
01000000
10000000
01000000
00100000
10000000
00010000
00100000
01000000
00000000
10000000
00000000
,
00010000
01000000
00001000
00010000
00000010
00000000
00001000
00000100
00010000
00001000
00100000
00000000
00001000
00010000
00000100
00001000
,
00000010
00000000
00010000
00001000
00100000
00010000
01000000
00000000
00010000
00001000
00010000
00000100
00001000
00000100
00000010
00000100
,
00010000
00001000
00010000
01000000
00100000
00000000
00001000
00010000
00001000
00000010
00001000
00000000
00010000
00000100
00001000
00000100
,
00010000
00000000
00001000
01000000
00010000
01000000
00001000
00010000
00000100
00000000
00010000
00000000
00001000
00000000
00100000
00000000
,
00010000
00100000
01000000
10000000
00010000
00000000
10000000
01000000
00100000
00001000
00010000
00000000
00000100
00001000
00000001
00000100
,
00000010
00000000
00001000
00000001
00000010
00000100
00001000
00000000
00010000
00001000
00010000
00000010
00001000
00000010
00010000
00001000
,
00100000
00010000
10000000
00100000
01000000
00010000
10000000
01000000
00100000
00010000
00001000
00000100
00000010
00000001
00001000
00000000
,
00000000
00000000
00001001
00000000
00000000
00000000
00010000
00000000
00001000
00010000
01000000
10000000
00010000
00000000
00000000
00000000
,
20000000
00000000
00000000
00000000
00000000
00000000
00000000
32000000
,
00000000
00000000
03200000
00000000
,
00302000
00000000
00000000
00000000
00000000
00000000
00000000
00023000
,
00000000
00000000
00000000
00030020
00000230
00000000
00000000
00000000
,
00000302
00000023
00002030
00023000
00000000
00230000
00000000
20300000
,
00000000
30020000
02030000
23000000
32000000
03020000
00000000
00032000
,
00000000
00003200
00000302
00000203
00002300
00023000
00000000
02030000
,
00000000
23000000
30020000
00000000
20030000
30200000
00320000
00032000
,
00003010
00000001
00001000
00000010
00000100
00000001
00000010
00000100
,
00010000
00001000
00100000
01000000
10000000
00010000
01000000
10000000
,
01000000
00010000
00001000
00000100
00000001
00001000
00000010
00000100
,
00000001
00000010
00001000
00010000
00100000
10000000
00010000
01000000
,
00100000
10000000
00010000
00100000
01000000
00100000
00010000
10000000
01000000
00100000
00001000
00010000
00001000
01000000
00001000
00010000
,
00000010
00001000
00000100
00001000
00000010
00000100
00000001
00000010
00000100
00000000
00000110
00000000
00000000
00000000
00022000
00000000
,
00000000
00000000
00000000
00000000
,
00000000
00000000
00000000
00033000
,
10000000
00100000
01000000
00010000
00001000
00000010
00000100
00000001
,
00000000
00001000
00010000
00000000
00000000
00000000
00011000
00000000
,
00101000
00000000
00001000
00100000
00010000
00000000
10010000
00000000
00000000
00000000
11000000
00000000
01000000
00000000
01100000
00000000
,
00000000
00000000
00001000
00000000
00010000
00000000
00000010
00000000
00001000
00000100
00000000
00000010
00000100
00000000
00001000
00000000
,
00001001
00000000
00000001
00000100
00000010
00000000
00001010
00000000
00000000
00000000
00011000
00000000
00001000
00000000
00101000
00000000
,
00000000
00000000
00100000
00000000
00010000
00000000
10000000
00000000
00010000
00100000
00000000
10000000
00100000
00000000
00010000
00000000
,
10000000
00000000
00010000
01000000
00100000
00000000
01100000
00000000
00000000
00000000
11000000
00000000
01000000
00000000
01100000
00000000
,
00000000
00000000
00100000
00001000
00010000
00000010
00001000
00000010
00010000
00000000
00011000
00000000
00000000
00000000
00001001
00000000
,
00000000
00000000
00000001
00001000
00000010
00000000
00001000
00000000
00000001
00000010
00000100
00001000
00000100
00000000
00000110
00000000
,
00000000
00000000
00000011
00000000
00001001
00000000
00000000
00000000
00000001
00000000
00000100
00001000
00010000
00000000
01000000
00000000
,
11000000
00000000
10000000
00100000
01000000
00000000
01100000
00000000
00000000
00000000
10000000
00100000
01000000
00001000
00010000
00000000
,
00000000
00000000
00000010
00001000
00000010
00000000
00010000
00000000
00000100
00001000
00000000
00000100
00010000
00000000
00001000
00000000
,
00011000
00000000
00001000
00100000
00010000
00000000
01010000
00000000
00000000
00000000
01000000
00001000
00010000
00001000
00000100
00000000
,
00000000
00000000
00000100
00000000
00000010
00000000
00000001
00000000
00001000
00000010
00000000
00010000
00001000
00000000
00100000
00000000
,
00110000
00000000
00010000
10000000
00010000
00000000
01010000
00000000
00000000
00000000
10000000
00000000
00100000
00000000
01100000
00000000
,
00000000
00100000
00010000
00001000
00000010
00001000
00010000
01000000
00010000
00000000
00011000
00000000
00000000
00000000
00001100
00000000
,
00000000
00000000
00000100
00001000
00010000
01000000
00010000
00001000
00000010
00000000
00001000
00000000
00010000
00000000
00011000
00000000
,
00000000
00000000
01000000
00000000
10010000
00000000
00000000
00000000
10000000
01000000
00100000
00010000
01000000
00100000
00010000
00001000
,
00000100
00000000
00001000
00000001
00000200
00000000
00000001
00001000
00000300
00000000
00001000
00000001
00000100
00000010
00001000
00000001
,
00000010
00000000
00000100
00001000
00000010
00000000
00010000
00001000
00100000
00001000
00100000
00010000
01000000
00100000
10000000
00100000
,
01000000
00000000
00010000
10000000
00200000
00000000
10000000
00010000
00000000
00000000
00010000
10000000
00300000
00000000
01100000
00000000
,
00000000
00000000
10000000
01000000
00100000
00010000
01000000
00100000
01000000
00001000
00010000
00001000
00100000
00001000
00010000
00000010
,
00001000
00000000
00000010
00001000
00000001
00000000
00000100
00000000
00000001
00000000
00000010
00000100
00001000
00000000
00010000
00001000
,
00010000
00000000
00001000
01000000
00100000
10000000
01000000
00100000
00001000
00010000
00000100
00000010
00000001
00001000
00000100
00000000
,
00010000
00000010
00001000
00000010
00010000
00001000
00100000
00000000
00000000
00000000
00010000
00000000
10000000
00000000
20200000
00000000
,
00000000
00000000
00000000
30300000
,
10000000
01000000
00010000
00001000
00000000
00000010
00000000
00000001
,
00000000
00000100
00000000
00001000
00000000
00010000
00100000
02200000
,
00000000
00000000
00000000
00000000
,
00000000
00000000
00000000
00000000
,
03300000
00000000
00000000
00000000
;
