#TITLE:Linkage;
#ARTIST:DJ WILDPARTY feat. yosumi;
#BANNER:Linkage.png;
#BACKGROUND:Linkage-bg.png;
#CDTITLE:./CDTitles/DANCERUSH STARDOM.png;
#MUSIC:Linkage.ogg;
#SAMPLESTART:32.718;
#SAMPLELENGTH:15;
#BPMS:0=132;
#BGSTAGE:2;

//--------------- dance-single - Fred-104 ----------------
#NOTES:
     dance-single:
     Fred-104:
     Beginner:
     1:
     :
0000
0000
0000
0000
,
0000
0000
0000
0000
,
0000
0000
0000
0000
,
0000
0000
0000
0000
,
0000
0000
0000
0000
,
0000
0000
0000
0000
,
0001
0000
0000
0000
,
0000
0000
0000
0000
,
1000
0000
0000
0000
,
0000
0000
0000
0000
,
0001
0000
0000
0000
,
0001
0000
0000
0000
,
0001
0000
0000
0000
,
0001
0000
0000
0000
,
1000
0000
0000
0000
,
1000
0000
0000
0000
,
1000
0000
0000
0000
,
1000
0000
0000
0000
,
0100
0000
0000
0000
,
0000
0000
0000
0000
,
0010
0000
0000
0000
,
0000
0000
0000
0000
,
0001
0000
0000
0000
,
0000
0000
0000
0000
,
1000
0000
0000
0000
,
0000
0000
0000
0000
,
0001
0000
0000
0000
,
0100
0000
0000
0000
,
0001
0000
0000
0000
,
0100
0000
0000
0000
,
0001
0000
0000
0000
,
1000
0000
0000
0000
,
0001
0000
0000
0000
,
1000
0000
0000
0000
,
1000
0000
0000
0000
,
0000
0000
0000
0000
,
0000
0000
0000
0000
,
0000
0000
0000
0000
,
0001
0000
0000
0000
,
0000
0000
0000
0000
,
0001
0000
0000
0000
,
0000
0000
0000
0000
,
1000
0000
0000
0000
,
1000
0000
0000
0000
,
0001
0000
0000
0000
,
0001
0000
0000
0000
,
0010
0000
0000
0000
,
0010
0000
0000
0000
,
0100
0000
0000
0000
,
0100
0000
0000
0000
,
1000
0000
0000
0000
,
1000
0000
0000
0000
,
0001
0000
0000
0000
,
0001
0000
0000
0000
,
0100
0000
0000
0000
,
0100
0000
0000
0000
,
0010
0000
0000
0000
,
0010
0000
0000
0000
,
0100
0000
0000
0000
,
0000
0000
0000
0000
,
0001
0000
0000
0000
,
0000
0000
0000
0000
,
1000
0000
0000
0000
,
0000
0000
0000
0000
,
0001
0000
0000
0000
,
1000
0000
0000
0000
;

//--------------- dance-single - Fred-104 ----------------
#NOTES:
     dance-single:
     Fred-104:
     Easy:
     3:
     :
0000
0000
0000
0000
,
0000
0000
0000
0000
,
0000
0000
0000
0000
,
0000
0000
0000
0000
,
0000
0000
0000
0000
,
0000
0000
0000
0000
,
0001
0000
0000
0000
,
1000
1000
1000
0000
,
0001
0000
0000
0000
,
0000
0100
0100
0100
,
0100
0000
0100
0000
,
0010
0000
1000
0000
,
0001
0000
0001
0000
,
1000
0000
0100
0000
,
1000
0000
1000
0000
,
0001
0000
0100
0000
,
0010
0000
0010
0000
,
0100
0000
0001
0000
,
1000
0000
1000
0000
,
0100
0000
0000
0000
,
0001
0000
0001
0000
,
0001
0000
0000
0000
,
0100
0000
0100
0000
,
0100
0000
0000
0000
,
1000
0000
0000
0000
,
2000
0000
0000
3000
,
0001
0000
0001
0000
,
0100
0000
0000
0000
,
0100
0000
1000
0000
,
1000
0000
0000
0000
,
0100
0000
0100
0000
,
0001
0000
0000
0000
,
1000
0000
1000
0000
,
0001
0001
0001
0000
,
2000
0000
0000
0000
,
0000
0000
3000
0000
,
0002
0000
0000
0000
,
0000
0000
0003
0000
,
1000
0000
1000
0000
,
0001
0000
0001
0000
,
1000
0000
0001
0000
,
1001
0000
0000
0000
,
1000
0000
1000
0000
,
0010
0000
1000
0000
,
0001
0000
0001
0000
,
0010
0000
0100
0000
,
0010
0000
0010
0000
,
0001
0000
1000
0000
,
0100
0000
0100
0000
,
1000
0000
0001
0000
,
1001
0000
0000
0000
,
1000
0000
0001
0000
,
0100
0000
0100
0000
,
0010
0000
0100
0000
,
0001
0000
0001
0000
,
1000
0000
0001
0000
,
0010
0000
0010
0000
,
0100
0000
1000
0000
,
0002
0000
0000
0000
,
0003
0000
0000
0000
,
1000
0000
1000
0000
,
0010
0000
0000
0000
,
0001
0000
0001
0000
,
0100
0000
0000
0000
,
1000
0000
0001
0000
,
1000
1000
1000
2000
,
3000
0000
0000
0000
;

//--------------- dance-single - Fred-104 ----------------
#NOTES:
     dance-single:
     Fred-104:
     Medium:
     9:
     :
0000
0000
0000
0000
,
0000
0000
0000
0000
,
0000
0000
0000
0000
,
0000
0000
0000
0000
,
0000
0000
0000
0000
,
0000
0000
0000
0000
,
0001
0000
0000
0000
0000
0110
0000
1001
,
0000
0001
0010
0000
0100
0100
0100
0000
,
0110
0000
0000
0000
0000
1001
0000
2020
,
0000
0000
0030
3000
,
1001
0000
0000
0000
0001
0000
0000
0000
1001
0000
0000
0000
1000
0000
0000
0001
,
0000
0001
0000
0000
0010
0000
0100
0000
1000
0000
0001
0000
1000
0000
0000
0000
,
0110
0000
0000
0000
0010
0000
0000
0000
0110
0000
0000
0000
0100
0000
0000
0001
,
0000
0001
0000
0000
1000
0000
0001
0000
0100
0000
0010
0000
1000
0000
0100
0000
,
1100
0000
0000
0000
0100
0000
0000
0000
1100
0000
0000
0000
1000
0000
0000
0001
,
0000
0001
0000
0000
1000
0000
0010
0000
0100
0000
0001
0000
1000
0000
0000
0000
,
0011
0000
0000
0000
0010
0000
0000
0000
0011
0000
0000
0000
0001
0000
0000
1000
,
0000
1000
0000
0000
0001
0000
0100
0000
0010
0000
1000
0000
0100
0000
0010
0000
,
0001
0000
2000
0000
3001
0100
0000
0100
,
1000
0000
1000
0100
0010
0100
0001
0000
,
1000
0100
1000
0100
1000
0001
0000
0001
,
0100
0000
0000
0100
0000
0000
0010
0000
0000
0010
0000
0000
2002
0000
0000
0000
,
3003
0000
1000
0000
0100
0010
0000
0010
,
0001
0100
0010
0000
1000
0010
0100
0000
,
0001
1000
0001
1000
0100
0000
0010
0001
,
1000
0010
0001
0000
0001
0010
1000
0000
,
0001
0011
1000
1100
,
0001
0100
1000
0000
1000
0100
0001
0000
,
1000
1010
0001
0101
,
1000
0010
0001
0000
0001
0010
1000
0000
,
0001
0101
0001
0011
,
1000
0100
0010
0000
0001
0100
0010
0000
,
1000
1100
1000
1010
,
0001
0000
0002
2000
0003
0000
3000
0000
,
1002
0000
0000
0000
0000
0000
0003
2000
,
0000
0000
0000
0000
,
3200
0000
0000
0000
0000
0000
0000
0320
,
0000
0032
0000
2000
0000
0000
3003
0000
,
1000
1000
1000
1000
,
0001
0001
0001
0001
,
1000
0100
0010
0001
1000
0010
0100
0001
,
1001
1001
0110
0110
,
1001
0000
0000
0000
0001
0000
0000
0000
1001
0000
0000
0000
1000
0000
0000
0001
,
0000
0001
0000
0000
1000
0000
0010
0000
0100
0000
0001
0000
1000
0000
0000
0000
,
0110
0000
0000
0000
0100
0000
0000
0000
0110
0000
0000
0000
0010
0000
0000
0001
,
0000
0001
0000
0000
0010
0000
0100
0000
1000
0000
0001
0000
0100
0000
0010
0000
,
1010
0000
0000
0000
1000
0000
0000
0000
1010
0000
0000
0000
0010
0000
0000
0100
,
0000
0100
0000
0000
0001
0000
1000
0000
0100
0000
0010
0000
0100
0000
0000
0000
,
1001
0000
0000
0000
1000
0000
0000
0000
1001
0000
0000
0000
0001
0000
0000
1000
,
0000
1000
0000
0000
0001
0000
0100
0000
0010
0000
1000
0000
0001
0000
0010
0000
,
0200
0000
0300
0000
1100
0000
0000
0000
0001
0000
0000
0000
1100
0000
0000
1000
,
0000
1000
0000
0000
0001
0000
0100
0000
0010
0000
1000
0000
0100
0000
0000
0000
,
0010
0000
0000
0000
1001
0000
0000
0000
0100
0000
0000
0000
1001
0000
0000
0001
,
0000
0001
0000
0000
1000
0000
0001
0000
0100
0000
0010
0000
1000
0000
0001
0000
,
0011
0000
0000
0000
1000
0000
0000
0000
0011
0000
0000
0000
1000
0000
0000
0001
,
0000
0001
0000
0000
0100
0000
0010
0000
1000
0000
0001
0000
1000
0000
0000
0000
,
1010
0000
0000
0000
0001
0000
0000
0000
1010
0000
0000
0000
0001
0000
0000
1000
,
0000
1000
0000
0000
0100
0000
0010
0000
0001
0000
1000
0000
0001
0000
0100
0000
,
0010
0000
0000
0000
0010
0000
0000
0000
0010
0000
0000
0000
0010
0000
0000
0100
,
0000
0100
0000
0000
0010
0000
1000
0000
0001
0000
1000
0000
0001
0000
0000
0000
,
0110
0000
0000
0000
1001
0000
0000
1000
0000
0000
0001
0000
0100
0000
0010
0000
,
1000
0001
0010
0100
0100
0010
0001
0000
,
0110
0000
0000
0000
1001
0000
0000
0001
0000
0000
1000
0000
0010
0000
0100
0000
,
0001
0000
1000
0000
0100
0000
0000
0010
0000
0000
0010
0000
0110
0000
0000
0000
,
1001
0000
0000
0000
0110
0000
0000
0001
0000
0000
1000
0000
0001
0000
0100
0000
,
0010
1000
0001
0010
1000
0010
0002
0000
,
0003
0000
0000
0000
;

//--------------- dance-single - Fred-104 ----------------
#NOTES:
     dance-single:
     Fred-104:
     Hard:
     13:
     :
0000
0000
0000
0000
,
0000
0000
0000
0000
,
0000
0000
0000
0000
,
0000
0000
0000
0000
,
0000
0000
0000
0000
,
0000
0000
0000
0000
,
1001
0000
0000
0000
0000
1100
0000
0101
,
0000
0000
1000
0000
0010
0000
0100
0000
0001
0100
0001
0100
0002
0000
0003
0000
,
1001
0000
0000
0000
0001
0000
1000
0000
0100
0010
0100
0000
0000
0000
0011
0000
,
0010
0100
2000
3000
,
0101
0000
0000
0000
1001
0000
0000
0000
1010
0000
0000
0000
1001
0000
1000
0100
,
0000
0200
0000
0000
0310
0000
0100
0000
0001
0000
0100
0000
2000
0000
3000
0000
,
0011
0000
0000
0000
1001
0000
0000
0000
1100
0000
0000
0000
1001
0000
0001
0100
,
0000
0200
0000
0000
0310
0000
0100
0000
1000
0000
0001
0000
0010
0000
1000
0000
,
1100
0000
0000
0000
0101
0000
0000
0000
1010
0000
0000
0000
0011
0000
0001
1000
,
0000
2000
0000
0000
3010
0000
0100
0000
1000
0000
0100
0000
0002
0000
0003
0000
,
1010
0000
0000
0000
0011
0000
0000
0000
0101
0000
0000
0000
1100
0000
1000
0001
,
0000
0001
0000
0000
0100
0000
1000
0000
0100
0000
0001
1000
0001
1000
0001
1000
,
0001
0000
2000
0000
3010
1000
0001
0010
,
0200
0000
0310
0100
1000
0100
0020
0000
,
0031
1000
0010
0100
0002
0010
0013
0100
,
1000
0001
0000
1000
0010
0000
1000
0001
0000
0100
0010
0000
0110
0000
0000
0000
,
1001
0000
0002
0000
0013
0100
1000
0001
,
0100
0010
0100
0010
0001
0010
2000
0000
,
3001
0000
0010
0001
0010
0000
0100
0000
0010
0000
0002
0000
1003
0000
0002
0000
,
1003
0010
1000
0010
0100
0001
1000
0000
0001
0010
0001
0010
0100
1000
0001
0000
,
1000
0010
1000
0010
0100
0010
1000
0001
,
0010
0100
1000
0001
0100
0010
1000
0000
,
0001
0010
0001
0010
0100
1000
0100
0010
,
0001
0000
1000
0000
0010
0000
0100
0001
0100
0000
0010
0000
1000
0000
0000
0000
,
0001
0000
1000
0000
0100
0000
1000
0000
0100
0010
0100
0000
1000
0000
0001
0000
,
0100
0010
0001
1000
0100
0001
1000
0002
,
0000
0000
0103
0010
0100
0000
0001
0000
0020
0000
0000
0000
0130
0000
0100
0000
,
0010
0001
2000
0002
3000
0000
0003
0000
,
1002
0000
0000
0000
0000
2003
0000
3002
,
0000
0000
0203
0320
,
0230
0000
0000
0000
0000
0302
0000
0023
,
0000
0230
0000
2000
0000
0000
3300
0000
,
1000
1000
1000
1000
,
0001
0001
0001
0001
,
1000
0000
0100
0000
0010
0000
0001
0000
1000
0001
1000
0001
1000
0001
1000
0001
,
1000
1100
1010
1001
,
0012
0000
0003
0000
2001
0000
3000
0000
0102
0000
0003
0000
2001
0000
3001
0010
,
0000
0020
0000
0000
1030
0000
0010
0000
0100
0000
0010
0000
0002
0000
0003
0000
,
2100
0000
3000
0000
1002
0000
0003
0000
2010
0000
3000
0000
1002
0000
1003
0100
,
0000
0200
0000
0000
0310
0000
0100
0000
0001
0000
1000
0000
0010
0000
0001
0000
,
2001
0000
3000
0000
0201
0000
0300
0000
2001
0000
3000
0000
1200
0000
1300
0001
,
0000
0002
0000
0000
0103
0000
0010
0000
0001
0000
0010
0000
2000
0000
3000
0000
,
1002
0000
0003
0000
2010
0000
3000
0000
1002
0000
0003
0000
0021
0000
0031
0100
,
0000
0200
0000
0000
1300
0000
0001
0000
0010
0000
0100
0000
1000
0000
0100
0000
,
0220
0330
0000
0000
2010
0000
3000
0000
1002
0000
0003
0000
0021
0000
0031
1000
,
0000
0010
1000
0000
0100
0000
0010
0000
1000
0000
0010
0000
0001
1000
0002
0003
,
0201
0000
0300
0000
1002
0000
0003
0000
1200
0000
0300
0000
1002
0000
1003
0010
,
0000
0010
0100
0000
1000
0000
0001
0000
0010
0000
0100
0000
0001
0000
2000
3000
,
1200
0000
0300
0000
0102
0000
0003
0000
0021
0000
0030
0000
2010
0000
3001
1000
,
0000
1000
0100
0000
0010
0000
1000
0000
0010
0000
0001
0000
0010
0100
1000
0000
,
1020
0000
0030
0000
0012
0000
0003
0000
0201
0000
0300
0000
2100
0000
3001
1000
,
0000
1000
0100
0000
0001
0000
0100
0000
1000
0001
0100
0000
0010
1000
0001
0000
,
0010
0000
0000
0000
0010
0000
0000
0000
0010
0000
0000
0000
0010
0000
0100
1000
,
0000
1000
0000
0000
0001
0000
0100
0000
0010
0000
0001
0000
0010
0100
0010
0100
,
0010
0000
0000
0000
1010
0000
0000
1001
0000
1000
0001
0000
0010
0000
0100
1000
,
0001
0010
0001
0000
0100
0000
0100
0010
0100
0010
1000
0000
0002
0000
2003
3000
,
1010
0000
0000
0000
0101
0000
0000
1100
0000
0100
0010
0000
0001
0000
1000
0001
,
0100
0001
0100
0000
0010
0000
0100
0010
0000
0010
1000
0000
2002
0000
3003
0000
,
1100
0000
0000
0000
0101
0000
0000
1010
0000
0010
1000
0000
0001
0000
0010
0100
,
1000
0100
1000
0000
0001
0000
0100
0010
1000
0010
1000
0010
0200
0000
0000
0000
,
0300
0000
0000
0000
;

//--------------- dance-double - Fred-104 ----------------
#NOTES:
     dance-double:
     Fred-104:
     Easy:
     3:
     :
00000000
00000000
00000000
00000000
,
00000000
00000000
00000000
00000000
,
00000000
00000000
00000000
00000000
,
00000000
00000000
00000000
00000000
,
00000000
00000000
00000000
00000000
,
00000000
00000000
00000000
00000000
,
00001000
00000000
00000000
00000000
,
00010000
00000000
00010000
00000000
,
00001000
00000000
00000000
00000000
,
00000000
01000000
01000000
01000000
,
00100000
00000000
00100000
00000000
,
10000000
00000000
00010000
00000000
,
10000000
00000000
10000000
00000000
,
01000000
00000000
00100000
00000000
,
01000000
00000000
00100000
00000000
,
00001000
00000000
00010000
00000000
,
00001000
00000000
00010000
00000000
,
00000100
00000000
00001000
00000000
,
00000001
00000000
00001000
00000000
,
00000010
00000000
00000000
00000000
,
00010000
00000000
00010000
00000000
,
00010000
00000000
00000000
00000000
,
00001000
00000000
00001000
00000000
,
00001000
00000000
00000000
00000000
,
00010000
00000000
00000000
00000000
,
00200000
00000000
00000000
00300000
,
10000000
00000000
10000000
00000000
,
00010000
00000000
00000000
00000000
,
10000000
00000000
01000000
00000000
,
01000000
00000000
00000000
00000000
,
00010000
00000000
01000000
00000000
,
00010000
00000000
00000000
00000000
,
00001000
00000000
00001000
00000000
,
00011000
00000000
00000000
00000000
,
00020000
00000000
00000000
00000000
,
00000000
00000000
00030000
00000000
,
00002000
00000000
00000000
00000000
,
00000000
00000000
00003000
00000000
,
00010000
00000000
00010000
00000000
,
00001000
00000000
00001000
00000000
,
00010000
00000000
00001000
00000000
,
00011000
00000000
00000000
00000000
,
00001000
00000000
00001000
00000000
,
00010000
00000000
00100000
00000000
,
10000000
00000000
10000000
00000000
,
00010000
00000000
10000000
00000000
,
01000000
00000000
01000000
00000000
,
00100000
00000000
00001000
00000000
,
00010000
00000000
00010000
00000000
,
00001000
00000000
00000100
00000000
,
00001001
00000000
00000000
00000000
,
00000001
00000000
00001000
00000000
,
00000010
00000000
00000010
00000000
,
00000100
00000000
00001000
00000000
,
00010000
00000000
00010000
00000000
,
00001000
00000000
01000000
00000000
,
00010000
00000000
00010000
00000000
,
10000000
00000000
00010000
00000000
,
20000000
00000000
00000000
00000000
,
30000000
00000000
00000000
00000000
,
10000000
00000000
10000000
00000000
,
00100000
00000000
00000000
00000000
,
00010000
00000000
00001000
00000000
,
00010000
00000000
00000000
00000000
,
00001000
00000000
01000000
00000000
,
00100000
00100000
00100000
00200000
,
00300000
00000000
00000000
00000000
;

//--------------- dance-double - Fred-104 ----------------
#NOTES:
     dance-double:
     Fred-104:
     Medium:
     9:
     :
00000000
00000000
00000000
00000000
,
00000000
00000000
00000000
00000000
,
00000000
00000000
00000000
00000000
,
00000000
00000000
00000000
00000000
,
00000000
00000000
00000000
00000000
,
00000000
00000000
00000000
00000000
,
00010000
00000000
00000000
00000000
00000000
00011000
00000000
00010010
,
00000000
00000010
00001000
00000000
00000100
00010000
00001000
00000000
,
00011000
00000000
00000000
00000000
00000000
00001100
00000000
00000202
,
00000000
00000000
00000300
00000003
,
00001001
00000000
00000000
00000000
00000001
00000000
00000000
00000000
00001001
00000000
00000000
00000000
00001000
00000000
00000000
00000001
,
00000000
00000001
00000000
00000000
00000010
00000000
00001000
00000000
00010000
00000000
00001000
00000000
00100000
00000000
00000000
00000000
,
01100000
00000000
00000000
00000000
01000000
00000000
00000000
00000000
01100000
00000000
00000000
00000000
00100000
00000000
00000000
00010000
,
00000000
00010000
00000000
00000000
10000000
00000000
00010000
00000000
01000000
00000000
00100000
00000000
00010000
00000000
00001000
00000000
,
00011000
00000000
00000000
00000000
00001000
00000000
00000000
00000000
00011000
00000000
00000000
00000000
00010000
00000000
00000000
00001000
,
00000000
00001000
00000000
00000000
00010000
00000000
01000000
00000000
10000000
00000000
00010000
00000000
01000000
00000000
00000000
00000000
,
01100000
00000000
00000000
00000000
00100000
00000000
00000000
00000000
01100000
00000000
00000000
00000000
01000000
00000000
00000000
00001000
,
00000000
00001000
00000000
00000000
00010000
00000000
00001000
00000000
00000010
00000000
00000001
00000000
00000010
00000000
00000100
00000000
,
00010000
00000000
00002000
00000000
00013000
01000000
00000000
01000000
,
10000000
00000000
00010000
01000000
10000000
01000000
00010000
00000000
,
10000000
01000000
10000000
01000000
00100000
00001000
00000000
00001000
,
00010000
00000000
00000000
00010000
00000000
00000000
00001000
00000000
00000000
00001000
00000000
00000000
00022000
00000000
00000000
00000000
,
00033000
00000000
00010000
00000000
00000010
00001000
00000000
00001000
,
00000100
00000010
00000001
00000000
00001000
00000010
00000100
00000000
,
00001000
00010000
00001000
00010000
00001000
00000000
01000000
00010000
,
10000000
01000000
00010000
00001000
,
00010000
00001010
00010000
00001100
,
00010000
00001000
01000000
00000000
01000000
00001000
00010000
00000000
,
00001000
00110000
00001000
01010000
,
00001000
00010000
00100000
00000000
00100000
00010000
00001000
00000000
,
00010000
00010010
00001000
00101000
,
00001000
01000000
00010000
00000000
10000000
01000000
00010000
00000000
,
00001000
01001000
00010000
00010100
,
00000100
00000000
00002000
00000002
00003000
00000000
00000003
00000000
,
00002001
00000000
00000000
00000000
00000000
00000000
00000000
00003020
,
00000000
00000000
00000000
00000000
,
00020030
00000000
00000000
00000000
00000000
00000000
00000000
00032000
,
00000000
00020000
00000000
00000000
00000000
00000000
00033000
00000000
,
00001000
00001000
00010000
00010000
,
00001000
00001000
00010000
00010000
,
00001000
00010000
00000100
00001000
00000001
00000100
00000010
00001000
,
00000001
00000001
00001000
00001000
,
00001010
00000000
00000000
00000000
00000010
00000000
00000000
00000000
00001010
00000000
00000000
00000000
00001000
00000000
00000000
00000010
,
00000000
00000010
00000000
00000000
00010000
00000000
00001000
00000000
00010000
00000000
01000000
00000000
10000000
00000000
00000000
00000000
,
10010000
00000000
00000000
00000000
00010000
00000000
00000000
00000000
10010000
00000000
00000000
00000000
10000000
00000000
00000000
00010000
,
00000000
00010000
00000000
00000000
00100000
00000000
01000000
00000000
00010000
00000000
00001000
00000000
00010000
00000000
00000100
00000000
,
00010100
00000000
00000000
00000000
00010000
00000000
00000000
00000000
01001000
00000000
00000000
00000000
00001000
00000000
00000000
00010000
,
00000000
00010000
00000000
00000000
00000010
00000000
00010000
00000000
00001000
00000000
00010000
00000000
00001000
00000000
00000000
00000000
,
00101000
00000000
00000000
00000000
00001000
00000000
00000000
00000000
00010010
00000000
00000000
00000000
00001000
00000000
00000000
00100000
,
00000000
00100000
00000000
00000000
01000000
00000000
10000000
00000000
00010000
00000000
01000000
00000000
00100000
00000000
10000000
00000000
,
02000000
00000000
03000000
00000000
10010000
00000000
00000000
00000000
00100000
00000000
00000000
00000000
10010000
00000000
00000000
10000000
,
00000000
10000000
00000000
00000000
00100000
00000000
00010000
00000000
00001000
00000000
00010000
00000000
00001000
00000000
00000000
00000000
,
00010000
00000000
00000000
00000000
00001010
00000000
00000000
00000000
00010000
00000000
00000000
00000000
00001100
00000000
00000000
00010000
,
00000000
00010000
00000000
00000000
00000010
00000000
00001000
00000000
00000010
00000000
00000100
00000000
00000010
00000000
00001000
00000000
,
00001100
00000000
00000000
00000000
00000001
00000000
00000000
00000000
00001100
00000000
00000000
00000000
00000001
00000000
00000000
00000100
,
00000000
00000100
00000000
00000000
00001000
00000000
00010000
00000000
01000000
00000000
00010000
00000000
00001000
00000000
00000000
00000000
,
00011000
00000000
00000000
00000000
01000000
00000000
00000000
00000000
00011000
00000000
00000000
00000000
01000000
00000000
00000000
00001000
,
00000000
00001000
00000000
00000000
00010000
00000000
00001000
00000000
01000000
00000000
00100000
00000000
10000000
00000000
00010000
00000000
,
00100000
00000000
00000000
00000000
00100000
00000000
00000000
00000000
00100000
00000000
00000000
00000000
00100000
00000000
00000000
01000000
,
00000000
01000000
00000000
00000000
00100000
00000000
00001000
00000000
00010000
00000000
00001000
00000000
00010000
00000000
00000000
00000000
,
00011000
00000000
00000000
00000000
00010100
00000000
00000000
00000100
00000000
00000000
00001000
00000000
00000001
00000000
00000100
00000000
,
00000010
00000100
00001000
00001000
00010000
00001000
00010000
00000000
,
00011000
00000000
00000000
00000000
00101000
00000000
00000000
00001000
00000000
00000000
00010000
00000000
00001000
00000000
01000000
00000000
,
00010000
00000000
00100000
00000000
01000000
00000000
00000000
10000000
00000000
00000000
10000000
00000000
10010000
00000000
00000000
00000000
,
01100000
00000000
00000000
00000000
10010000
00000000
00000000
00010000
00000000
00000000
10000000
00000000
00100000
00000000
00010000
00000000
,
00001000
00000000
00010000
00001000
00000010
00001000
00020000
00000000
,
00030000
00000000
00000000
00000000
;

//--------------- dance-double - Fred-104 ----------------
#NOTES:
     dance-double:
     Fred-104:
     Hard:
     13:
     :
00000000
00000000
00000000
00000000
,
00000000
00000000
00000000
00000000
,
00000000
00000000
00000000
00000000
,
00000000
00000000
00000000
00000000
,
00000000
00000000
00000000
00000000
,
00000000
00000000
00000000
00000000
,
00011000
00000000
00000000
00000000
00000000
00010010
00000000
00101000
,
00000000
00000000
00001000
00000000
00010000
00000000
00001000
00000000
01000000
00010000
01000000
00010000
02000000
00000000
03000000
00000000
,
01010000
00000000
00000000
00000000
00010000
00000000
10000000
00000000
01000000
00100000
01000000
00000000
00000000
00000000
01100000
00000000
,
00100000
00001000
00020000
00030000
,
00010100
00000000
00000000
00000000
00101000
00000000
00000000
00000000
00010100
00000000
00000000
00000000
00101000
00000000
00001000
00010000
,
00000000
00010000
00000000
00000000
00001000
00000000
00000010
00000000
00000001
00000000
00001000
00000000
00000010
00000000
00000000
00000000
,
00010010
00000000
00000000
00000000
01001000
00000000
00000000
00000000
00010010
00000000
00000000
00000000
01001000
00000000
01000000
00001000
,
00000000
00001000
00000000
00000000
00100000
00000000
01000000
00000000
00010000
00000000
01000000
00000000
10000000
00000000
00010000
00000000
,
01010000
00000000
00000000
00000000
00001010
00000000
00000000
00000000
01010000
00000000
00000000
00000000
00001010
00000000
00010000
00001000
,
00000000
00001000
00000000
00000000
00010000
00000000
00100000
00000000
10000000
00000000
01000000
00000000
00100000
00000000
00000000
00000000
,
00110000
00000000
00000000
00000000
00001100
00000000
00000000
00000000
00110000
00000000
00000000
00000000
00001100
00000000
00010000
00001000
,
00000000
00001000
00000000
00000000
00010000
00000000
00000100
00000000
00000010
00000000
00000001
00001000
00000001
00001000
00000001
00001000
,
00000001
00000000
00002000
00000000
00003010
00000100
00001000
00010000
,
00002000
00000000
00013000
00100000
01000000
10000000
02000000
00000000
,
03010000
00100000
01000000
00010000
00002000
00010000
00013000
00000100
,
00010000
00000000
00000000
00001000
00000000
00000000
01000000
00000000
00000000
00100000
00000000
00000000
10010000
00000000
00000000
00000000
,
10000000
00000000
02000000
00000000
03010000
00001000
00100000
00001000
,
00010000
00000010
00000100
00000001
00000010
00001000
00020000
00000000
,
00031000
00000000
00010000
00001000
00010000
00000000
00000100
00000000
00000010
00000000
00001000
00000000
00010000
00000000
01000000
00000000
,
10000000
01000000
10000000
00000000
00010000
00100000
00010000
00000000
10000000
00100000
10000000
00000000
00010000
01000000
00010000
00000000
,
00100000
01000000
10000000
01000000
00010000
00001000
00010000
00001000
,
00000100
00000001
00000100
00000010
00010000
00001000
00010000
00000000
,
00001000
00010000
00001000
00010000
01000000
10000000
01000000
00100000
,
00001000
00000000
01000000
00000000
00100000
00000000
00010000
00001000
00010000
00000000
00000100
00000000
00010000
00000000
00000000
00000000
,
00001000
00000000
00010000
00000000
00001000
00000000
00010000
00000000
00000100
00000010
00000100
00000000
00001000
00000000
00000010
00000000
,
00000100
00001000
00000001
00000010
00000100
00001000
00010000
00002000
,
00000000
00000000
01003000
00010000
01000000
00000000
00100000
00000000
20000000
00000000
00000000
00000000
31000000
00000000
01000000
00000000
,
00200000
00000000
00302000
00020000
00003000
00000000
00030000
00000000
,
00012000
00000000
00000000
00000000
00000000
02003000
00000000
03020000
,
00000000
00000000
20030000
32000000
,
03200000
00000000
00000000
00000000
00000000
00302000
00000000
00023000
,
00000000
00030020
00000000
00020000
00000000
00000000
00030030
00000000
,
00001000
00001000
00010000
00010000
,
00001000
00001000
00010000
00010000
,
00001000
00000000
01000000
00000000
00010000
00000000
10000000
00000000
01000000
00100000
01000000
00100000
01000000
00100000
01000000
00100000
,
01000000
01100000
00110000
00011000
,
00101000
00000000
00000000
00000000
00010100
00000000
00000000
00000000
00101000
00000000
00000000
00000000
00010100
00000000
00001000
00010000
,
00000000
00010000
00000000
00000000
01000000
00000000
00100000
00000000
10000000
00000000
00100000
00000000
00002000
00000000
00003000
00000000
,
01001000
00000000
00000000
00000000
00010010
00000000
00000000
00000000
01001000
00000000
00000000
00000000
00010010
00000000
00001000
00010000
,
00000000
00010000
00000000
00000000
00000100
00000000
00000001
00000000
00001000
00000000
00000010
00000000
00000001
00000000
00001000
00000000
,
00001010
00000000
00000000
00000000
01010000
00000000
00000000
00000000
00001010
00000000
00000000
00000000
01010000
00000000
00001000
00010000
,
00000000
00010000
00000000
00000000
00001000
00000000
00100000
00000000
10000000
00000000
00100000
00000000
00020000
00000000
00030000
00000000
,
00110000
00000000
00000000
00000000
00001100
00000000
00000000
00000000
00110000
00000000
00000000
00000000
00001100
00000000
00010000
00001000
,
00000000
00001000
00000000
00000000
00000100
00000000
00000001
00000000
00000010
00000000
00000100
00000000
00001000
00000000
00000010
00000000
,
00020020
00030030
00000000
00000000
01001000
00000000
00000000
00000000
00010010
00000000
00000000
00000000
01001000
00000000
00010000
00001000
,
00000000
00001000
00000100
00000000
00000001
00000000
00000010
00000000
00000100
00000000
00001000
00000000
00000100
00010000
00002000
00003000
,
00101000
00000000
00000000
00000000
00010100
00000000
00000000
00000000
00101000
00000000
00000000
00000000
00010100
00000000
00001000
00010000
,
00000000
00001000
00010000
00000000
00100000
00000000
00010000
00000000
10000000
00000000
01000000
00000000
00010000
00000000
00200000
00300000
,
00110000
00000000
00000000
00000000
00001100
00000000
00000000
00000000
00110000
00000000
00000000
00000000
00001100
00000000
00010000
00001000
,
00000000
00010000
00001000
00000000
00000010
00000000
00000001
00000000
00000010
00000000
00000100
00000000
00001000
00000010
00002000
00003000
,
00001010
00000000
00000000
00000000
01010000
00000000
00000000
00000000
00001010
00000000
00000000
00000000
01010000
00000000
00001000
00010000
,
00000000
00001000
00010000
00000000
00001000
00000000
00000100
00000000
00000010
00000100
00000001
00000000
00001000
00000001
00000010
00000000
,
00000100
00000000
00000000
00000000
00000100
00000000
00000000
00000000
00000100
00000000
00000000
00000000
00000100
00000000
00010000
00001000
,
00000000
00001000
00000000
00000000
00010000
00000000
00100000
00000000
01000000
00000000
10000000
00000000
01000000
00100000
01000000
00100000
,
10000000
00000000
00000000
00000000
01100000
00000000
00000000
10010000
00000000
10000000
01000000
00000000
00100000
00000000
00001000
00010000
,
00001000
00010000
00000100
00000000
00000010
00000000
00000001
00000010
00000001
00000010
00000100
00000000
00002000
00000000
00003020
00000030
,
00010010
00000000
00000000
00000000
01001000
00000000
00000000
00010100
00000000
00010000
00001000
00000000
00100000
00000000
00010000
10000000
,
00010000
01000000
00010000
00000000
00100000
00000000
01000000
00010000
00000000
00010000
00001000
00000000
00022000
00000000
00033000
00000000
,
00010100
00000000
00000000
00000000
01001000
00000000
00000000
00010010
00000000
00010000
00001000
00000000
00100000
00000000
00001000
00010000
,
00001000
00010000
00001000
00000000
00000100
00000000
00000010
00001000
00000001
00000010
00000001
00000000
00002002
00000000
00000000
00000000
,
00003003
00000000
00000000
00000000
;
