#TITLE:Last Hometown;
#ARTIST:猫叉Master;
#ARTISTTRANSLIT:Nekomata Master;
#BANNER:Last Hometown.png;
#BACKGROUND:Last Hometown-bg.png;
#CDTITLE:./CDTitles/RB limelight.png;
#MUSIC:Last Hometown.ogg;
#SAMPLESTART:61.525;
#SAMPLELENGTH:15;
#BPMS:0=108,185=107,186=104,187=103.5,188=102,189=88.5,190=88;
#BGSTAGE:4;

//--------------- dance-single - Fred-104 ----------------
#NOTES:
     dance-single:
     Fred-104:
     Beginner:
     1:
     :
0000
0000
0000
0000
,
0000
0000
0000
0000
,
0000
0000
0000
0000
,
1000
0000
0000
0000
,
0000
0000
0000
0000
,
0001
0000
0000
0000
,
0000
0000
0000
0000
,
1000
0000
0000
0000
,
0000
0000
0000
0000
,
0001
0000
0000
0000
,
0000
0000
0000
0000
,
0000
0000
0000
0000
,
1000
0000
0000
0000
,
0000
0000
0000
0000
,
0001
0000
0000
0000
,
0000
0000
0000
0000
,
1000
0000
0000
0000
,
0000
0000
0000
0000
,
0010
0000
0000
0000
,
0000
0000
0000
0000
,
1000
0000
0000
0000
,
0000
0000
0000
0000
,
0001
0000
0000
0000
,
0000
0000
0000
0000
,
1000
0000
0000
0000
,
0000
0000
0000
0000
,
0001
0000
0000
0000
,
0000
0000
0000
0000
,
1000
0000
0000
0000
,
0000
0000
0000
0000
,
0001
0000
0000
0000
,
0000
0000
0000
0000
,
0100
0000
0000
0000
,
0000
0000
0000
0000
,
0001
0000
0000
0000
,
0000
0000
0000
0000
,
1000
0000
0000
0000
,
0000
0000
0000
0000
,
0001
0000
0000
0000
,
0000
0000
0000
0000
,
1000
0000
0000
0000
,
0000
0000
0000
0000
,
0010
0000
0000
0000
,
0000
0000
0000
0000
,
1000
0000
0000
0000
,
0000
0000
0000
0000
,
0001
0000
0000
0000
;

//--------------- dance-single - Fred-104 ----------------
#NOTES:
     dance-single:
     Fred-104:
     Easy:
     3:
     :
0000
0000
0000
0000
,
0000
0000
0000
0000
,
0000
0000
0000
0000
,
0001
0000
1000
0010
,
0100
0000
0001
1000
,
0001
0000
0010
0010
,
0100
0000
0010
0000
,
0001
0000
1000
0001
,
1000
0000
0010
0000
,
1000
0000
0100
1000
,
0001
0000
1000
0000
,
1001
0000
0000
0000
,
0001
0000
1000
0000
,
0010
0000
1000
0000
,
0100
0000
0010
0001
,
1000
0010
0100
0001
,
1000
0000
0001
0000
,
0100
0100
0100
0000
,
0010
0010
1000
0001
,
1001
0000
0000
0000
,
1000
0000
0010
0000
,
1000
0100
1000
1000
,
0001
0000
0100
0000
,
0010
0000
0100
0100
,
0001
0000
1000
0000
,
0001
0010
0010
0100
,
0010
0000
0001
1000
,
0001
0000
1000
0000
,
1000
0010
1000
0000
,
0001
0100
0010
0000
,
0100
0100
0010
0010
,
1000
0000
0001
0000
,
1000
0100
1000
0000
,
0001
1000
0010
0000
,
0100
0001
0100
0010
,
0100
0000
0001
0000
,
1000
1000
0001
0000
,
0100
0010
0100
0000
,
0001
0000
1000
0000
,
0010
0000
0100
0000
,
0001
1000
0001
0000
,
1000
0000
0010
0000
,
1000
1000
1000
0000
,
0001
0000
1000
0000
,
0001
0100
0010
0000
,
1000
0000
0001
0000
,
2002
0000
0000
0000
,
0000
0000
3003
0000
;

//--------------- dance-single - Fred-104 ----------------
#NOTES:
     dance-single:
     Fred-104:
     Medium:
     6:
     :
0000
0000
0000
0000
,
0000
0000
0000
0000
,
0000
0000
0000
0000
,
0001
0000
0000
1000
0000
0000
0001
0000
1000
0000
0001
0000
,
0100
0000
0010
1000
,
0100
0000
1000
0000
0010
0010
0100
0000
,
0001
0000
0000
0000
1000
0000
0100
0000
0000
0010
0000
0000
,
0001
0000
0000
1000
0000
0000
0100
0000
1000
0000
0010
0000
,
1000
0000
0100
0001
,
0100
0000
1000
0010
,
0100
0000
0000
0000
0001
0000
1000
0000
0000
0001
0000
0000
,
1001
0000
0100
0001
,
1000
0000
0100
0010
0100
0000
1000
0001
,
1000
0000
0001
0000
0100
0000
0010
0100
,
0010
0100
0001
1000
,
1100
0010
0101
0010
,
1000
0000
0100
0100
0010
0000
0001
1000
,
0001
0000
0000
0000
1000
0000
0000
0000
0001
0000
0000
0000
0100
0000
0000
0000
0000
0000
0010
0000
0000
0100
0000
0000
,
0010
1000
0100
1000
,
0001
0010
2000
3200
,
0302
0000
2003
0000
,
3010
1000
0010
0000
0100
0010
0100
0000
,
0002
0000
0023
0000
,
0032
0000
0000
0000
1003
0001
0100
0000
,
0020
0000
0230
0000
,
0301
0010
0100
0000
1000
0001
0100
0000
,
0010
1000
0100
1000
,
1001
0000
0000
0000
0001
0000
1000
0010
,
0200
0000
0302
0000
0203
0000
0301
0010
,
0200
0000
2300
0000
3200
0000
1300
0010
,
1000
0100
1000
0000
0001
0100
0001
0000
,
1000
0000
0002
0203
,
0302
0000
0023
0000
0032
0000
0103
0010
,
0200
0000
0302
0000
0203
0000
0310
1000
,
0100
1000
0010
0000
0100
0001
0010
0000
,
0001
1000
1001
0000
,
2000
0000
3200
0000
0320
0000
0031
1000
,
0001
0000
0100
0000
0010
0000
0100
0001
,
0100
0001
0010
0000
0100
1000
0010
0000
,
1000
0100
0110
0000
,
1001
0000
0001
0000
0200
0000
0310
0100
,
0001
0010
0010
0000
0100
1000
1000
0000
,
0001
0100
0100
0000
0010
0000
1000
0000
,
0100
0010
0011
0000
,
0100
0010
0100
0000
0001
0000
1000
0000
,
0001
0100
0110
0000
,
0010
1000
0100
1000
,
0001
0000
2002
0000
,
0000
0000
3003
0000
;

//--------------- dance-single - Fred-104 ----------------
#NOTES:
     dance-single:
     Fred-104:
     Hard:
     10:
     :
0000
0000
0000
0000
,
0000
0000
0000
0000
,
0000
0000
0000
0000
,
0001
0000
0000
0010
0000
0000
0001
0000
1000
0000
0001
0000
,
0200
0000
0000
0010
0000
0000
0310
0000
0000
1000
0000
0001
,
0200
0000
0010
0000
0310
1000
0001
0000
,
1000
0000
0000
0000
0001
1000
0001
0000
0000
0100
0000
0000
,
0020
0000
0000
1000
0000
0000
1030
0000
0100
0000
1000
0000
,
0002
0000
0000
0100
0000
0000
0103
0000
0000
0001
0000
0010
,
0002
0000
0000
1000
0000
0000
1003
0000
0000
0100
0000
0010
,
0100
0000
0000
0000
1000
0001
1000
0000
0000
0010
0000
0000
,
0110
0000
0000
0000
0000
0000
0001
0000
0000
1000
0010
0100
,
0001
0000
0000
0000
0000
0000
0000
0000
1000
0000
0000
0000
0000
0000
0000
0000
0000
0000
0001
0000
0000
0100
0000
0000
0001
0000
0000
0000
0000
0000
0000
0000
0000
0000
0000
0000
0010
0000
0000
0000
0000
0000
0100
0000
0000
1000
0000
0000
,
0100
0000
0000
0000
0000
0000
0000
0000
1000
0000
0000
0000
0000
0000
0000
0000
0001
0000
0000
0000
0000
0000
0000
0000
1000
0000
0000
0000
0000
0000
0000
0000
0000
0000
0000
0000
0100
0000
0000
0000
0000
0000
0010
0000
0000
0001
0000
0000
,
0010
0000
0000
0001
0000
0000
1000
0000
0001
0000
0000
1000
0010
0000
0000
0000
,
1010
0000
0000
1000
0100
0000
0000
0000
0011
0000
0000
0001
0100
0000
0000
0000
,
0100
0000
0000
0000
0000
0000
0000
0000
0010
0000
0000
0000
0000
0000
0000
0000
0000
0000
1000
0000
0000
0001
0000
0000
1000
0000
0000
0000
0000
0000
0000
0000
0000
0000
0000
0000
0010
0000
0000
0000
0000
0000
0100
0000
0000
0001
0000
0000
,
0100
0000
0000
0000
0000
0000
0000
0000
0001
0000
0000
0000
0000
0000
0000
0000
0100
0000
0000
0000
0010
0000
0000
0000
0100
0000
0000
0000
0000
0000
0000
0000
0000
0000
0000
0000
0010
0000
0000
0000
0000
0000
1000
0000
0000
0001
0000
0000
,
1000
0000
0000
0000
0100
0000
0000
0000
1000
0000
0000
0000
0001
0000
0000
0000
0000
0000
1000
0000
0000
0010
0000
0000
,
0200
0000
0301
1000
0200
0000
0320
0000
,
0032
0000
0000
1003
0100
1000
0010
0000
0000
0100
0001
0010
,
0001
0100
0010
1000
0001
0010
0100
1000
,
1002
0000
0000
1003
0001
0010
0001
0000
0000
0100
0010
1000
,
0020
0000
0000
0000
0130
0000
0000
0001
1000
0000
0100
0000
1000
0000
0010
0000
,
0120
0000
0000
0130
0001
0010
0001
0000
0000
0100
0001
1000
,
0001
0010
0001
1000
0010
0100
0010
1000
,
1002
0000
0100
0000
0100
0000
0103
0010
,
1000
0000
0000
0010
0100
0000
0010
0000
1000
0100
0000
0010
0001
0000
1000
0000
,
0001
0000
0000
0001
0100
0000
0000
0100
0010
0000
1000
0010
1000
0000
0100
0000
,
0020
0000
0000
0000
0031
0000
1000
0000
0010
0000
1000
0100
1000
0000
0001
0000
,
1000
0100
1000
0100
0001
0100
0001
0100
,
1000
0000
0000
0000
0000
0000
0000
0000
0000
0000
0000
0000
0001
0000
0000
0000
0100
0000
0000
0000
0010
0000
0000
0000
0100
0000
0000
0000
0000
0000
0000
0000
0000
0001
0000
0000
1000
0000
0000
0000
0000
0000
0100
0000
0000
0000
0000
0000
,
1000
0000
0000
1000
0010
0000
0000
0010
0100
0000
0001
0100
0001
0000
0010
0000
,
0001
0000
0000
0001
1000
0000
0000
1000
0100
0000
0010
0100
0010
0000
0001
0000
,
1000
0000
0100
0000
1000
0000
0010
0000
0100
0000
0000
0001
0010
0000
0001
0000
,
0200
0000
0000
0000
0310
0000
0100
0001
0100
0000
0000
0000
0010
0000
1000
0000
,
1100
0000
0101
0000
1100
0000
0100
0010
,
0012
0000
1003
0001
0201
0000
0310
1000
,
0001
0010
0001
0010
1000
0010
1000
0010
,
0001
0000
0000
0000
0000
0000
0000
0000
0000
0000
0000
0000
1000
0000
0000
0000
0001
0000
0000
0000
0100
0000
0000
0000
0001
0000
0000
0000
0000
0000
0000
0000
0000
0010
0000
0000
0100
0000
0000
0000
0000
0000
1000
0000
0000
0000
0000
0000
,
1010
0000
0000
0000
0101
0000
0000
0001
2000
0000
0000
0000
3100
0000
0010
0000
,
0001
0000
0010
0000
1000
0000
0010
0000
0001
0000
0000
1000
0001
0000
0100
0010
,
0100
0000
0001
0000
1000
0000
0100
0000
1000
0000
0000
0001
0100
0000
0010
0000
,
0100
0000
0000
0000
0000
0000
0001
1000
0001
0000
0000
0010
0100
0000
0010
0000
,
0001
0000
0100
0000
0010
0000
1000
0000
0001
0000
0000
1000
0010
0000
0100
0000
,
0001
0000
0000
0000
0000
0000
1000
0010
1000
0000
0000
0000
0001
0100
0001
0000
,
1000
0000
0100
0000
0010
0000
0100
0000
1000
0000
0000
0001
0100
0000
0010
0000
,
0100
0001
2002
0000
,
0000
0000
3003
0000
;

//--------------- dance-double - Fred-104 ----------------
#NOTES:
     dance-double:
     Fred-104:
     Easy:
     3:
     :
00000000
00000000
00000000
00000000
,
00000000
00000000
00000000
00000000
,
00000000
00000000
00000000
00000000
,
00010000
00000000
00001000
00010000
,
00001000
00000000
00010000
00001000
,
00000100
00000000
00000001
00001000
,
00000001
00000000
00000100
00000000
,
00000010
00000000
00001000
00000010
,
00001000
00000000
00000001
00000000
,
00001000
00000000
00000010
00000100
,
00000010
00000000
00010000
00000000
,
00011000
00000000
00000000
00000000
,
00001000
00000000
00010000
00000000
,
01000000
00000000
00100000
00000000
,
00010000
00000000
10000000
00100000
,
10000000
00100000
01000000
00010000
,
00100000
00000000
00001000
00000000
,
00010000
00010000
00010000
00000000
,
00001000
00001000
00010000
00010000
,
00011000
00000000
00000000
00000000
,
00010000
00000000
00001000
00000000
,
00000010
00000001
00001000
00000001
,
00000100
00000000
00000001
00000000
,
00000100
00000000
00000010
00001000
,
00000010
00000000
00000100
00000000
,
00000001
00000010
00000100
00010000
,
00001000
00000000
00010000
00001000
,
00100000
00000000
00010000
00000000
,
10000000
00100000
10000000
00000000
,
01000000
00100000
01000000
00000000
,
00100000
00100000
00001000
00001000
,
00010000
00000000
00001000
00000000
,
00000010
00000001
00001000
00000000
,
00000001
00000010
00000001
00000000
,
00001000
00000100
00001000
00000100
,
00010000
00000000
00001000
00000000
,
00010000
00001000
00010000
00000000
,
00001000
00010000
01000000
00000000
,
00100000
00000000
00010000
00000000
,
10000000
00000000
00100000
00000000
,
10000000
01000000
00100000
00000000
,
00001000
00000000
00010000
00000000
,
00001000
00001000
00001000
00000000
,
00010000
00000000
00000100
00000000
,
00001000
00000001
00000100
00000000
,
00000010
00000000
00001000
00000000
,
00002002
00000000
00000000
00000000
,
00000000
00000000
00003003
00000000
;

//--------------- dance-double - Fred-104 ----------------
#NOTES:
     dance-double:
     Fred-104:
     Medium:
     6:
     :
00000000
00000000
00000000
00000000
,
00000000
00000000
00000000
00000000
,
00000000
00000000
00000000
00000000
,
00001000
00000000
00000000
00010000
00000000
00000000
00001000
00000000
00100000
00000000
00001000
00000000
,
00010000
00000000
00001000
00010000
,
01000000
00000000
10000000
00000000
00010000
10000000
00010000
00000000
,
10000000
00000000
00000000
00000000
01000000
00000000
00100000
00000000
00000000
00010000
00000000
00000000
,
00100000
00000000
00000000
00001000
00000000
00000000
00010000
00000000
00001000
00000000
00010000
00000000
,
00001000
00000000
00000010
00000001
,
00001000
00000000
00000001
00000100
,
00001000
00000000
00000000
00000000
00010000
00000000
00001000
00000000
00000000
00010000
00000000
00000000
,
00011000
00000000
00001000
00010000
,
00100000
00000000
10000000
01000000
10000000
00000000
00010000
01000000
,
00010000
00000000
10000000
00000000
01000000
00000000
00100000
00010000
,
00100000
00001000
00010000
00001000
,
00011000
01000000
00011000
00000010
,
00010000
00000000
00001000
00010000
00001000
00000000
00010000
00000100
,
00001000
00000000
00000000
00000000
00000010
00000000
00000000
00000000
00000100
00000000
00000000
00000000
00000001
00000000
00000000
00000000
00000000
00000000
00000010
00000000
00000000
00000100
00000000
00000000
,
00000010
00000001
00000100
00001000
,
00010000
00100000
20000000
30020000
,
20030000
00000000
32000000
00000000
,
03100000
00010000
01000000
00000000
00001000
00010000
00001000
00000000
,
00020000
00000000
00030200
00000000
,
00002300
00000000
00000000
00000000
00003010
00001000
00000100
00000000
,
00000020
00000000
00000032
00000000
,
00000103
00001000
00010000
00000000
00001000
00100000
01000000
00000000
,
10000000
01000000
00100000
00010000
,
10010000
00000000
00000000
00000000
00001000
00000000
00010000
00001000
,
00020000
00000000
00032000
00000000
00023000
00000000
00030100
00001000
,
00000200
00000000
00000320
00000000
00000230
00000000
00000310
00000001
,
00001000
00000010
00000100
00000000
00000001
00000010
00000100
00000000
,
00010000
00000000
00002000
00023000
,
00032000
00000000
00203000
00000000
00302000
00000000
00103000
00010000
,
02000000
00000000
03020000
00000000
20030000
00000000
31000000
00100000
,
00010000
01000000
00001000
00000000
00010000
00000100
00010000
00000000
,
00001000
00010000
00011000
00000000
,
00020000
00000000
00032000
00000000
00003200
00000000
00000301
00001000
,
00000100
00000000
00000010
00000000
00000001
00000000
00000100
00000010
,
00000100
00001000
00010000
00000000
00100000
01000000
00010000
00000000
,
10000000
01000000
01100000
00000000
,
00011000
00000000
00010000
00000000
00002000
00000000
00013000
00001000
,
00010000
00000100
00000100
00000000
00001000
00000010
00000010
00000000
,
00000100
00000001
00000001
00000000
00000100
00000000
00000010
00000000
,
00001000
00000100
00011000
00000000
,
00001000
00010000
01000000
00000000
10000000
00000000
00010000
00000000
,
01000000
00100000
10100000
00000000
,
10000000
01000000
00010000
00100000
,
10000000
00000000
20020000
00000000
,
00000000
00000000
30030000
00000000
;

//--------------- dance-double - Fred-104 ----------------
#NOTES:
     dance-double:
     Fred-104:
     Hard:
     9:
     :
00000000
00000000
00000000
00000000
,
00000000
00000000
00000000
00000000
,
00000000
00000000
00000000
00000000
,
00010000
00000000
00000000
00001000
00000000
00000000
00010000
00000000
00000100
00000000
00001000
00000000
,
00000002
00000000
00000000
00000100
00000000
00000000
00000103
00000000
00000000
00000010
00000000
00001000
,
00000200
00000000
00010000
00000000
00010300
00001000
00010000
00000000
,
01000000
00000000
00000000
00000000
00100000
00010000
10000000
00000000
00000000
00010000
00000000
00000000
,
02000000
00000000
00000000
00100000
00000000
00000000
03100000
00000000
01000000
00000000
00010000
00000000
,
20000000
00000000
00000000
01000000
00000000
00000000
31000000
00000000
00000000
00100000
00000000
00001000
,
00020000
00000000
00000000
00000010
00000000
00000000
00030010
00000000
00000000
00010000
00000000
00001000
,
00010000
00000000
00000000
00000000
00000100
00001000
00000100
00000000
00000000
00000010
00000000
00000000
,
00000011
00000000
00000000
00000000
00000000
00000000
00001000
00000000
00000000
00000001
00000100
00000001
,
00001000
00000000
00000000
00000000
00000000
00000000
00000000
00000000
00000100
00000000
00000000
00000000
00000000
00000000
00000000
00000000
00000000
00000000
00010000
00000000
00000000
00001000
00000000
00000000
00010000
00000000
00000000
00000000
00000000
00000000
00000000
00000000
00000000
00000000
00000000
00000000
00001000
00000000
00000000
00000000
00000000
00000000
00010000
00000000
00000000
00000010
00000000
00000000
,
00010000
00000000
00000000
00000000
00000000
00000000
00000000
00000000
00001000
00000000
00000000
00000000
00000000
00000000
00000000
00000000
00000010
00000000
00000000
00000000
00000000
00000000
00000000
00000000
00000100
00000000
00000000
00000000
00000000
00000000
00000000
00000000
00000000
00000000
00000000
00000000
00010000
00000000
00000000
00000000
00000000
00000000
00001000
00000000
00000000
00010000
00000000
00000000
,
00001000
00000000
00000000
00100000
00000000
00000000
01000000
00000000
00010000
00000000
00000000
00001000
00010000
00000000
00000000
00000000
,
00011000
00000010
00011000
01000000
,
00001000
00000000
00000000
00000000
00000000
00000000
00000000
00000000
00010000
00000000
00000000
00000000
00000000
00000000
00000000
00000000
00000000
00000000
00001000
00000000
00000000
00010000
00000000
00000000
00001000
00000000
00000000
00000000
00000000
00000000
00000000
00000000
00000000
00000000
00000000
00000000
00100000
00000000
00000000
00000000
00000000
00000000
00010000
00000000
00000000
01000000
00000000
00000000
,
00010000
00000000
00000000
00000000
00000000
00000000
00000000
00000000
01000000
00000000
00000000
00000000
00000000
00000000
00000000
00000000
00100000
00000000
00000000
00000000
00010000
00000000
00000000
00000000
00001000
00000000
00000000
00000000
00000000
00000000
00000000
00000000
00000000
00000000
00000000
00000000
00010000
00000000
00000000
00000000
00000000
00000000
00001000
00000000
00000000
00010000
00000000
00000000
,
00000100
00000000
00000000
00000000
00001000
00000000
00000000
00000000
00000010
00000000
00000000
00000000
00001000
00000000
00000000
00000000
00000000
00000000
00000100
00000000
00000000
00000010
00000000
00000000
,
00000002
00000203
00002300
00023000
,
00130000
00000000
00000000
10000000
00010000
10000000
00010000
00000000
00000000
10000000
01000000
10000000
,
01000000
01000000
00100000
00001000
00010000
00010000
00000100
00001000
,
00001020
00000000
00000000
00001030
00000100
00001000
00000100
00000000
00000000
00000010
00000001
00000010
,
00000002
00000000
00000000
00000000
00000103
00000000
00000010
00001000
00000010
00000000
00000100
00000000
00000001
00000000
00000010
00000000
,
00000110
00000000
00000000
00000001
00000010
00000100
00010000
00000000
00000000
00001000
00010000
01000000
,
00100000
00010000
10000000
00100000
01000000
00010000
10000000
01000000
,
01200000
00000000
00001000
00000000
00301000
00000000
00010000
00001000
,
00011000
00000000
00000000
00001000
00010000
00000000
00000100
00000000
00001000
00000100
00000000
00000100
00000010
00000000
00000001
00000000
,
00002000
00000000
00003020
00000000
00000031
00000100
00001000
00000010
,
00000200
00000000
00000000
00000000
00000302
00000000
00000000
00000000
00001003
00000000
00000000
00000001
00000010
00000000
00000100
00000000
,
00000010
00001000
00010000
01000000
00100000
00010000
00100000
01000000
,
10000000
00000000
00000000
00000000
00000000
00000000
00000000
00000000
00000000
00000000
00000000
00000000
00010000
00000000
00000000
00000000
01000000
00000000
00000000
00000000
00100000
00000000
00000000
00000000
01000000
00000000
00000000
00000000
00000000
00000000
00000000
00000000
00000000
00010000
00000000
00000000
10000000
00000000
00000000
00000000
00000000
00000000
01000000
00000000
00000000
00000000
00000000
00000000
,
20000000
00000000
30200000
00000000
00310000
01000000
10000000
00010000
,
20000000
00000000
00000000
00000000
32000000
00000000
00000000
00000000
03010000
00000000
00000000
00001000
00010000
00000000
00000100
00000000
,
00000010
00000000
00000001
00000000
00001000
00000000
00000010
00000000
00000100
00000000
00000000
00000010
00001000
00000000
00000001
00000000
,
00000200
00000000
00000000
00000000
00001300
00000000
00010000
00001000
00010000
00000000
00000000
00000000
01000000
00000000
00100000
00000000
,
00110000
00000000
10100000
00000000
10010000
00000000
10000000
01000000
,
00100000
00000000
00000000
00001000
00010000
00000000
00100000
00000000
10000000
00000000
00000000
01000000
00010000
00000000
00001000
00000000
,
00010000
00000100
00000010
00000001
00001000
00000001
00000100
00000010
,
00000100
00000000
00000000
00000000
00000000
00000000
00000000
00000000
00000000
00000000
00000000
00000000
00000010
00000000
00000000
00000000
00001000
00000000
00000000
00000000
00000010
00000000
00000000
00000000
00010000
00000000
00000000
00000000
00000000
00000000
00000000
00000000
00000000
00001000
00000000
00000000
00010000
00000000
00000000
00000000
00000000
00000000
00001000
00000000
00000000
00000000
00000000
00000000
,
00011000
00000000
00010010
00000000
01001000
00000000
00010000
00001000
,
00000010
00000000
00000100
00000000
00001000
00000000
00000001
00000000
00000100
00000000
00000000
00000010
00000100
00000000
00000001
00000000
,
00001000
00000000
00000001
00000000
00000010
00000000
00001000
00000000
00010000
00000000
00000000
01000000
00100000
00000000
00010000
00000000
,
01000000
00000000
00000000
00000000
00100000
10000000
00100000
10000000
00100000
00000000
00000000
10000000
01000000
00000000
10000000
00000000
,
00100000
00000000
00010000
00000000
00001000
00000000
00000100
00000000
00000001
00000000
00000000
00000010
00000001
00000000
00001000
00000000
,
00000100
00000000
00000000
00000000
00010000
00001000
00010000
00001000
00010000
00000000
00000000
00010000
00000100
00000000
00010000
00000000
,
00001000
00000000
00010000
00000000
01000000
00000000
10000000
00000000
00010000
00000000
00000000
10000000
00100000
00000000
01000000
00000000
,
00001000
00010000
00022000
00000000
,
00000000
00000000
00033000
00000000
;
