#VERSION:0.83;
#TITLE:Lagrangian Point Ø;
#ARTIST:tūmahaB;
#TITLETRANSLIT:Lagrangian Point 0;
#ARTISTTRANSLIT:tumahaB;
#BANNER:Lagrangian Point 0.png;
#BACKGROUND:Lagrangian Point 0-bg.png;
#CDTITLE:./CDTitles/RB Reflesia.png;
#MUSIC:Lagrangian Point 0.ogg;
#SAMPLESTART:76.54;
#SAMPLELENGTH:15;
#BPMS:0=212,12=424,13.5=212,14=424,15=212,16=106,30=212,31.25=106,31.5=212,31.75=106,31.875=53,32=106,48=212,147=424,148.5=212,149=424,150=212,151=106,167=212,198=159,198.75=132.5,199.375=79.5,199.75=53,200=106,200.5=159,201.25=265,202.5=318,204=424,220=848,244=212,276=424,277=212,340=106;
#STOPS:12=0.212,14=0.142,30=0.071,30.25=0.141,30.75=0.141,78=0.284,147=0.212,149=0.142,197=0.283,236=0.566,276=0.142;
#TIMESIGNATURES:0=4=4,76=3=4,79=4=4,195=3=4,198=6=4,204=4=4;
#BGSTAGE:29;

//--------------- dance-single - Fred-1Ø4 ----------------
#NOTEDATA:;
#STEPSTYPE:dance-single;
#DESCRIPTION:Fred-1Ø4;
#DIFFICULTY:Beginner;
#METER:9;
#CREDIT:Fred-1Ø4;
#NOTES:
0000
0000
0000
0000
,
0000
0000
0000
0000
,
0000
0000
0000
0000
,
0000
0000
0000
0000
,
1000
0000
0010
0000
0100
0001
0100
0000
,
0001
0000
1000
0000
0001
0001
1000
0000
,
0010
0000
0100
0000
0001
0100
0001
0000
,
1000
0001
1000
0001
2000
0000
0000
0000
,
3001
0100
0001
0000
0100
0000
0010
0000
,
0100
0010
0100
0000
0010
0000
1000
0010
,
1000
0000
0100
0000
1000
1000
0010
0100
,
0001
0000
1000
0000
0001
1000
0001
1000
,
0001
0001
0100
0100
,
0010
0000
1000
0000
,
0001
1000
0010
0100
,
0001
0000
1000
0000
,
0001
0100
0001
0000
,
1000
0100
1000
0000
,
0010
1000
0010
0000
0100
0001
0100
0000
,
0001
0000
0000
0000
0000
0000
0000
0000
1000
0000
0000
0000
0000
0000
0000
0000
0001
0000
0000
0000
0000
0000
0000
0000
0000
0000
0000
0000
0000
0000
0000
0000
2002
3003
0000
0000
0000
0000
0000
0000
0000
0000
0000
0000
0000
0000
0000
0000
2000
0000
0000
0000
0000
0000
0000
0000
0000
0000
0000
0000
0000
0000
0000
0000
,
0000
3010
0100
0001
,
1000
0000
0001
1000
0001
0000
0100
0000
,
0010
0000
1000
0010
1000
0000
0001
0100
,
0001
0000
0100
0010
0100
0000
0002
0000
,
0000
0000
1003
0000
0010
0000
0100
0010
,
0100
0000
0001
0100
0001
0000
2000
0000
,
0000
3001
0000
0002
,
0000
1003
0000
2000
,
0000
0000
3001
0000
0100
0000
0001
0100
,
0001
0100
0100
0020
,
0000
0000
2030
0000
0000
0000
3001
0010
,
0001
0000
1000
0100
1000
0000
0001
0000
,
0000
0000
1000
0000
0000
0000
0001
1000
,
0001
0000
0010
0100
0010
0000
0001
0000
,
0000
1000
0000
0001
,
0000
1000
0000
2002
,
0000
0000
0000
0000
,
0000
0000
3003
1000
,
0010
0000
0100
0010
0100
0000
0001
0000
,
1000
0000
0001
1000
0001
0000
0100
0000
,
0010
0000
1000
0010
0100
0000
0001
0000
,
1000
0000
0001
1000
0100
0000
2000
0000
,
0000
3020
0000
0230
,
0000
0302
0000
2003
,
0000
3200
0000
0320
,
0000
0032
0000
1003
,
0010
1010
0000
0001
,
0010
0000
0011
0000
0000
0000
1000
0100
,
1000
0000
0001
0100
0001
0000
0100
0010
,
0100
0000
0000
0000
0000
0000
0000
0000
0000
0000
0000
0000
0000
0000
0000
0000
2002
3003
0000
0000
0000
0000
0000
0000
0000
0000
0000
0000
0000
0000
0000
0000
2002
0000
0000
0000
0000
0000
0000
0000
0000
0000
0000
0000
0000
0000
0000
0000
0000
0000
0000
0000
0000
0000
0000
0000
0000
0000
0000
0000
0000
0000
0000
0000
,
0000
0000
0000
0000
0000
3003
0000
0000
,
2000
0000
0000
0000
,
0000
0000
0000
0000
,
0000
0000
0000
0000
,
0000
0000
0000
0000
,
0002
0000
0000
0000
,
0000
0000
0000
0000
,
0000
0000
0000
0000
,
0000
0000
0000
0000
,
3003
0000
0000
0000
,
0000
0000
0000
0000
,
1000
0000
0001
0000
,
1000
0000
0001
0000
0100
0010
0100
0000
,
0001
0000
1000
0000
,
0001
0000
0010
0000
0001
0010
0001
0000
,
1000
0000
0001
0000
,
1000
0000
0100
0000
0010
0100
0010
0000
,
0001
0000
1000
0000
,
0001
0000
0001
0000
1000
0001
1000
0000
,
2002
3003
0001
1000
,
0001
0000
1000
0000
0010
1000
0010
0000
,
1000
0010
0000
1000
,
0001
0000
1000
0001
,
1000
0000
0000
0010
0000
0000
0100
0000
,
0001
0000
0000
0100
0000
0000
0010
0000
,
1000
0000
1000
0000
0001
1000
0001
1000
,
0000
0000
0001
0000
1000
0100
1000
0000
,
0002
0000
0023
0000
,
0230
0000
2300
0000
,
3002
0000
0203
0000
,
0320
0000
2030
0000
,
3001
0010
0011
0000
,
1000
0010
1010
0000
,
0001
0100
0001
0000
1000
0100
1000
0100
,
0000
0100
0010
0000
2002
0000
3003
0000
,
2000
0000
3200
0000
,
0320
0000
0032
0000
,
2003
0000
0000
0000
0000
0000
0000
3001
0000
0000
0000
1000
0000
0001
0000
2002
,
0000
0000
0000
0000
,
3003
0000
0000
0000
;

//--------------- dance-single - Fred-1Ø4 ----------------
#NOTEDATA:;
#STEPSTYPE:dance-single;
#DESCRIPTION:Fred-1Ø4;
#DIFFICULTY:Easy;
#METER:13;
#CREDIT:Fred-1Ø4;
#NOTES:
0000
0000
0000
0000
,
0000
0000
0000
0000
,
0000
0000
0000
0000
,
0000
0000
0000
0000
,
1000
0000
0100
0000
1100
0000
0010
0000
0001
0100
0000
0001
0100
0000
0010
0000
,
0100
0000
0001
0000
0011
0000
0010
0000
0100
1000
0000
0100
1000
0000
0001
0000
,
1200
0310
0201
0310
2100
3010
0102
0013
,
1000
0000
0000
0000
0010
0000
0000
0000
0100
0000
0000
0000
0000
0000
0000
0000
0001
0000
0000
0000
0010
0000
0000
0000
0001
0000
0000
0000
0000
0000
0000
0000
0002
0003
0000
0000
0002
0003
0000
0000
0000
0000
0000
0000
2000
3000
0000
0000
0000
0000
0000
0000
0010
0000
0000
0000
0200
0000
0000
0000
0000
0000
0000
0000
,
0301
0000
0100
0000
0001
0100
0000
0100
0000
0010
0000
1000
0000
0100
0000
0000
,
1000
0000
0100
0000
0010
0010
0000
0001
0000
0000
1000
0001
1000
0000
0001
0100
,
0001
0000
0100
0000
0010
0100
0000
0010
0000
0010
0000
1000
0000
0001
0000
1001
,
0000
0000
0000
0000
0001
1000
0001
1000
0000
0010
0000
0100
0000
0001
1000
0000
,
0001
0000
0000
0000
0100
0000
0000
0000
0010
0000
0000
1000
0000
0000
0010
0000
,
0100
0001
1001
1000
,
0100
0000
0000
0000
0010
0000
0000
0000
0001
0000
0000
1000
0000
0000
0001
0000
,
1000
0010
0110
0100
,
0001
0000
0000
0000
0101
0000
0000
0000
0100
0000
0000
0010
0000
0000
1000
0000
,
0100
0000
0000
0000
1100
0000
0000
0000
1000
0000
0000
0010
0000
0000
0100
0000
,
0001
0100
0001
0000
1000
0100
1000
0000
,
0001
0000
0000
0000
0000
0000
0000
0000
0100
0000
0000
0000
0000
0000
0000
0000
0010
0000
0000
0000
0000
0000
0000
0000
1000
0000
0000
0000
0000
0000
0000
0000
0002
0003
0000
0000
0000
0000
0000
0000
0000
0000
0000
0000
0000
0000
0000
0000
2000
0000
0000
0000
0000
0000
0000
0000
0000
0000
0000
0000
0000
0000
0000
0000
,
3010
0000
0000
0000
0002
0000
0000
0000
0013
0000
0000
0000
1000
0000
0000
1000
,
0000
0010
0100
0001
0100
0000
0001
0010
,
0100
0000
1000
0010
0100
0000
0102
0000
,
0103
0010
0001
1000
0010
0000
0210
0000
,
0302
0000
1003
0001
1000
0000
0001
0000
,
0100
0010
1000
0100
0010
0000
0001
0100
,
0001
0100
0001
0010
0000
0001
0000
1000
,
0000
0010
0000
0100
0010
0000
2000
0000
,
3100
0000
0000
0000
0002
0000
0000
0000
0103
0000
0000
0000
1000
0000
0000
0010
,
0000
0100
0001
1000
0100
0000
0010
0001
,
1000
0001
0100
0001
0100
0000
0120
0000
,
1030
0100
0010
0001
1000
0000
0001
0100
,
0001
0000
0100
0010
0100
0000
0010
1000
,
0010
0000
1000
0100
1000
0000
2100
0000
,
3010
0000
0000
0102
0000
0000
0013
0000
0000
1000
0000
1000
,
0000
1000
0000
0001
0000
0001
0000
0001
0000
2002
0000
0000
,
0000
0000
0000
0000
,
0000
0000
0000
0000
3003
0000
1000
0010
,
0100
0100
0000
0001
0000
1000
0000
0001
0000
0001
0000
0000
0010
0000
0001
0000
,
0100
0001
0000
1000
0000
0000
0001
0100
0010
0000
1000
0010
0100
0000
0010
0000
,
1000
1000
0000
0010
0000
0100
0000
0001
0000
1000
0000
0001
0000
0000
1000
0000
,
0010
0100
0001
0100
0000
0001
0000
1000
0000
0001
1000
0000
0002
0000
0000
0000
,
0023
0230
2300
3020
,
0230
0302
2003
3200
,
0320
0000
0032
0000
2003
0000
3001
0100
,
0001
0100
0010
1000
0001
1000
0100
0000
,
1100
0000
0000
0000
1000
0000
0000
0010
0000
0000
0100
0000
0001
0000
0000
0000
,
0101
0000
0000
0000
0100
0000
0000
0010
0000
0000
1000
0000
0010
0000
1000
0000
,
0010
0000
0100
0001
0100
0000
0001
0100
,
0010
0000
0000
0000
0000
0000
0000
0000
1000
0000
0000
0000
0000
0000
0000
0000
0002
0003
0000
0000
0000
0000
0000
0000
0000
0000
0000
0000
0000
0000
0000
0000
2002
0000
0000
0000
0000
0000
0000
0000
0000
0000
0000
0000
0000
0000
0000
0000
0000
0000
0000
0000
0000
0000
0000
0000
0000
0000
0000
0000
0000
0000
0000
0000
,
0000
0000
0000
0000
0000
3003
0000
0000
,
1000
0001
1000
0001
,
1000
0001
1000
0001
,
1000
0001
1000
0001
,
1000
0001
1000
0001
,
2000
0000
0000
0000
,
0000
0000
0000
0000
,
0000
0000
0000
0000
,
0000
0000
0000
0000
,
3000
0000
0000
0000
,
0000
0000
0000
0000
,
0001
0000
0000
0010
0000
0000
0100
0000
0000
0010
0000
0000
0001
0000
1000
0000
,
0001
0000
0000
0100
0000
0000
0010
0000
0000
0100
0000
0000
0001
0000
1000
0000
,
0001
0100
0001
0200
0000
0310
0100
0010
,
1000
0010
1000
0020
0000
1030
0100
1000
,
0010
0000
0000
1000
0000
0000
0200
0000
0000
0000
1300
0000
0001
0000
0100
0000
,
0001
0000
0000
0010
0000
0000
0200
0000
0000
0000
0310
0000
0001
0000
1000
0000
,
0001
0100
0001
0001
1000
0001
0100
0010
,
0000
0010
1000
0000
0001
1000
0001
0000
,
2000
3000
0000
0000
0000
0000
0000
0000
0000
0000
0000
0000
0000
0000
0000
0000
1001
0000
0000
0000
0000
0000
0000
0000
0000
0000
0000
0000
0000
0000
0000
0000
0001
0000
0000
0000
0000
0000
0000
0000
0100
0000
0000
0000
0000
0000
0000
0000
0010
0000
0000
0000
0000
0000
0000
0000
0100
0000
0000
0000
0000
0000
0000
0000
,
0001
0000
0000
0100
0000
0000
0020
0000
0000
0000
1030
0000
0100
0000
0010
0000
,
0001
0100
0100
0001
0100
0100
0001
2000
,
0000
3010
1000
2000
0000
3010
0100
0001
,
1000
0000
0000
0100
0000
0000
0020
0000
0000
0000
0031
0000
2000
0000
0000
0000
,
3001
0000
0000
0100
0000
0000
0020
0000
0000
0000
1030
0000
0001
0000
1000
0000
,
0001
0010
0001
0010
0001
0001
1000
0100
,
0000
0010
0100
0000
1000
0000
1001
0000
,
1000
0100
1000
0100
1000
0000
1100
0000
,
0001
0100
0001
0100
0001
0000
0101
0000
,
0010
0100
0010
0100
0010
0000
0110
0000
,
1000
0001
1000
0001
1000
0001
1000
0001
,
1000
0000
0010
0000
0100
0001
0100
0001
,
0100
0000
0001
0000
1000
0001
1000
0001
,
1000
0000
0001
0000
0100
0010
0100
0010
,
0000
1000
0001
0000
2002
0000
3003
0000
,
1000
0000
0100
0000
0010
0010
0000
0001
0000
1000
0000
0010
0000
0100
0000
0000
,
0001
0000
0100
0000
0010
0010
0000
1000
0000
0000
0100
1000
0100
0000
0010
0001
,
1000
0000
0010
0000
0100
0100
0000
0001
0000
1000
0000
0001
0000
1000
0000
2002
,
0000
0000
0000
0000
,
3003
0000
0000
0000
;

//--------------- dance-single - Fred-1Ø4 ----------------
#NOTEDATA:;
#STEPSTYPE:dance-single;
#DESCRIPTION:Fred-1Ø4;
#DIFFICULTY:Medium;
#METER:15;
#CREDIT:Fred-1Ø4;
#NOTES:
0000
0000
0000
0000
,
0000
0000
0000
0000
,
0000
0000
0000
0000
,
0000
0000
0000
0000
,
0001
0000
0010
0001
1001
0000
0100
0000
0010
0000
0001
0100
0110
0000
0010
0000
,
1000
0000
0100
0010
0011
0000
0001
0000
1000
0100
1000
0010
0100
0001
0010
0000
,
0012
0103
2010
3100
0021
0130
1020
0130
,
0001
0000
0000
0000
0100
0000
0000
0000
0010
0000
0000
0000
1000
0000
0000
0000
0001
0000
0000
0000
0010
0000
0000
0000
0100
0000
0000
0000
1000
0000
0000
0000
0020
0030
0000
0000
0020
0030
0000
0000
0000
0000
0000
0000
0200
0300
0000
0000
0000
0000
0000
0000
0001
0000
0000
0000
2000
0000
0000
0000
0000
0000
0000
0000
,
3001
0100
0001
0100
0010
0100
0000
0010
0000
1000
0000
0001
0000
0001
0000
0000
,
1000
0000
0100
0000
1000
0000
0100
0000
0010
0000
0100
0000
0000
0000
1000
0000
0000
0000
0000
0000
0001
0000
0100
0000
0010
0000
0000
0100
0010
0000
1000
0000
,
0010
0100
0010
1000
0010
1000
0000
0001
0000
0010
0000
0100
0000
0010
0000
0001
,
0000
0000
1000
0100
0010
0001
1000
0001
0000
0100
0000
0100
0000
0010
1000
0010
,
0100
0000
0000
0000
0001
0000
0000
0000
1000
0000
0000
0010
0000
0000
0100
0000
,
0010
0000
1000
0000
1001
0000
0001
0100
,
0001
0000
0000
0000
0100
0000
0000
0000
0010
0000
0000
1000
0000
0000
0100
0000
,
1000
0000
1010
0000
0010
0100
0001
0000
,
1000
0000
0000
0000
1010
0000
0000
0000
0010
0000
0000
0100
0000
0000
0001
0000
,
0010
0000
0000
0000
0011
0000
0000
0000
0001
0000
0000
0100
0000
0000
0010
0000
,
1000
0100
1000
0010
0100
0001
0010
0001
,
1000
0000
0000
0000
0001
0000
0000
0000
1000
0000
0000
0000
0000
0000
0000
0000
0001
0000
0000
0000
1000
0000
0000
0000
0001
0000
0000
0000
0000
0000
0000
0000
2002
3003
0000
0000
0000
0000
0000
0000
0000
0000
0000
0000
0000
0000
0000
0000
0100
0000
0000
0000
0000
0000
0000
0000
0020
0000
0000
0000
0000
0000
0000
0000
,
0000
0000
0130
0000
0001
0000
0000
0000
1000
0000
0000
0000
0001
0000
0000
0001
,
0000
0100
0010
1000
0100
0000
0010
0001
,
1000
0001
0100
0010
1000
0100
0020
0000
,
0031
0100
0010
1000
0001
0000
2001
0000
,
3200
0300
0000
0000
0000
0000
0000
0000
0200
0300
0000
0000
0000
0000
0000
0000
0001
0000
0000
0000
0000
0000
0000
0000
1000
0000
0000
0000
0000
0000
0000
0000
0100
0000
0000
0000
0000
0000
0000
0000
0010
0000
0000
0000
0000
0000
0000
0000
0001
0000
0000
0000
0000
0000
0000
0000
0200
0300
0000
0000
0000
0000
0000
0000
,
0200
0300
0000
0000
0000
0000
0000
0000
1000
0000
0000
0000
0000
0000
0000
0000
0010
0000
0000
0000
0000
0000
0000
0000
0100
0000
0000
0000
0000
0000
0000
0000
0001
0000
0000
0000
0000
0000
0000
0000
0000
0000
0000
0000
0000
0000
0000
0000
1000
0000
0000
0000
0000
0000
0000
0000
0010
0000
0000
0000
0000
0000
0000
0000
,
0100
0010
0010
1000
0000
1010
0000
0101
,
0000
0001
0100
0001
0001
1000
0002
0100
,
0103
0000
0000
0000
0010
0000
1000
0000
0001
0000
0100
0000
0010
0000
0000
0100
,
0000
0100
0010
1000
0001
0000
1000
0200
,
1000
1300
0001
0100
0010
0000
2010
0000
,
3001
0010
0100
1000
0001
0000
1000
0100
,
1000
0000
0001
0100
0010
0000
1000
0200
,
0310
0000
0002
0103
0010
0000
1100
0000
,
0101
0000
0000
1100
0000
0000
0101
0000
0000
1000
0000
1100
,
0000
0010
0000
0001
0000
0101
0000
0010
0000
0220
0000
0000
,
0000
0000
0000
0000
,
0000
0000
0000
0000
0000
0000
0000
0000
0330
0000
0000
0000
1000
0010
0100
0010
,
1000
0100
0000
0010
0000
0001
0000
1000
0000
0001
0000
0000
0100
0010
0100
0001
,
0100
0000
0010
0000
0000
0000
1000
0000
0000
0000
0000
0000
0001
0000
0010
0000
0100
0000
0000
0010
0001
0000
0100
0000
0001
0000
0100
0000
0001
0000
0010
0000
,
0001
1000
0000
1010
0000
0110
0000
0101
0000
1001
0000
0110
0000
0000
0001
0100
,
0010
0100
0001
0100
0000
0010
0000
0010
1000
0010
0100
0000
0001
0000
0010
0000
,
0100
0010
0001
0010
0100
0010
1000
0010
,
0100
0010
1000
0010
0100
0010
0001
0100
,
0001
0100
1000
0100
1000
0100
0001
0010
,
0001
0010
1000
0010
1000
0010
0001
0000
,
0101
0000
0000
0000
0100
0000
0000
0010
0000
0000
1000
0000
0100
0000
0000
0000
,
1100
0000
0000
0000
0010
0000
0000
0001
0000
0000
1000
0000
0001
0000
0100
0000
,
0010
0000
1000
0000
0001
0000
0010
0000
0100
0000
1000
0000
0010
0100
0010
0000
,
0100
0000
0000
0000
0010
0000
0000
0000
0100
0000
0000
0000
0000
0000
0000
0000
0220
0330
0000
0000
0000
0000
0000
0000
0000
0000
0000
0000
0000
0000
0000
0000
2002
0000
0000
0000
0000
0000
0000
0000
0000
0000
0000
0000
0000
0000
0000
0000
0000
0000
0000
0000
0000
0000
0000
0000
0000
0000
0000
0000
0000
0000
0000
0000
,
0000
0000
0000
0000
0000
3003
0000
0000
,
1000
0001
1000
0001
,
1000
0001
1000
0001
,
1000
0001
1000
0001
1000
0001
1000
0001
,
1000
0001
1000
0001
1000
0001
1000
0001
,
2000
0000
0000
0000
,
0000
0000
0000
0000
,
0000
0000
0000
0000
,
0000
0000
0000
0000
,
3000
0000
0000
0000
,
0000
0000
0000
0000
,
1000
0000
0000
0010
0000
0000
0100
0000
0000
0010
0000
0000
1000
0000
0100
0000
,
0010
0000
0000
0001
0000
0000
1000
0000
0000
0001
0000
0000
0100
0000
0001
0000
,
0100
0001
1000
1002
0000
1003
0100
0010
,
0100
1000
0001
2001
0000
3001
0100
0010
,
0100
0000
0000
0001
0000
0000
0200
0000
0000
0000
0310
0000
1000
0000
0100
0000
,
1000
0000
0000
0010
0000
0000
0200
0000
0000
0000
0301
0000
1000
0000
0001
0000
,
1000
0000
1000
0000
0100
0000
1000
0000
0010
0100
0010
0000
0100
0000
0001
0000
,
0000
1000
1001
0000
0001
0100
0010
1000
,
2002
3003
0000
0000
0000
0000
0000
0000
0000
0000
0000
0000
0000
0000
0000
0000
1001
0000
0000
0000
0000
0000
0000
0000
0000
0000
0000
0000
0000
0000
0000
0000
1000
0000
0000
0000
0000
0000
0000
0000
0100
0000
0000
0000
0000
0000
0000
0000
0010
0000
0000
0000
0000
0000
0000
0000
1000
0000
0000
0000
0000
0000
0000
0000
,
0001
0000
0000
0100
0000
0000
0020
0000
0000
0000
0031
0000
1000
0000
0001
0000
,
0100
0010
0010
0100
0010
0010
1000
1002
,
0000
0103
0010
0200
0000
0301
0100
0010
,
1000
0000
0000
0100
0000
0000
0020
0000
0000
0000
0031
0000
1001
0000
0000
0000
,
0001
0000
0000
0100
0000
0000
0020
0000
0000
0000
1030
0000
0100
0000
1000
0000
,
0001
0100
0010
0100
0001
1000
0001
1001
,
0000
0001
0100
0000
0010
0100
0110
0000
,
0010
0100
0010
0100
0010
0100
1001
0000
,
0010
0100
0010
0100
0010
0100
1001
0000
,
0010
0100
0010
0100
0010
0100
1001
0000
,
0010
0100
0010
0100
0010
0100
0010
0100
,
1000
0100
1000
0010
0100
0001
0100
0100
,
0100
0001
0010
0100
1000
0010
0100
0100
,
0100
0001
1000
0001
0100
0010
0100
0100
,
0000
0000
0010
0000
1001
0000
0000
0000
1000
0001
1000
0001
1000
0000
0000
0000
,
0001
0010
0100
0010
0001
1000
0000
0010
0000
0100
0000
0001
0000
0001
0000
0000
,
1000
0000
0010
0000
0100
0000
0010
0000
1000
0000
0001
0000
0000
0000
0100
0000
0000
0000
0000
0000
0001
0000
0010
0000
0100
0000
0000
0010
0001
0000
1000
0000
,
0001
0100
0001
0100
1000
0100
1000
0100
0000
0001
0000
1000
0000
0001
0000
2002
,
0000
0000
0000
0000
,
3003
0000
0000
0000
;

//--------------- dance-single - Fred-1Ø4 ----------------
#NOTEDATA:;
#STEPSTYPE:dance-single;
#DESCRIPTION:Fred-1Ø4;
#DIFFICULTY:Hard;
#METER:18;
#CREDIT:Fred-1Ø4;
#NOTES:
0000
0000
0000
0000
,
0000
0000
0000
0000
,
0000
0000
0000
0000
,
0000
0000
0000
0000
,
0110
0000
0001
0100
0110
0000
1000
0000
0100
0000
0010
0001
0101
0000
0010
0000
,
1010
0000
0000
0000
0001
0000
1000
0000
1100
0000
0000
0000
0100
0000
0000
0000
0010
0001
0010
0001
1000
0100
1000
0100
1000
0010
0100
0001
1000
0000
0000
0000
,
1001
0000
1000
0100
0110
0000
0001
0100
0110
0000
1000
0010
0110
0000
0001
0010
,
0110
0000
0000
0000
0100
0000
0000
0000
1000
0000
0000
0000
0010
0000
0000
0000
1000
0000
0000
0000
0010
0000
0000
0000
0100
0000
0000
0000
0100
0000
0000
0000
0002
0003
0000
0000
0200
0300
0000
0000
0000
0000
0000
0000
0020
0030
0000
0000
0000
0000
0000
0000
1000
0000
0001
0000
2000
0000
0000
0000
0000
0000
0000
0000
,
3001
0010
0001
0010
1000
0010
0000
0001
0000
0010
0000
1000
0000
0010
0000
0000
,
0001
0000
0100
0000
0001
0000
0100
0000
1000
0000
0100
0000
0000
0000
0001
0000
0000
0000
0000
0000
1000
0000
0100
0010
0001
0000
0000
0100
0010
0000
0100
0000
,
0001
0100
1000
0100
0001
0100
0000
0010
0000
1000
0000
0100
0000
0010
0000
0001
,
0000
0000
1000
0100
0010
0100
0001
0100
0000
1010
0000
0101
0100
0001
0100
0010
,
1000
0000
0000
0000
0010
0000
0000
0000
1010
0000
0000
0101
0000
0000
1100
0000
,
0010
0000
0010
0000
0100
0000
0001
1000
0001
0000
0100
0000
0010
0000
1000
0000
,
0100
0000
0000
0000
0100
0000
0000
0000
1100
0000
0000
0101
0000
0000
1010
0000
,
0100
0000
0001
0000
0100
0000
0001
1000
0001
0000
0100
0000
0010
0000
1000
0000
,
1001
0000
0000
0000
0100
0000
0000
0000
0011
0000
0000
1010
0000
0000
0011
0000
,
1001
0000
0001
0000
0100
0000
0000
0000
0001
0000
0100
0010
0100
0000
0001
0000
,
1000
0100
1000
0100
0010
0001
0010
0001
1000
0010
1000
0010
0100
0001
0100
0001
,
1000
0000
0000
0000
0100
0000
0000
0000
0010
0000
0000
0000
0001
0000
0000
0000
1000
0000
0000
0000
0010
0000
0000
0000
0100
0000
0000
0000
0001
0000
0000
0000
2000
3000
0000
0000
0000
0000
0000
0000
0000
0000
0000
0000
0000
0000
0000
0000
0001
0000
0000
0000
0000
0000
0000
0000
0020
0000
0000
0000
0000
0000
0000
0000
,
0001
0000
0031
0000
1000
0000
0010
0000
0100
0000
0001
0000
1000
0000
0000
1000
,
0000
1000
0010
0100
0001
0000
1000
0200
,
0001
0301
0100
1000
0010
0100
0002
0000
,
0103
0010
1010
1000
0002
0000
2003
0000
,
3010
0000
0100
0000
0001
0000
0100
0000
0001
0000
0000
0000
1000
0010
1000
0100
,
1000
0000
0010
0000
0100
0000
0001
0000
1000
0000
1000
0000
0001
0000
0100
0001
,
0100
0010
1000
0010
1000
0000
1010
0000
0000
0000
0101
0000
0000
0000
1001
0000
,
0000
0110
0100
0001
1000
0001
0200
0010
,
0310
0000
0100
0000
0101
0000
0001
0000
1000
0000
0000
0000
0010
0000
0000
0010
,
0000
0010
1000
0001
0100
0000
0001
0020
,
0100
0000
0130
0000
1000
0000
0001
0100
0010
0000
0100
0000
0001
0100
0001
1000
,
0001
0100
0010
1000
1001
0000
1000
0100
,
0001
1000
0010
0001
1001
0000
0001
0200
,
1300
0001
0020
1030
0001
0100
0110
0000
,
1200
0000
0000
0000
0000
0000
0000
0000
0000
0300
0000
0000
0110
0000
0000
0000
0000
0000
0000
0000
0000
0000
0000
0000
0201
0000
0000
0000
0000
0000
0000
0000
0000
0300
0000
0000
1010
0000
0000
0000
0000
0000
0000
0000
0011
0000
0000
0000
,
0000
1100
0000
0101
0000
1010
0000
0101
0000
2002
0000
0000
,
0000
0000
0000
0000
,
0000
0000
0000
0000
0000
0000
0000
0000
3003
0000
0000
0000
1000
0010
0100
0001
,
0011
0010
0000
0100
0000
1000
0000
0001
0000
0100
0000
0000
0001
0100
0010
0100
,
0110
0000
0010
0000
0000
0000
1000
0000
0000
0000
0000
0000
0100
0000
0010
0001
1000
0000
0000
0100
0001
0000
0100
0000
1000
0000
0010
0000
0100
0000
0010
0000
,
1010
0000
1000
0000
0000
0000
1100
0000
0000
0000
0110
0000
0000
0000
0011
0000
0000
0000
0101
0000
0000
0000
1001
0000
0000
0000
0001
0000
0010
0000
0100
1000
,
0100
1000
0001
1001
0000
0110
0000
1001
0001
1000
0001
0000
1000
0100
0010
0100
,
1000
0100
0010
0100
1000
0000
0001
0000
0100
0000
0010
0000
0100
0001
1000
0001
,
0100
0001
1000
0001
0100
0000
0010
0000
1000
0000
0100
0000
0010
0001
0010
0001
,
0010
0001
1000
0001
1000
0100
1000
0100
0010
0000
0001
0000
0100
0010
0100
0010
,
1000
0010
1000
0010
0100
0001
1000
0100
0010
0000
0001
0000
1000
0000
0010
0100
,
0010
0000
1000
0000
1100
0000
0000
0110
0000
0000
0011
0000
0001
0000
0100
0010
,
0100
0000
0001
0000
0100
0010
0000
0010
1000
0000
0010
0000
0100
0001
0100
0001
,
1000
0001
1000
0001
0100
0010
0100
0010
1000
0100
1000
0100
0010
0001
0010
0100
,
1000
0000
0000
0000
0010
0000
0000
0000
0100
0000
0000
0000
0001
0000
0000
0000
2000
3000
0000
0000
0000
0000
0000
0000
0000
0000
0000
0000
0000
0000
0000
0000
2002
0000
0000
0000
0000
0000
0000
0000
0000
0000
0000
0000
0000
0000
0000
0000
0000
0000
0000
0000
0000
0000
0000
0000
0000
0000
0000
0000
0000
0000
0000
0000
,
0000
0000
0000
0000
0000
3003
0000
0000
,
1000
0001
1000
0001
1000
0001
1000
0001
,
1000
0001
1000
0001
1000
0001
1000
0001
,
1000
0001
1000
0001
1000
0001
1000
0001
,
1000
0001
1000
0001
1000
0001
1000
0001
,
2000
0000
0000
0000
,
0000
0000
0000
0000
,
0000
0000
0000
0000
,
0000
0000
0000
0000
,
3000
0000
0001
1000
,
0002
0000
0000
0000
,
1003
0000
0100
0010
0000
0100
1000
0000
0100
0010
0000
0100
1000
0000
0001
0000
,
0100
0000
0001
0010
0000
0100
0010
0000
0001
0010
0000
0100
0010
0000
0001
0000
,
1000
0010
0100
0102
0000
0103
0010
0100
,
0001
0010
0100
2100
0000
3100
0010
0100
,
1000
0000
0000
0000
0000
0000
0000
0000
0010
0000
0000
0000
0100
0000
0000
0000
0000
0000
0000
0000
0010
0000
0000
0000
1000
0000
0000
0000
0000
0000
0000
0000
0001
0000
0000
0000
0000
0000
0000
0000
0200
0300
0000
0000
0000
0000
0000
0000
0200
0300
0000
0000
0000
0000
0000
0000
1000
0000
0000
0000
0000
0000
0000
0000
,
0001
0000
0000
0000
0000
0000
0000
0000
0100
0000
0000
0000
0010
0000
0000
0000
0000
0000
0000
0000
1000
0000
0000
0000
0100
0000
0000
0000
0000
0000
0000
0000
1000
0000
0000
0000
0000
0000
0000
0000
0020
0030
0000
0000
0000
0000
0000
0000
0020
0030
0000
0000
0000
0000
0000
0000
0001
0000
0000
0000
0000
0000
0000
0000
,
1001
0000
1000
0000
0010
0000
0100
0000
0001
0100
0001
0100
0001
0000
0010
0000
,
0000
0000
0100
0000
1001
0000
0000
0000
1000
0000
0100
0000
1000
0100
0010
0001
,
0020
0030
0000
0000
0000
0000
0000
0000
0000
0000
0000
0000
0000
0000
0000
0000
0110
0000
0000
0000
0000
0000
0000
0000
0100
0000
0000
0000
0000
0000
0000
0000
1000
0000
0000
0000
0010
0000
0000
0000
0000
0000
0000
0000
0010
0000
0000
0000
0100
0000
0000
0000
0000
0000
0000
0000
0001
0000
0000
0000
0000
0000
0000
0000
,
1000
0000
0000
0000
0000
0000
0000
0000
0100
0000
0000
0000
0010
0000
0000
0000
0000
0000
0000
0000
0001
0000
0000
0000
0010
0000
0000
0000
0000
0000
0000
0000
0001
0000
0000
0000
0000
0000
0000
0000
0200
0300
0000
0000
0000
0000
0000
0000
0200
0300
0000
0000
0000
0000
0000
0000
1000
0000
0000
0000
0000
0000
0000
0000
,
0001
0100
0001
0100
0010
0000
1000
0100
1000
0100
0010
0000
0001
1000
0002
0000
,
0000
0000
0000
0000
0000
0000
0000
0000
1003
0000
0000
0000
0010
0000
0000
0000
0100
0000
0000
0000
0000
0000
0000
0000
0020
0000
0000
0000
0000
0000
0000
0000
0000
0000
0000
0000
0000
0000
0000
0000
1030
0000
0000
0000
0000
0000
0000
0000
0020
0030
0000
0000
0000
0000
0000
0000
0020
0030
0000
0000
0000
0000
0000
0000
,
0001
0000
0100
0010
0000
1000
0010
0000
0100
0000
0001
1000
0002
0000
0000
0000
,
1003
0000
0000
0000
0000
0000
0000
0000
0001
0000
0000
0000
0100
0000
0000
0000
0000
0000
0000
0000
0010
0000
0000
0000
0100
0000
0000
0000
0000
0000
0000
0000
0001
0000
0000
0000
0000
0000
0000
0000
0200
0300
0000
0000
0000
0000
0000
0000
0200
0300
0000
0000
0000
0000
0000
0000
1000
0000
0000
0000
0000
0000
0000
0000
,
0100
0000
0010
0000
0001
0000
1000
0000
0001
0100
0010
1000
0010
0000
1010
0000
,
0000
0101
1001
0000
0100
0100
1001
0000
,
0010
0100
1000
0100
0010
0100
1000
0100
0010
0100
1000
0100
0010
0000
0000
0000
,
0001
0100
0010
0100
0001
0100
0010
0100
0001
0100
0010
0100
0001
0000
0000
0000
,
1000
0001
0010
0001
1000
0001
0010
0001
1000
0001
0010
0001
1000
0000
0000
0000
,
0001
1000
0010
1000
0001
1000
0010
1000
0001
1000
0010
1000
0001
1000
0010
1000
,
0001
0000
0100
0000
0010
0000
1000
0000
0001
0000
0100
0000
0001
0010
0100
1000
,
0100
0000
1000
0000
0010
0000
0100
0000
0001
0000
0100
0000
0010
1000
0010
0100
,
0001
1000
0010
1000
0001
0100
0001
1000
,
0001
0010
0100
1000
0010
0100
0001
0010
0100
1000
0010
0100
0002
0000
0000
0000
,
1003
0100
0001
0100
1000
0100
0000
0001
0000
0100
0000
1000
0000
0001
0000
0000
,
0001
0000
0010
0000
1000
0000
0010
0000
0001
0000
0010
0000
0000
0000
1000
0000
0000
0000
0000
0000
0010
0000
0001
1000
0001
0000
0000
0100
0010
0000
1000
0000
,
0001
0000
0100
0000
1000
0000
0100
0000
0001
0000
0100
0000
1000
0100
0001
0000
0000
0000
1000
0000
1000
0000
0010
0000
0010
0000
0100
0000
0001
0000
2002
0000
,
0000
0000
0000
0000
,
3003
0000
0000
0000
;

//--------------- dance-single - Fred-1Ø4† ----------------
#NOTEDATA:;
#STEPSTYPE:dance-single;
#DESCRIPTION:Fred-1Ø4†;
#DIFFICULTY:Challenge;
#METER:19;
#CREDIT:Fred-1Ø4†;
#NOTES:
0000
0000
0000
0000
,
0000
0000
0000
0000
,
0000
0000
0000
0000
,
0000
0000
0000
0000
,
0001
0100
0010
1000
1100
0000
0110
0000
0010
0001
1000
0001
0101
0000
1001
0000
,
0001
0000
0100
0000
1000
0000
0100
0000
0101
0000
0000
0000
1001
0000
0000
0000
1000
0100
1000
0010
0100
0001
1000
0100
0010
0001
1000
0001
1000
0100
0010
0001
,
0011
0000
0100
1000
1010
0000
0100
0001
0101
0000
0010
0100
1100
0000
0010
0100
,
0001
0000
0000
0000
0100
0000
0000
0000
0010
0000
0000
0000
0100
0000
0000
0000
0001
0000
0000
0000
1000
0000
0000
0000
0100
0000
0000
0000
0010
0000
0000
0000
0002
0003
0000
0000
0200
0300
0000
0000
0000
0000
0000
0000
2000
3000
0000
0000
0000
0000
0000
0000
0100
0000
0001
0000
0020
0000
0000
0000
0000
0000
0000
0000
,
0031
0100
0010
0001
0010
1000
0000
0001
0000
0100
0000
0010
0000
1000
0000
0000
,
0001
0000
0000
0000
0000
0000
0010
0000
0000
0000
0000
0000
0100
0000
0000
0000
0000
0000
0001
0000
0000
0000
0000
0000
0100
0000
0000
0000
0000
0000
0010
0000
0000
0000
0000
0000
0000
0000
0000
0000
0000
0000
0001
0000
0000
0000
0000
0000
0000
0000
0000
0000
0000
0000
0000
0000
0000
0000
0000
0000
1000
0000
0000
0000
0000
0000
0001
0000
0000
0100
0000
0000
0001
0000
0000
0000
0000
0000
0000
0000
0000
0000
0100
0000
0010
0000
0000
0000
0000
0000
1000
0000
0000
0000
0000
0000
,
0001
0000
0000
0010
0000
0000
0100
0000
0000
1000
0000
0000
0010
0000
0000
0100
0000
0000
0001
0100
0010
0100
0000
0000
0000
0000
0000
0101
0000
0000
0000
0000
0000
1100
0000
0000
0000
0000
0000
0101
0000
0000
0000
0000
0000
1001
0000
0000
,
0000
1000
0001
0010
1000
0001
0100
1000
0000
1010
0000
0010
0100
0001
1000
0001
,
1000
0000
0001
0000
1000
0000
0100
0000
1100
0000
0000
0101
0000
0000
1010
0000
,
0010
0000
1000
0000
0001
0010
0100
0000
0010
0000
0000
0000
1001
0000
0000
0000
,
0001
0000
0100
0000
0110
0000
0000
0000
0110
0000
0000
1010
0000
0000
0101
0000
,
0001
0100
0010
1000
0001
0010
0100
1000
0001
0000
1000
0000
1001
0000
0000
0000
,
1001
0000
1000
0000
0100
0000
0000
0000
0011
0000
0000
1010
0000
0000
0011
0000
,
1001
0000
1000
0000
0100
0000
0000
0000
1100
0000
0000
0001
0100
0000
0010
0000
,
1000
0001
0010
0001
1000
0001
0100
0001
1000
0001
0010
0100
0010
0001
1000
0010
,
0100
0000
0000
0000
0001
0000
0000
0000
1000
0000
0000
0000
0010
0000
0000
0000
0100
0000
0000
0000
0001
0000
0000
0000
0010
0000
0000
0000
0100
0000
0000
0000
2000
3000
0000
0000
0000
0000
0000
0000
0000
0000
0000
0000
0000
0000
0000
0000
0001
0000
0000
0000
0000
0000
0000
0000
0200
0000
0000
0000
0000
0000
0000
0000
,
0010
0000
0310
0000
0100
0010
1000
0010
0100
0000
0001
0000
1000
0000
0100
0001
,
0100
0000
1000
0000
0001
0100
0010
1000
0001
0000
0000
0000
1000
0000
0100
0001
,
0100
0000
1000
0000
0010
0001
0010
0000
1000
0000
0001
0000
0201
0000
0000
0000
,
0310
1000
1100
1000
0001
0000
0110
0000
,
0001
0000
1000
0000
1100
0000
1000
0000
1001
0000
0000
0000
0001
0010
1000
0010
,
0100
0000
0000
0000
0000
0000
0000
0000
0010
0000
0000
0000
0000
0000
0000
0000
0001
0000
0000
0000
0000
0000
0000
0000
0020
0030
0000
0000
0000
0000
0000
0000
0020
0030
0000
0000
0000
0000
0000
0000
1000
0000
0000
0000
0000
0000
0000
0000
0001
0000
0000
0000
0100
0000
0000
0000
0010
0000
0000
0000
0100
0000
0000
0000
,
0001
1000
0100
1000
0001
0100
0010
1000
0010
0000
1010
0000
0000
0000
0011
0000
,
0000
1100
0001
0010
0100
1000
0002
0100
,
2003
0000
0010
0000
3001
0100
0010
1000
0001
0000
0000
0000
1000
0000
0100
0001
,
0100
0000
1000
0000
0001
0100
1000
0100
0001
0000
0000
0000
1000
0010
0100
0001
,
1000
0000
0000
0000
0000
0000
0000
0000
0001
0000
0000
0000
0000
0000
0000
0000
0020
0030
0000
0000
0000
0000
0000
0000
0020
0030
0000
0000
1000
0000
0000
0000
0001
0000
0000
0000
0000
0000
0000
0000
1000
0000
0000
0000
0000
0000
0000
0000
1100
0000
0000
0000
0000
0000
0000
0000
0000
0000
0000
0000
0000
0000
0000
0000
,
0010
0100
0101
0100
0010
0000
2000
3010
,
0001
1000
0100
0001
1001
0000
0001
0010
,
2000
0000
3001
0000
0200
0000
1300
0000
0001
0000
0100
0000
0120
0000
0000
0030
,
1020
0000
0000
0000
0000
0000
0000
0000
0000
0030
0000
0000
0120
0000
0000
0000
0000
0000
0000
0000
0000
0030
0000
0000
0021
0000
0000
0000
0000
0000
0000
0000
0000
0030
0000
0000
1010
0000
0000
0000
1000
0000
0000
0000
0100
0000
0000
0000
,
0001
1000
0010
0001
0100
1000
0001
0010
1000
2002
0000
0000
,
0000
0000
0000
0000
,
0000
0000
0000
0000
0000
0000
0000
0000
3003
0000
0000
0000
1000
0010
0100
1000
,
0100
0001
0000
1000
0000
0010
0000
0100
0000
1001
0000
0000
0001
0010
0100
0001
,
0100
0000
0000
0000
0000
0000
0010
0000
0000
0000
0000
0000
0000
0000
0000
0000
0000
0000
0001
0000
0000
0000
0000
0000
0000
0000
0000
0000
0000
0000
0000
0000
0000
0000
0000
0000
1000
0000
0000
0000
0000
0000
0001
0000
0000
0010
0000
0000
0100
0000
0000
0000
0000
0000
0000
0000
0000
0000
0100
0000
0010
0000
0000
0000
0000
0000
0001
0000
0000
0000
0000
0000
1000
0000
0000
0000
0000
0000
0100
0000
0000
0000
0000
0000
0001
0000
0000
0000
0000
0000
0100
0000
0000
0000
0000
0000
,
1000
0000
0000
0010
0000
0000
0100
0001
0010
0001
0000
0000
0000
0000
0000
1010
0000
0000
0000
0000
0000
0101
0000
0000
0000
0000
0000
1100
0000
0000
0000
0000
0000
0011
0000
0000
0000
0000
0000
0001
0000
0000
1000
0000
0000
0100
0000
0000
,
0001
1000
0010
0001
0000
0011
0000
1010
0010
0100
0001
0000
1000
0100
0010
0001
,
1000
0100
0010
0001
1000
0010
0100
0001
1000
0010
0100
0001
0100
0001
1000
0010
,
0100
0001
1000
0010
1000
0001
0010
0100
1000
0001
0010
0100
1000
0100
0010
0001
,
0100
0010
1000
0010
0100
0001
0100
0010
1000
0100
0010
0001
1000
0010
0100
0001
,
0010
0100
1000
0010
0100
0010
1000
0001
0010
0001
0100
0010
1000
0010
0100
1000
,
0100
0010
0001
0010
0100
0001
0010
0100
1000
0010
0100
0001
1000
0100
0010
1000
,
0010
0100
0001
0100
0010
0001
0100
0010
1000
0100
0010
0001
1000
0001
0010
0100
,
0010
1000
0010
0001
1000
0010
0001
0010
0100
0010
1000
0001
0010
0100
0001
1000
,
0010
0000
0000
0000
0100
0000
0000
0000
1000
0000
0000
0000
0001
0000
0000
0000
2000
3000
0000
0000
0000
0000
0000
0000
0000
0000
0000
0000
0000
0000
0000
0000
2002
0000
0000
0000
0000
0000
0000
0000
0000
0000
0000
0000
0000
0000
0000
0000
0000
0000
0000
0000
0000
0000
0000
0000
0000
0000
0000
0000
0000
0000
0000
0000
,
0000
0000
0000
0000
0000
3003
0000
0000
,
1000
0100
0010
0001
1000
0100
0010
0001
,
1000
0100
0010
0001
1000
0100
0010
0001
,
1000
0100
0010
0001
1000
0100
0010
0001
,
1000
0100
0010
0001
1000
0100
0010
0001
,
2000
0000
0000
0000
,
0000
0000
0000
0000
,
0000
0000
0000
0000
,
0000
0000
0000
0000
,
3000
0000
1000
0001
,
2000
0000
0000
0000
,
3001
0000
0010
0100
0000
1000
0010
0000
0100
0001
0000
1000
0100
0000
0010
0000
,
0001
0000
0100
0001
0000
0010
0001
0000
1000
0100
0000
0001
0100
0000
1000
0000
,
0001
0100
1000
0100
0001
0000
0101
0000
0000
0000
0110
0000
0010
0000
1000
0000
,
0001
0010
1000
0010
0001
0000
0011
0000
0000
0000
0101
0000
0100
0000
0001
0000
,
1000
0000
0001
0010
0000
0100
1000
0000
0001
0000
0100
0010
1000
0000
0100
0000
,
0010
0000
0100
1000
0000
0010
0100
0000
0001
0000
0010
0100
0010
0000
0001
0000
,
1001
0000
1000
0000
0001
0000
0001
0000
1000
0010
0001
0010
0100
0000
0110
0000
,
0000
0000
0101
0000
1100
0000
0000
0000
0110
0000
1001
0000
0001
0100
0010
1000
,
0002
0003
0000
0000
0000
0000
0000
0000
0000
0000
0000
0000
0000
0000
0000
0000
1000
0000
0000
0000
0000
0000
0000
0000
0100
0000
0000
0000
0000
0000
0000
0000
0010
0000
0000
0000
0001
0000
0000
0000
0000
0000
0000
0000
1000
0000
0000
0000
0001
0000
0000
0000
0000
0000
0000
0000
0100
0000
0000
0000
0000
0000
0000
0000
,
0001
0000
0010
1000
0000
0001
0100
0000
1000
0000
0001
1000
0001
0000
0100
0000
,
0001
0100
1000
0001
0010
0000
1000
0100
0001
1000
0010
0000
0001
0100
0010
0000
,
0001
0000
0000
0000
0000
0000
0000
0000
1000
0000
0000
0000
0100
0000
0000
0000
0001
0000
0000
0000
0000
0000
0000
0000
0020
0030
0000
0000
0000
0000
0000
0000
0020
0030
0000
0000
0000
0000
0000
0000
1000
0000
0000
0000
0001
0000
0000
0000
1000
0000
0000
0000
0000
0000
0000
0000
0001
0000
0000
0000
0000
0000
0000
0000
,
1001
0000
0001
0010
0000
0100
1000
0000
0001
0000
0100
0010
0200
0000
0000
0300
,
0110
0000
0100
0001
0000
1000
0001
0000
1000
0000
0100
0010
0001
0000
1000
0000
,
1001
0000
0001
0000
0100
0000
0010
0000
0100
0001
1000
0001
0100
0000
0110
0000
,
0000
1100
0101
0000
0110
1001
0001
1000
,
0001
0010
0100
1000
0010
0100
1000
0100
0010
0001
0010
0100
0001
0010
0100
1000
,
0100
0010
0001
1000
0100
0001
0100
1000
0010
0100
1000
0100
0001
1000
0001
0010
,
0001
1000
0100
0001
0100
0010
0001
1000
0010
0001
0010
0100
0001
1000
0100
1000
,
0001
0010
0100
0001
0100
1000
0001
0100
1000
0100
0010
0001
0010
0100
0010
1000
,
0001
0010
0100
0001
0100
0010
1000
0010
0100
0001
0100
0010
0001
0100
0010
1000
,
0001
0100
0010
0001
0010
0100
1000
0100
0010
0001
0010
0100
0001
0010
0100
1000
,
0001
1000
0010
0100
1000
0001
0010
0100
0001
1000
0010
0001
1000
0100
0001
1000
,
0100
0001
1000
0010
0100
0010
0001
1000
0001
0000
1001
0000
0000
0000
0000
0000
,
1000
0100
0001
1000
0010
0001
0000
0100
0000
1000
0000
0001
0000
0010
0000
0000
,
1000
0000
0000
0000
0000
0000
0001
0000
0000
0000
0000
0000
0100
0000
0000
0000
0000
0000
0010
0000
0000
0000
0000
0000
1000
0000
0000
0000
0000
0000
0100
0000
0000
0000
0000
0000
0000
0000
0000
0000
0000
0000
0010
0000
0000
0000
0000
0000
0000
0000
0000
0000
0000
0000
0000
0000
0000
0000
0000
0000
0001
0000
0000
0000
0000
0000
0010
0000
0000
0100
0000
0000
1000
0000
0000
0000
0000
0000
0000
0000
0000
0000
0010
0000
0100
0000
0000
0000
0000
0000
0001
0000
0000
0000
0000
0000
,
1000
0000
0000
0010
0000
0000
0100
0000
0000
1000
0000
0000
0100
0000
0000
0001
0000
0000
1000
0001
1000
0001
0000
0000
0000
0000
0000
1100
0000
0000
0000
0000
0000
0110
0000
0000
0000
0000
0000
0011
0000
0000
0000
0000
0000
2002
0000
0000
,
0000
0000
0000
0000
,
3003
0000
0000
0000
;

//--------------- dance-double - Fred-1Ø4 ----------------
#NOTEDATA:;
#STEPSTYPE:dance-double;
#DESCRIPTION:Fred-1Ø4;
#DIFFICULTY:Easy;
#METER:13;
#CREDIT:Fred-1Ø4;
#NOTES:
00000000
00000000
00000000
00000000
,
00000000
00000000
00000000
00000000
,
00000000
00000000
00000000
00000000
,
00000000
00000000
00000000
00000000
,
00010000
00000000
01000000
00000000
01100000
00000000
00100000
00000000
10000000
01000000
00000000
01000000
00100000
00000000
00010000
00000000
,
10000000
00000000
00100000
00000000
01100000
00000000
01000000
00000000
00010000
00100000
00000000
00100000
00001000
00000000
00010000
00000000
,
00011000
00100000
00011000
00000010
00011000
01000000
00011000
00000100
,
00010000
00000000
00000000
00000000
00001000
00000000
00000000
00000000
00010000
00000000
00000000
00000000
00000000
00000000
00000000
00000000
00000100
00000000
00000000
00000000
00001000
00000000
00000000
00000000
00000010
00000000
00000000
00000000
00000000
00000000
00000000
00000000
00020000
00030000
00000000
00000000
00020000
00030000
00000000
00000000
00000000
00000000
00000000
00000000
00002000
00003000
00000000
00000000
00000000
00000000
00000000
00000000
00010000
00000000
00000000
00000000
00002000
00000000
00000000
00000000
00000000
00000000
00000000
00000000
,
00103000
00000000
00100000
00000000
00010000
00100000
00000000
00010000
00000000
01000000
00000000
00100000
00000000
10000000
00000000
00000000
,
00010000
00000000
10000000
00000000
00100000
01000000
00000000
00010000
00000000
00000000
10000000
01000000
00010000
00000000
00001000
00010000
,
00001000
00000000
00010000
00000000
00001000
00000010
00000000
00000100
00000000
00001000
00000000
00000001
00000000
00000100
00000000
00000110
,
00000000
00000000
00000000
00000000
00010000
00010000
00001000
00010000
00000000
00001000
00000000
00010000
00000000
00000100
00001000
00000000
,
00000010
00000000
00000000
00000000
00001000
00000000
00000000
00000000
00000001
00000000
00000000
00000001
00000000
00000000
00000001
00000000
,
00000100
00000010
00001001
00001000
,
00000010
00000000
00000000
00000000
00010000
00000000
00000000
00000000
00001000
00000000
00000000
00100000
00000000
00000000
00100000
00000000
,
00010000
10000000
11000000
00100000
,
01000000
00000000
00000000
00000000
01100000
00000000
00000000
00000000
10000000
00000000
00000000
01000000
00000000
00000000
00100000
00000000
,
00001000
00000000
00000000
00000000
00011000
00000000
00000000
00000000
00010000
00000000
00000000
00000010
00000000
00000000
00001000
00000000
,
00000010
00000100
00000001
00000000
00000010
00000100
00001000
00000000
,
00000001
00000000
00000000
00000000
00000000
00000000
00000000
00000000
00000010
00000000
00000000
00000000
00000000
00000000
00000000
00000000
00001000
00000000
00000000
00000000
00000000
00000000
00000000
00000000
00000000
00000000
00000000
00000000
00000000
00000000
00000000
00000000
00022000
00033000
00000000
00000000
00000000
00000000
00000000
00000000
00000000
00000000
00000000
00000000
00000000
00000000
00000000
00000000
00002000
00000000
00000000
00000000
00000000
00000000
00000000
00000000
00000000
00000000
00000000
00000000
00000000
00000000
00000000
00000000
,
00103000
00000000
00000000
00000000
00002000
00000000
00000000
00000000
01003000
00000000
00000000
00000000
00001000
00000000
00000000
00010000
,
00000000
00010000
00001000
00000010
00000001
00000000
00001000
00000001
,
00000100
00000000
00000001
00001000
00000100
00000000
00000210
00000000
,
00000310
00000001
00001000
00000001
00001000
00000000
00001020
00000000
,
00010030
00000000
00001000
00010000
00001000
00000000
00010000
00000000
,
00001000
00010000
01000000
00100000
00010000
00000000
10000000
01000000
,
00010000
00001000
00100000
00001000
00000000
00010000
00000000
00001000
,
00000000
00000100
00000000
00000001
00001000
00000000
00000020
00000000
,
00000130
00000000
00000000
00000000
00000020
00000000
00000000
00000000
00001030
00000000
00000000
00000000
00000001
00000000
00000000
00000100
,
00000000
00001000
00010000
00001000
00010000
00000000
00001000
00010000
,
00000010
00001000
00000010
00010000
00001000
00000000
00021000
00000000
,
00031000
00100000
00010000
00100000
00001000
00000000
00010000
00000100
,
00001000
00000000
00000010
00000100
00000100
00000000
00000001
00000100
,
00001000
00000000
00010000
00001000
00010000
00000000
00011000
00000000
,
00100000
00000000
00000000
10010000
00000000
00000000
01000000
00000000
00000000
00100000
00000000
00100000
,
00000000
00100000
00000000
01000000
00000000
01000000
00000000
01000000
00000000
20020000
00000000
00000000
,
00000000
00000000
00000000
00000000
,
00000000
00000000
00000000
00000000
30030000
00000000
01000000
00010000
,
10000000
00100000
00000000
01000000
00000000
00100000
00000000
10000000
00000000
01000000
00000000
00000000
00100000
00000000
00001000
00000000
,
00010000
00001000
00000000
00010000
00000000
00000000
00000010
00001000
00000010
00000000
00000100
00000010
00000100
00000000
00000001
00000000
,
00000100
00000010
00000000
00001000
00000000
00000001
00000000
00000010
00000000
00000100
00000000
00010000
00000000
00000000
00001000
00000000
,
00010000
00001000
00010000
00001000
00000000
00100000
00000000
00010000
00000000
01000000
00100000
00000000
20000000
00000000
00000000
00000000
,
32000000
03200000
00302000
00023000
,
00030200
00000320
00000032
00002003
,
00003002
00000203
00002300
00023000
,
02030000
23000000
30020000
01030000
,
01100000
00000000
00000000
00000000
10000000
00000000
00000000
01000000
00000000
00000000
00100000
00000000
00001000
00000000
00000000
00000000
,
00011000
00000000
00000000
00000000
00010000
00000000
00000000
00000010
00000000
00000000
00001000
00000000
00000001
00000000
00000100
00000000
,
00000001
00000000
00000100
00000010
00001000
00000000
00000100
00010000
,
00001000
00000000
00000000
00000000
00000000
00000000
00000000
00000000
00000000
00000000
00000000
00000000
00000000
00000000
00000000
00000000
00022000
00033000
00000000
00000000
00000000
00000000
00000000
00000000
00000000
00000000
00000000
00000000
00000000
00000000
00000000
00000000
00022000
00000000
00000000
00000000
00000000
00000000
00000000
00000000
00000000
00000000
00000000
00000000
00000000
00000000
00000000
00000000
00000000
00000000
00000000
00000000
00000000
00000000
00000000
00000000
00000000
00000000
00000000
00000000
00000000
00000000
00000000
00000000
,
00000000
00000000
00000000
00000000
00000000
00033000
00000000
00000000
,
00010000
00001000
00010000
00001000
,
00010000
00001000
00010000
00001000
,
00010000
00001000
00010000
00001000
,
00010000
00001000
00010000
00001000
,
00020000
00000000
00000000
00000000
,
00000000
00000000
00000000
00000000
,
00000000
00000000
00000000
00000000
,
00000000
00000000
00000000
00000000
,
00030000
00000000
00000000
00000000
,
00000000
00000000
00000000
00000000
,
00001000
00000000
00000000
00100000
00000000
00000000
00010000
00000000
00000000
01000000
00000000
00000000
00010000
00000000
10000000
00000000
,
00010000
00000000
00000000
00010000
00000000
00000000
01000000
00000000
00000000
01000000
00000000
00000000
00001000
00000000
00010000
00000000
,
00001000
00010000
00000100
00002000
00000000
00003100
00000010
00000100
,
00000010
00000001
00000010
00000002
00000000
00001003
00000001
00000100
,
00000001
00000000
00000000
00001000
00000000
00000000
00000200
00000000
00000000
00000000
00001300
00000000
00000010
00000000
00000100
00000000
,
00000010
00000000
00000000
00010000
00000000
00000000
00002000
00000000
00000000
00000000
00013000
00000000
00001000
00000000
00100000
00000000
,
00010000
01000000
00100000
00000000
10000000
01000000
00100000
00100000
,
00000000
00001000
00010000
00000000
00000100
00001000
00000010
00000000
,
00002002
00003003
00000000
00000000
00000000
00000000
00000000
00000000
00000000
00000000
00000000
00000000
00000000
00000000
00000000
00000000
00001001
00000000
00000000
00000000
00000000
00000000
00000000
00000000
00000000
00000000
00000000
00000000
00000000
00000000
00000000
00000000
00000001
00000000
00000000
00000000
00000000
00000000
00000000
00000000
00000100
00000000
00000000
00000000
00000000
00000000
00000000
00000000
00000010
00000000
00000000
00000000
00000000
00000000
00000000
00000000
00000000
00000000
00000000
00000000
00000000
00000000
00000000
00000000
,
00001000
00000000
00000000
00000100
00000000
00000000
00020000
00000000
00000000
00000000
00031000
00000000
01000000
00000000
00000000
00000000
,
00010000
01000000
00010000
10000000
01000000
10000000
00100000
02000000
,
00000000
03100000
10000000
01000000
00000000
00100000
00001000
00010000
,
00001000
00000000
00000000
00010000
00000000
00000000
00002000
00000000
00000000
00000000
00003010
00000000
00000100
00000000
00000000
00000000
,
00001000
00000000
00000000
00000100
00000000
00000000
00000020
00000000
00000000
00000000
00000031
00000000
00001000
00000000
00001000
00000000
,
00000001
00000100
00001000
00000000
00010000
00001000
00010000
01000000
,
00000000
00100000
00010000
00000000
10000000
00010000
10010000
00000000
,
10000000
01000000
10000000
01000000
10000000
00000000
11000000
00000000
,
00010000
01000000
00010000
01000000
00010000
00000000
01010000
00000000
,
00100000
00010000
00100000
00010000
00100000
00000000
00110000
00000000
,
00001000
00010000
00001000
00010000
00001000
00010000
00001000
00000000
,
00010000
00000000
00001000
00000000
00000100
00000010
00000100
00000010
,
00001000
00000000
00001000
00000000
00000001
00000010
00000001
00000100
,
00000010
00000000
00001000
00000000
00000100
00010000
00001000
00010000
,
00000000
00001000
00100000
00000000
20020000
00000000
30030000
00000000
,
00010000
00000000
01000000
00000000
00100000
10000000
00000000
01000000
00000000
00100000
00000000
01000000
00000000
10000000
00000000
00000000
,
00010000
00000000
10000000
00000000
01000000
00010000
00000000
00001000
00000000
00000000
00000100
00000010
00001000
00000000
00000001
00000010
,
00000100
00000000
00001000
00000000
00000100
00010000
00000000
00001000
00000000
00100000
00000000
01000000
00000000
10000000
00000000
20020000
,
00000000
00000000
00000000
00000000
,
30030000
00000000
00000000
00000000
;

//--------------- dance-double - Fred-1Ø4 ----------------
#NOTEDATA:;
#STEPSTYPE:dance-double;
#DESCRIPTION:Fred-1Ø4;
#DIFFICULTY:Medium;
#METER:16;
#CREDIT:Fred-1Ø4;
#NOTES:
00000000
00000000
00000000
00000000
,
00000000
00000000
00000000
00000000
,
00000000
00000000
00000000
00000000
,
00000000
00000000
00000000
00000000
,
00001000
00000000
00010000
00001000
00011000
00000000
00100000
00000000
00010000
00000000
01000000
00100000
01100000
00000000
00100000
00000000
,
10000000
00000000
00010000
00100000
00110000
00000000
01000000
00000000
10000000
01000000
00010000
00000000
00001000
00010000
00001000
00000000
,
00011000
01000000
00011000
00000100
00011000
00100000
00011000
00000010
,
00000100
00000000
00000000
00000000
00000001
00000000
00000000
00000000
00000100
00000000
00000000
00000000
00000001
00000000
00000000
00000000
00001000
00000000
00000000
00000000
00000100
00000000
00000000
00000000
00001000
00000000
00000000
00000000
00000100
00000000
00000000
00000000
00000020
00000030
00000000
00000000
00000020
00000030
00000000
00000000
00000000
00000000
00000000
00000000
00000200
00000300
00000000
00000000
00000000
00000000
00000000
00000000
00000001
00000000
00000000
00000000
00002000
00000000
00000000
00000000
00000000
00000000
00000000
00000000
,
00003001
00000100
00000001
00000100
00001000
00000100
00000000
00001000
00000000
00010000
00000000
01000000
00000000
10000000
00000000
00000000
,
10000000
00000000
01000000
00000000
10000000
00000000
01000000
00000000
00010000
00000000
01000000
00000000
00000000
00000000
00010000
00000000
00000000
00000000
00000000
00000000
00001000
00000000
00010000
00000000
00001000
00000000
00000000
00010000
00001000
00000000
00000100
00000000
,
00001000
00010000
00001000
00000010
00000001
00000010
00000000
00001000
00000000
00010000
00000000
00001000
00000000
00000100
00000000
00000010
,
00000000
00000000
00001000
00000001
00000010
00000100
00000010
00001000
00000000
00010000
00000000
00100000
01000000
00010000
10000000
00000000
,
10000000
00000000
00000000
00000000
00100000
00000000
00000000
00000000
01000000
00000000
00000000
01000000
00000000
00000000
01000000
00000000
,
00001000
00000000
00010000
00000000
00011000
00000000
00010000
00000010
,
00000100
00000000
00000000
00000000
00000001
00000000
00000000
00000000
00000100
00000000
00000000
00000100
00000000
00000000
00000010
00000000
,
00010000
00000000
00011000
00000000
00001000
00010000
01000000
00000000
,
00100000
00000000
00000000
00000000
01100000
00000000
00000000
00000000
00100000
00000000
00000000
10000000
00000000
00000000
00010000
00000000
,
10000000
00000000
00000000
00000000
11000000
00000000
00000000
00000000
00010000
00000000
00000000
10000000
00000000
00000000
00100000
00000000
,
01000000
00100000
00010000
00001000
00000100
00000010
00001000
00000001
,
00000010
00000000
00000000
00000000
00000001
00000000
00000000
00000000
00000010
00000000
00000000
00000000
00000000
00000000
00000000
00000000
00000100
00000000
00000000
00000000
00001000
00000000
00000000
00000000
00000100
00000000
00000000
00000000
00000000
00000000
00000000
00000000
00002002
00003003
00000000
00000000
00000000
00000000
00000000
00000000
00000000
00000000
00000000
00000000
00000000
00000000
00000000
00000000
00010000
00000000
00000000
00000000
00000000
00000000
00000000
00000000
00002000
00000000
00000000
00000000
00000000
00000000
00000000
00000000
,
00000000
00000000
00013000
00000000
00001000
00000000
00000000
00000000
00000100
00000000
00000000
00000000
00000010
00000000
00000000
00001000
,
00000000
00000001
00000100
00010000
01000000
00000000
10000000
01000000
,
00010000
00001000
00010000
00001000
00000100
00000001
00002000
00000000
,
00003001
00000100
00000010
00001000
00000001
00000000
00001002
00000000
,
00000103
00000010
00001000
00000001
00000010
00000100
00010000
00001000
,
00010000
00001000
00100000
00010000
10000000
00000000
00100000
01000000
,
00100000
10000000
00010000
01000000
00000000
11000000
00000000
01010000
,
00000000
10000000
00100000
00010000
00001000
00000010
00000002
00000100
,
00000103
00000000
00000000
00000000
00000010
00000000
00001000
00000000
00000001
00000000
00000010
00000000
00000100
00000000
00000000
00000100
,
00000000
00000100
00000010
00010000
00001000
00000000
00100000
00020000
,
10000000
10030000
00010000
01000000
00100000
00000000
01200000
00000000
,
10300000
01000000
00010000
00001000
00000100
00000000
00000001
00000100
,
00001000
00000000
00010000
00100000
10000000
00000000
10000000
01000000
,
00010000
00000000
00001000
00000020
00000031
00000000
00001001
00000000
,
00000100
00000000
00000000
00011000
00000000
00000000
01000000
00000000
00000000
00010000
00000000
10000000
,
00000000
00001000
00000000
00010000
00000000
00000001
00000000
00001000
00000000
00002002
00000000
00000000
,
00000000
00000000
00000000
00000000
,
00000000
00000000
00000000
00000000
00000000
00000000
00000000
00000000
00003003
00000000
00000000
00000000
00000001
00000100
00000010
00000100
,
00000001
00001000
00000000
00000100
00000000
00000010
00000000
00000100
00000000
00010000
00000000
00000000
00001000
00100000
00010000
01000000
,
00001000
00000000
00100000
00000000
00000000
00000000
00010000
00000000
00000000
00000000
00000000
00000000
01000000
00000000
00001000
00000000
00100000
00000000
00000000
00010000
00100000
00000000
00001000
00000000
00010000
00000000
00001000
00000000
00100000
00000000
00010000
00000000
,
00100000
01000000
00000000
10000000
00000000
01000000
00000000
00010000
00000000
00001000
00000000
00000100
00000000
00000000
00000001
00000100
,
00000010
00001000
00000001
00000010
00000000
00000010
00000000
00000001
00000100
00001000
00010000
00000000
00001000
00000000
00000100
00000000
,
00000001
00000100
00001000
00010000
00002000
00000000
00013000
00001000
,
00010000
01000000
10000000
01000000
00020000
00000000
00031000
00000010
,
00000001
00000010
00001000
00010000
00002000
00000000
00013000
00001000
,
00010000
00100000
10000000
00100000
00020000
00000000
00031000
00000000
,
00011000
00000000
00000000
00000000
00000010
00000000
00000000
00001000
00000000
00000000
00000001
00000000
00000100
00000000
00000000
00000000
,
00000110
00000000
00000000
00000000
00000010
00000000
00000000
00001000
00000000
00000000
00000100
00000000
00010000
00000000
00001000
00000000
,
01000000
00000000
00010000
00000000
10000000
00000000
01000000
00000000
00100000
00000000
00010000
00000000
00100000
00001000
00100000
00000000
,
00001000
00000000
00000000
00000000
00010000
00000000
00000000
00000000
00001000
00000000
00000000
00000000
00000000
00000000
00000000
00000000
00022000
00033000
00000000
00000000
00000000
00000000
00000000
00000000
00000000
00000000
00000000
00000000
00000000
00000000
00000000
00000000
00002002
00000000
00000000
00000000
00000000
00000000
00000000
00000000
00000000
00000000
00000000
00000000
00000000
00000000
00000000
00000000
00000000
00000000
00000000
00000000
00000000
00000000
00000000
00000000
00000000
00000000
00000000
00000000
00000000
00000000
00000000
00000000
,
00000000
00000000
00000000
00000000
00000000
00003003
00000000
00000000
,
00000001
00001000
00000001
00001000
,
00000001
00001000
00000001
00001000
,
00000001
00001000
00000001
00001000
00000001
00001000
00000001
00001000
,
00000001
00001000
00000001
00001000
00000001
00001000
00000001
00001000
,
00000002
00000000
00000000
00000000
,
00000000
00000000
00000000
00000000
,
00000000
00000000
00000000
00000000
,
00000000
00000000
00000000
00000000
,
00000003
00000000
00000000
00000000
,
00000000
00000000
00000000
00000000
,
00010000
00000000
00000000
00001000
00000000
00000000
00000010
00000000
00000000
00001000
00000000
00000000
00010000
00000000
00001000
00000000
,
00010000
00000000
00000000
00100000
00000000
00000000
01000000
00000000
00000000
00100000
00000000
00000000
10000000
00000000
01000000
00000000
,
00010000
00001000
00000100
00000002
00000000
00000103
00000010
00001000
,
00000001
00000010
00000100
00020000
00000000
00031000
00100000
00010000
,
10000000
00000000
00000000
00100000
00000000
00000000
02000000
00000000
00000000
00000000
03010000
00000000
01000000
00000000
00100000
00000000
,
10000000
00000000
00000000
00100000
00000000
00000000
00020000
00000000
00000000
00000000
00031000
00000000
00010000
00000000
00001000
00000000
,
00000010
00000001
00001000
00000010
00000100
00000100
00000001
00001001
,
00000000
00000010
00010000
00000000
00001000
00100000
00010000
10000000
,
20020000
30030000
00000000
00000000
00000000
00000000
00000000
00000000
00000000
00000000
00000000
00000000
00000000
00000000
00000000
00000000
01100000
00000000
00000000
00000000
00000000
00000000
00000000
00000000
00000000
00000000
00000000
00000000
00000000
00000000
00000000
00000000
00010000
00000000
00000000
00000000
00000000
00000000
00000000
00000000
01000000
00000000
00000000
00000000
00000000
00000000
00000000
00000000
00100000
00000000
00000000
00000000
00000000
00000000
00000000
00000000
10000000
00000000
00000000
00000000
00000000
00000000
00000000
00000000
,
00010000
00000000
00000000
00100000
00000000
00000000
01000000
00000000
00000000
00000000
00010000
00000000
00001000
00000000
00010000
00000000
,
00001000
00000100
00000001
00001000
00000100
00000010
00000001
00002000
,
00000000
00003001
00000100
00001000
00000000
00010000
00001000
00010000
,
00001000
00000000
00000000
00010000
00000000
00000000
00200000
00000000
00000000
00000000
01300000
00000000
01100000
00000000
00000000
00000000
,
10000000
00000000
00000000
00100000
00000000
00000000
02000000
00000000
00000000
00000000
03010000
00000000
00100000
00000000
01000000
00000000
,
00100000
00001000
00010000
00001000
00000010
00000001
00000010
00000110
,
00000000
00010000
00001000
00000000
01000000
00010000
10010000
00000000
,
00100000
00010000
00100000
00010000
00100000
00010000
00011000
00000000
,
00000010
00001000
00000010
00001000
00000010
00001000
00011000
00000000
,
01000000
00010000
01000000
00010000
01000000
00010000
00011000
00000000
,
00000100
00001000
00000100
00001000
00000100
00001000
00000100
00001000
,
00000100
00010000
00001000
00010000
00100000
10000000
00010000
00010000
,
10000000
01000000
00010000
00001000
00000100
00000010
00001000
00001000
,
00000001
00000100
00001000
00000100
00000001
00000001
00000010
00001000
,
00000000
00010000
00011000
00000000
02002000
00000000
03003000
00000000
,
00001000
00100000
00010000
00100000
01000000
00100000
00000000
00010000
00000000
00100000
00000000
10000000
00000000
00100000
00000000
00000000
,
00010000
00000000
01000000
00000000
00100000
00000000
10000000
00000000
01000000
00000000
00100000
00000000
00000000
00000000
00001000
00000000
00000000
00000000
00000000
00000000
00010000
00000000
00000100
00000000
00001000
00000000
00000000
00000010
00000100
00000000
00000001
00000000
,
00000100
00000010
00000100
00001000
00010000
00100000
01000000
00100000
00000000
10000000
00000000
01000000
00000000
00010000
00000000
00022000
,
00000000
00000000
00000000
00000000
,
00033000
00000000
00000000
00000000
;

//--------------- dance-double - Fred-1Ø4 ----------------
#NOTEDATA:;
#STEPSTYPE:dance-double;
#DESCRIPTION:Fred-1Ø4;
#DIFFICULTY:Hard;
#METER:18;
#CREDIT:Fred-1Ø4;
#NOTES:
00000000
00000000
00000000
00000000
,
00000000
00000000
00000000
00000000
,
00000000
00000000
00000000
00000000
,
00000000
00000000
00000000
00000000
,
00011000
00000000
00000010
00001000
00001100
00000000
00000100
00000000
00000010
00000000
00000001
00001000
00001001
00000000
00000010
00000000
,
00000011
00000000
00000001
00000100
00000110
00000000
00001000
00000000
00000001
00000010
00001000
00010000
00001000
00000100
00000001
00000000
,
00000101
00000001
00000100
00000010
00001010
00001000
00000100
00010000
00011000
00001000
00100000
00010000
10010000
10000000
00100000
01000000
,
00010000
00000000
00000000
00000000
01000000
00000000
00000000
00000000
00100000
00000000
00000000
00000000
10000000
00000000
00000000
00000000
00010000
00000000
00000000
00000000
00100000
00000000
00000000
00000000
01000000
00000000
00000000
00000000
10000000
00000000
00000000
00000000
00200000
00300000
00000000
00000000
00200000
00300000
00000000
00000000
00000000
00000000
00000000
00000000
00002000
00003000
00000000
00000000
00000000
00000000
00000000
00000000
00010000
00000000
00001000
00000000
00020000
00000000
00000000
00000000
00000000
00000000
00000000
00000000
,
00030010
00001000
00000100
00010000
00000010
00001000
00000000
00000001
00000000
00000010
00000000
00001000
00000000
00010000
00000000
00000000
,
00001000
00000000
01000000
00000000
00100000
00000000
10000000
00000000
00100000
00000000
00010000
00000000
00000000
00000000
00100000
00000000
00000000
00000000
00000000
00000000
01000000
00000000
00010000
00000000
10000000
00000000
00000000
01000000
00100000
00000000
01000000
00000000
,
10000000
00100000
01000000
00100000
10000000
00100000
00010000
00001000
00000000
00000010
00000000
00000100
00000000
00001000
00000000
00000001
,
00000000
00000000
00000100
00000010
00001000
00000010
00000100
00000001
00000000
00000010
00000000
00001000
00010000
01000000
00100000
00010000
,
10000000
00000000
00000000
00000000
00100000
00000000
00000000
00000000
11000000
00000000
00000000
01010000
00000000
00000000
10010000
00000000
,
00010000
01000000
00100000
00010000
00001000
00000100
00000010
00001000
,
00000001
00000000
00000000
00000000
00001000
00000000
00000000
00000000
00001010
00000000
00000000
00000011
00000000
00000000
00001100
00000000
,
00001000
00000001
00000010
00001000
00010000
00001000
00000100
00000001
,
00000011
00000000
00000000
00000000
00000010
00000000
00000000
00000000
00000101
00000000
00000000
00001100
00000000
00000000
00011000
00000000
,
00001000
00000000
00100000
00000000
00010000
00000000
00000000
00000000
11000000
00000000
00000000
01010000
00000000
00000000
10010000
00000000
,
00010000
10000000
01000000
00000000
00100000
00001000
00010000
00000000
00001000
00000010
00000001
00000000
00000010
00000100
00001000
00000000
,
00000010
00000000
00000000
00000000
00010000
00000000
00000000
00000000
00001000
00000000
00000000
00000000
00000100
00000000
00000000
00000000
00000001
00000000
00000000
00000000
00001000
00000000
00000000
00000000
00000100
00000000
00000000
00000000
00000010
00000000
00000000
00000000
00000002
00000003
00000000
00000000
00000000
00000000
00000000
00000000
00000000
00000000
00000000
00000000
00000000
00000000
00000000
00000000
00001000
00000000
00000000
00000000
00000000
00000000
00000000
00000000
00000020
00000000
00000000
00000000
00000000
00000000
00000000
00000000
,
00000100
00000000
00000130
00000000
00000001
00000000
00000010
00000000
00001000
00000000
00010000
00000000
00001000
00000000
00000000
00010000
,
00000000
00000010
00001000
00100000
00010000
00000000
00001000
00200000
,
00010000
00310000
10000000
01000000
00100000
00001000
00020000
00000000
,
00030100
00001000
00000001
00000100
00000020
00000000
00020030
00000000
,
00031000
00000000
01000000
00000000
00010000
00000000
10000000
00000000
01000000
00000000
00000000
00000000
10000000
00100000
01000000
00010000
,
00100000
00000000
00001000
00000000
00010000
00000000
00000010
00000000
00010000
00000000
00001000
00000000
00100000
00000000
00010000
00100000
,
01000000
10000000
00100000
01000000
00010000
00000000
01010000
00000000
00000000
00000000
00011000
00000000
00000000
00000000
00001010
00000000
,
00000000
00001001
00001000
00000001
00000100
00000010
00002000
00000000
,
00003001
00000000
00000100
00000000
00001000
00000000
00000100
00000000
00000001
00000000
00000000
00000000
00001000
00000000
00000000
00001000
,
00000000
00000010
00010000
00001000
00010000
00000000
00001000
00200000
,
00010000
00000000
00310000
00000000
01000000
00000000
00100000
10000000
00100000
00000000
01000000
00000000
00010000
10000000
01000000
10000000
,
00010000
01000000
00100000
10000000
11000000
00000000
10000000
01000000
,
00010000
00001000
00000010
00000001
00001000
00000000
00000001
00000020
,
00001030
00010000
02000000
13000000
00010000
00000000
10010000
00000000
,
01000000
00000000
00000000
00011000
00000000
00000000
00000100
00000000
00000000
00001001
00000000
00000001
,
00000000
00010000
00000000
00001000
00000000
10000000
00000000
00001000
00000000
00022000
00000000
00000000
,
00000000
00000000
00000000
00000000
,
00000000
00000000
00000000
00000000
00000000
00000000
00000000
00000000
00033000
00000000
00000000
00000000
00010000
00001000
00000010
00000100
,
00001000
00000001
00000000
00000100
00000000
00000010
00000000
00010000
00000000
00001000
00000000
00000000
00001000
01000000
00001000
00010000
,
00001000
00000000
00100000
00000000
00000000
00000000
00010000
00000000
00000000
00000000
00000000
00000000
01000000
00000000
00010000
00000000
10000000
00000000
00000000
00100000
01000000
00000000
00100000
00000000
10000000
00000000
01000000
00000000
00010000
00000000
01000000
00000000
,
00100000
00000000
01000000
00000000
10000000
00000000
00100000
00000000
00000000
00000000
00010000
00000000
00000000
00000000
00001000
00000000
00000000
00000000
00000100
00000000
00000000
00000000
00000001
00000000
00000000
00000000
00000000
00000000
00001000
00000000
00000001
00000100
,
00000001
00000100
00000010
00001010
00000000
00000101
00000000
00001000
00000001
00000100
00000010
00000000
00001000
00000100
00000010
00000100
,
00001000
00000100
00000010
00000100
00001000
00000000
00000001
00000000
00000100
00000000
00000010
00000000
00001000
00000100
00010000
00000100
,
00001000
00000100
00010000
00000100
00001000
00000000
00000100
00000000
00010000
00000000
00001000
00000000
00100000
00010000
10000000
00010000
,
00100000
00001000
00010000
00001000
00100000
00010000
10000000
00010000
01000000
00000000
00100000
00000000
10000000
01000000
10000000
00010000
,
01000000
00001000
00010000
00000100
00001000
00000001
00000100
00000001
00001000
00000000
00000100
00000000
00000010
00000000
00000001
00000000
,
00001000
00000000
00000010
00000000
00001010
00000000
00000000
00000101
00000000
00000000
00001100
00000000
00001000
00000000
00000010
00000000
,
00010000
00000000
00001000
00000000
00101000
00000000
00000000
00010010
00000000
00000000
00011000
00000000
00001000
00100000
00010000
00100000
,
00001000
00010000
00000010
00001000
00000010
00010000
00001000
01000000
00010000
01000000
00001000
00010000
00001000
00100000
00010000
00100000
,
01000000
00000000
00000000
00000000
10000000
00000000
00000000
00000000
00010000
00000000
00000000
00000000
10000000
00000000
00000000
00000000
00200000
00300000
00000000
00000000
00000000
00000000
00000000
00000000
00000000
00000000
00000000
00000000
00000000
00000000
00000000
00000000
20020000
00000000
00000000
00000000
00000000
00000000
00000000
00000000
00000000
00000000
00000000
00000000
00000000
00000000
00000000
00000000
00000000
00000000
00000000
00000000
00000000
00000000
00000000
00000000
00000000
00000000
00000000
00000000
00000000
00000000
00000000
00000000
,
00000000
00000000
00000000
00000000
00000000
30030000
00000000
00000000
,
00010000
10000000
00010000
10000000
00010000
10000000
00010000
10000000
,
00010000
10000000
00010000
10000000
00010000
10000000
00010000
10000000
,
00010000
10000000
00010000
10000000
00010000
10000000
00010000
10000000
,
00010000
10000000
00010000
10000000
00010000
10000000
00010000
10000000
,
00020000
00000000
00000000
00000000
,
00000000
00000000
00000000
00000000
,
00000000
00000000
00000000
00000000
,
00000000
00000000
00000000
00000000
,
00030000
00000000
00001000
00010000
,
00002000
00000000
00000000
00000000
,
00013000
00000000
00000010
00001000
00000000
00000010
00010000
00000000
00000010
00001000
00000000
00000010
00000100
00000000
00000010
00000000
,
00001000
00000000
00000001
00000010
00000000
00000100
00000010
00000000
00000001
00000100
00000000
00000010
00001000
00000000
00000001
00000000
,
00000010
00000100
00010000
00012000
00000000
00103000
00010000
10000000
,
00010000
01000000
00100000
20100000
00000000
30010000
00100000
01000000
,
10000000
00000000
00000000
00000000
00000000
00000000
00000000
00000000
00010000
00000000
00000000
00000000
01000000
00000000
00000000
00000000
00000000
00000000
00000000
00000000
00100000
00000000
00000000
00000000
10000000
00000000
00000000
00000000
00000000
00000000
00000000
00000000
00200000
00300000
00000000
00000000
00000000
00000000
00000000
00000000
00200000
00300000
00000000
00000000
00000000
00000000
00000000
00000000
00010000
00000000
00000000
00000000
00000000
00000000
00000000
00000000
10000000
00000000
00000000
00000000
00000000
00000000
00000000
00000000
,
01000000
00000000
00100000
00010000
00000000
01000000
00001000
00000000
00010000
00000000
00000100
00000000
00001000
00000000
00000100
00000000
,
00000110
00000000
00000010
00000000
00000001
00000000
00001000
00000000
00000001
00000100
00000001
00000100
00000001
00000000
00000100
00000000
,
00000000
00000000
00000010
00000000
00010010
00000000
00000000
00000000
00010000
00000000
00001000
00000000
00010000
00001000
00010000
00001000
,
00020000
00030000
00000000
00000000
00000000
00000000
00000000
00000000
00000000
00000000
00000000
00000000
00000000
00000000
00000000
00000000
00011000
00000000
00000000
00000000
00000000
00000000
00000000
00000000
00001000
00000000
00000000
00000000
00000000
00000000
00000000
00000000
00100000
00000000
00000000
00000000
00010000
00000000
00000000
00000000
00000000
00000000
00000000
00000000
10000000
00000000
00000000
00000000
00010000
00000000
00000000
00000000
00000000
00000000
00000000
00000000
01000000
00000000
00000000
00000000
00000000
00000000
00000000
00000000
,
00100000
00000000
00000000
00000000
00000000
00000000
00000000
00000000
10000000
00000000
00000000
00000000
01000000
00000000
00000000
00000000
00000000
00000000
00000000
00000000
00010000
00000000
00000000
00000000
01000000
00000000
00000000
00000000
00000000
00000000
00000000
00000000
10000000
00000000
00000000
00000000
00000000
00000000
00000000
00000000
00200000
00300000
00000000
00000000
00000000
00000000
00000000
00000000
00200000
00300000
00000000
00000000
00000000
00000000
00000000
00000000
00010000
00000000
00000000
00000000
00000000
00000000
00000000
00000000
,
10000000
00100000
01000000
00100000
00010000
00000000
00001000
00010000
00000010
00010000
00001000
00000000
00000100
00000010
00002000
00000000
,
00000000
00003001
00000100
00002000
00000000
00003100
00000001
00000010
,
00000100
00000000
00001000
00000010
00000000
00000100
00000010
00000000
00001000
00000000
00000001
00000010
00000200
00000000
00000000
00000000
,
00001300
00000000
00000001
00000100
00000000
00000010
00000100
00000000
00001000
00000000
00010000
00000000
00100000
00000000
01000000
00000000
,
00010000
00000000
10000000
00000000
01000000
00000000
00100000
00000000
00010000
01000000
00100000
10000000
00100000
00000000
10100000
00000000
,
00000000
01000000
01001000
00000000
00001000
00010000
00011000
00000000
,
00010000
00000010
00001000
00000010
00010000
00000010
00001000
00000010
00010000
00000010
00001000
00000010
00010000
00000000
00000000
00000000
,
00001000
00100000
00010000
00100000
00001000
00100000
00010000
00100000
00001000
00100000
00010000
00100000
00001000
00000000
00000000
00000000
,
00010000
00000100
00001000
00000100
00010000
00000100
00001000
00000100
00010000
00000100
00001000
00000100
00010000
00000000
00000000
00000000
,
00001000
01000000
00010000
01000000
00001000
01000000
00010000
01000000
00001000
01000000
00010000
01000000
00001000
01000000
00010000
01000000
,
00001000
00000000
00010000
00000000
00000100
00000000
00001000
00000000
00000001
00000000
00000100
00000000
00000001
00000010
00000100
00000010
,
00000001
00000000
00000010
00000000
00000100
00000000
00010000
00000000
00001000
00000000
01000000
00000000
00001000
00010000
00000100
00010000
,
00001000
00010000
00100000
01000000
00100000
10000000
00010000
00100000
,
00010000
01000000
00001000
00010000
00000010
00001000
00000010
00010000
00001000
00100000
00010000
00100000
00002000
00000000
00000000
00000000
,
00013000
00000010
00001000
00000100
00010000
00001000
00000000
00010000
00000000
00100000
00000000
01000000
00000000
00010000
00000000
00000000
,
00100000
00000000
01000000
00000000
00010000
00000000
00001000
00000000
00000010
00000000
00000100
00000000
00000000
00000000
00001000
00000000
00000000
00000000
00000000
00000000
00000010
00000000
00000100
00000000
00001000
00000000
00000000
00010000
00001000
00000000
00010000
00000000
,
00000100
00010000
00001000
00010000
01000000
00100000
00010000
10000000
00000000
10000000
01000000
00010000
00001000
00000010
00000001
00002002
,
00000000
00000000
00000000
00000000
,
00003003
00000000
00000000
00000000
;

//--------------- dance-double - Fred-1Ø4† ----------------
#NOTEDATA:;
#STEPSTYPE:dance-double;
#DESCRIPTION:Fred-1Ø4†;
#DIFFICULTY:Challenge;
#METER:19;
#CREDIT:Fred-1Ø4†;
#NOTES:
00000000
00000000
00000000
00000000
,
00000000
00000000
00000000
00000000
,
00000000
00000000
00000000
00000000
,
00000000
00000000
00000000
00000000
,
00000001
00000010
00000100
00001000
00001010
00000000
00000010
00000000
00000100
00000000
00000001
00000010
00001000
00000000
00011000
00000000
,
00010000
00000000
00100000
00000000
01000000
00000000
00010000
00000000
01010000
00000000
00000000
00000000
10010000
00000000
00000000
00000000
00010000
01000000
00010000
01000000
00100000
10000000
00100000
10000000
00010000
10000000
00010000
10000000
01000000
00100000
00010000
00100000
,
00001000
00000000
00010000
00001000
00011000
00000000
00000100
00001000
00001100
00000000
00000010
00000100
00000110
00000000
00001001
00000000
,
00000011
00000000
00000000
00000000
00000001
00000000
00000000
00000000
00001000
00000000
00000000
00000000
00000010
00000000
00000000
00000000
00000100
00000000
00000000
00000000
00000001
00000000
00000000
00000000
00000100
00000000
00000000
00000000
00001000
00000000
00000000
00000000
00020000
00030000
00000000
00000000
02000000
03000000
00000000
00000000
00000000
00000000
00000000
00000000
00200000
00300000
00000000
00000000
00000000
00000000
00000000
00000000
00010000
00000000
10000000
00000000
00200000
00000000
00000000
00000000
00000000
00000000
00000000
00000000
,
10300000
01000000
00010000
00001000
00000100
00000001
00000000
00000100
00000000
00001000
00000000
00010000
00000000
01000000
00000000
00000000
,
10000000
00000000
00000000
00000000
00000000
00000000
00100000
00000000
00000000
00000000
00000000
00000000
00010000
00000000
00000000
00000000
00000000
00000000
00001000
00000000
00000000
00000000
00000000
00000000
00000010
00000000
00000000
00000000
00000000
00000000
00000001
00000000
00000000
00000000
00000000
00000000
00000000
00000000
00000000
00000000
00000000
00000000
00001000
00000000
00000000
00000000
00000000
00000000
00000000
00000000
00000000
00000000
00000000
00000000
00000000
00000000
00000000
00000000
00000000
00000000
00000001
00000000
00000000
00000000
00000000
00000000
00000100
00000000
00000000
00000010
00000000
00000000
00000100
00000000
00000000
00000000
00000000
00000000
00000000
00000000
00000000
00000000
00000001
00000000
00000100
00000000
00000000
00000000
00000000
00000000
00001000
00000000
00000000
00000000
00000000
00000000
,
00010000
00000000
00001000
00000000
00000010
00000000
00000100
00000000
00000010
00000000
00000001
00000000
00000010
00001000
00010000
00000000
00000000
00000000
00101000
00000000
00000000
00000000
00010010
00000000
00000000
00000000
00011000
00000000
00000000
00000000
00010100
00000000
,
00000000
00010000
00001000
00010000
01000000
10000000
00010000
00100000
00000000
11000000
00000000
00100000
00010000
10000000
01000000
00100000
,
00010000
00000000
00000000
00000000
10000000
00000000
00000000
00000000
01000000
00000000
00000000
00010000
00000000
00000000
00001000
00000000
,
00000100
00000010
00001000
00000100
00000010
00000001
00001000
00000000
,
00001001
00000000
00000000
00000000
00001000
00000000
00000000
00000000
00000010
00000000
00000000
00000100
00000000
00000000
00000001
00000000
,
00000010
00000000
00001000
00000000
00010000
00000000
00100000
01000000
00010000
00000000
00000000
00000000
10000000
00000000
00010000
00000000
,
01010000
00000000
01000000
00000000
01100000
00000000
00000000
00000000
00100000
00000000
00000000
10100000
00000000
00000000
10000000
00000000
,
01000000
00000000
00010000
00000000
00011000
00000000
00000000
00000000
00011000
00000000
00000000
00010010
00000000
00000000
00011000
00000000
,
00010000
00000100
00001000
00000100
00010000
00001000
01000000
00010000
01000000
00001000
00010000
00000010
00001000
00000001
00001000
00000100
,
00010000
00000000
00000000
00000000
00001000
00000000
00000000
00000000
00100000
00000000
00000000
00000000
00010000
00000000
00000000
00000000
00100000
00000000
00000000
00000000
01000000
00000000
00000000
00000000
10000000
00000000
00000000
00000000
00010000
00000000
00000000
00000000
20000000
30000000
00000000
00000000
00000000
00000000
00000000
00000000
00000000
00000000
00000000
00000000
00000000
00000000
00000000
00000000
00010000
00000000
00000000
00000000
00000000
00000000
00000000
00000000
00200000
00000000
00000000
00000000
00000000
00000000
00000000
00000000
,
01000000
00000000
01300000
00000000
00100000
00000000
00010000
00000000
10000000
00000000
00010000
00000000
01000000
00000000
00001000
00010000
,
00001000
00000100
00000001
00000010
00000100
00000000
00010000
00000020
,
00001000
00000000
00001030
00000000
00000001
00000010
00000100
00001000
00000100
00000000
00001000
00000000
00002001
00000000
00000000
00000000
,
00003001
00000010
00001000
00010000
00100000
00000000
01010000
00000000
,
00010000
00000000
10000000
00000000
11000000
00000000
01000000
00000000
00100000
00000000
00000000
00000000
00001000
00010000
01000000
00010000
,
00001000
00000000
00010000
00000000
00001000
00000000
00000100
00000000
00000010
00000000
00001000
00000000
00000001
00000010
00000100
00000010
,
00001000
00010000
00001000
01000000
00001000
00000000
00010000
00000000
00000010
00000000
00000110
00000000
00000000
00000000
00001001
00000000
,
00000000
00011000
00001000
00100000
00010000
10000000
00020000
01000000
,
20030000
00000000
00100000
00000000
30010000
10000000
00010000
10000000
00010000
00000000
00000000
00000000
01000000
00000000
00001000
00010000
,
00001000
00000010
00001000
00010000
00001000
00000000
00010000
00002000
,
00100000
00000000
00103000
00000000
00010000
00100000
01000000
10000000
00010000
00000000
10000000
00000000
00100000
00010000
00001000
00000100
,
00000010
00000000
00001000
00000000
00000001
00001000
00000001
00000000
00001001
00000000
00000000
00000000
00000002
00000000
00000013
00000000
,
00001000
00010000
01000000
10000000
10010000
00000000
10000000
01000000
,
00020000
00000000
00000000
00000000
00000000
00000000
00000000
00000000
00031000
00000000
00000000
00000000
00000000
00000000
00000000
00000000
00000020
00000000
00000000
00000000
00000000
00000000
00000000
00000000
00000031
00000000
00000000
00000000
00000000
00000000
00000000
00000000
00001000
00000000
00000000
00000000
00000000
00000000
00000000
00000000
00000001
00000000
00000000
00000000
00000000
00000000
00000000
00000000
00002001
00000000
00000000
00000000
00000000
00000000
00000000
00000000
00000000
00000000
00000000
00000000
00000000
00000000
00000000
00003000
,
00021000
00000000
00000000
00000000
00000000
00000000
00000000
00000000
00000000
00000000
00000000
00000000
00000000
00000000
00000000
00000000
00000000
00000000
00000000
00000000
00000000
00000000
00000000
00000000
00000000
00000000
00000000
00000000
00000000
00000000
00000000
00000000
00000000
00000000
00000000
00000000
00000000
00000000
00000000
00000000
00000000
00000000
00000000
00000000
00000000
00030000
00000000
00000000
10020000
00000000
00000000
00000000
00000000
00000000
00000000
00000000
00000000
00000000
00000000
00000000
00000000
00000000
00000000
00000000
00000000
00000000
00000000
00000000
00000000
00000000
00000000
00000000
00000000
00000000
00000000
00000000
00000000
00000000
00000000
00000000
00000000
00000000
00000000
00000000
00000000
00000000
00000000
00000000
00000000
00000000
00000000
00000000
00000000
00030000
00000000
00000000
00012000
00000000
00000000
00000000
00000000
00000000
00000000
00000000
00000000
00000000
00000000
00000000
00000000
00000000
00000000
00000000
00000000
00000000
00000000
00000000
00000000
00000000
00000000
00000000
00000000
00000000
00000000
00000000
00000000
00000000
00000000
00000000
00000000
00000000
00000000
00000000
00000000
00000000
00000000
00000000
00000000
00000000
00000000
00000000
00000000
00003000
00000000
00000000
00001001
00000000
00000000
00000000
00000000
00000000
00000000
00000000
00000000
00000000
00000000
00000000
00000000
00000000
00000000
00000000
00000001
00000000
00000000
00000000
00000000
00000000
00000000
00000000
00000000
00000000
00000000
00000000
00000000
00000000
00000000
00000000
00000100
00000000
00000000
00000000
00000000
00000000
00000000
00000000
00000000
00000000
00000000
00000000
00000000
00000000
00000000
00000000
,
00001000
00010000
00100000
10000000
00010000
10000000
01000000
00010000
00001000
00022000
00000000
00000000
,
00000000
00000000
00000000
00000000
,
00000000
00000000
00000000
00000000
00000000
00000000
00000000
00000000
00033000
00000000
00000000
00000000
00010000
00001000
00000100
00000001
,
00001000
00000100
00000000
00000010
00000000
00000001
00000000
00000010
00000000
00011000
00000000
00000000
00100000
10000000
00100000
00010000
,
10000000
00000000
00000000
00000000
00000000
00000000
01000000
00000000
00000000
00000000
00000000
00000000
00000000
00000000
00000000
00000000
00000000
00000000
00100000
00000000
00000000
00000000
00000000
00000000
00000000
00000000
00000000
00000000
00000000
00000000
00000000
00000000
00000000
00000000
00000000
00000000
00001000
00000000
00000000
00000000
00000000
00000000
00010000
00000000
00000000
00001000
00000000
00000000
00010000
00000000
00000000
00000000
00000000
00000000
00000000
00000000
00000000
00000000
00001000
00000000
00010000
00000000
00000000
00000000
00000000
00000000
00000100
00000000
00000000
00000000
00000000
00000000
00000001
00000000
00000000
00000000
00000000
00000000
00000100
00000000
00000000
00000000
00000000
00000000
00001000
00000000
00000000
00000000
00000000
00000000
00000010
00000000
00000000
00000000
00000000
00000000
,
00000001
00000000
00000010
00000000
00000100
00000010
00000100
00000000
00000000
00000000
00000110
00000000
00000000
00000000
00001010
00000000
00000000
00000000
00011000
00000000
00000000
00000000
00101000
00000000
00000000
00000000
00100000
00000000
00001000
00000000
00100000
00000000
,
10000000
00100000
00010000
01000000
00000000
01100000
00000000
10000000
01000000
00010000
00011000
00000000
00001000
00010000
00000010
00001000
,
00000010
00010000
00001000
00100000
00010000
10000000
00100000
10000000
00010000
00100000
00001000
00010000
00001000
01000000
00010000
01000000
,
00001000
00010000
00000100
00001000
00000001
00001000
00000100
00010000
00001000
01000000
00001000
00010000
00000100
00001000
00000100
00010000
,
00001000
00100000
00010000
10000000
00010000
01000000
00001000
00010000
00000010
00001000
00000001
00000010
00000100
00001000
00000100
00010000
,
00001000
00100000
00010000
00100000
01000000
10000000
00010000
01000000
00001000
00010000
00000010
00001000
00000001
00000010
00000100
00001000
,
00000001
00000100
00000010
00000100
00001000
00010000
00100000
01000000
00100000
10000000
00010000
00100000
00010000
10000000
01000000
00100000
,
01000000
00010000
00001000
00000010
00000100
00000010
00000001
00001000
00000010
00000100
00000001
00001000
00000001
00000100
00000010
00000100
,
00001000
00010000
00100000
01000000
10000000
01000000
00010000
10000000
01000000
00100000
01000000
00010000
00001000
00000010
00000100
00000010
,
00000001
00000000
00000000
00000000
00001000
00000000
00000000
00000000
00000010
00000000
00000000
00000000
00001000
00000000
00000000
00000000
00000002
00000003
00000000
00000000
00000000
00000000
00000000
00000000
00000000
00000000
00000000
00000000
00000000
00000000
00000000
00000000
00002002
00000000
00000000
00000000
00000000
00000000
00000000
00000000
00000000
00000000
00000000
00000000
00000000
00000000
00000000
00000000
00000000
00000000
00000000
00000000
00000000
00000000
00000000
00000000
00000000
00000000
00000000
00000000
00000000
00000000
00000000
00000000
,
00000000
00000000
00000000
00000000
00000000
00003003
00000000
00000000
,
00000001
00000100
00000010
00001000
00000001
00000100
00000010
00001000
,
00000001
00000100
00000010
00001000
00000001
00000100
00000010
00001000
,
00000001
00000100
00000010
00001000
00000001
00000100
00000010
00001000
,
00000001
00000100
00000010
00001000
00000001
00000100
00000010
00001000
,
00000002
00000000
00000000
00000000
,
00000000
00000000
00000000
00000000
,
00000000
00000000
00000000
00000000
,
00000000
00000000
00000000
00000000
,
00000003
00000000
00000100
00001000
,
00020000
00000000
00000000
00000000
,
00031000
00000000
00100000
00010000
00000000
00100000
01000000
00000000
10000000
00100000
00000000
01000000
00100000
00000000
10000000
00000000
,
00010000
00000000
01000000
10000000
00000000
01000000
00100000
00000000
10000000
01000000
00000000
00010000
00001000
00000000
00010000
00000000
,
00100000
01000000
00100000
00010000
00001000
00000000
00011000
00000000
00000000
00000000
00001000
00000000
00010000
00000000
00001000
00000000
,
00000010
00000001
00000010
00000100
00001000
00000000
00001001
00000000
00000000
00000000
00000001
00000000
00000100
00000000
00000010
00000000
,
00001000
00000000
00000000
00000000
00000000
00000000
00000000
00000000
00000001
00000000
00000000
00000000
00000010
00000000
00000000
00000000
00000000
00000000
00000000
00000000
00000100
00000000
00000000
00000000
00000010
00000000
00000000
00000000
00000000
00000000
00000000
00000000
00000001
00000000
00000000
00000000
00000000
00000000
00000000
00000000
00001000
00000000
00000000
00000000
00000001
00000000
00000000
00000000
00000200
00000300
00000000
00000000
00000000
00000000
00000000
00000000
00000200
00000300
00000000
00000000
00000000
00000000
00000000
00000000
,
00001000
00000000
00000010
00010000
00000000
00001000
00100000
00000000
00010000
00000000
00100000
10000000
00100000
00000000
01000000
00000000
,
11000000
00000000
10000000
00000000
00100000
00000000
00010000
00000000
00001000
00000100
00000010
00001000
00000001
00000000
00000110
00000000
,
00000000
00000000
00001001
00000000
00001010
00000000
00000000
00000000
00000001
00000000
00000100
00000000
00001000
00010000
00001000
01000000
,
00200000
00300000
00000000
00000000
00000000
00000000
00000000
00000000
00000000
00000000
00000000
00000000
00000000
00000000
00000000
00000000
01100000
00000000
00000000
00000000
00000000
00000000
00000000
00000000
00100000
00000000
00000000
00000000
00000000
00000000
00000000
00000000
10000000
00000000
00000000
00000000
01000000
00000000
00000000
00000000
00000000
00000000
00000000
00000000
00100000
00000000
00000000
00000000
00001000
00000000
00000000
00000000
00000000
00000000
00000000
00000000
00010000
00000000
00000000
00000000
00000000
00000000
00000000
00000000
,
00001000
00000000
01000000
00001000
00000000
00010000
00001000
00000000
00010000
00000000
00000100
00001000
00000100
00000000
00000010
00000000
,
00000001
00000100
00001000
00010000
00100000
00000000
10000000
01000000
00010000
00001000
00000010
00000000
00000001
00000100
00000020
00000000
,
00000000
00000000
00001030
00000010
00000100
00000000
00000102
00000000
00000000
00000000
00000103
00001000
00000100
00000000
00000001
00000000
,
00001000
00000000
00000000
00000000
00000000
00000000
00000000
00000000
00000100
00000000
00000000
00000000
00010000
00000000
00000000
00000000
00000000
00000000
00000000
00000000
00001000
00000000
00000000
00000000
00010000
00000000
00000000
00000000
00000000
00000000
00000000
00000000
00100000
00000000
00000000
00000000
00000000
00000000
00000000
00000000
01000000
00000000
00000000
00000000
00010000
00000000
00000000
00000000
20000000
00000000
00000000
00000000
00000000
00000000
00000000
00000000
00000000
00000000
00000000
00000000
00000000
00000000
00000000
30000000
,
00010000
00000000
10000000
01000000
00000000
00010000
10000000
00000000
00100000
00000000
00010000
01000000
00100000
00000000
10000000
00000000
,
00010000
00000000
00100000
00000000
01000000
00000000
00010000
00000000
00001000
00000010
00000100
00001000
00000001
00000000
00001001
00000000
,
00000000
00010010
00011000
00000000
00001000
00010000
01000000
00000000
,
10000000
00010000
00100000
00010000
01000000
00100000
10000000
01000000
00010000
00001000
00000010
00000100
00001000
00000001
00000100
00000010
,
00001000
00000001
00000010
00000100
00001000
00000010
00010000
00001000
00100000
00010000
00100000
00001000
00010000
00100000
01000000
00010000
,
10000000
00010000
00100000
00010000
01000000
00001000
00010000
00001000
00000010
00000001
00001000
00000001
00000100
00000010
00001000
00000001
,
00000010
00000100
00000010
00001000
00010000
01000000
00100000
00010000
00100000
01000000
10000000
00010000
01000000
00100000
00010000
00001000
,
00010000
00001000
00000010
00000100
00000010
00000001
00000010
00000100
00000010
00001000
00010000
01000000
10000000
00010000
01000000
00100000
,
00010000
00001000
00000100
00000010
00000100
00000001
00000100
00000010
00000100
00001000
00010000
00100000
10000000
00010000
00100000
01000000
,
10000000
00010000
01000000
00100000
01000000
10000000
01000000
00010000
00100000
01000000
00010000
00001000
00000010
00000001
00001000
00000010
,
00000100
00001000
00000100
00000010
00000100
00000001
00001000
00000010
00010000
00000000
00011000
00000000
00000000
00000000
00000000
00000000
,
00001000
01000000
00001000
00000100
00001000
00010000
00000000
00100000
00000000
00001000
00000000
00000010
00000000
00010000
00000000
00000000
,
01000000
00000000
00000000
00000000
00000000
00000000
00010000
00000000
00000000
00000000
00000000
00000000
00000100
00000000
00000000
00000000
00000000
00000000
00000010
00000000
00000000
00000000
00000000
00000000
00000100
00000000
00000000
00000000
00000000
00000000
00001000
00000000
00000000
00000000
00000000
00000000
00000000
00000000
00000000
00000000
00000000
00000000
00000010
00000000
00000000
00000000
00000000
00000000
00000000
00000000
00000000
00000000
00000000
00000000
00000000
00000000
00000000
00000000
00000000
00000000
00000100
00000000
00000000
00000000
00000000
00000000
00001000
00000000
00000000
00010000
00000000
00000000
00001000
00000000
00000000
00000000
00000000
00000000
00000000
00000000
00000000
00000000
00010000
00000000
00100000
00000000
00000000
00000000
00000000
00000000
01000000
00000000
00000000
00000000
00000000
00000000
,
00010000
00000000
00100000
00000000
01000000
00000000
00010000
00000000
00001000
00000000
00000010
00000000
00000001
00000100
00000001
00000000
00000000
00000000
00000011
00000000
00000000
00000000
00001001
00000000
00000000
00000000
00011000
00000000
00000000
00000000
20020000
00000000
,
00000000
00000000
00000000
00000000
,
30030000
00000000
00000000
00000000
;
