#TITLE:♥Love²シュガ→♥;
#ARTIST:dj TAKA feat.のりあ;
#TITLETRANSLIT:LOVE2 Sugar;
#ARTISTTRANSLIT:dj TAKA feat.Noria;
#GENRE:EUROBEAT;
#BANNER:LOVE2 Sugar.png;
#BACKGROUND:LOVE2 Sugar-bg.png;
#CDTITLE:./CDTitles/pnm 8.png;
#MUSIC:LOVE2 Sugar.ogg;
#SAMPLESTART:51.09;
#SAMPLELENGTH:15;
#BPMS:0=155;
#STAGE:5;

//--------------- dance-single - Fred-104 ----------------
#NOTES:
     dance-single:
     Fred-104:
     Beginner:
     2:
     :
0000
0000
0000
0000
,
0000
0000
0000
0000
,
0000
0000
0000
0000
,
0000
0000
0000
0000
,
0000
0000
0000
0000
,
0000
1000
0000
1000
,
0000
0001
0000
0001
,
0000
0001
0000
0001
,
0000
0000
0000
0000
,
1000
0000
0000
0000
,
0001
0000
0000
0000
,
1000
0000
0000
0000
,
0001
0000
0001
0000
,
0001
0000
0000
0000
,
0100
0000
0000
0000
,
0100
0000
0000
0000
,
0010
0000
0010
0000
,
0010
0000
0000
0000
,
1000
0000
0000
0000
,
0001
0000
0000
0000
,
1000
0000
1000
0000
,
1000
0000
0000
0000
,
0001
0000
0000
0000
,
1000
0000
0000
0000
,
0001
0000
1000
0000
,
0002
0000
0000
0003
,
2000
0000
0000
3000
,
0001
0000
0100
0000
,
0001
0000
1000
0000
,
0002
0000
0000
0003
,
2000
0000
0000
3000
,
0002
0000
0000
0003
,
2002
0000
0000
3003
,
1000
0000
0000
0000
,
0010
0000
0010
0000
,
0100
0000
0000
0000
,
0001
0000
0001
0000
,
1000
0000
0001
0000
,
1000
0000
0000
0000
,
0001
0000
1000
0000
,
0002
0000
0003
0000
,
1000
0000
0000
0000
,
0001
0000
0001
0000
,
1000
0000
0010
0000
,
0100
0000
0100
0000
,
0001
0000
0000
0000
,
1000
0000
0000
0000
,
0001
0000
1000
0000
,
2002
0000
3003
0000
,
1000
0000
1000
0000
,
0010
0000
1000
0000
,
0001
0000
1000
0000
,
0001
0000
0000
0000
,
0100
0000
0100
0000
,
0001
0000
1000
0000
,
0001
0000
1000
0000
,
0001
0000
0000
0000
,
1000
0000
0000
0000
,
0010
0000
0000
0000
,
1000
0000
0000
0000
,
0001
0000
0001
0000
,
0100
0000
0100
0000
,
0100
0000
0010
0000
,
1000
0000
0001
0000
,
2002
0000
0000
3003
,
1000
0000
0010
0000
,
1000
0000
1000
0000
,
0001
0000
0001
0000
,
1000
0000
1000
0000
,
0001
0000
0001
0000
,
1000
0000
0001
0000
,
1000
0000
0001
0000
,
1000
0000
0001
0001
,
2002
0000
0000
0000
,
3003
0000
0000
0000
;

//--------------- dance-single - Fred-104 ----------------
#NOTES:
     dance-single:
     Fred-104:
     Easy:
     6:
     :
0000
0000
0000
0000
,
0000
0000
0000
0000
,
0000
0000
0000
0000
,
0000
0000
0000
0000
,
0000
0000
0000
0000
,
0001
0010
0000
0010
,
1000
0010
0000
0010
,
0001
0100
0000
0100
,
2002
0000
0000
3003
,
0010
0000
0010
0000
,
0100
0000
0100
0000
,
0010
0000
0100
0000
,
0010
0010
0100
1001
,
1000
0000
1000
0000
,
0001
0000
0001
0000
,
1000
0000
0001
0000
,
1000
1000
0001
1001
,
0010
0100
0010
0010
,
1000
1000
0001
0001
,
0100
0100
0010
0010
,
1000
0100
1000
0100
,
0010
0100
0010
0010
,
0001
0001
1000
1000
,
0100
0100
0010
0010
,
0001
0000
0001
0000
0100
0001
0100
0000
,
0020
0000
2030
0000
,
3002
0203
0302
0203
,
0301
0001
1000
1000
,
0010
0010
0100
0100
,
0002
0000
2003
0000
,
3200
0000
0320
0000
,
0031
0000
0001
0000
1000
0001
1000
0000
,
0001
0000
0000
2002
0000
0000
3003
0000
,
1000
0000
1100
0000
,
0001
0100
0001
0101
,
0002
0000
2003
0000
,
3010
0010
0100
0110
,
0200
0000
0310
1000
,
0002
0000
1003
0010
,
0200
0000
0301
1000
,
0001
0000
0000
2002
0000
0000
3003
0000
,
1000
0000
1010
0000
,
0001
0010
0001
0011
,
0200
0000
0320
0000
,
1030
0100
0010
0001
,
2000
3000
1000
0010
,
0002
0003
0001
0100
,
1000
0000
0010
1000
,
0001
0000
0000
2002
0000
0000
3003
0000
,
1000
0000
0000
0010
0000
0000
1000
0000
,
0001
0000
0000
0010
0000
0000
0001
0000
,
0100
0000
0000
0010
0000
0000
0100
0000
,
0001
0000
1000
0000
0001
1000
0001
0000
,
1000
0000
0000
0100
0000
0000
1000
0000
,
0001
0000
0000
0100
0000
0000
0001
0000
,
0010
0000
0000
0100
0000
0000
1000
0000
,
0001
0000
1000
0000
0010
0100
0010
0000
,
1010
0000
1000
0001
,
0100
0000
0010
1000
,
0001
0000
0100
0100
,
0010
0000
1000
0001
,
1000
0000
0010
0000
1000
0100
1000
0000
,
0001
0000
0100
0000
0001
0010
0001
0000
,
1000
0000
0010
0000
0100
0010
0100
0000
,
2002
0000
0000
3003
,
0001
0000
0000
0100
0000
0000
0001
0000
,
1000
0000
0000
0100
0000
0000
0010
0000
,
0001
0000
0000
0100
0000
0000
0010
0000
,
1000
0000
0001
0000
0100
0010
0100
0000
,
0001
0000
0000
0100
0000
0000
0010
0000
,
1000
0000
0000
0100
0000
0000
0010
0000
,
0001
0000
0000
1000
0000
0000
0010
0000
,
0100
0000
0001
0000
1000
0001
1000
0000
,
2002
0000
0000
0000
,
3003
0000
0000
0000
;

//--------------- dance-single - Fred-104 ----------------
#NOTES:
     dance-single:
     Fred-104:
     Medium:
     10:
     :
0000
0000
0000
0000
,
0000
0000
0000
0000
,
0000
0000
0000
0000
,
0000
0000
0000
0000
,
0000
0000
0000
0000
,
1000
0010
0000
0001
,
0100
1000
0000
0010
,
0001
0100
0000
1000
,
2002
0000
0000
3003
,
0000
1100
0000
1001
0000
0101
0000
1001
,
0000
1100
0000
0110
0000
0011
0000
0110
,
0000
1100
0000
1001
0000
0011
0000
1000
,
0010
0000
0000
1000
0000
0000
0001
0000
0100
0000
0000
0000
1001
0000
0000
0000
,
0000
0101
0000
1001
0000
1100
0000
1001
,
0000
0101
0000
0110
0000
1010
0000
0110
,
0000
0101
0000
1001
0000
1010
0000
0001
,
0010
0000
0000
0001
0000
0000
1000
0000
0100
0000
0000
0000
1001
0000
0000
0000
,
0010
1000
0010
1000
0001
0000
1000
0100
,
0000
0010
0100
0010
0000
0001
1000
0001
,
0000
1000
0010
1000
0000
0001
0100
0001
,
0100
0010
1000
0100
0010
0002
0000
0000
,
1003
0010
1000
0010
0100
0000
0001
1000
,
0000
0100
1000
0100
0000
0010
0001
1000
,
0000
0001
0100
0010
0000
1000
0100
0010
,
0000
0110
0000
1100
0000
2002
3003
0000
,
1000
0000
0010
0000
1000
0100
1000
0020
,
0000
0000
0000
0000
0130
0001
1000
0020
,
0000
0130
0001
1000
,
2000
0000
3020
0000
0032
0000
0103
0100
,
1000
0000
0010
0000
0100
0001
0100
0002
,
0000
0000
0003
0000
1000
0010
0100
0002
,
0000
0000
1003
0000
0010
0100
0010
0000
,
1000
0000
0000
2002
0000
0000
3003
0000
,
0001
0100
0001
0100
0000
0010
1000
0001
,
0000
1000
0000
1000
0000
0010
0100
0010
,
0100
0000
0000
0001
0000
1000
0001
0000
,
1000
0100
1000
0000
0001
0000
0100
0010
,
0200
0000
0000
0000
0310
1000
0001
0000
,
0200
0000
0000
0000
0301
1000
0100
0000
,
2000
0000
0000
3010
0000
0010
0100
0010
,
1000
0001
0000
1010
0000
2002
3003
0000
,
1000
0100
1000
0010
0000
0100
0001
0100
,
0000
0001
1000
0010
0000
0100
0010
0100
,
0001
0000
1000
0010
0000
1000
0100
1000
,
0001
0100
0001
0000
1000
0000
0010
0100
,
0020
0000
0000
1030
0000
0010
0100
0000
,
0020
0000
0000
0031
0000
0010
0100
0000
,
2000
0000
0000
3001
0000
1000
0010
0000
,
0100
0000
0000
0220
0000
0000
0330
0000
,
0001
0100
0001
1000
0100
1000
0001
0000
,
1000
0100
1000
0010
0100
0010
1000
0000
,
0001
0010
0001
1000
0010
1000
0001
0000
,
1000
0000
0000
1000
0000
0000
1000
0000
0001
0000
0100
0000
0020
0000
0000
0000
,
1030
0010
0100
0010
1000
0100
1000
0000
,
0001
0100
0001
0100
0010
0100
0001
0000
,
1000
0001
0010
0001
0100
0010
1000
0000
,
0001
0000
0000
0001
0000
0000
1000
0000
0010
0000
0100
0000
0020
0000
0000
0000
,
1030
0010
0100
0001
,
1000
0100
0001
0010
,
0100
0100
1000
0010
,
0100
0001
1000
0100
,
1000
1000
0010
1000
1000
0010
1000
0000
,
0001
0000
0100
0000
0010
0100
0010
0000
,
0001
0001
1000
0001
0001
0100
0010
0000
,
2002
0000
0000
3003
,
1000
0010
0100
0001
0010
0100
1000
0000
,
0001
0010
0100
1000
0010
0100
0001
0000
,
1000
0001
0100
0010
1000
0100
0010
0000
,
0001
0000
0000
1000
0000
0000
0001
0000
0100
0000
0010
0000
0200
0000
0000
0000
,
0301
0010
0100
1000
0001
0100
0001
0000
,
1000
0100
0010
0001
1000
0010
0100
0000
,
0001
0100
0010
0100
1000
0100
0010
0000
,
0001
0000
0000
0001
0000
0000
1000
0000
0010
0000
0100
0000
0010
0000
0000
0000
,
2002
0000
0000
0000
,
3003
0000
0000
0000
;

//--------------- dance-single - Fred-104 ----------------
#NOTES:
     dance-single:
     Fred-104:
     Hard:
     15:
     :
0000
0000
0000
0000
,
0000
0000
0000
0000
,
0000
0000
0000
0000
,
0000
0000
0000
0000
,
0000
0000
0000
0000
,
1000
0100
0010
0000
0000
0000
0010
0000
,
0001
0100
0010
0000
0000
0000
0010
0000
,
1000
0010
0100
0000
0000
0000
0100
0000
,
2002
0000
0000
3003
,
1000
1100
0000
1001
0000
0101
0000
1001
,
0000
1100
0000
0110
0000
0011
0000
0110
,
0000
1100
0000
1001
0000
0011
0000
1001
,
0010
0000
0000
1000
0000
0000
0001
0000
0100
0000
0100
0000
0010
0000
1000
0000
,
0001
0101
0000
1001
0000
1100
0000
1001
,
0000
0101
0000
0110
0000
1010
0000
0110
,
0000
0101
0000
1001
0000
1010
0000
1001
,
0000
0000
0001
0000
0000
1000
0000
1000
0010
0000
0100
0001
0100
0000
0010
0000
,
1000
0010
1000
0100
1000
0010
0100
0002
,
0000
0103
0010
2000
0000
3100
0010
0002
,
0000
0013
0100
2000
0000
3010
0100
0001
,
1000
0010
1000
0000
0001
0010
0001
0010
0001
1000
0002
0000
0000
0000
0000
0000
,
0103
0100
0010
1000
0001
0100
0001
0020
,
0000
0031
1000
0200
0000
1300
0001
0200
,
0000
0000
0301
0000
1000
0000
0020
0000
0000
0000
1030
0000
0001
0000
0100
0010
,
1000
0000
0010
0000
0100
0001
0000
0100
0001
0000
1000
0000
0001
0010
0100
1000
,
0001
0000
0100
0000
0001
0010
0001
0000
1000
0000
0100
0000
1000
0010
1000
0000
,
0001
0000
0010
0000
0100
0010
0100
0000
1000
0000
0010
0000
0100
0010
0100
0000
,
0001
0100
0001
0000
1000
0100
1000
0000
0001
0010
0001
0000
1000
0010
1000
0000
,
0001
0001
1000
0010
0100
0001
1000
0100
,
0010
0001
0010
0000
0001
1000
0001
0000
0100
0000
0010
0000
1000
0000
0100
0000
,
0010
0100
0010
0000
1000
0001
1000
0000
0010
0000
0100
0000
0001
0000
1000
0000
,
0001
0010
0001
0000
1000
0010
1000
0000
0001
0010
0001
0000
1000
0100
1000
0010
,
0100
0000
0001
2002
0000
0000
3003
0000
,
0001
0100
0010
2010
0000
3010
0100
0102
,
0000
0000
0013
0000
0100
0000
2100
0000
0000
0000
3001
1000
0001
0000
0100
0000
,
0010
1000
0100
0210
0000
0301
0100
0001
,
1000
0000
0010
0000
0100
0010
0100
0000
0001
0100
0002
0000
1000
0000
1003
0000
,
0010
1000
0100
0010
0001
0001
1001
0000
,
2010
0000
3001
0001
1000
0010
0100
0001
,
0201
0000
0310
0010
1000
0001
1000
0100
,
1100
1100
0000
0101
0000
2002
3003
0000
,
1000
0000
0001
0100
0001
0000
1000
0000
0100
0000
0010
0100
0010
0000
0001
0000
,
1000
0000
0001
0100
0001
0000
1000
0000
0100
0000
1000
0010
1000
0000
0001
0000
,
0101
0000
0200
0010
0310
1000
0100
0010
,
0001
0001
0100
0100
1000
1000
0001
0100
,
0110
0000
0000
0000
0010
0000
1000
0000
0001
0100
0001
0100
0010
0000
0000
0000
,
1100
0000
0000
0000
0010
0000
0100
0000
0001
1000
0001
1000
0001
0000
1000
0000
,
0100
0000
0010
0100
0010
0000
0001
0000
1000
0001
1000
0000
0001
1000
0001
0000
,
1000
1100
0000
2002
0000
0000
3003
0000
,
0001
0010
0001
0010
0001
0000
1000
0010
1000
0010
1000
0000
0001
0100
0001
0000
,
1000
0100
1000
0100
1000
0000
0001
0100
0001
0100
0001
0000
1000
0001
1000
0000
,
0001
1000
0100
0000
0010
0000
0001
1000
0100
0000
0010
0000
0001
1000
0100
0000
,
1000
0010
1000
0010
0100
0001
0100
0001
1000
0000
0001
0000
2001
0000
0000
0000
,
3001
0100
0001
0100
0001
0000
1000
0100
1000
0100
1000
0000
0001
0010
0001
0000
,
1000
0010
1000
0010
1000
0000
0001
0010
0001
0010
0001
0000
0100
0010
0100
0000
,
0001
0100
0010
0000
1000
0000
0001
0100
0010
0000
1000
0000
0001
0100
0010
0000
,
1000
0100
1000
0100
0010
0001
0010
0001
0100
0000
0010
0000
0210
0000
0000
0000
,
0301
1000
0010
1010
0000
0101
0000
1001
,
1000
0000
0010
0000
0200
0000
0001
1000
0300
0000
1000
0000
0001
1000
0100
0000
,
1000
0000
0100
0000
0020
0000
0001
0100
0030
0000
1000
0000
0001
1000
0001
0000
,
0100
0000
0100
0000
0010
0000
1000
0000
0001
1000
0001
1000
0010
0100
0010
0100
,
0001
0100
0001
0100
0001
0000
1000
0100
1000
0000
0001
0000
1001
0000
0000
0000
,
0100
0000
0010
0000
0200
0000
0010
1000
0300
0000
0010
0000
0100
0000
0001
0000
,
1000
0100
1000
0100
1000
0000
0001
0100
0001
0000
0100
0000
0110
0000
0000
0000
,
2002
0000
0000
3003
,
1000
0010
0100
0001
1000
0000
0001
0010
0100
1000
0001
0000
0100
0010
0100
0000
,
0001
0010
0100
0010
0001
0000
1000
0100
1000
0001
1000
0000
0010
0100
0010
0000
,
1000
0100
0010
0000
0001
0000
0010
0100
1000
0000
0001
0000
1000
0010
0100
0000
,
0001
0100
0001
1000
0100
1000
0001
0100
0001
1000
0001
1000
0002
0000
0000
0000
,
1003
0010
0100
0010
1000
0000
0010
1000
0001
1000
0100
0000
0010
0001
0100
0000
,
0010
1000
0001
0010
0100
0000
1000
0010
0100
0001
1000
0000
0001
1000
0100
0000
,
1000
0010
0100
0000
0001
0000
0010
0100
1000
0000
0001
0000
0100
0010
1000
0000
,
0000
0000
0001
0000
0000
1000
0000
1000
0010
0100
0001
1000
0100
0010
0001
0000
,
2002
0000
0000
0000
,
3003
0000
0000
0000
;

//--------------- dance-double - Fred-104 ----------------
#NOTES:
     dance-double:
     Fred-104:
     Easy:
     5:
     :
00000000
00000000
00000000
00000000
,
00000000
00000000
00000000
00000000
,
00000000
00000000
00000000
00000000
,
00000000
00000000
00000000
00000000
,
00000000
00000000
00000000
00000000
,
00000000
00000001
00000000
00000010
,
00000000
00001000
00000000
00010000
,
00000000
00100000
00000000
10000000
,
20020000
00000000
00000000
30030000
,
00100000
00000000
00100000
00000000
,
01000000
00000000
01000000
00000000
,
00001000
00000000
00010000
00000000
,
00000010
00000010
00000010
00001001
,
00001000
00000000
00000001
00000000
,
00001000
00000000
00000100
00000000
,
00010000
00000000
00001000
00000000
,
00100000
00100000
00010000
10010000
,
01000000
00100000
01000000
01000000
,
20000000
00000000
32000000
00000000
,
03200000
00000000
00302000
00000000
,
00023000
00030200
00002300
00000000
,
00003001
00000001
00001000
00000010
,
00000200
00000000
00000302
00000000
,
00002003
00000000
00003200
00000000
,
00010300
00001000
00022000
00033000
,
00001000
00001000
00100000
00010000
,
10000000
00100000
01000000
01000000
,
00100000
10000000
01000000
00100000
,
00001000
00001000
00010000
00000010
,
00002010
00000000
00003001
00000100
,
00000120
00000000
00001030
00000100
,
00010000
00001000
00001000
00100000
,
00010000
00000000
00000000
20020000
00000000
00000000
30030000
00000000
,
20000000
00000000
30200000
00000000
,
01300000
00100000
00010000
00001000
,
00000200
00000000
00000302
00000000
,
00001003
00000100
00000010
00001000
,
00020000
00000000
01030000
01000000
,
20000000
00000000
30100000
00100000
,
00020000
00000000
00031000
00000100
,
00000010
00000000
00000000
00000220
00000000
00000000
00000330
00000000
,
00001000
00001000
00000010
00000100
,
00000002
00000000
00000203
00000000
,
00000320
00000000
00002030
00000000
,
00003100
00000100
00001000
00010000
,
02000000
00000000
03100000
10000000
,
02000000
00000000
03100000
00001000
,
00020000
00000000
00030010
00001000
,
00000001
00000000
00000000
00002002
00000000
00000000
00003003
00000000
,
00000001
00000001
00000100
00000000
,
00001000
00001000
00010000
00000000
,
01000000
01000000
10000000
00000000
,
00010000
10000000
00100000
01000000
,
00010000
10000000
00100000
00000000
,
00010000
00001000
00000010
00000000
,
00000001
00001000
00000100
00000000
,
00000010
00000001
00001000
00001000
,
00000020
00000000
00000230
00000000
,
00000301
00000100
00001000
00010000
,
00002000
00000000
00023000
00000000
,
01030000
00010000
01000000
10000000
,
00010000
00010000
10000000
00100000
,
02000000
00000000
03100000
00100000
,
00001000
00010000
00000010
00010000
,
00022000
00000000
00000000
00033000
,
00010000
00100000
01000000
00000000
,
10000000
00100000
01000000
00000000
,
00100000
00010000
00001000
00000000
,
00000010
00001000
00000001
00000100
,
00000010
00001000
00000001
00000000
,
00000010
00000100
00001000
00000000
,
00010000
01000000
10000000
00000000
,
00010000
10000000
00010000
10000000
,
20020000
00000000
00000000
00000000
,
30030000
00000000
00000000
00000000
;

//--------------- dance-double - Fred-104 ----------------
#NOTES:
     dance-double:
     Fred-104:
     Medium:
     10:
     :
00000000
00000000
00000000
00000000
,
00000000
00000000
00000000
00000000
,
00000000
00000000
00000000
00000000
,
00000000
00000000
00000000
00000000
,
00000000
00000000
00000000
00000000
,
00010000
00010000
00000000
00001000
,
00000000
00000010
00000000
00000001
,
00000000
00001000
00000000
00010000
,
00022000
00000000
00000000
00033000
,
00000000
00001000
00000000
00010000
00000000
00100000
00000000
10000000
,
00000000
01000000
00000000
00010000
00000000
00001000
00000000
00000100
,
00000000
00000001
00000000
00000010
00000000
00001000
00000000
00010000
,
00100000
00000000
00000000
10000000
00000000
00000000
00010000
00000000
01000000
00000000
01000000
00000000
00200000
00000000
00000000
00000000
,
00300000
10000000
00000000
01000000
00000000
00010000
00000000
00001000
,
00000000
00000010
00000000
00000001
00000000
00000100
00000000
00001000
,
00000000
00010000
00000000
00100000
00000000
10000000
00000000
01000000
,
00100000
00000000
00000000
00100000
00000000
00000000
00001000
00000000
00010000
00000000
00001000
00000000
00000200
00000000
00000000
00000000
,
00000310
00000001
00000010
00000001
00001000
00000000
00000001
00000100
,
00000000
00000010
00001000
00000100
00000000
00010000
00001000
00010000
,
00000000
00001000
01000000
00010000
00000000
00100000
00001000
00010000
,
00001000
00001000
00010000
00010000
00001000
00020000
00000000
00000000
,
01030000
00100000
01000000
00100000
10000000
00000000
00100000
01000000
,
00000000
00100000
10000000
01000000
00000000
00100000
00001000
00010000
,
00000000
00001000
00000100
00000010
00000000
00000001
00001000
00000010
,
00000000
00001010
00000000
00000101
00000000
00002002
00003003
00000000
,
00000001
00000000
00000100
00000000
00000010
00000000
00001000
00000100
,
00010000
00000000
00001000
00000000
00010000
00000000
00100000
10000000
,
00010000
00000000
10000000
00000000
01000000
00000000
00100000
00001000
,
00010000
00000000
00001000
00000000
00000010
00000100
00000010
00000100
,
00000002
00000000
00000000
00000000
00001003
00000100
00000010
00000000
,
00000200
00000000
00000000
00000000
00010300
00001000
01000000
00000000
,
00100000
00000000
10000000
00000000
01000000
00010000
00001000
00000100
,
00000001
00000000
00000000
00002002
00000000
00000000
00003003
00000000
,
00000001
00001000
00000010
00000100
00000000
00000010
00001000
00000010
,
00000000
00010000
00001000
00010000
00000000
00001000
00100000
00001000
,
00100000
00000000
00010000
01000000
00000000
01000000
00100000
10000000
,
01000000
00000000
00100000
00000000
00010000
00000000
00001000
00000100
,
00000002
00000000
00000000
00000000
00000103
00000010
00000100
00000000
,
00000020
00000000
00000000
00000000
00010030
00001000
00010000
00000000
,
00000200
00000000
00000000
00000000
00010300
00001000
00100000
00010000
,
10000000
00010000
00000000
11000000
00000000
02200000
03300000
00000000
,
00010000
10000000
00010000
01000000
00000000
00100000
01000000
00010000
,
00000000
00100000
00001000
00010000
00000000
00001000
00000100
00000001
,
00002000
00000000
00000000
00003020
00000000
00000130
00000001
00001000
,
00000100
00001000
00000001
00000000
00000100
00001000
00010000
00000000
,
02000000
00000000
00000000
03100000
00000000
10000000
01000000
00000000
,
00200000
00000000
00000000
00301000
00000000
00010000
00001000
00010000
,
00020000
00000000
00000000
00030100
00000000
00001000
00000100
00010000
,
00010000
00001000
00000000
00022000
00000000
00000000
00033000
00000000
,
00010000
00001000
00000000
00000100
00000000
00000010
00000000
00000001
,
00001000
00000001
00000000
00000100
00000000
00000010
00000000
00001000
,
00010000
00100000
00000000
10000000
00000000
00010000
00000000
01000000
,
00100000
00000000
00000000
10000000
00000000
00000000
00100000
00000000
01000000
00000000
00100000
00000000
20000000
00000000
00000000
00000000
,
31000000
01000000
00000000
10000000
00000000
00100000
00000000
00010000
,
00001000
00000100
00000000
00000001
00000000
00000010
00000000
00001000
,
00010000
01000000
00000000
10000000
00000000
00100000
00000000
01000000
,
00010000
00000000
00000000
00100000
00000000
00000000
00001000
00000000
00010000
00000000
00010000
00000000
00002000
00000000
00000000
00000000
,
00013000
00001000
00000100
00000001
,
00000010
00001000
00010000
01000000
,
10000000
00100000
00010000
00001000
,
00000100
00000000
00000001
00000000
00001000
00000001
00001000
00000001
,
00000100
00000000
00000110
00000000
00000010
00001000
00000001
00000000
,
00000010
00000000
00000110
00000000
00000010
00001000
00000100
00000000
,
00010000
00001000
00010000
00001000
01000000
00010000
10000000
00000000
,
20020000
00000000
00000000
30030000
,
00100000
10000000
10000000
00100000
01000000
00100000
01000000
00000000
,
00100000
00001000
00001000
00010000
00001000
00010000
00001000
00000000
,
00000100
00000010
00000010
00001000
00000001
00000100
00000010
00000000
,
00001000
00000000
00000000
00000001
00000000
00000000
00000100
00000000
00000010
00000000
00001000
00000000
00000200
00000000
00000000
00000000
,
00010300
00001000
00001000
00010000
00000010
00010000
00001000
00000000
,
00001000
01000000
01000000
00010000
00100000
00010000
10000000
00000000
,
00100000
01000000
01000000
00100000
10000000
01000000
00100000
00000000
,
00001000
00000000
00000000
00001000
00000000
00000000
00100000
00000000
00001000
00000000
00010000
00000000
00001000
00000000
00000000
00000000
,
00022000
00000000
00000000
00000000
,
00033000
00000000
00000000
00000000
;

//--------------- dance-double - Fred-104 ----------------
#NOTES:
     dance-double:
     Fred-104:
     Hard:
     15:
     :
00000000
00000000
00000000
00000000
,
00000000
00000000
00000000
00000000
,
00000000
00000000
00000000
00000000
,
00000000
00000000
00000000
00000000
,
00000000
00000000
00000000
00000000
,
00000001
00000100
00000000
00001000
,
00010000
01000000
00000000
10000000
,
00100000
00010000
00000000
00000010
,
00002002
00000000
00000000
00003003
,
00000001
00000101
00000000
00001001
00000000
00001100
00000000
00000110
,
00000000
00000011
00000000
00000101
00000000
00001001
00000000
00001010
,
00000000
00011000
00000000
00110000
00000000
10100000
00000000
10010000
,
00010000
00000000
00000000
10000000
00000000
00000000
00100000
00000000
01000000
00000000
00100000
00000000
10000000
00000000
01000000
00000000
,
00100000
00110000
00000000
10100000
00000000
00110000
00000000
01001000
,
00000000
00011000
00000000
00010010
00000000
00001100
00000000
00000110
,
00000000
00000011
00000000
00001001
00000000
00001010
00000000
00011000
,
00000000
00000000
00001000
00000000
00000000
00100000
00000000
00010000
10000000
00100000
01000000
00000000
00100000
00000000
10000000
00000000
,
00010000
00100000
00010000
10000000
00100000
01000000
00010000
20000000
,
00000000
31000000
00100000
00002000
00000000
00013000
00000100
00000020
,
00000000
00000031
00000100
00002000
00000000
00003100
00000001
00000010
,
00000100
00000010
00000100
00000000
00001000
00000100
00001000
00000100
00001000
00000001
00000200
00000000
00000000
00000000
00000000
00000000
,
00000310
00000001
00001000
00000010
00000100
00000100
00001000
00020000
,
00000000
00031000
00010000
02000000
00000000
03010000
00001000
00000200
,
00000000
00000000
00001300
00000000
00010000
00000000
00200000
00000000
00000000
00000000
00310000
00000000
00001000
00000000
00010000
00001000
,
00010000
00000000
00001000
00000000
00100000
00010000
00000000
00010000
10000000
00000000
00100000
00000000
01000000
00100000
01000000
00000000
,
00010000
00000000
10000000
00000000
00100000
10000000
00100000
00000000
01000000
00000000
00100000
00000000
00010000
00000000
00001000
00000000
,
00000100
00000000
00000001
00000000
00001000
00000001
00001000
00000000
00000010
00000000
00000100
00000000
00000001
00000000
00000010
00000000
,
00000100
00000000
00010000
00000000
00001000
00010000
00001000
00000000
00100000
00010000
00100000
00000000
00010000
10000000
00010000
00000000
,
01000000
00100000
10000000
01000000
00100000
00010000
10000000
00100000
,
01000000
00010000
01000000
00000000
00001000
00010000
00001000
00000000
00010000
00000000
00001000
00000000
00000100
00000000
00000010
00000000
,
00010000
00000010
00010000
00000000
00000010
00001000
00000010
00000000
00010000
00000000
00001000
00000000
01000000
00000000
00010000
00000000
,
00001000
00010000
00001000
00000000
00010000
00000010
00010000
00000000
00001000
00100000
00001000
00000000
00010000
00001000
00010000
00001000
,
00010000
00000000
00001000
00022000
00000000
00000000
00033000
00000000
,
00010000
00001000
00000010
00000012
00000000
00001003
00000100
00000210
,
00000000
00000301
00000100
00000210
00000000
00000310
00001000
00000100
,
00010000
00001000
00010000
00021000
00000000
00031000
00100000
00010000
,
10000000
00000000
00100000
00000000
01000000
00100000
01000000
00000000
00010000
10000000
00020000
00000000
00130000
00000000
00001000
00000000
,
00011000
00000000
00000000
00000000
00010000
00000000
00000100
00000000
00001000
00000000
00000010
00000100
00000010
00000000
00000000
00000000
,
00001001
00000000
00000000
00000000
00000001
00000000
00000100
00000000
00001000
00000000
00010000
00001000
00010000
00000000
00000000
00000000
,
00011000
00000000
00000000
00000000
00001000
00000000
00010000
00000000
01000000
00000000
10000000
00010000
10000000
00000000
00100000
00000000
,
01000000
01100000
00000000
11000000
00000000
00220000
00330000
00000000
,
00100000
00000000
00001000
00010000
00001000
00000000
00010000
00000000
00000010
00000000
00001000
00000100
00001000
00000000
00000010
00001000
,
00000000
00000000
00001000
00000001
00000000
00000000
00000001
00000100
00000000
00000000
00000100
00000010
00001000
00000000
00000100
00000000
,
00020100
00000000
00031000
00010000
00010000
01000000
10000000
00010000
,
01000000
01000000
00100000
00100000
10000000
10000000
00010000
00010000
,
01010000
00000000
00000000
00000000
00001000
00000000
00010000
00000000
00000010
00001000
00000100
00010000
00001000
00000000
00000000
00000000
,
00011000
00000000
00000000
00000000
01000000
00000000
00010000
00000000
00100000
00001000
00010000
00000010
00001000
00000000
00000010
00000000
,
00000100
00000000
00000010
00000000
00000001
00000000
00001000
00000000
00000010
00000000
00000100
00000000
00001000
00000000
00010000
00100000
,
01000000
01100000
00000000
20020000
00000000
00000000
30030000
00000000
,
10000000
01000000
10000000
00000000
00100000
00000000
01000000
00010000
01000000
00000000
00001000
00000000
00010000
00001000
00010000
00000000
,
00000010
00001000
00000010
00000000
00000100
00000000
00000001
00001000
00000001
00000000
00000100
00000000
00000010
00000100
00000010
00000000
,
00001000
00000010
00000100
00000000
00000001
00000000
00001000
00000010
00000100
00000000
00000001
00000000
00001000
00000010
00000100
00000000
,
00000001
00000100
00000001
00000100
00000010
00001000
00000010
00001000
00000100
00000000
00010000
00000000
00021000
00000000
00000000
00000000
,
00031000
00100000
00001000
00000000
00100000
00000000
00010000
10000000
00010000
00000000
01000000
00000000
00100000
01000000
00100000
00000000
,
10000000
01000000
10000000
00000000
00100000
00000000
01000000
00010000
01000000
00000000
00001000
00000000
00010000
00000100
00010000
00000000
,
00001000
00010000
00000010
00000000
00010000
00000000
00001000
00010000
00000010
00000000
00010000
00000000
00001000
00010000
00000010
00000000
,
00001000
00000100
00001000
00000100
00000010
00000001
00000010
00000001
00000100
00000000
00000010
00000000
00000120
00000000
00000000
00000000
,
00000130
00000010
00010000
00001000
00010000
00100000
10000000
00000000
,
00010000
01000000
10000000
01000000
00010000
00001000
00010000
00000000
,
00001000
00000100
00000001
00001000
00000010
00000100
00000001
00000000
,
00001000
00000000
00000010
00000000
00000100
00000000
00000001
00000000
00001000
00000100
00001000
00000100
00010000
00001000
00010000
00001000
,
00100000
00010000
00100000
00010000
00100000
00000000
00010000
10000000
00010000
00000000
01000000
00000000
01100000
00000000
00000000
00000000
,
00100000
00000000
10000000
00000000
02000000
00000000
00100000
00010000
03000000
00000000
00100000
00000000
01000000
00010000
00100000
00000000
,
00001000
00010000
00001000
00010000
00001000
00000000
00000100
00000010
00000100
00000000
00000001
00000000
00001000
00000000
00000001
00000000
,
00002002
00000000
00000000
00003003
,
00000001
00000100
00000001
00000100
00000001
00000000
00001000
00000100
00001000
00000100
00001000
00000000
00000010
00000100
00000010
00000000
,
00010000
00001000
00010000
00001000
00010000
00000000
00100000
01000000
00100000
01000000
00100000
00000000
00010000
10000000
00010000
00000000
,
00100000
00001000
00100000
00000000
00001000
00000000
00010000
00000010
00010000
00000000
00001000
00000000
01000000
00010000
01000000
00000000
,
00010000
00100000
00010000
00100000
00001000
00010000
00001000
00010000
00000010
00001000
00000010
00001000
00000200
00000000
00000000
00000000
,
00000310
00000001
00001000
00000010
00000100
00000000
00000001
00001000
00000100
00000010
00000001
00000000
00001000
00000010
00000100
00000000
,
00000001
00000010
00000100
00010000
00001000
00000000
00100000
00001000
00010000
00001000
00100000
00000000
00010000
10000000
00100000
00000000
,
10000000
01000000
00100000
00000000
00001000
00000000
00010000
00001000
00010000
00000000
00100000
00000000
10000000
00010000
01000000
00000000
,
00000000
00000000
00001000
00000000
00000000
00010000
00000000
00010000
00000100
00001000
00000100
00000010
00000001
00001000
00000010
00000100
,
00000002
00000000
00000000
00000000
,
00000003
00000000
00000000
00000000
;
