#TITLE:LOVE IS ORANGE;
#ARTIST:Orange Lounge;
#GENRE:HARD CHANSON;
#BANNER:LOVE IS ORANGE.png;
#BACKGROUND:LOVE IS ORANGE-bg.png;
#CDTITLE:./CDTitles/bm IIDX 8th style.png;
#MUSIC:LOVE IS ORANGE.ogg;
#SAMPLESTART:50.667;
#SAMPLELENGTH:15;
#BPMS:0=180;
#STAGE:18;

//--------------- dance-single - Fred-104 ----------------
#NOTES:
     dance-single:
     Fred-104:
     Beginner:
     2:
     :
0000
0000
0000
0000
,
0000
0000
0000
0000
,
0000
0000
0000
0000
,
0000
0000
0000
0000
,
0000
0000
0000
0000
,
0000
0000
0000
0000
,
0000
0000
0000
0000
,
0000
0000
0000
0000
,
0000
0000
0000
0000
,
0000
0000
0000
0000
,
1000
0000
0000
0000
,
0001
0000
0000
0000
,
1000
0000
0000
0000
,
0001
0000
0000
0000
,
1000
0000
0000
0000
,
0010
0000
0000
0000
,
0100
0000
0000
0000
,
1001
0000
0000
0000
,
0001
0000
0100
0000
,
0001
0000
0000
0000
,
1000
0000
0100
0000
,
1000
0000
0000
0000
,
0001
0000
0010
0000
,
0001
0000
0000
0000
,
1000
0000
0010
0000
,
1000
0000
0000
0000
,
0001
0000
0000
0000
,
0100
0000
0000
0000
,
0010
0000
0000
0000
,
1001
0000
0000
0000
,
1000
0000
0010
0000
,
1000
0000
0000
0000
,
0100
0000
0010
0000
,
0100
0000
0000
0000
,
0010
0000
0001
0000
,
0010
0000
0000
0000
,
0001
0000
1000
0000
,
0001
0000
1000
0000
,
0001
0000
1000
0000
,
0010
0000
0000
0000
,
1000
0000
0100
0000
,
1000
0000
0000
0000
,
0001
0000
1000
0000
,
0001
0000
0000
0000
,
1000
0000
0010
0000
,
1000
0000
0000
0000
,
0001
0000
1000
0000
,
0001
0000
0000
0000
,
1000
0000
0010
0000
,
0100
0000
0000
0000
,
0010
0000
1000
0000
,
0001
0000
0000
0000
,
1000
0000
0001
0000
,
1000
0000
0000
0000
,
1000
0000
0000
0000
,
1000
0000
0000
0000
,
0001
0000
0000
0000
,
0001
0000
0000
0000
,
1000
0000
0000
0000
,
1000
0000
0000
0000
,
0001
0000
0000
0000
,
0001
0000
0000
0000
,
1000
0000
0010
0000
,
1000
0000
0000
0000
,
0001
0000
1000
0000
,
0200
0000
0300
0000
,
1000
0000
0010
0000
,
1000
0000
0000
0000
,
0100
0000
0010
0000
,
0200
0000
0300
0000
,
1000
0000
0001
0000
,
1000
0000
0000
0000
,
0001
0000
0100
0000
,
0002
0000
0003
0000
,
0100
0000
0010
0000
,
0100
0000
0000
0000
,
0010
0000
1000
0000
,
0002
0000
0003
0000
,
1001
0000
0000
0000
;

//--------------- dance-single - Fred-104 ----------------
#NOTES:
     dance-single:
     Fred-104:
     Easy:
     5:
     :
0000
0000
0000
0000
,
0000
0000
0000
0000
,
0000
0000
0000
0000
,
0000
0000
0000
0000
,
0000
0000
0000
0000
,
0000
0000
0000
0000
,
0000
0000
0000
0000
,
0000
0000
0000
0000
,
0000
0000
0000
0000
,
0000
0000
0000
0000
,
2000
0000
0000
3000
,
0020
0000
0000
0030
,
0200
0000
0000
0300
,
0002
0000
0000
0003
,
2000
3000
0200
0300
,
0020
0030
0002
0003
,
0200
0300
0020
0030
,
1000
1001
0000
0000
,
0002
0003
0200
0300
,
0001
0010
0100
0000
,
1000
0010
1000
0000
,
0100
1000
0001
0000
,
2000
3000
0020
0030
,
0100
0010
1000
0000
,
0001
0010
0100
0000
,
1000
0001
1001
0000
,
0002
0000
0003
0000
,
0020
0000
0030
0000
,
0200
0000
0300
0000
,
1000
1001
0000
0000
,
0002
0003
2000
3000
,
0010
1000
0100
0000
,
1000
0010
1000
0100
,
0010
0001
1000
0000
,
0002
0003
2000
3000
,
0010
1000
0001
0000
,
1000
0100
0010
0001
,
1000
0001
1001
0000
,
0001
0100
0001
0000
,
0100
1000
0100
0000
,
0001
0010
0001
0000
,
0010
1000
0010
0000
,
0001
1000
0001
0000
,
1000
0010
0100
0000
,
0010
1000
0100
0000
,
1000
0001
1000
0100
,
1000
0100
0010
0001
,
0100
0010
0100
0000
,
0001
0100
0010
0100
,
0001
1000
0001
0000
,
0100
0010
1000
0010
,
0100
0001
1000
0000
,
0001
0010
0100
1000
,
0001
0100
0010
1000
,
1001
0000
0000
0000
,
0110
0000
0000
0000
,
1001
0000
0000
0000
,
0110
0000
1001
0000
,
1001
0000
0000
0000
,
0110
0000
0000
0000
,
1001
0000
0110
0000
,
1000
0001
2002
3003
,
0001
0010
0200
0300
,
1000
0010
0200
0300
,
0001
1000
0100
1000
,
0010
0100
0002
0003
,
1000
0100
0020
0030
,
0001
0100
0020
0030
,
1000
0010
0100
0010
,
1000
0001
0020
0030
,
0001
1000
0200
0300
,
1000
0001
0200
0300
,
0001
1000
0010
1000
,
0100
0010
0002
0003
,
1000
0001
0020
0030
,
0001
1000
0020
0030
,
1000
0100
0010
0001
,
1000
0001
0100
0220
,
0330
0000
0000
0000
;

//--------------- dance-single - Fred-104 ----------------
#NOTES:
     dance-single:
     Fred-104:
     Medium:
     9:
     :
0000
0000
0000
0000
,
0000
0000
0000
0000
,
0000
0000
0000
0000
,
0000
0000
0000
0000
,
0000
0000
0000
0000
,
0000
0000
0000
0000
,
0000
0000
0000
0000
,
0000
0000
0000
0000
,
0000
0000
0000
0000
,
0000
0000
0000
0000
,
1000
0000
0000
0010
0000
0000
0100
0000
,
0010
0000
0000
1000
0000
0000
0100
0000
,
0010
0000
0000
0001
0000
0000
1000
0000
,
0001
0000
0000
0100
0000
0000
0010
0000
,
0200
0000
0000
0302
0000
0000
0013
0000
,
0002
0000
0000
2003
0000
0000
3100
0000
,
2000
0000
0000
3020
0000
0000
0130
0000
,
0001
1000
1001
0000
0000
0000
0001
0000
,
2000
0000
3000
0010
0200
0000
0310
1000
,
0010
1000
1001
0000
,
0001
0010
0001
0000
1000
0010
1000
0000
,
0001
0100
0110
0000
,
0002
0000
0003
0100
0020
0000
0130
0001
,
0010
0001
1001
0000
,
1000
0010
1000
0000
0001
0100
0001
0000
,
1000
0001
1001
0000
,
1000
0000
0100
1000
0000
0010
0100
0000
,
0010
0000
1000
0100
0000
0010
0001
0000
,
1000
0000
0001
0100
0000
0010
1000
0000
,
0001
1000
1001
0000
0000
0000
0000
0000
,
2000
0000
3010
1000
0020
0000
1030
0100
,
1000
0001
0100
0010
,
0100
0001
0100
0000
0001
0010
0100
0000
,
1000
0001
1001
0000
,
0002
0000
0103
0001
0200
0000
0310
0100
,
0010
1000
0100
1000
,
0001
1000
0100
0000
1000
0010
0100
0000
,
0001
1000
1001
0000
,
0002
0103
2000
3100
,
0001
0000
0010
0100
0000
1000
0010
0000
,
2000
3100
0002
0103
,
1000
0000
0001
0100
0000
0010
0100
0000
,
0002
0013
2000
3010
,
0001
0000
0010
0100
0000
1000
0100
0000
,
2000
3010
0002
0013
,
1000
0001
1000
0000
1001
0000
0000
0000
,
0001
0000
0100
0001
0010
0000
0001
0100
,
0010
1000
0100
1000
,
0010
1000
0010
0000
0100
0001
0100
0000
,
0001
1000
1001
0000
,
1000
0000
0100
1000
0010
0000
0100
0001
,
0010
0100
1000
0001
,
1000
0010
0100
0000
0010
1000
0001
0000
,
1000
0001
1001
0000
,
1001
0000
0000
0000
,
0110
0000
0000
0000
,
1001
0000
0000
0000
,
0220
0330
2002
3003
,
1100
0010
0001
0000
,
0101
0010
1000
0000
,
1001
0001
0100
0010
,
1000
0001
1001
0000
,
1000
0010
1000
0000
0100
0000
1000
0000
,
0010
0100
0010
0000
1000
0000
0100
0000
,
0010
0001
0010
0000
0001
1000
0001
0000
,
0100
0010
1001
0000
,
1000
0010
1000
0000
0100
0000
0010
0000
,
0100
1000
0100
0000
1000
0000
0001
0000
,
0100
0010
0100
0000
0001
0010
0001
0000
,
0100
0010
1001
0000
,
0001
0100
0001
0000
0010
0000
0100
0000
,
0010
0001
1000
0000
0010
0000
0100
0000
,
0010
1000
0100
0000
1000
0001
0100
0000
,
0001
1000
1001
0000
,
1000
0100
0010
0000
0001
0000
0100
0000
,
0010
1000
0100
0000
1000
0000
0001
0000
,
0010
0100
1000
0000
0001
0010
0100
0000
,
1000
0001
1000
0000
0001
0000
2002
0000
,
3003
0000
0000
0000
;

//--------------- dance-single - Fred-104 ----------------
#NOTES:
     dance-single:
     Fred-104:
     Hard:
     12:
     :
0000
0000
0000
0000
,
0000
0000
0000
0000
,
0000
0000
0000
0000
,
0000
0000
0000
0000
,
0000
0000
0000
0000
,
0000
0000
0000
0000
,
0000
0000
0000
0000
,
0000
0000
0000
0000
,
0000
0000
0000
0000
,
0000
0000
0000
0000
,
2000
0000
3010
0200
0000
0310
2000
0000
,
3002
0000
0013
0200
0000
0310
0002
0000
,
2003
0000
3001
0200
0000
0310
0200
0000
,
0302
0000
0013
0200
0000
1300
0020
0000
,
2030
0000
3100
0020
0000
0031
0200
0000
,
0302
0000
0013
0200
0000
1300
0002
0000
,
2003
0000
3010
2000
0000
3100
0020
0000
,
0031
0001
1001
0000
0000
0000
2000
0000
,
3002
0000
0003
0100
0010
0000
1000
0001
,
0010
0001
0100
0000
0101
0000
0000
0000
,
0001
0100
0001
1000
0001
0010
0100
0000
,
1000
0100
1000
0100
2000
0000
3000
0000
,
0002
0000
0003
1000
0100
0000
0010
0001
,
0010
0100
1000
0000
1010
0000
0000
0000
,
1000
0001
0010
0001
0100
0000
0010
0000
,
0100
0001
0010
0001
2000
0000
3000
0000
,
0002
0000
0013
0002
0000
1003
0001
0100
,
0020
0000
1030
0200
0000
0310
0100
1000
,
0002
0000
1003
0200
0000
0310
0001
1000
,
0001
0001
1001
0000
0000
0000
0002
0000
,
1003
0000
0010
1000
0100
0000
1000
0100
,
0010
0001
0100
0010
0100
0000
0001
0000
,
1000
0001
0010
0001
0100
0000
0001
0000
,
1000
0100
0010
0001
1000
0010
1000
0000
,
0001
0000
1000
0010
0100
0000
0010
1000
,
0100
1000
0001
0100
0001
0000
1000
0000
,
0001
0010
0100
1000
0001
0000
0100
0000
,
0010
1000
0001
1000
0100
0000
0000
0000
,
0110
0000
0010
0001
1000
0000
0001
1000
,
0100
0000
1000
0010
0000
0100
0001
1000
,
0001
0000
0100
1000
0100
0000
0001
0010
,
0001
0000
0010
1000
0000
0010
0001
0000
,
1000
0000
0001
0100
1000
0000
0001
0010
,
1000
0000
0001
1000
0010
0100
0001
1000
,
0001
0000
1000
0100
0010
0000
0001
1000
,
1010
0000
0000
0000
0101
0000
0000
0000
0001
1000
0000
0001
0100
0000
0010
0000
,
2000
0000
3001
1000
0200
0000
1300
0010
,
0100
0001
0010
0100
0010
0001
1000
0000
,
0001
0100
1000
0100
0001
0000
1001
0000
,
1000
0100
0001
0100
1000
0000
1001
0000
,
0002
0000
0013
0001
0200
0000
0310
1000
,
0100
0010
0001
1000
0010
0100
0010
0000
,
1000
0010
0001
0010
1000
0000
1001
0000
,
0001
0010
1000
0010
0001
0000
1001
0000
,
2100
0010
0002
3003
,
0102
0000
0010
0000
2000
0000
3003
1000
,
1200
1000
0010
1300
,
2002
3003
0220
0330
,
0001
0000
0010
0000
0100
0000
1000
0000
0001
0000
0001
0000
0000
0001
0000
0000
,
1000
0000
0010
0000
0100
0000
0001
0000
1000
0000
1000
0000
0000
1000
0000
0000
,
0001
1000
0010
1000
0100
0010
0001
1000
,
0001
0000
0000
0100
0010
0000
1000
0000
0001
0000
1000
0000
1001
0000
0000
0000
,
1000
0010
0100
0010
1000
0100
0010
0000
,
0001
1000
0001
0010
0001
0100
0010
0000
,
1000
0100
0010
0001
1000
0001
0010
0100
,
0020
0032
2000
3003
,
0001
0100
1000
0100
0001
1000
0001
0000
,
1000
0100
0001
0100
1000
0001
1000
0000
,
0001
0100
0010
0100
0001
1000
0100
0010
,
0200
2300
0002
3003
,
1000
0010
1000
0100
1000
0010
0100
0001
,
0010
0001
1000
0001
0100
0010
1000
0001
,
0010
0100
1000
0010
0100
0001
0010
0001
,
1000
0001
0100
0010
1000
0000
1001
0000
,
0001
0010
0100
0010
0001
1000
0010
0100
,
0001
0010
0100
1000
0001
0010
0100
0010
,
0001
1000
0010
1000
0001
0010
0100
1000
,
0010
0100
0001
1000
0001
0000
2002
0000
,
3003
0000
0000
0000
;

//--------------- dance-single - Fred-104 ----------------
#NOTES:
     dance-single:
     Fred-104:
     Challenge:
     16:
     :
0000
0000
0000
0000
,
0000
0000
0000
0000
,
0000
0000
0000
0000
,
0000
0000
0000
0000
,
0000
0000
0000
0000
,
0000
0000
0000
0000
,
0000
0000
0000
0000
,
0000
0000
0000
0000
,
0000
0000
0000
0000
,
0000
0000
0000
0000
,
2020
0000
3030
0202
0000
0303
2200
3300
,
0220
0000
0330
0022
0000
0033
2002
3003
,
0202
0000
0303
2020
0000
3030
2002
3003
,
2200
0000
3300
0022
0000
0033
0220
0330
,
0001
0000
0000
0000
0000
0000
0000
0000
0020
0030
0000
0000
0000
0000
0000
0000
0020
0030
0000
0000
0000
0000
0000
0000
1000
0000
0000
0000
0000
0000
0000
0000
0200
0300
0000
0000
0000
0000
0000
0000
0200
0300
0000
0000
0000
0000
0000
0000
0001
0000
0000
0000
0000
0000
0000
0000
0010
0000
0000
0000
0000
0000
0000
0000
,
0001
0000
0000
0000
0000
0000
0000
0000
0200
0300
0000
0000
0000
0000
0000
0000
0200
0300
0000
0000
0000
0000
0000
0000
1000
0000
0000
0000
0000
0000
0000
0000
0020
0030
0000
0000
0000
0000
0000
0000
0020
0030
0000
0000
0000
0000
0000
0000
0001
0000
0000
0000
0000
0000
0000
0000
1000
0000
0000
0000
0000
0000
0000
0000
,
0001
0000
0000
0000
0000
0000
0000
0000
0020
0030
0000
0000
0000
0000
0000
0000
0020
0030
0000
0000
0000
0000
0000
0000
0100
0000
0000
0000
0000
0000
0000
0000
0020
0030
0000
0000
0000
0000
0000
0000
0020
0030
0000
0000
0000
0000
0000
0000
0001
0000
0000
0000
0000
0000
0000
0000
1000
0000
0000
0000
0000
0000
0000
0000
,
0001
1001
1001
0000
0000
0000
0002
0000
,
2003
0000
3001
0010
2000
0000
3001
0100
,
1000
0000
0100
0010
1000
0000
0100
0000
0010
0000
0001
1000
0001
0000
0000
0000
,
1000
0000
0100
0010
0001
0000
1000
0000
0100
0000
0010
0001
1000
0000
0000
0000
,
0001
0000
0010
0100
1000
0000
0001
0000
0100
0010
0100
0010
0100
0000
0000
0000
,
0002
0000
1003
0100
0020
0000
1030
0010
,
0100
0000
1000
0010
0100
0000
0001
0000
0010
0000
0100
1000
0001
0000
0000
0000
,
1000
0000
0001
0010
0100
0000
1000
0000
0001
0000
0010
0100
1000
0000
0001
0000
,
0100
0000
0010
1000
0010
0000
0100
0000
0001
1000
0100
1000
0001
0000
0000
0000
,
2001
0000
0000
0000
3001
0000
0020
0000
0000
0000
0130
1000
0001
1000
0010
1000
,
0002
0000
0000
0000
0103
0000
0002
0000
0000
0000
0013
0001
0010
0100
1000
0010
,
2000
0000
0000
0000
3010
0000
0200
0000
0000
0000
0310
0100
0001
1000
0100
1000
,
0001
1001
1001
0000
0000
0000
0020
0000
,
1030
0000
0000
0000
0000
0000
0000
0000
0001
0000
0000
0000
0000
0000
0000
0000
0020
0030
0000
0000
0000
0000
0000
0000
0020
0030
0000
0000
0000
0000
0000
0000
1000
0000
0000
0000
0000
0000
0000
0000
0001
0000
0000
0000
0000
0000
0000
0000
0200
0300
0000
0000
0000
0000
0000
0000
0200
0300
0000
0000
0000
0000
0000
0000
,
1000
0000
0001
1000
0010
0000
0100
0000
0001
0100
0001
0100
0010
0000
0000
0000
,
1000
0000
0001
0100
0010
0000
1000
0000
0001
0000
0100
0010
1000
0000
0001
0000
,
1000
0000
0100
0010
0001
0000
1000
0000
0010
1000
0100
1000
0001
0000
0000
0000
,
1000
0000
0000
0000
0000
0000
0000
0000
0001
0000
0000
0000
0000
0000
0000
0000
0020
0030
0000
0000
0000
0000
0000
0000
0020
0030
0000
0000
0000
0000
0000
0000
1000
0000
0000
0000
0000
0000
0000
0000
0001
0000
0000
0000
0000
0000
0000
0000
0200
0300
0000
0000
0000
0000
0000
0000
0200
0300
0000
0000
0000
0000
0000
0000
,
1000
0000
0010
1000
0001
0000
0010
0000
0100
0010
0001
1000
0010
0000
0000
0000
,
0100
0000
0001
0010
0100
0000
1000
0000
0001
0000
0010
0100
1000
0000
0001
0000
,
1000
0100
0001
0100
0110
0000
0000
0000
,
2001
0000
3001
0100
2000
0000
3001
0010
,
2000
0000
3001
0100
1000
0100
0001
1000
,
0002
0000
1003
0010
0002
0000
1003
0100
,
0002
0000
1003
0100
0010
1000
0010
0100
,
2000
0000
3100
0010
0002
0000
0103
0010
,
2000
0000
3100
0010
0001
0100
0010
0001
,
0020
0000
1030
0001
0100
0010
1000
0100
,
0010
0000
0001
1000
0010
1000
0001
0000
1000
0001
0100
0001
1000
0000
0010
1000
,
0001
0000
0010
0000
0100
0000
1000
0010
0100
0001
0100
0000
0010
0000
1000
0000
,
0100
0000
1000
0000
0001
1000
0010
0000
1000
0100
0010
0001
1000
0100
1000
0000
,
0001
0000
0100
0000
0001
0000
0010
0001
1000
0001
0100
0000
0001
0000
1000
0000
,
0100
0000
0010
0000
0001
0100
0010
0000
0100
0001
0010
0001
1000
0100
1000
0000
,
0010
0000
1000
0000
0100
0000
1000
0010
0100
0001
1000
0000
0100
0010
0001
0000
,
1000
0000
0001
0010
0100
0000
1000
0000
0001
1000
0100
1000
0010
0100
0001
0000
,
0100
0000
0001
1000
0010
0000
0100
0000
0001
0010
0100
0010
0001
0000
1000
0000
,
0001
0000
0100
1000
0100
0000
0001
0010
0100
0000
1000
0010
0100
0001
1000
0000
,
1001
0000
0000
0001
0000
0000
0100
0010
0100
0010
0000
0000
2000
0000
0000
0000
0000
0000
3001
0000
0000
0000
0000
0000
,
1001
0000
0000
1000
0000
0000
0100
0010
0100
0010
0000
0000
0002
0000
0000
0000
0000
0000
1003
0000
0000
1001
0000
0000
,
0101
0001
1000
0010
0100
0010
1000
0001
,
2002
3003
0220
0330
,
1010
0000
0000
0000
0000
0000
1000
0000
0000
0000
0000
0000
0001
0000
1000
0000
0010
0000
1000
0000
0000
0000
0000
0000
0100
0000
0000
0000
0000
0000
0010
0000
0000
0000
0000
0000
0000
0000
0000
0011
0000
0000
0000
0000
0000
0000
0000
0000
,
1001
0000
0000
0000
0000
0000
1000
0000
0000
0000
0000
0000
0001
0000
0100
0000
0010
0000
0100
0000
0000
0000
0000
0000
0001
0000
0000
0000
0000
0000
1000
0000
0000
0000
0000
0000
0000
0000
0000
1010
0000
0000
0000
0000
0000
0000
0000
0000
,
0010
0000
1000
0000
0100
0000
0001
0000
0100
0000
1000
0000
0010
0100
0001
0000
,
1001
0000
0000
0001
0100
0000
0010
0000
0110
0000
0100
0000
1001
0000
0000
0000
,
0001
0000
0000
0010
0000
0000
0100
0000
0000
0000
0000
0000
1000
0000
0100
0000
1000
0000
0100
0000
0000
0000
0000
0000
1000
0000
0000
0000
0000
0000
0010
0000
0000
0000
0000
0000
1000
0000
0000
0100
0000
0000
0000
0000
0000
0100
0000
0000
,
0010
0000
0000
0001
0000
0000
1000
0000
0000
0000
0000
0000
0001
0000
0100
0000
0001
0000
0100
0000
0000
0000
0000
0000
0001
0000
0000
0000
0000
0000
0010
0000
0000
0000
0000
0000
0001
0000
0000
0100
0000
0000
0000
0000
0000
0100
0000
0000
,
0010
0000
1000
0100
0010
0000
0001
0000
0100
0000
0001
0010
0100
0000
1000
0000
,
1100
1000
0001
1000
2002
0000
3003
0000
,
0001
0000
0000
0010
0000
0000
0100
0000
0000
0000
0000
0000
1000
0000
0001
0000
0100
0000
0001
0000
0000
0000
0000
0000
1000
0000
0000
0000
0000
0000
0010
0000
0000
0000
0000
0000
0100
0000
0000
0001
0000
0000
0000
0000
0000
0001
0000
0000
,
0010
0000
0000
0100
0000
0000
0010
0000
0000
0000
0000
0000
0001
0000
1000
0000
0010
0000
1000
0000
0000
0000
0000
0000
0100
0000
0000
0000
0000
0000
1000
0000
0000
0000
0000
0000
0010
0000
0000
1000
0000
0000
0000
0000
0000
1000
0000
0000
,
0100
0000
0010
0001
1000
0000
0100
0010
0001
0000
1000
0100
0010
0000
0001
0000
,
1000
0000
0001
0000
0100
0010
0000
0010
1000
0100
0010
0100
1000
0000
0001
0000
,
1000
0010
0100
0000
0010
1000
0100
0000
0010
0000
0001
0000
0100
0000
0001
0010
,
0100
0010
0001
0000
0100
0010
1000
0000
0010
0000
1000
0000
0100
0000
1000
0001
,
0100
0001
1000
0000
0100
1000
0010
0000
0100
0000
0001
0010
0001
0000
1000
0010
,
0100
0010
1000
0000
0100
0010
0000
0010
0001
0000
1000
0000
0001
0000
0100
0001
,
0010
0000
0000
0001
0000
0000
1000
0000
0000
0000
0000
0000
0001
0000
0100
0000
0010
0000
1000
0000
0000
0000
0000
0000
0001
0000
0000
0000
0000
0000
0010
0000
0000
0100
0000
0000
0010
0000
0000
0000
0000
0000
0001
0000
0000
0000
0000
0000
,
1000
0000
0000
0010
0000
0000
0100
0000
0000
0000
0000
0000
0001
0000
0010
0000
0100
0000
1000
0000
0000
0000
0000
0000
0001
0000
0000
0000
0000
0000
0100
0000
0000
0010
0000
0000
0100
0000
0000
0000
0000
0000
0001
0000
0000
0000
0000
0000
,
1000
0000
0001
0010
0100
0000
1000
0001
0010
0000
0100
1000
0001
0000
0010
0100
,
1000
0000
0001
0000
0100
0010
0000
0010
1000
0100
0010
0001
1000
0100
0010
0001
;

//--------------- dance-double - Fred-104 ----------------
#NOTES:
     dance-double:
     Fred-104:
     Easy:
     6:
     :
00000000
00000000
00000000
00000000
,
00000000
00000000
00000000
00000000
,
00000000
00000000
00000000
00000000
,
00000000
00000000
00000000
00000000
,
00000000
00000000
00000000
00000000
,
00000000
00000000
00000000
00000000
,
00000000
00000000
00000000
00000000
,
00000000
00000000
00000000
00000000
,
00000000
00000000
00000000
00000000
,
00000000
00000000
00000000
00000000
,
00020000
00000000
00000000
00030000
,
02000000
00000000
00000000
03000000
,
00200000
00000000
00000000
00300000
,
20000000
00000000
00000000
30000000
,
02000000
03000000
00200000
00300000
,
00002000
00003000
00020000
00030000
,
00000200
00000300
00020000
00030000
,
00001000
00011000
00000000
00000000
,
00000020
00000030
00000200
00000300
,
00000001
00000010
00000100
00000000
,
00000010
00000001
00001000
00000000
,
00000100
00010000
01000000
00000000
,
20000000
30000000
00200000
00300000
,
10000000
01000000
00010000
00000000
,
00001000
00000010
00000001
00000000
,
00001000
00000001
00001001
00000000
,
00000002
00000000
00000003
00000000
,
00000200
00000000
00000300
00000000
,
00002000
00000000
00003000
00000000
,
01000000
01100000
00000000
00000000
,
00020000
00030000
20000000
30000000
,
00010000
01000000
00100000
00000000
,
10000000
00100000
00010000
00001000
,
00000010
00000001
00001000
00000000
,
00000002
00000003
00000200
00000300
,
00000001
00000010
00000100
00000000
,
00000010
00000001
00000100
00001000
,
00010000
00100000
10010000
00000000
,
00010000
10000000
00010000
00000000
,
01000000
00100000
10000000
00000000
,
01000000
00100000
00001000
00000000
,
00010000
00000100
00001000
00000000
,
00000010
00000100
00000001
00000000
,
00000100
00000010
00001000
00000000
,
00000001
00000010
00001000
00000000
,
00010000
01000000
10000000
00010000
,
10000000
01000000
00100000
01000000
,
10000000
00100000
10000000
00000000
,
00010000
01000000
00010000
01000000
,
00010000
00001000
00010000
00000000
,
00001000
00010000
00001000
00000010
,
00000001
00000010
00000001
00000000
,
00001000
00000001
00000100
00000010
,
00001000
00000100
00010000
00001000
,
00011000
00000000
00000000
00000000
,
01100000
00000000
00000000
00000000
,
10010000
00000000
00000000
00000000
,
10100000
00000000
01010000
00000000
,
00011000
00000000
00000000
00000000
,
00001100
00000000
00000000
00000000
,
00000011
00000000
00001001
00000000
,
00000100
00000010
00000220
00000330
,
00000001
00000010
00002000
00003000
,
00010000
00001000
00000020
00000030
,
00000001
00000100
00001000
00000100
,
00001000
00010000
00002000
00003000
,
00010000
01000000
20000000
30000000
,
01000000
00010000
00002000
00003000
,
00010000
01000000
10000000
00010000
,
01000000
00100000
20000000
30000000
,
00010000
10000000
02000000
03000000
,
00100000
00010000
02000000
03000000
,
00001000
00010000
00000100
00001000
,
00000100
00000010
00000002
00000003
,
00000100
00000010
00002000
00003000
,
00000100
00000010
00000002
00000003
,
00000100
00000001
00000010
00000100
,
00010000
00001000
00000100
00002002
,
00003003
00000000
00000000
00000000
;

//--------------- dance-double - Fred-104 ----------------
#NOTES:
     dance-double:
     Fred-104:
     Medium:
     10:
     :
00000000
00000000
00000000
00000000
,
00000000
00000000
00000000
00000000
,
00000000
00000000
00000000
00000000
,
00000000
00000000
00000000
00000000
,
00000000
00000000
00000000
00000000
,
00000000
00000000
00000000
00000000
,
00000000
00000000
00000000
00000000
,
00000000
00000000
00000000
00000000
,
00000000
00000000
00000000
00000000
,
00000000
00000000
00000000
00000000
,
10000000
00000000
01000000
10000000
00000000
00100000
10000000
00000000
,
01000000
00000000
00100000
00001000
00000000
00010000
00001000
00000000
,
01000000
00000000
00001000
00010000
00000000
00001000
00000010
00000000
,
00000100
00000000
00000001
00000010
00000000
00000100
00000010
00000000
,
00000001
00000000
00001000
00000010
00000000
00010000
00001000
00000000
,
00100000
00000000
00010000
00100000
00000000
01000000
10000000
00000000
,
00010000
00000000
01000000
00100000
00000000
10000000
01000000
00000000
,
00100000
00100000
01100000
00000000
00000000
00000000
00002000
00000000
,
00023000
00000000
00030100
00001000
00000200
00000000
00000310
00000001
,
00001000
00000001
00000100
00000000
00000110
00000000
00000000
00000000
,
00000001
00000100
00001000
00000000
00010000
00100000
10000000
00000000
,
00010000
10000000
00010000
01000000
00100000
00000000
10000000
00000000
,
00020000
00000000
10030000
01000000
00200000
00000000
00310000
10000000
,
00100000
01000000
00010000
00000000
00011000
00000000
00000000
00000000
,
00001000
00000100
00000010
00000000
00000001
00001000
00000010
00000000
,
00001000
00000100
00000010
00000100
00020000
00000000
00030000
00000000
,
00002000
00000000
00103000
00020000
00000000
10030000
01000000
00100000
,
02000000
00000000
13000000
00020000
00000000
00130000
10000000
00100000
,
00020000
00000000
01030000
00002000
00000000
00013000
00000100
00001000
,
00000100
00000010
00000110
00000000
00000000
00000000
00000000
00000000
,
00000002
00000000
00001003
00000100
00000002
00000000
00000103
00001000
,
00000010
00000100
00000001
00000000
00002000
00000000
00003020
00000000
,
00010030
00000010
00001000
00000010
00010000
00001000
00010000
00000000
,
00001000
00100000
00010000
01000000
00100000
00000000
10000000
00000000
,
00020000
00000000
00130000
01000000
20000000
00000000
30100000
01000000
,
00010000
10000000
01000000
00000000
00100000
00001000
00010000
00000000
,
00000100
00001000
00000010
00000100
00000010
00001000
00000001
00000000
,
00000010
00000100
00010000
00001000
00010000
00000000
00000000
00000000
,
00021000
00000000
00031000
00010000
00200000
00000000
00310000
00001000
,
00000010
00000000
00001000
00010000
00000000
00010000
00100000
00000000
,
00010000
00000000
00001000
00000100
00001000
00000000
00010000
01000000
,
00010000
00000000
00001000
00000100
00000000
00001000
00010000
00000000
,
00001000
00000000
00010000
00100000
00010000
00000000
00001000
00000010
,
00001000
00000000
00010000
00100000
00000000
00010000
00001000
00000000
,
00000100
00000000
00001000
00010000
01000000
00000000
00010000
00001000
,
00000100
00000000
00000001
00000000
00001000
00000001
00001000
00000000
,
00000001
00000000
00000100
00000010
00000100
00000000
00000001
00000010
,
00000100
00000010
00000001
00000000
00002000
00000000
00003000
00000000
,
00000010
00010000
00001000
00000000
00100000
00001000
00010000
00000000
,
00000100
00010000
00001000
00010000
02000000
00000000
03100000
00000000
,
10000000
00000000
00010000
10000000
00100000
00000000
10000000
00010000
,
01000000
00100000
10000000
00000000
02000000
00000000
03000000
00000000
,
00100000
00001000
00100000
00001000
00010000
00000100
00001000
00000000
,
00000100
00000010
00000001
00001000
00000001
00000000
00000000
00000000
,
00001001
00000000
00000000
00000000
,
00011000
00000000
00000000
00000000
,
10010000
00000000
00000000
00000000
,
02200000
03300000
20020000
30030000
,
10000000
01000000
00020000
00030000
,
10000000
00100000
00020000
00030000
,
10000000
01000000
00100000
00001000
,
00010000
00001000
00011000
00000000
,
00010000
00000000
00000100
00001000
00000100
00000000
00000010
00000000
,
00000001
00000000
00001000
00000001
00000100
00000000
00000010
00000000
,
00000100
00000001
00000010
00000000
00000100
00001000
00000010
00000000
,
00010000
00001000
00011000
00000000
,
00001000
00000000
00100000
00010000
01000000
00000000
00010000
00000000
,
00100000
00000000
01000000
10000000
00010000
00000000
01000000
00000000
,
00100000
10000000
00010000
00000000
10000000
01000000
00100000
00000000
,
00001000
00010000
00011000
00000000
,
00010000
00000000
00000010
00001000
00000100
00000000
00001000
00000000
,
00000010
00000000
00000100
00000010
00001000
00000000
00000001
00000000
,
00000010
00000100
00000010
00000000
00000001
00000100
00001000
00000000
,
00010000
01000000
10000000
00010000
,
10000000
00000000
00010000
10000000
00100000
00000000
10000000
00000000
,
01000000
00000000
00100000
00001000
00010000
00000000
00001000
00000000
,
00010000
00000010
00001000
00000000
00000010
00000100
00000001
00000000
,
00000100
00001000
00010000
02020000
,
03030000
00000000
00000000
00000000
;

//--------------- dance-double - Fred-104 ----------------
#NOTES:
     dance-double:
     Fred-104:
     Hard:
     13:
     :
00000000
00000000
00000000
00000000
,
00000000
00000000
00000000
00000000
,
00000000
00000000
00000000
00000000
,
00000000
00000000
00000000
00000000
,
00000000
00000000
00000000
00000000
,
00000000
00000000
00000000
00000000
,
00000000
00000000
00000000
00000000
,
00000000
00000000
00000000
00000000
,
00000000
00000000
00000000
00000000
,
00000000
00000000
00000000
00000000
,
00001000
00000000
00010000
00001000
00000000
00100000
00010000
10000000
,
00010000
00000000
01000000
00100000
00000000
10000000
01000000
00100000
,
00001000
00000000
00010000
00000100
00000000
00001000
00000010
00000100
,
00000001
00000000
00000010
00001000
00000010
00000001
00001000
00000000
,
00000001
00000100
00000001
00000100
00001000
00010000
00001000
00000000
,
00010000
00100000
00010000
00100000
10000000
00010000
10000000
00000000
,
01000000
00010000
00001000
00000010
00000001
00001000
00000001
00000000
,
00001000
00001000
00001001
00000000
00000000
00000000
00000002
00000000
,
00002003
00000000
00003001
00000010
00000200
00000000
00000301
00000100
,
00001000
00000010
00000100
00000001
00001000
00000000
00000010
00000000
,
00010000
00001000
00100000
00010000
10000000
00100000
01000000
00000000
,
00010000
00100000
10000000
00100000
00020000
00000000
10030000
00000000
,
00020000
00000000
10030000
00100000
02000000
00000000
13000000
01000000
,
00010000
10000000
00010000
00100000
00001000
00000000
00010000
00000000
,
00000100
00001000
00000001
00001000
00000100
00000010
00000001
00000000
,
00000100
00000010
00001000
00000010
00000200
00000000
00000300
00000000
,
00000002
00000000
00000013
00000002
00000000
00001003
00000010
00000100
,
00000020
00000000
00001030
00000200
00000000
00010300
00001000
00100000
,
00020000
00000000
10030000
02000000
00000000
03010000
01000000
10000000
,
00100000
00100000
01100000
00000000
00000000
00000000
10010000
00000000
,
20000000
00000000
30010000
01000000
00200000
00000000
10300000
01000000
,
00100000
00001000
00010000
00100000
10000000
00010000
10000000
00000000
,
01000000
00010000
00001000
00010000
00001000
00000010
00000001
00001000
,
00000001
00000100
00000001
00000100
00000010
00000000
00001000
00000000
,
00002001
00000000
00003001
00000010
00000100
00000000
00001000
00000100
,
00000010
00000001
00000100
00001000
00010000
00001000
00010000
00000000
,
00100000
10000000
00010000
10000000
01000000
00100000
01000000
00000000
,
10000000
01000000
00010000
00001000
00000010
00000000
00000000
00000000
,
00001001
00000000
00000001
00000010
00000100
00000000
00000001
00000100
,
00001000
00000000
00000001
00000100
00000010
00001000
00000010
00000100
,
00000001
00000000
00001000
00000100
00000010
00000000
00010000
00001000
,
00100000
00000000
00010000
10000000
00000000
00100000
01000000
00010000
,
10000000
00000000
00010000
00100000
10000000
00000000
00010000
01000000
,
10000000
00000000
00010000
10000000
01000000
00100000
01000000
00100000
,
00001000
00000000
00010000
00000100
00001000
00000000
00000001
00001000
,
00001100
00000000
00000000
00000000
00000110
00000000
00000000
00000000
00000010
00000001
00000000
00001000
00000001
00000000
00000100
00000000
,
00000002
00000000
00000013
00000100
00002000
00000000
00003010
00000100
,
00000001
00000010
00000100
00001000
00000100
00010000
00001000
00000000
,
00100000
00001000
00010000
00001000
01000000
00010000
00100000
00001000
,
00010000
01000000
10000000
00010000
01000000
00100000
01000000
00000000
,
20010000
00000000
30010000
01000000
20000000
00000000
31000000
00010000
,
00100000
01000000
00100000
00010000
10000000
01000000
00100000
00000000
,
00001000
00010000
00001000
00000100
00000001
00001000
00000001
00000010
,
00000100
00000010
00000001
00000100
00001000
00010000
00001000
00000000
,
00012000
00000010
00100000
00003000
,
00021000
00000000
01000000
00000000
00000100
00000000
00030000
00010000
,
00012000
00000010
00100000
00000010
,
00100000
00000010
00020000
00033000
,
00001000
00010000
00100000
10000000
00010000
00000000
10000000
00000000
,
01000000
00010000
00001000
00000010
00000001
00000000
00001000
00000000
,
00000001
00000100
00000001
00000100
00001000
00010000
00001000
00010000
,
01000000
00000000
00000000
10000000
00100000
00000000
01000000
00000000
00010000
00000000
10000000
00000000
10010000
00000000
00000000
00000000
,
00010000
01000000
10000000
01000000
00010000
01000000
10000000
00000000
,
01000000
00010000
00001000
00000100
00001000
00010000
00001000
00000000
,
00000100
00000001
00000100
00001000
00000100
00000001
00000010
00000100
,
00000010
00000000
00000001
00000000
00000100
00001000
00010000
00000000
,
00001000
00010000
00100000
00010000
00001000
00000010
00001000
00000000
,
00010000
00100000
10000000
00100000
00010000
00100000
10000000
00000000
,
00100000
00010000
00001000
00000010
00001000
00010000
00001000
00000010
,
00000001
00000000
00001000
00000000
00000001
00000100
00000010
00000000
,
00001000
00000100
00000010
00000001
00000100
00000010
00001000
00000001
,
00000010
00000100
00001000
00000100
00010000
00000010
00010000
00001000
,
00100000
00010000
10000000
00100000
01000000
00010000
10000000
01000000
,
00100000
00010000
01000000
00001000
00010000
00000100
00001000
00000000
,
00000010
00001000
00000100
00000010
00000100
00001000
00000001
00000010
,
00000100
00010000
00001000
00100000
00010000
10000000
00010000
00100000
,
01000000
10000000
00010000
01000000
10000000
01000000
00100000
10000000
,
01000000
00100000
00001000
00010000
00001000
00000000
00022000
00000000
,
00033000
00000000
00000000
00000000
;

//--------------- dance-double - Fred-104 ----------------
#NOTES:
     dance-double:
     Fred-104:
     Challenge:
     17:
     :
00000000
00000000
00000000
00000000
,
00000000
00000000
00000000
00000000
,
00000000
00000000
00000000
00000000
,
00000000
00000000
00000000
00000000
,
00000000
00000000
00000000
00000000
,
00000000
00000000
00000000
00000000
,
00000000
00000000
00000000
00000000
,
00000000
00000000
00000000
00000000
,
00000000
00000000
00000000
00000000
,
00000000
00000000
00000000
00000000
,
00001000
00000100
00000001
00000010
00000000
00001000
00010000
00100000
,
10000000
01000000
00010000
00001000
00000000
00000010
00000001
00000100
,
00001000
00010000
00100000
10000000
00000000
01000000
00010000
00001000
,
00000010
00000001
00000100
00001000
00010000
00100000
10000000
00000000
,
00010000
01000000
10000000
00010000
00100000
10000000
00010000
01000000
,
00100000
00010000
00001000
00000100
00000010
00001000
00010000
00100000
,
10000000
01000000
00010000
00001000
00000010
00000001
00000100
00001000
,
00010000
00011000
00011000
00000000
00000000
00000000
01100000
00000000
,
20010000
00000000
30010000
00100000
20000000
00000000
30010000
01000000
,
10000000
00000000
01000000
00100000
10000000
00000000
01000000
00000000
00100000
00000000
00001000
00010000
00001000
00000000
00000000
00000000
,
01000000
00000000
00001000
00010000
00001000
00000000
00000010
00000000
00000100
00000000
00000001
00000010
00000001
00000000
00000010
00000000
,
00000100
00000000
00001000
00000010
00000100
00000000
00000001
00000000
00001000
00000100
00000010
00000100
00001000
00000000
00000000
00000000
,
00002001
00000000
00003010
00000100
00000002
00000000
00001003
00000010
,
00000001
00000000
00000010
00000001
00000010
00000000
00000100
00000000
00000001
00000000
00001000
00000001
00001000
00000000
00000000
00000000
,
00000010
00000000
00010000
00001000
00010000
00000000
00100000
00000000
10000000
00000000
00010000
10000000
00100000
00000000
01000000
00000000
,
00010000
00000000
00100000
01000000
10000000
00000000
00010000
00000000
10000000
01000000
00100000
00010000
01000000
00000000
00000000
00000000
,
20010000
00000000
00000000
00000000
31000000
00000000
00200000
00000000
00000000
00000000
00301000
00010000
00000010
00001000
00000100
00001000
,
00000002
00000000
00000000
00000000
00000103
00000000
00000020
00000000
00000000
00000000
00010030
00001000
00100000
00010000
10000000
00100000
,
02000000
00000000
00000000
00000000
03010000
00000000
20000000
00000000
00000000
00000000
31000000
00100000
00001000
00010000
00000100
00000010
,
00000100
00000110
00001001
00000000
00000000
00000000
00000110
00000000
,
00002001
00000000
00003001
00000010
00002000
00000000
00013000
01000000
,
10000000
00000000
00010000
01000000
00100000
00000000
10000000
00000000
01000000
00100000
00010000
00100000
00010000
00000000
00000000
00000000
,
00001000
00000000
00000100
00000010
00000001
00000000
00001000
00000000
00000100
00000000
00000010
00000001
00001000
00000000
00000010
00000000
,
00000100
00000000
00000001
00000010
00000100
00000000
00010000
00000000
00001000
00100000
00010000
00100000
00001000
00000000
00000000
00000000
,
00021000
00000000
00031000
00010000
00200000
00000000
00310000
00001000
,
00000010
00000000
00001000
00010000
00001000
00000000
00100000
00000000
01000000
10000000
00010000
10000000
00100000
00000000
00000000
00000000
,
10000000
00000000
01000000
00010000
01000000
00000000
00010000
00000000
00001000
00000000
00000100
00000001
00000100
00000000
00000001
00000000
,
00000010
00001000
00010000
00100000
10100000
00000000
00000000
00000000
,
10020000
00000000
10030000
01000000
00020000
00000000
00031000
00000010
,
00000002
00000000
00001003
00000100
00000010
00000001
00000100
00001000
,
00000200
00000000
00000301
00000010
00002000
00000000
00013000
01000000
,
20000000
00000000
30010000
00100000
01000000
00010000
01000000
00100000
,
00020000
00000000
10030000
00100000
00002000
00000000
00013000
00000010
,
00000002
00000000
00000103
00010000
00001000
01000000
10000000
00010000
,
20000000
00000000
30100000
01000000
00010000
00001000
00000010
00000100
,
00000101
00000000
00000001
00001000
00000010
00000100
00000001
00000000
00001000
00000100
00000010
00000001
00000100
00000000
00000001
00001000
,
00000010
00000000
00000100
00000000
00000001
00000000
00000100
00000010
00001000
00000100
00010000
00000000
00000010
00000000
00001000
00000000
,
00000100
00000000
00010000
00000000
00001000
00100000
00010000
00000000
01000000
00010000
00100000
00010000
01000000
00001000
00010000
00000000
,
00001000
00000000
00000100
00000000
00000001
00000000
00001000
00000010
00000100
00000001
00001000
00000000
00000010
00000000
00000100
00000000
,
00000010
00000000
00001000
00000000
00000001
00000010
00000100
00000000
00010000
00001000
00100000
00001000
00010000
00001000
01000000
00000000
,
00010000
00000000
00100000
00000000
01000000
00000000
10000000
00100000
01000000
10000000
01000000
00000000
00010000
10000000
00010000
00000000
,
00100000
00000000
01000000
00100000
00001000
00000000
00100000
00000000
00001000
00010000
00000010
00001000
00000100
00010000
00001000
00000000
,
00010000
00000000
00001000
00000100
00000001
00000000
00001000
00000000
00000001
00000010
00000001
00000100
00000001
00000000
00001000
00000000
,
00000001
00000000
00000010
00000100
00001000
00000000
00010000
00001000
00000100
00000000
00001000
00010000
00100000
10000000
00010000
00000000
,
10010000
00000000
00000000
10000000
00000000
00000000
01000000
00100000
00010000
00100000
00000000
00000000
00002000
00000000
00000000
00000000
00000000
00000000
00013000
00000000
00000000
00000000
00000000
00000000
,
00010010
00000000
00000000
00010000
00000000
00000000
00000100
00001000
00000010
00001000
00000000
00000000
00000002
00000000
00000000
00000000
00000000
00000000
00000103
00000000
00000000
00000110
00000000
00000000
,
00001010
00001000
00000100
00000010
00000001
00000100
00001000
00010000
,
00022000
00033000
02200000
03300000
,
10010000
00000000
00000000
00000000
00000000
00000000
00010000
00000000
00000000
00000000
00000000
00000000
01000000
00000000
00100000
00000000
10000000
00000000
00100000
00000000
00000000
00000000
00000000
00000000
01000000
00000000
00000000
00000000
00000000
00000000
01100000
00000000
00000000
00000000
00000000
00000000
00000000
00000000
00000000
10010000
00000000
00000000
00000000
00000000
00000000
00000000
00000000
00000000
,
11000000
00000000
00000000
00000000
00000000
00000000
01000000
00000000
00000000
00000000
00000000
00000000
00100000
00000000
00001000
00000000
00010000
00000000
00001000
00000000
00000000
00000000
00000000
00000000
00011000
00000000
00000000
00000000
00000000
00000000
00010010
00000000
00000000
00000000
00000000
00000000
00000000
00000000
00000000
00001010
00000000
00000000
00000000
00000000
00000000
00000000
00000000
00000000
,
00001000
00000000
00000100
00000000
00000010
00000000
00000001
00000000
00000100
00000000
00000010
00000000
00000001
00000010
00001000
00000000
,
00001001
00000000
00000000
00000001
00000100
00000000
00001000
00000000
00011000
00000000
00010000
00000000
00011000
00000000
00000000
00000000
,
00010000
00000000
00000000
01000000
00000000
00000000
10000000
00000000
00000000
00000000
00000000
00000000
00010000
00000000
10000000
00000000
00010000
00000000
10000000
00000000
00000000
00000000
00000000
00000000
01000000
00000000
00000000
00000000
00000000
00000000
00100000
00000000
00000000
00000000
00000000
00000000
00001000
00000000
00000000
00010000
00000000
00000000
00000000
00000000
00000000
00010000
00000000
00000000
,
00000100
00000000
00000000
00001000
00000000
00000000
00000100
00000000
00000000
00000000
00000000
00000000
00001000
00000000
00000010
00000000
00001000
00000000
00000010
00000000
00000000
00000000
00000000
00000000
00000100
00000000
00000000
00000000
00000000
00000000
00000001
00000000
00000000
00000000
00000000
00000000
00000010
00000000
00000000
00000100
00000000
00000000
00000000
00000000
00000000
00000100
00000000
00000000
,
00001000
00000000
00000001
00000010
00000100
00000000
00010000
00000000
00001000
00000000
00100000
01000000
00100000
00000000
00010000
00000000
,
10010000
01000000
00100000
01000000
20020000
00000000
30030000
00000000
,
00010000
00000000
00000000
00100000
00000000
00000000
01000000
00000000
00000000
00000000
00000000
00000000
00100000
00000000
00010000
00000000
01000000
00000000
00100000
00000000
00000000
00000000
00000000
00000000
10000000
00000000
00000000
00000000
00000000
00000000
01000000
00000000
00000000
00000000
00000000
00000000
00100000
00000000
00000000
00001000
00000000
00000000
00000000
00000000
00000000
00010000
00000000
00000000
,
00001000
00000000
00000000
00000010
00000000
00000000
00000100
00000000
00000000
00000000
00000000
00000000
00000001
00000000
00000010
00000000
00000001
00000000
00000100
00000000
00000000
00000000
00000000
00000000
00000010
00000000
00000000
00000000
00000000
00000000
00001000
00000000
00000000
00000000
00000000
00000000
00000100
00000000
00000000
00000010
00000000
00000000
00000000
00000000
00000000
00000010
00000000
00000000
,
00000001
00000000
00000100
00001000
00000100
00000000
00001000
00000000
00010000
00000000
00100000
10000000
00100000
00000000
00010000
00000000
,
00001000
00000000
00010000
00000000
00000100
00001000
00000000
00001000
00000100
00000010
00000001
00000100
00000001
00000000
00000100
00000000
,
00000001
00000010
00000100
00000000
00000010
00000001
00001000
00000000
00000010
00000000
00010000
00000000
00001000
00000000
00100000
00010000
,
10000000
00010000
01000000
00000000
00010000
00100000
10000000
00000000
00100000
00000000
00010000
00000000
10000000
00000000
00100000
01000000
,
00100000
00000000
10000000
01000000
00010000
00000000
00001000
00000000
00000010
00000000
00000001
00001000
00000001
00000000
00000100
00000001
,
00000010
00000001
00000100
00000000
00000010
00001000
00000000
00001000
00000100
00000000
00000010
00000000
00000001
00000000
00001000
00000010
,
00000100
00000000
00000000
00000010
00000000
00000000
00001000
00000000
00000000
00000000
00000000
00000000
00000001
00000000
00000010
00000000
00000100
00000000
00001000
00000000
00000000
00000000
00000000
00000000
00000100
00000000
00000000
00000000
00000000
00000000
00010000
00000000
00000000
00000000
00000000
00000000
00001000
00000000
00000000
00100000
00000000
00000000
00000000
00000000
00000000
00100000
00000000
00000000
,
00010000
00000000
00000000
10000000
00000000
00000000
00100000
00000000
00000000
00000000
00000000
00000000
10000000
00000000
01000000
00000000
00100000
00000000
01000000
00000000
00000000
00000000
00000000
00000000
10000000
00000000
00000000
00000000
00000000
00000000
00100000
00000000
00000000
00000000
00000000
00000000
01000000
00000000
00000000
00010000
00000000
00000000
00000000
00000000
00000000
00010000
00000000
00000000
,
00100000
00000000
00010000
10000000
01000000
00000000
00010000
00001000
00000010
00000000
00000001
00000100
00001000
00000000
00010000
00100000
,
10000000
00000000
00010000
00000000
01000000
00100000
00000000
00100000
10000000
01000000
00100000
00010000
01000000
00001000
00010000
00001000
;
