#VERSION:0.83;
#TITLE:LOVE IS BLIND-知らない街で Crazy for You-;
#ARTIST:VENUS;
#TITLETRANSLIT:LOVE IS BLIND-shiranai machi de Crazy for You-;
#BANNER:LOVE IS BLIND-shiranai machi de Crazy for You-.png;
#BACKGROUND:LOVE IS BLIND-shiranai machi de Crazy for You--bg.png;
#CDTITLE:./CDTitles/RB Reflesia.png;
#MUSIC:LOVE IS BLIND-shiranai machi de Crazy for You-.ogg;
#SAMPLESTART:41.48;
#SAMPLELENGTH:15;
#BPMS:0=156;
#BGSTAGE:4;

//--------------- dance-single - Fred-104 ----------------
#NOTEDATA:;
#STEPSTYPE:dance-single;
#DESCRIPTION:Fred-104;
#DIFFICULTY:Beginner;
#METER:2;
#CREDIT:Fred-104;
#NOTES:
0000
0000
0000
0000
,
0000
0000
0000
0000
,
0000
0000
0000
0000
,
0000
0000
0000
0000
,
0000
0000
0000
0000
,
0000
0000
0000
0000
,
0001
0000
0000
0000
,
0000
0000
0000
0000
,
1000
0000
0000
0000
,
0000
0000
0000
0000
,
0001
0000
0000
0000
,
0000
0000
0000
0000
,
0010
0000
0000
0000
,
0000
0000
0000
0000
,
1000
0000
0000
0000
,
0000
0000
0000
0000
,
0100
0000
0000
0000
,
0000
0000
0000
0000
,
0001
0000
0000
0000
,
0000
0000
0000
0000
,
1000
0000
0000
0000
,
0000
0000
0000
0000
,
0001
0000
0000
0000
,
1000
0000
0000
0000
,
0001
0000
0000
0000
,
1001
0000
0000
0000
,
0000
0000
0000
0000
,
1000
0000
0000
0000
,
0100
0000
0000
0000
,
0100
0000
0000
0000
,
0000
0000
0000
0000
,
0001
0000
0000
0000
,
0001
0000
0000
0000
,
0010
0000
0000
0000
,
0000
0000
0000
0000
,
1000
0000
0000
0000
,
0001
0000
0000
0000
,
1001
0000
0000
0000
,
0000
0000
0000
0000
,
0001
0000
0000
0000
,
1000
0000
0000
0000
,
0001
0000
0000
0000
,
0000
0000
0000
0000
,
0000
0000
0000
0000
,
1001
0000
0000
0000
,
1000
0000
0000
0000
,
1000
0000
0000
0000
,
0001
0000
0000
0000
,
0001
0000
0000
0000
,
0010
0000
0000
0000
,
0010
0000
0000
0000
,
1001
0000
0000
0000
,
0000
0000
0000
0000
,
1001
0000
0000
0000
,
0000
0000
0000
0000
,
1001
0000
0000
0000
,
0000
0000
0000
0000
,
1001
0000
0000
0000
,
0000
0000
0000
0000
,
0001
0000
0000
0000
,
0100
0000
0000
0000
,
0100
0000
0000
0000
,
0000
0000
0000
0000
,
1000
0000
0000
0000
,
1000
0000
0000
0000
,
0010
0000
0000
0000
,
0000
0000
0000
0000
,
0001
0000
0000
0000
,
1000
0000
0000
0000
,
1001
0000
0000
0000
,
0000
0000
0000
0000
,
1000
0000
0000
0000
,
0001
0000
0000
0000
,
1000
0000
0000
0000
,
0000
0000
0000
0000
,
0000
0000
0000
0000
,
2002
0000
0000
0000
0000
0003
3000
0000
;

//--------------- dance-single - Fred-104 ----------------
#NOTEDATA:;
#STEPSTYPE:dance-single;
#DESCRIPTION:Fred-104;
#DIFFICULTY:Easy;
#METER:4;
#CREDIT:Fred-104;
#NOTES:
0000
0000
0000
0000
,
0000
0000
0000
0000
,
0000
0000
0000
0000
,
0000
0000
0000
0000
,
0000
0000
0000
0000
,
0000
0000
0000
0000
,
1000
0000
1000
0001
,
0010
0000
0110
0000
,
0100
0000
0000
1000
0000
0000
0000
1001
,
0000
0000
0000
0000
,
1000
0000
0001
0000
,
1000
0010
1000
0000
,
0001
0000
1000
0000
,
0100
0000
0110
0000
,
0010
0000
0001
1000
,
0001
0000
0000
0002
0000
0000
0003
0000
,
1000
0001
0100
0010
,
0200
0300
0220
0330
,
0001
0000
0001
0001
,
0010
0000
1000
1000
,
0100
0000
0100
0100
,
0001
0000
1000
1000
,
0001
0010
0100
0000
,
1000
0100
0010
0000
,
1001
0000
1001
0000
,
1000
0000
0000
2002
0000
0000
3003
0000
,
0000
0000
0000
0000
,
1000
0000
0100
0000
,
0010
0010
0001
0000
,
1000
0000
0001
0000
,
0100
0100
1000
0100
,
0010
0000
0100
0000
,
0001
0000
0000
0001
0000
0000
0000
0000
,
1000
0000
0001
0000
,
1000
0000
0100
0100
,
0010
0000
0001
0000
,
1000
0000
0000
0001
0000
0000
0100
0000
,
0110
0000
0000
0000
,
0001
0001
1000
1000
,
0010
0000
1000
0000
,
0001
0000
0000
0001
0000
0000
0010
0000
,
0100
0000
0000
0000
0100
0000
0000
0100
,
0000
0000
0010
0000
0010
0000
0000
0220
,
0000
0000
0000
0330
,
2002
0000
0000
0000
0000
3000
0003
0000
,
2000
0000
3000
0000
,
0002
0000
0003
0000
,
2000
0000
3000
0000
,
0001
0000
0000
2002
0000
0000
3003
0000
,
0001
0000
0010
0000
,
1000
0000
0100
0000
,
0001
0000
0000
0001
0000
0000
0000
0002
,
0000
0000
0000
0003
,
1000
0000
0000
1000
0000
0000
0000
2000
,
0000
0000
0000
3000
,
0001
0000
0000
0001
0000
0000
0000
0002
,
0000
0000
0000
0003
,
1000
0000
0001
0000
,
1000
0000
1001
0000
,
0001
0000
0100
0000
,
0010
0010
1000
0000
,
0001
0000
1000
0000
,
0100
0100
0001
0100
,
0010
0000
0100
0000
,
1000
0000
0000
1000
0000
0000
0000
0000
,
0001
0000
1000
0000
,
0001
0000
0100
0100
,
0010
0000
1000
0000
,
0001
0000
0000
1000
0000
0000
0100
0000
,
0110
0000
0000
0000
,
1000
1000
0001
0001
,
0010
0000
0001
0000
,
1000
0000
0000
1000
0000
0000
0010
0000
,
0100
0000
0000
0000
0100
0000
0000
0100
,
0000
0000
0010
0000
0010
0000
0000
0220
,
0000
0000
0000
0330
,
2002
0000
0000
0000
0000
0003
3000
0000
;

//--------------- dance-single - Fred-104 ----------------
#NOTEDATA:;
#STEPSTYPE:dance-single;
#DESCRIPTION:Fred-104;
#DIFFICULTY:Medium;
#METER:8;
#CREDIT:Fred-104;
#NOTES:
0000
0000
0000
0000
,
0000
0000
0000
0000
,
0000
0000
0000
0000
,
0000
0000
0000
0000
,
0000
0000
0000
0000
,
0000
0000
0000
0000
,
0001
0000
0010
0000
0100
0010
0001
0000
,
1000
0010
0100
0000
0110
0000
0110
0000
,
1001
0000
0000
1100
0000
0110
0000
0022
,
0000
0000
0000
0000
0000
0030
0003
0000
,
1000
0000
0000
0000
0001
0000
0000
0000
0010
0000
0000
0010
0000
0000
0010
0000
,
0001
1000
0020
0030
,
0100
0000
0001
0000
1000
0001
0010
0000
,
0100
0010
0100
0000
1000
0000
1000
0000
,
0001
0000
1000
0010
0100
0000
0010
0000
,
1000
0000
0000
1000
0000
0000
1000
0000
0000
0000
0000
0000
1001
0000
0000
0000
,
0001
0000
1000
0000
0010
1000
0001
0000
,
0010
0010
0100
0100
0010
0000
1001
0000
,
2000
0000
0010
0000
3010
1000
0001
0000
,
2000
0000
0100
0000
3100
1000
0001
0000
,
0020
0000
0100
0000
0130
1000
0001
0000
,
0200
0000
0010
0000
0310
1000
0001
0000
,
1000
0000
0000
0100
0000
0000
0001
0000
0100
0000
0000
0000
1000
0000
0000
0000
,
1000
0000
0000
0010
0000
0000
0001
0000
0010
0000
0000
0000
1000
0000
0000
0000
,
2100
3001
2010
3001
,
1000
1000
0000
2002
0000
0000
3003
0000
,
0000
0000
0000
0000
,
0001
0010
0100
1000
,
0010
0100
0010
0100
0000
0010
1000
0000
,
0001
0000
0000
0000
1000
0000
0000
0000
0100
0000
0000
0100
0000
0000
0100
0000
,
0000
0010
0010
0000
0100
1000
0001
0000
,
0200
0010
1000
0301
,
1000
0000
0100
0100
0000
0010
0010
0000
,
0001
0000
0100
0000
0010
0010
0000
0100
,
0000
0001
1000
0000
1001
0000
1001
0000
,
1000
0000
0001
0000
0100
0010
0100
0000
,
0001
0000
1000
0010
0000
1000
0001
0000
,
1001
0000
0000
0000
0000
0000
0000
0000
0000
0000
1000
0000
0000
1000
0000
0000
,
1000
0001
1000
0001
,
0020
0100
1000
0031
,
0100
0000
0010
0010
0000
0100
0100
0000
,
0001
0000
1000
0000
0100
0100
0000
0110
,
0000
0000
0010
0000
0001
1000
0000
2002
,
0000
0000
0000
3003
,
2002
0000
0000
0000
0000
3000
0003
0000
,
2000
0000
3100
0000
,
0002
0000
0013
0000
,
2000
0000
3010
0000
,
0001
0000
0100
0100
0000
1100
0000
0000
,
0002
0000
0010
0000
0013
0100
1000
0000
,
2000
0000
0010
0000
3010
0100
0001
0000
,
0001
0010
0001
0010
0000
0100
0000
2200
,
0000
0000
0000
3300
,
1000
0010
1000
0010
0000
0100
0000
0202
,
0000
0000
0000
0303
,
0001
0100
0001
0100
0000
0010
0000
2002
,
0000
0000
0000
3003
,
1000
0010
0002
0003
,
1000
0100
0002
0003
,
1000
0010
0100
0001
,
0010
0100
0010
0100
0000
0010
0001
0000
,
1000
0000
0000
0000
0001
0000
0000
0000
0100
0000
0000
0100
0000
0000
0100
0000
,
0000
0010
0010
0000
0100
0001
1000
0000
,
0200
0010
0001
1300
,
0001
0000
0100
0100
0000
0010
0010
0000
,
1000
0000
0100
0000
0010
0010
0000
0100
,
0000
1000
0001
0000
1001
0000
1001
0000
,
0001
0000
1000
0000
0100
0010
0100
0000
,
1000
0000
0001
0010
0000
0001
1000
0000
,
1001
0000
0000
0000
0000
0000
0000
0000
0000
0000
0001
0000
0000
0001
0000
0000
,
0001
1000
0001
1000
,
0020
0100
0001
1030
,
0100
0000
0010
0010
0000
0100
0100
0000
,
1000
0000
0001
0000
0100
0100
0000
0110
,
0000
0000
0010
0000
1000
0001
0000
2002
,
0000
0000
0000
3003
,
2002
0000
0000
0000
0000
0003
3000
0000
;

//--------------- dance-single - Fred-104 ----------------
#NOTEDATA:;
#STEPSTYPE:dance-single;
#DESCRIPTION:Fred-104;
#DIFFICULTY:Hard;
#METER:12;
#CREDIT:Fred-104;
#NOTES:
0000
0000
0000
0000
,
0000
0000
0000
0000
,
0000
0000
0000
0000
,
0000
0000
0000
0000
,
0000
0000
0000
0000
,
0000
0000
0000
0000
,
1000
0000
0100
0000
0010
0000
0001
1000
0001
0000
1000
0000
0001
0000
0100
0000
,
0010
0000
0100
0000
0001
0000
0000
0000
0110
0000
0000
0000
1000
0000
0001
0100
,
0001
1000
0100
0110
0000
0011
0000
1001
,
0000
1000
0010
0001
1000
0100
0001
1000
,
0001
0000
0010
0000
0100
0000
0010
0000
0001
0000
0000
1000
0000
0000
0001
0000
,
0100
0010
0001
1000
0100
0001
1000
0000
,
0110
0000
0001
1000
0010
1000
0001
0010
,
0000
0000
0010
0000
0100
0000
1000
0000
0001
0000
1000
0010
0000
1000
0010
0000
,
0110
0000
0001
1000
0100
0010
0001
0100
,
0010
0000
0000
0110
0000
0000
2002
0000
0000
0000
0000
0000
3003
0000
0000
0000
,
0110
0000
0001
1000
0100
0001
0100
1000
,
0001
0000
0001
0000
0100
0000
0100
0000
0001
0100
0000
0001
0100
0000
0000
0000
,
0001
1000
0100
0010
0001
1000
0010
0000
,
0100
0001
1000
0100
0010
0001
1000
0000
,
0001
0010
0100
1000
0010
0100
0010
0000
,
1000
0001
0010
0100
0010
0010
0011
0000
,
0001
1000
0010
0100
0000
0100
0101
0000
,
0001
1000
0100
0010
0000
0010
0011
0000
,
2100
3001
2010
3001
,
1000
1000
0001
2002
0000
3000
0003
0000
,
1000
0000
0000
0000
1000
0000
0000
0000
0001
1000
0001
1000
0001
0000
0000
0000
,
1000
0100
1000
0001
0100
0010
1000
0001
,
0010
0100
0001
0100
0000
0100
0010
0001
,
1000
0000
0001
0000
0100
0000
0010
0000
0100
0000
0000
0101
0000
0000
1001
0000
,
0000
0001
0010
0100
1000
0001
1000
0010
,
0200
0000
1000
0000
0310
0100
0001
1000
,
0100
0100
0010
0110
0000
0010
0011
0000
,
1001
0000
0001
0100
0001
0101
0000
1001
,
0000
0001
1000
0100
0110
0000
0110
0000
,
0001
1000
0010
1000
0001
1000
0001
0100
,
0010
0001
0010
0100
0010
1000
0001
0000
,
1001
0000
0000
0000
0000
0000
0000
0000
0000
0000
1100
0000
0000
0011
0000
0000
,
1000
0001
0100
1000
0100
0010
0100
0001
,
2000
0000
0010
0000
3010
0100
0001
1000
,
0100
0010
0100
0110
0000
0001
1000
0100
,
0110
0000
0001
0010
0001
0011
0000
1001
,
0000
0001
0100
0010
0100
0100
0000
0220
,
0000
0000
0000
0330
,
2002
0000
0000
0000
0000
3000
0003
0000
,
2000
0000
0100
0000
,
3002
0000
0010
0000
,
2003
0000
0010
0000
,
3001
0000
0100
0110
0000
2002
3003
0000
,
1000
0000
0100
0000
1000
0000
0100
0000
0010
0000
0001
1000
0000
0001
1000
0000
,
0001
0000
0100
0000
0001
0000
0100
0000
0010
0000
1000
0001
0000
1000
0001
0000
,
1000
1000
0100
0010
0000
0011
0000
2002
,
0000
0000
0000
3003
,
0001
0001
0100
0010
0000
1010
0000
2002
,
0000
0000
0000
3003
,
1000
1000
0010
0100
0000
0101
0000
2002
,
0000
0000
0000
3003
,
0001
0000
0010
0000
0100
0000
1000
0000
0001
0000
0000
0001
0000
0000
0001
0000
,
1000
0010
0100
0001
1000
0000
0110
0000
,
0001
0100
0001
1000
0100
0010
0001
1000
,
0010
0100
1000
0100
0000
0100
0010
1000
,
0001
0000
1000
0000
0100
0000
0010
0000
0100
0000
0000
1100
0000
0000
1001
0000
,
0000
1000
0010
0100
0001
1000
0001
0010
,
0200
0000
0001
0000
0310
0100
1000
0001
,
0100
0100
0010
0110
0000
0010
1010
0000
,
1001
0000
1000
0100
1000
1100
0000
1001
,
0000
1000
0001
0100
0110
0000
0110
0000
,
1000
0001
0010
0001
1000
0001
1000
0100
,
0010
0000
1000
0000
0010
0000
0100
0000
0010
0000
0000
0001
0000
0000
1000
0000
,
1001
0000
0000
0000
0000
0000
0000
0000
0000
0000
0101
0000
0000
1010
0000
0000
,
0001
1000
0100
0001
0100
0010
0100
1000
,
0002
0000
0010
0000
0013
0100
1000
0001
,
0100
0010
0100
0110
0000
1000
0001
0100
,
0110
0000
1000
0010
1000
1010
0000
1001
,
0000
1000
0100
0010
0100
0100
0000
0220
,
0000
0000
0000
0330
,
2002
0000
0000
0000
0000
0003
3000
0000
;

//--------------- dance-single - Fred-104 ----------------
#NOTEDATA:;
#STEPSTYPE:dance-single;
#DESCRIPTION:Fred-104;
#DIFFICULTY:Challenge;
#METER:15;
#CREDIT:Fred-104;
#NOTES:
0000
0000
0000
0000
,
0000
0000
0000
0000
,
0000
0000
0000
0000
,
0000
0000
0000
0000
,
0000
0000
0000
0000
,
0000
0000
0000
0000
,
0001
0000
0010
0000
0001
0000
0010
0100
0010
0000
0100
0000
1000
0000
0001
0000
,
0100
0000
0010
0000
0100
0000
0000
0000
0110
0000
0000
0000
1001
0000
0001
0100
,
0010
0000
1000
0001
1000
0000
0001
0000
0010
0000
0110
0000
0000
0000
1001
0000
,
0000
0000
1000
0100
1000
0100
0010
0001
0010
0001
1000
0001
1000
0010
0100
0010
,
0100
0000
0001
0000
1000
0000
0100
0000
0010
0000
0001
1000
0000
1000
0010
0000
,
0100
0000
0001
0100
0001
0000
1000
0000
0001
0000
0010
0100
1000
0000
0010
0000
,
0100
0000
0001
0100
0001
0000
1000
0000
0100
0000
0001
0000
0100
0000
0010
0000
,
0001
0000
2000
0000
3020
0000
0032
0000
2003
0000
3100
0010
1000
0010
1000
0010
,
0100
0000
0001
0000
1000
0000
0100
0010
0100
0000
1000
0000
0001
0000
1000
0000
,
1010
0000
0010
0100
0000
0000
0101
0000
0001
1000
0001
1000
0001
0000
0000
0000
,
1001
0000
1100
0100
0010
1000
0010
0001
,
1000
0000
1010
0000
0010
0000
1010
0000
1000
0001
1000
0001
2000
0000
0000
3000
,
0001
0000
0010
0100
1000
0000
0001
0000
0100
0000
0010
0000
0210
0000
0301
0000
,
1000
0100
0010
0000
0001
0000
0100
0000
0020
0000
1030
0000
1002
0000
2003
0000
,
3100
0000
0010
0001
1000
0000
0001
0000
0100
0010
0100
0000
0102
0000
1003
0000
,
1100
0100
0010
0001
1001
1000
2002
3003
,
1001
0000
0001
0100
0000
0100
1000
0000
1100
0000
0000
0000
0110
0000
0000
0000
,
1001
0000
1000
0100
0000
0100
0001
0000
0101
0000
0000
0000
0110
0000
0000
0000
,
2001
3100
0010
0000
1002
0103
0010
0000
,
1001
1001
0100
0220
0000
0300
0030
0000
,
0002
0000
1003
0000
0002
0000
1003
0010
0000
0010
0100
0001
1000
0000
0000
0000
,
0001
0010
0100
0000
1000
0000
0001
0000
0100
0010
1000
0000
0001
0000
1000
0000
,
0100
0010
0001
0000
0010
0100
0020
0000
1030
0000
0020
0000
0032
0000
2003
0000
,
3001
0000
0100
0000
0010
0000
1000
0000
1100
0000
0000
0101
0000
0000
0110
0000
,
0000
0000
0001
0000
1000
0000
0010
0000
0200
0000
0301
0010
0200
0000
1300
0010
,
0100
0000
0001
0100
0000
0010
1000
0000
0100
0000
0001
0000
0100
0000
0010
0000
,
0011
0000
0001
0000
1000
0000
1001
0000
0000
0000
1000
0001
1000
0000
0001
0000
,
0101
0000
0000
0000
0110
0000
0010
0000
1010
0000
1000
0001
0010
0000
0110
0000
,
0000
1100
1000
0001
0110
0000
0110
0000
,
1000
0001
0010
0000
0100
0000
1000
0000
0010
1000
0001
0000
1000
0000
0001
0000
,
0010
0100
1000
0000
0100
0010
0200
0000
0301
0000
0200
0000
1300
0001
1000
0001
,
0100
0000
0000
0000
0000
0000
0000
0000
0000
0000
1010
0000
0000
0101
0000
0000
,
1100
0000
1000
0000
0001
0000
0100
0000
0020
0000
1030
0100
0020
0000
0031
0100
,
0010
0000
1000
0001
0000
1000
0010
0000
0001
0000
2000
0000
3200
0000
0302
0000
,
0013
0000
0100
0000
1100
0000
1001
0000
0000
0000
0001
1000
0001
0000
0100
0000
,
0110
0000
1010
1000
0001
0101
0000
1001
,
0000
0011
0010
0100
1100
1100
0000
2002
,
0000
0000
0000
0000
3000
0000
1003
0100
1000
0100
0010
0100
0010
0001
0010
0200
,
0020
0000
0000
0000
0000
0300
0030
0000
,
0001
0000
1000
0000
0001
0000
1000
0000
0010
0000
0100
0001
0000
1000
0100
1000
,
0010
0000
0100
0000
0001
0000
1000
0000
0100
0000
0010
0100
0000
0010
0001
0000
,
1000
0000
0001
0000
1000
0000
0001
0000
0100
0000
0010
1000
0000
0001
0010
0001
,
0100
0000
1010
0101
0000
1100
0022
0033
,
1000
0000
0100
0000
1000
0000
0001
0000
0100
0000
0010
1000
0000
0010
0100
0001
,
0010
0000
0100
0000
0010
0000
0001
0000
1000
0000
0010
0100
0000
0001
1000
0000
,
1100
1100
0110
0110
0000
0011
0000
2002
,
0000
0000
0000
0000
0003
0000
3001
0100
0001
0100
0010
1000
0020
0000
0030
0000
,
1010
1010
0110
0110
0000
0101
0000
2002
,
0000
0000
0000
0000
3000
0000
1003
0100
1000
0100
0010
0001
0010
0000
0000
0000
,
0011
0011
1100
0101
0000
1010
0000
2002
,
0000
0000
0000
3003
,
1000
0000
0100
0000
1000
0000
0100
0000
1000
0000
0001
0100
0010
0100
0010
0100
,
0001
0010
0001
0000
0001
0010
0001
0000
2000
0000
0000
3000
1001
0000
0000
0000
,
1000
0001
0100
0000
0010
0000
1000
0000
0100
0010
0001
0000
1000
0000
0001
0000
,
0100
0010
0100
0000
0010
1000
0020
0000
0130
0000
0020
0000
0032
0000
0023
0000
,
1030
0000
0001
0010
0100
0000
1000
0000
1010
0000
0000
0011
0000
0000
1001
0000
,
0000
0000
0001
0100
0010
0000
1000
0000
0002
0000
0103
0010
2000
0000
3100
0010
,
0001
0000
1000
0010
0000
0100
0010
0000
0100
0000
0001
1000
0100
0000
0010
0000
,
0011
0000
0001
0000
1000
0000
1001
0000
0000
0000
0001
1000
0010
0000
1000
0000
,
1001
0000
0000
0000
0001
0000
0100
0000
0110
0000
0010
1000
0100
0000
0110
0000
,
0000
0011
0001
1000
0110
0000
0110
0000
,
0001
0010
0100
0000
1000
0000
0001
1000
0010
0000
1000
0100
0010
0000
0001
0000
,
1000
0010
0100
0000
0001
0010
0100
0000
0010
0000
0000
0001
0000
0000
0100
0000
,
0110
0000
0000
0000
0000
0000
0000
0000
0000
0000
1010
0000
0000
0101
0000
0000
,
1100
0000
0100
0000
0010
0000
0001
0000
2000
0000
3100
0010
0002
0000
0103
0010
,
1000
0000
0001
0010
0100
0010
0001
0000
1000
0000
0010
1000
0001
0000
0010
0000
,
0110
0000
0100
0000
0010
0000
0011
0000
0000
0000
0001
1000
0001
0000
1000
0000
,
0100
0000
0010
0001
1000
0000
0001
0000
0100
0000
1010
0000
0000
0000
1001
0000
,
0000
0000
1000
0001
0100
0000
0010
0000
0100
0000
0110
0000
0000
0000
2002
0000
,
0000
0000
0000
0000
3000
0000
1003
0100
1000
0100
0010
0001
0010
0001
1000
0100
,
0020
0000
0000
0000
0000
0001
1030
0000
;

//--------------- dance-double - Fred-104 ----------------
#NOTEDATA:;
#STEPSTYPE:dance-double;
#DESCRIPTION:Fred-104;
#DIFFICULTY:Easy;
#METER:5;
#CREDIT:Fred-104;
#NOTES:
00000000
00000000
00000000
00000000
,
00000000
00000000
00000000
00000000
,
00000000
00000000
00000000
00000000
,
00000000
00000000
00000000
00000000
,
00000000
00000000
00000000
00000000
,
00000000
00000000
00000000
00000000
,
00001000
00000000
00010000
00000000
,
00001000
00000000
00011000
00000000
,
00010000
00000000
00000000
00000100
00000000
00000000
00000000
00001001
,
00000000
00000000
00000000
00000000
,
00000001
00000000
00000010
00000000
,
00000001
00001000
00000001
00000000
,
00001000
00000000
00000100
00000000
,
00010000
00000000
00011000
00000000
,
00001000
00000000
00100000
00000000
,
01000000
00000000
00000000
02000000
00000000
00000000
03000000
00000000
,
00100000
00000000
00010000
00000000
,
20000000
30000000
20020000
30030000
,
10000000
00000000
01000000
01000000
,
00010000
00000000
00001000
00001000
,
00010000
00000000
00001000
00001000
,
00000010
00000000
00000001
00000001
,
00001000
00000010
00010000
00000000
,
00001000
00100000
00010000
00000000
,
10000000
00000000
00100000
00000000
,
00010000
00000000
00000000
00022000
00000000
00000000
00033000
00000000
,
00000000
00000000
00000000
00000000
,
00001000
00000000
00010000
00000000
,
00001000
00100000
00001000
00001000
,
00010000
00000000
00000000
00000000
00000100
00000000
00000000
00000100
,
00000000
00000100
00000010
00000010
,
00000001
00000000
00001000
00000010
,
00010000
00000000
00000000
00010000
00000000
00000000
00001000
00000000
,
00100000
00000000
00000000
00000000
01000000
00000000
00000000
01100000
,
00000000
01000000
10000000
10000000
,
00010000
00000000
10000000
00000000
,
01000000
01000000
00100000
00001000
,
00011000
00000000
00000000
00000000
,
00010000
00001000
00010000
00000010
,
00001000
00000000
00000001
00000010
,
00000100
00000000
00000000
00000100
00000000
00000000
00001000
00000000
,
00000100
00000000
00000000
00000000
00010000
00000000
00000000
00011000
,
00000000
00000000
00001000
00000000
00010000
00000000
00000000
00022000
,
00000000
00000000
00000000
00033000
,
00022000
00000000
00000000
00000000
00000000
00003000
00030000
00000000
,
00002000
00000000
00103000
00000000
,
00020000
00000000
10030000
00000000
,
00020000
00000000
01030000
00000000
,
00001000
00000000
00000000
00022000
00000000
00000000
00033000
00000000
,
00010000
00000000
00001000
00000100
,
00000001
00000000
00000010
00000100
,
00010000
00000000
00000000
00001000
00000000
00000000
00000000
00002000
,
00000000
00000000
00000000
00003000
,
00001000
00000000
00000000
00010000
00000000
00000000
00000000
00020000
,
00000000
00000000
00000000
00030000
,
00001000
00000000
00000000
00010000
00000000
00000000
00000000
00022000
,
00000000
00000000
00000000
00033000
,
00001000
00000000
00011000
00000000
,
00010000
00010000
00001000
00001000
,
00010000
00000000
00001000
00000000
,
00010000
00000010
00010000
00010000
,
00001000
00000000
00000000
00000000
01000000
00000000
00000000
01000000
,
00000000
01000000
00100000
00100000
,
10000000
00000000
00010000
00100000
,
00001000
00000000
00000000
00001000
00000000
00000000
00010000
00000000
,
00000010
00000000
00000000
00000000
00000100
00000000
00000000
00000110
,
00000000
00000100
00000001
00000001
,
00001000
00000000
00000001
00000000
,
00000100
00000100
00000010
00010000
,
00011000
00000000
00000000
00000000
,
00001000
00010000
00001000
00100000
,
00010000
00000000
10000000
00100000
,
01000000
00000000
00000000
01000000
00000000
00000000
00010000
00000000
,
01000000
00000000
00000000
00000000
00001000
00000000
00000000
00011000
,
00000000
00000000
00010000
00000000
00001000
00000000
00000000
00022000
,
00000000
00000000
00000000
00033000
,
00022000
00000000
00000000
00000000
00000000
00030000
00003000
00000000
;

//--------------- dance-double - Fred-104 ----------------
#NOTEDATA:;
#STEPSTYPE:dance-double;
#DESCRIPTION:Fred-104;
#DIFFICULTY:Medium;
#METER:9;
#CREDIT:Fred-104;
#NOTES:
00000000
00000000
00000000
00000000
,
00000000
00000000
00000000
00000000
,
00000000
00000000
00000000
00000000
,
00000000
00000000
00000000
00000000
,
00000000
00000000
00000000
00000000
,
00000000
00000000
00000000
00000000
,
00000001
00000000
00001000
00000000
00000010
00001000
00000010
00000000
,
00010000
00001000
00010000
00000000
00010100
00000000
00010100
00000000
,
00011000
00000000
00000000
01001000
00000000
01001000
00000000
02200000
,
00000000
00000000
00000000
03300000
,
10000000
00000000
00000000
00000000
01000000
00000000
00000000
00000000
00100000
00000000
00000000
00100000
00000000
00000000
00100000
00000000
,
00001000
00000000
00000000
00001000
00000000
00010000
00010000
00000000
,
00000100
00000010
00000001
00000100
,
00001000
00010000
00001000
00000000
00010000
00000000
00011000
00000000
,
00010000
00000000
00000000
00000000
00001000
00010000
00000100
00000000
,
00000010
00000000
00000000
00000010
00000000
00000000
00000010
00000000
00000000
00000000
00000000
00000000
00001001
00000000
00000000
00000000
,
00000110
00000000
00000001
00000100
00001000
00000000
00010000
00000000
,
00001000
00001000
00010000
00010000
00001000
00010000
00001000
00000000
,
00001000
00000000
00010000
00000000
00100000
10000000
00010000
00000000
,
10000000
00000000
01000000
00000000
00010000
00001000
00010000
00000000
,
00001000
00000000
00100000
00000000
00001000
00010000
00001000
00000000
,
00000100
00000000
00000001
00000000
00000010
00000100
00001000
00000000
,
00000100
00000000
00000000
00000100
00000000
00000000
00010000
00000000
00001000
00000000
00000000
00000000
00011000
00000000
00000000
00000000
,
00001000
00000000
00000000
00100000
00000000
00000000
00100000
00000000
00010000
00000000
00000000
00000000
10010000
00000000
00000000
00000000
,
21000000
30010000
00120000
10030000
,
00100000
01000000
00000000
20020000
00000000
00000000
30030000
00000000
,
00000000
00000000
00000000
00000000
,
00010000
00000000
10000000
00000000
01000000
00100000
00001000
00000000
,
00010000
00000000
00000100
00000010
00000000
00000010
00000100
00000000
,
00001000
00000000
00000000
00000000
00000100
00000000
00000000
00000000
00010000
00000000
00000000
00001000
00000000
00000000
00010000
00000000
,
00000000
00000100
00000010
00000000
00000001
00001000
00000010
00000000
,
00000200
00000000
00001000
00000000
00000310
00001000
00000001
00000000
,
00000010
00000000
00000100
00000100
00000000
00010000
00010000
00000000
,
00011000
00000000
00001000
00000000
01000000
01000000
00000000
10010000
,
00000000
00100000
00100000
01000000
00100000
00000000
10010000
00000000
,
10000000
00100000
00010000
00001000
,
00010000
00000100
00010000
00001000
00000000
01000000
00100000
00000000
,
01100000
00000000
00000000
00000000
00000000
00000000
00000000
00000000
00000000
00000000
00001000
00000000
00000000
00001000
00000000
00000000
,
00010000
00000100
00000010
00000000
00000001
00001000
00000010
00000000
,
00020000
00000000
00001000
00000000
00031000
00100000
01000000
00000000
,
00100000
00100000
00001000
00001000
00000000
00010000
00001000
00000000
,
00011000
00000000
00001100
00000000
00000100
00000001
00000000
00001001
,
00000000
00000001
00000010
00000000
00000100
00010000
00000000
00022000
,
00000000
00000000
00000000
00033000
,
00022000
00000000
00000000
00000000
00000000
00030000
00003000
00000000
,
00020000
00000000
00030010
00000000
,
00020000
00000000
00030100
00000000
,
00020000
00000000
00030010
00000000
,
00010000
00000000
00000100
00010000
00000000
00022000
00033000
00000000
,
00001000
00100000
01000000
10000000
,
00010000
01000000
00001000
00010000
,
00001000
00010000
00001000
00010000
00000000
00000010
00000000
00022000
,
00000000
00000000
00000000
00033000
,
00010000
00001000
00010000
00001000
00000000
00100000
00000000
00022000
,
00000000
00000000
00000000
00033000
,
00001000
00010000
00001000
00010000
00000000
00000100
00000000
00022000
,
00000000
00000000
00000000
00033000
,
00010000
00001000
00000200
00000300
,
00000001
00000010
00000200
00000300
,
00001000
00000000
00000001
00000000
00000100
00000010
00010000
00000000
,
00001000
00000000
01000000
00100000
00000000
00100000
01000000
00000000
,
00010000
00000000
00000000
00000000
01000000
00000000
00000000
00000000
00001000
00000000
00000000
00010000
00000000
00000000
00001000
00000000
,
00000000
01000000
00100000
00000000
10000000
00010000
00100000
00000000
,
02000000
00000000
00010000
00000000
03100000
00010000
10000000
00000000
,
00100000
00000000
01000000
01000000
00000000
00001000
00001000
00000000
,
00011000
00000000
00010000
00000000
00000100
00000100
00000000
00001001
,
00000000
00000010
00000010
00000100
00000010
00000000
00001001
00000000
,
00000001
00000010
00001000
00010000
,
00001000
00000000
01000000
00000000
00001000
00000000
00010000
00000000
00000100
00000000
00000000
00000010
00000000
00000000
00000010
00000000
,
00000110
00000000
00000000
00000000
00000000
00000000
00000000
00000000
00000000
00000000
00010000
00000000
00000000
00010000
00000000
00000000
,
00001000
01000000
00100000
00000000
10000000
00010000
00100000
00000000
,
00002000
00000000
00010000
00000000
00013000
00000010
00000100
00000000
,
00000010
00000010
00010000
00010000
00000000
00001000
00010000
00000000
,
00011000
00000000
01010000
00000000
01000000
10000000
00000000
10010000
,
00000000
10000000
00100000
00000000
01000000
00001000
00000000
00022000
,
00000000
00000000
00000000
00033000
,
00022000
00000000
00000000
00000000
00000000
00003000
00030000
00000000
;

//--------------- dance-double - Fred-104 ----------------
#NOTEDATA:;
#STEPSTYPE:dance-double;
#DESCRIPTION:Fred-104;
#DIFFICULTY:Hard;
#METER:12;
#CREDIT:Fred-104;
#NOTES:
00000000
00000000
00000000
00000000
,
00000000
00000000
00000000
00000000
,
00000000
00000000
00000000
00000000
,
00000000
00000000
00000000
00000000
,
00000000
00000000
00000000
00000000
,
00000000
00000000
00000000
00000000
,
10000000
00000000
01000000
00000000
00100000
00000000
00001000
00010000
00001000
00000000
00010000
00000000
00001000
00000000
00000010
00000000
,
00000100
00010000
00001000
00000000
00011000
00000000
00001010
00000000
,
00000010
00000001
00000100
00000101
00000000
00001100
00000000
00011000
,
00000000
00010000
00001000
01000000
00100000
00010000
00011000
00000000
,
00001000
00000000
01000000
00000000
00100000
00000000
01000000
00000000
00010000
00000000
00000000
10000000
00000000
00000000
01000000
00000000
,
00100000
00010000
01000000
00100000
00010000
00001000
00010000
00000000
,
00001010
00000000
00010000
00001000
00000010
00000001
00001000
00000010
,
00000000
00000000
00000010
00000000
00000100
00000000
00001000
00000000
00010000
00000000
00001000
00010000
00000000
00010000
00000010
00000000
,
00001010
00000000
00000001
00000010
00000100
00010000
00000010
00001000
,
00000100
00000000
00000000
00010100
00000000
00000000
00022000
00000000
00000000
00000000
00000000
00000000
00033000
00000000
00000000
00000000
,
01100000
00000000
10000000
01000000
00100000
00010000
01000000
00001000
,
00010000
00000000
00010000
00000000
00001000
00000000
00001000
00000000
00010000
00001000
00000000
00010000
00001000
00000000
00000000
00000000
,
01000000
00010000
01000000
00010000
00100000
01000000
00100000
01000000
,
00010000
00001000
00010000
00001000
00000100
00000010
00010000
00000000
,
00001000
00010000
00001000
00010000
00000010
00000100
00000010
00000100
,
00001000
00010000
00001000
00010000
01000000
00100000
00010000
00000000
,
00001000
00010000
00100000
10000000
00000000
10000000
00010000
10000000
,
01000000
00010000
00001000
00010000
00000000
00010000
00000100
00000010
,
00000012
00001003
00000102
00001003
,
00000001
00001000
00000010
00020020
00000000
00000030
00030000
00000000
,
00010000
00000000
00000000
00000000
00001000
00000000
00000000
00000000
00000100
00000001
00001000
00000000
00000001
00000000
00000000
00000000
,
00001000
00000001
00000100
00000010
00001000
00000100
00000010
00001000
,
00010000
00001000
00100000
01000000
00000000
01000000
00010000
01000000
,
10000000
00000000
00010000
00000000
10000000
00000000
00100000
00000000
00010000
00000000
00000000
00001000
00000000
00000000
00011000
00000000
,
00000000
00010000
00000100
00001000
00000010
00010000
00001000
00100000
,
00001000
00000000
00000000
00010000
00000000
00000000
00001000
00000000
01000000
00000000
00100000
00000000
10000000
00000000
00010000
00000000
,
00100000
00100000
00001000
00011000
00000000
00010000
00010010
00000000
,
00001000
00000000
00010000
00000100
00001000
00000001
00001000
00001010
,
00000000
00000001
00000010
00001000
00011000
00000000
00011000
00000000
,
00010000
00001000
00000100
00000010
00001000
00000001
00000100
00000001
,
00000010
00000000
00001000
00000000
00010000
00000000
00100000
00000000
00000000
00000000
00100000
00000000
00010000
00001000
00010000
00001000
,
00010000
00000000
00000000
00000000
00000000
00000000
00000000
00000000
00000000
00000000
00010100
00000000
00000000
00011000
00000000
00000000
,
00010000
00010000
00001000
00001000
00100000
01000000
10000000
00010000
,
01000000
00000000
00000000
00001000
00000000
00000000
00010000
00000000
00001000
00000000
00000100
00000000
00000001
00000000
00001000
00000000
,
00000100
00000100
00000010
00000011
00000000
00001000
00001001
00000000
,
00000110
00000000
00000001
00000010
00000100
00001100
00000000
00010100
,
00000000
00010000
00001000
01000000
00010000
00100000
00000000
02200000
,
00000000
00000000
00000000
03300000
,
20020000
00000000
00000000
00000000
00000000
00030000
30000000
00000000
,
20000000
00000000
30010000
00000000
,
00200000
00000000
00301000
00000000
,
00000020
00000000
00000031
00000000
,
00000100
00000000
00001000
00001000
00000000
00022000
00033000
00000000
,
00010000
00000000
00001000
00000000
01000000
00000000
00010000
00000000
10000000
00000000
00000000
01000000
00000000
00000000
00010000
00000000
,
01000000
00000000
00100000
00000000
00001000
00000000
00010000
00000000
00000010
00000000
00000000
00000100
00000000
00000000
00001000
00000000
,
00010000
00010000
00001000
00001000
00000000
00101000
00000000
00022000
,
00000000
00000000
00000000
00033000
,
00001000
00001000
00010000
00010000
00000000
00010010
00000000
00022000
,
00000000
00000000
00000000
00033000
,
00010000
00010000
00001000
00001000
00000000
01001000
00000000
00022000
,
00000000
00000000
00000000
00033000
,
00001000
00000000
00010000
00000000
00100000
00000000
10000000
00000000
01000000
00000000
00000000
00110000
00000000
00000000
00000000
00000000
,
10000000
00100000
00010000
00001000
00000100
00000000
00000101
00000000
,
00001000
00000001
00000010
00000100
00001000
00000010
00000100
00001000
,
00010000
00001000
01000000
00100000
00000000
00100000
00010000
00100000
,
10000000
00000000
00010000
00000000
10000000
00000000
01000000
00000000
00010000
00000000
00000000
00001000
00000000
00000000
00011000
00000000
,
00000000
00010000
00000010
00001000
00000100
00010000
00001000
01000000
,
00001000
00000000
00000000
00010000
00000000
00000000
00001000
00000000
00100000
00000000
01000000
00000000
10000000
00000000
00010000
00000000
,
01000000
01000000
00001000
00011000
00000000
00010000
00010100
00000000
,
00001000
00000000
00010000
00000010
00001000
00000001
00001000
00001100
,
00000000
00000001
00000100
00001000
00011000
00000000
00011000
00000000
,
00010000
00001000
00000010
00000100
00001000
00000001
00000010
00000001
,
00000100
00000000
00001000
00000000
00010000
00000000
01000000
00000000
00010000
00000000
00000000
00001000
00000000
00000000
00010000
00000000
,
00011000
00000000
00000000
00000000
00000000
00000000
00000000
00000000
00000000
00000000
00010010
00000000
00000000
00011000
00000000
00000000
,
00010000
00010000
00001000
00001000
01000000
00100000
10000000
00010000
,
00100000
00000000
00000000
00001000
00000000
00000000
00010000
00000000
00001000
00000000
00000010
00000000
00000001
00000000
00001000
00000000
,
00000010
00000010
00000100
00000101
00000000
00001000
00001001
00000000
,
00000110
00000000
00000001
00000100
00000010
00001010
00000000
00010010
,
00000000
00010000
00001000
00100000
00010000
01000000
00000000
02200000
,
00000000
00000000
00000000
03300000
,
20020000
00000000
00000000
00000000
00000000
00030000
30000000
00000000
;

//--------------- dance-double - Fred-104 ----------------
#NOTEDATA:;
#STEPSTYPE:dance-double;
#DESCRIPTION:Fred-104;
#DIFFICULTY:Challenge;
#METER:15;
#CREDIT:Fred-104;
#NOTES:
00000000
00000000
00000000
00000000
,
00000000
00000000
00000000
00000000
,
00000000
00000000
00000000
00000000
,
00000000
00000000
00000000
00000000
,
00000000
00000000
00000000
00000000
,
00000000
00000000
00000000
00000000
,
00010000
00000000
00001000
00000000
00010000
00000000
00000010
00001000
00000010
00000000
00000100
00000000
00000001
00000000
00001000
00000000
,
00000100
00000000
00000010
00000000
00001000
00000000
00000000
00000000
00011000
00000000
00000000
00000000
00011000
00000000
00001000
00100000
,
00010000
00000000
01000000
00100000
01000000
00000000
00010000
10000000
01000000
00000000
01100000
00000000
00000000
00000000
00011000
00000000
,
00000000
00000000
00001000
00010000
00000010
00001000
00000010
00001000
00000001
00000100
00000001
00000100
00000010
00001000
00000001
00000000
,
00001000
00000000
00000001
00000000
00000010
00000000
00000100
00000000
00000010
00000000
00001000
00010000
00000000
00010000
00001000
00000000
,
01000000
00000000
00100000
10000000
00100000
00000000
01000000
00000000
00010000
00000000
10000000
01000000
10000000
00000000
01000000
00000000
,
00100000
00000000
00001000
00010000
00001000
00000000
00010000
00000000
00001000
00000000
00000100
00000000
00000001
00000000
00001000
00000000
,
00000010
00000000
00000002
00000000
00002003
00000000
00003200
00000000
00000320
00000000
00010030
00001000
00010000
00001000
00010000
00001000
,
00100000
00000000
00010000
00000000
01000000
00000000
00100000
10000000
00100000
00000000
01000000
00000000
00100000
00000000
00010000
00000000
,
00011000
00000000
00001000
00010000
00000000
00000000
00010100
00000000
00000100
00001000
00000100
00001000
00000100
00000000
00000000
00000000
,
00001001
00000000
00000001
00000100
00010000
00001000
00100000
10000000
,
01000000
00000000
01000000
00000000
00100000
00000000
00100000
00000000
00001000
00010000
00001000
00010000
00002000
00000000
00000000
00003000
,
00010000
00000000
00001000
00010000
00001000
00000000
00000100
00000000
00000001
00000000
00001000
00000000
00001001
00000000
00000001
00000000
,
00000100
00000010
00001000
00000000
00000100
00000000
00010000
00000000
00002000
00000000
01003000
00000000
01100000
00000000
00100000
00000000
,
10000000
00000000
00010000
10000000
01000000
00000000
00100000
00000000
00001000
00010000
00001000
00000000
00011000
00000000
00010000
00000000
,
00010100
00000100
00000010
00000100
00000110
00000010
00000110
00000000
,
00001001
00000000
00000001
00000100
00000000
00000100
00001000
00000000
00010000
00000000
00001000
00000000
01001000
00000000
00000000
00000000
,
10010000
00000000
10000000
01000000
00000000
01000000
00010000
00000000
00001000
00000000
00010000
00000000
00010100
00000000
00000000
00000000
,
00021000
00000000
00030010
00010000
00012000
00000000
01003000
00001000
,
00021000
00030000
00012000
00003000
00010000
00000000
00022000
00000000
00000000
00000000
00030000
00000000
00003000
00000000
00000000
00000000
,
00020000
00000000
00030000
00000000
00020000
00000000
00031000
00010000
00000000
00010000
00001000
00000000
00011000
00000000
00000000
00000000
,
00010000
00000010
00001000
00000000
00000100
00000000
00000010
00000000
00000001
00001000
00000010
00000000
00010000
00000000
00001000
00000000
,
00100000
00010000
00100000
00000000
01000000
10000000
02000000
00000000
03100000
00000000
20000000
00000000
30200000
00000000
00320000
00000000
,
00130000
00000000
00001000
00000000
00010000
00000000
00000100
00000000
00000110
00000000
00000000
00001001
00000000
00000000
00010100
00000000
,
00000000
00000000
00010000
00000000
00001000
00000000
01000000
00000000
00020000
00000000
00130000
00001000
00020000
00000000
00031000
00100000
,
00010000
00000000
01000000
00100000
00000000
10000000
00010000
00000000
00100000
00000000
01000000
00000000
00010000
00000000
00001000
00000000
,
00011000
00000000
00010000
00000000
00001000
00000000
00101000
00000000
00000000
00000000
00010000
00000010
00010000
00000000
00000010
00000000
,
00001010
00000000
00001001
00000001
00000010
00000110
00000000
00011000
,
00000000
01100000
01000000
10000000
01100000
00000000
01100000
00000000
,
00010000
10000000
01000000
00000000
00100000
00000000
00010000
00000000
00100000
00001000
00010000
00000000
00001000
00000000
00000100
00000000
,
00000001
00001000
00000100
00000000
00000010
00000001
00000020
00000000
00001030
00000000
00000020
00000000
00000130
00000010
00000001
00000010
,
00000001
00000000
00000000
00000000
00000000
00000000
00000000
00000000
00000000
00000000
00010010
00000000
00000000
00101000
00000000
00000000
,
10010000
00000000
00010000
00000000
10000000
00000000
00100000
00000000
00020000
00000000
00031000
01000000
00020000
00000000
01030000
00001000
,
00010000
00000000
00001000
00010000
00000000
00000100
00000010
00000000
00000001
00000000
00000200
00000000
00002300
00000000
00023000
00000000
,
00031000
00000000
00010000
00000000
00000010
00000000
00001010
00000000
00000000
00000000
00000001
00001000
00000001
00000000
00000100
00000000
,
00000110
00000000
00010010
00010000
00001000
00101000
00000000
10010000
,
00000000
11000000
01000000
00100000
00001000
00011000
00000000
00022000
,
00000000
00000000
00000000
00000000
00030000
00000000
00013000
00001000
00010000
00000100
00001000
00000100
00000010
00000001
00000010
00000002
,
00002000
00000000
00000000
00000000
00000000
00000003
00003000
00000000
,
00000001
00000000
00000010
00000000
00000001
00000000
00000010
00000000
00000100
00000000
00010000
00001000
00000000
00001000
00010000
00001000
,
00100000
00000000
01000000
00000000
00100000
00000000
00010000
00000000
01000000
00000000
00100000
10000000
00000000
10000000
00010000
00000000
,
10000000
00000000
01000000
00000000
10000000
00000000
01000000
00000000
00100000
00000000
00001000
00010000
00000000
00010000
00000100
00001000
,
00000100
00000000
00000011
00001100
00000000
00000101
00002020
00003030
,
00000001
00000000
00000100
00000000
00001000
00000000
00010000
00000000
00000100
00000000
00000010
00000100
00000000
00001000
00000001
00001000
,
00000010
00000000
00000100
00000000
00001000
00000000
00010000
00000000
00001000
00000000
00100000
00010000
00000000
10000000
00100000
00000000
,
10100000
00100000
01000000
01010000
00000000
01001000
00000000
00022000
,
00000000
00000000
00000000
00000000
00030000
00000000
00013000
00000100
00001000
00000100
00000010
00000001
00000020
00000000
00000030
00000000
,
00000011
00000010
00000100
00001100
00000000
00010100
00000000
00022000
,
00000000
00000000
00000000
00000000
00003000
00000000
00031000
01000000
00010000
01000000
00100000
10000000
00200000
00000000
00300000
00000000
,
10010000
10000000
01000000
01100000
00000000
00101000
00000000
00022000
,
00000000
00000000
00000000
00033000
,
00010000
00000000
00001000
00000000
00010000
00000000
00001000
00000000
00010000
00000000
00000100
00001000
00000100
00001000
00000001
00001000
,
00000010
00000100
00000010
00000000
00000010
00000100
00000010
00000000
00010000
00000000
00001000
00000000
00011000
00000000
00000000
00000000
,
00001000
01000000
00010000
00000000
10000000
00000000
00010000
00000000
01000000
00100000
10000000
00000000
00010000
00000000
00100000
00000000
,
01000000
10000000
01000000
00000000
10000000
00010000
02000000
00000000
03100000
00000000
02000000
00000000
23000000
00000000
32000000
00000000
,
03010000
00000000
00100000
01000000
00100000
00000000
00001000
00000000
00011000
00000000
00000000
00010100
00000000
00000000
00001001
00000000
,
00000000
00000000
00000001
00001000
00000100
00000000
00010000
00000000
00002000
00000000
00013000
00000010
00002000
00000000
00003010
00010000
,
00001000
00000000
00010000
00001000
00000000
01000000
00010000
00000000
00100000
00000000
01000000
10000000
00010000
00000000
01000000
00000000
,
01100000
00000000
00100000
00000000
00010000
00000000
00011000
00000000
00000000
00000000
00010000
00000010
00010000
00000000
00000010
00000000
,
00000110
00000000
00000000
00000000
00000001
00000000
00000010
00000000
00000110
00000000
00000100
00010000
00001000
00000000
00011000
00000000
,
00000000
00001100
00000100
00000001
00000110
00000000
00000110
00000000
,
00001000
00000001
00000010
00000000
00000100
00000000
00010000
00001000
00100000
00000000
00010000
10000000
00100000
00000000
01000000
00000000
,
00010000
10000000
01000000
00000000
00100000
00001000
00020000
00000000
00031000
00000000
00000200
00000000
00000301
00000010
00000001
00000010
,
00000100
00000000
00000000
00000000
00000000
00000000
00000000
00000000
00000000
00000000
00011000
00000000
00000000
00001010
00000000
00000000
,
00000011
00000000
00000001
00000000
00001000
00000000
00000010
00000000
00020000
00000000
00031000
00100000
00020000
00000000
00130000
00001000
,
00010000
00000000
00001000
01000000
00000000
00100000
10000000
00000000
00010000
10000000
01000000
00000000
00100000
00000000
00001000
00000000
,
00011000
00000000
00010000
00000000
00000100
00000000
00000110
00000000
00000000
00000000
00000010
00000001
00000100
00000000
00000010
00000000
,
00001010
00000000
00000000
00000000
00000010
00010000
00001000
00000000
00010000
00000000
00001000
01000000
00100000
00000000
10100000
00000000
,
00000000
00000000
01000000
00010000
10000000
00000000
00010000
00000000
01000000
00000000
01001000
00000000
00001000
00000000
00022000
00000000
,
00000000
00000000
00000000
00000000
00033000
00000000
00010000
00000100
00001000
00000010
00000100
00000001
00001000
00000100
00000010
00000000
,
00002002
00000000
00000000
00000000
00000000
00003000
00000003
00000000
;
