#TITLE:LOUDER ROLLING THUNDER;
#ARTIST:BEMANI Sound Team "Dustup Vs. L.E.D.-G";
#ARTISTTRANSLIT:Dustup Vs. L.E.D.-G;
#GENRE:MASSIVE MIXTURE;
#BANNER:LOUDER ROLLING THUNDER.png;
#BACKGROUND:LOUDER ROLLING THUNDER-bg.png;
#CDTITLE:./CDTitles/bm IIDX 30 RESIDENT.png;
#MUSIC:LOUDER ROLLING THUNDER.ogg;
#SAMPLESTART:89.451;
#SAMPLELENGTH:15;
#DISPLAYBPM:180;
#BPMS:0=165.272,4=180,65=360,66=180,84=360,86=180,93=360,95=180,102=360,104=180,270=360,272=180,303=360,304=180,333=360,334=180;
#STOPS:65=0.041,65.25=0.042,65.5=0.041,65.75=0.042,303=0.083,303.5=0.084,333=0.042,333.25=0.041,333.5=0.042,333.75=0.041;
#TIMESIGNATURES:0=4=4,84=5=4,89=4=4,93=5=4,98=4=4,102=5=4,107=4=4,267=5=4,272=4=4;
#STAGE:23;

//--------------- dance-single - Fred-104 ----------------
#NOTES:
     dance-single:
     Fred-104:
     Beginner:
     4:
     :
0000
0000
0000
0000
,
0000
0000
0000
0000
,
0000
0000
0000
0000
,
0000
0000
0000
0000
,
0000
0000
0000
0000
,
0000
0000
0000
0000
,
0000
0000
0000
0000
,
0000
0000
0000
0000
,
0000
0000
0000
0000
,
1000
0000
0000
0000
,
0001
0000
0000
0000
,
1000
0000
0001
0000
,
0100
0000
0000
0000
,
0100
0000
0100
0000
,
0010
0000
0010
0000
,
0100
0100
0100
0100
,
0220
0000
0330
0000
,
1000
0000
1000
0000
,
0001
0000
0001
0000
,
0100
0000
0100
0000
,
0010
0000
0010
0000
,
2002
0000
3003
0000
,
0000
1000
0000
0001
,
0000
2002
0000
3003
,
0000
0000
0100
0000
,
0100
0000
0220
0000
,
0330
0000
0000
0010
,
0000
0010
0000
0010
,
0000
0100
0000
0100
,
0000
1000
1000
1000
,
0000
0001
0000
1000
,
0000
1001
0000
0001
,
0000
0100
0000
0001
,
0000
0010
0010
0010
,
0000
0001
0000
1000
,
0000
0001
0000
1001
,
0000
0000
0000
0000
,
0000
0000
0000
0000
,
0000
0000
0000
0000
,
0000
0000
0000
1000
,
0000
1000
0000
0002
,
0000
0003
0000
0100
,
0000
0100
0000
0010
,
0000
0100
0100
0100
,
0000
0001
0000
1000
,
0000
1000
0000
0001
,
0000
1000
0000
0001
,
0001
0001
0001
0001
,
0000
1000
0000
0010
,
0000
1000
0000
0100
,
0000
1000
0000
1000
,
0000
0001
0000
1000
,
1000
1000
0000
0001
,
0001
0001
0000
0100
,
0000
0100
0000
0100
,
0100
0100
0000
0010
,
0000
0010
0000
0100
,
0000
0100
0000
0001
,
0000
1000
0000
0001
,
0001
1000
0000
1001
,
0000
0000
0000
0000
,
0000
0000
0000
0000
,
0000
0000
0000
0000
,
0000
0000
0000
1000
,
0000
0010
0000
1000
,
0000
0001
0000
0100
,
0000
0100
0000
0100
,
0000
0110
0000
0000
,
0000
0001
0000
0001
,
0000
1000
0000
1000
,
1000
1000
0000
0010
,
0000
0010
0000
0100
,
0100
0100
0000
0001
,
0000
0001
0000
1000
,
1000
1000
0000
0001
,
2002
0000
0000
3003
,
1000
1000
1000
0000
,
0010
0010
0010
0000
,
0100
0100
0100
0000
,
0001
0001
0001
0000
,
1000
1000
1000
0000
,
0001
0001
0001
0000
,
0100
0100
0100
0100
,
0220
0000
0330
0000
,
2002
0000
0000
0000
,
0000
0000
0000
0000
,
3003
0000
0000
0000
;

//--------------- dance-single - Fred-104 ----------------
#NOTES:
     dance-single:
     Fred-104:
     Easy:
     9:
     :
0000
0000
0000
0000
,
0000
0000
0000
0000
,
0000
0000
0000
0000
,
0000
0000
0000
0000
,
0000
0000
0000
0000
,
0000
0000
0000
0000
,
0000
0000
0000
0000
,
0000
0000
0000
0000
,
0000
0000
0000
0000
,
1000
0010
1000
0000
,
0001
0010
0001
0000
,
0100
0010
0100
0000
,
0001
1000
0100
0000
,
0010
0001
1000
0100
,
1000
0010
0100
0001
,
1000
0001
0100
0000
0010
0100
0010
0000
,
2000
0000
3002
0000
0103
0010
0100
0000
,
1001
0001
0100
0100
,
0010
1000
0100
1000
,
1001
0100
0010
0010
,
0001
1000
0010
0100
,
0200
0000
0310
1000
,
0001
0000
1000
0000
0010
0000
0100
0010
,
0100
0002
0000
1003
,
0010
0100
0001
1000
,
0100
1000
0100
0000
2000
0000
0000
0000
,
3001
0000
0100
0000
0010
0000
1000
0010
,
1000
0000
0001
0100
0001
0000
2000
0000
,
3100
0020
0130
1000
,
0001
0000
0100
0010
0100
0000
0002
0000
,
0013
2000
3010
0001
,
0100
0000
0010
1000
0010
0000
2000
0000
,
3100
0020
0130
1000
,
0001
0000
0010
0100
0010
0000
1000
0100
,
1000
0000
0001
0100
0001
0000
1001
0000
,
0000
0100
0100
1001
,
0000
0000
0000
0000
,
0000
0000
0000
0000
,
0000
0000
0000
0000
,
0000
0000
0000
1000
,
1000
0100
0010
0200
,
1000
0001
0310
0001
,
0101
1000
1100
0010
,
0110
0100
1001
2000
,
3010
0002
0013
1100
,
0010
0101
0010
1000
,
1010
0001
0011
0200
,
0320
0230
0320
1030
,
0100
0100
0010
0001
,
0100
0100
0010
1000
,
1020
0031
0021
1030
,
0001
0000
0000
0100
0000
0100
0000
0010
0000
1000
0000
0000
,
1200
0301
0201
1300
,
1020
0031
0021
1030
,
0000
1001
0000
0100
,
0100
0000
0000
0010
0000
0100
0000
0010
0000
1001
0000
0000
,
0000
0100
0000
0010
,
0010
1000
0001
0100
,
0000
0010
0000
1000
,
0001
0000
0000
1000
0000
0010
0000
0100
0000
1001
0000
0000
,
0000
0000
0000
0000
,
0000
0000
0000
0000
,
0000
0000
0000
0000
,
0000
0000
0000
0001
,
0100
0000
0001
0010
0001
0000
1000
0000
,
0100
0000
0010
0100
0010
0000
0100
0000
,
1000
0000
0001
0100
0001
0000
0100
0000
,
0010
0100
0220
0330
,
1000
0000
0000
1000
0000
0000
0010
0000
,
0000
0100
0000
0000
0001
0000
0100
0000
,
0010
0000
0000
0010
0000
0000
0100
0000
,
0000
1000
0000
0000
0001
0000
1000
0000
,
0010
0000
0000
0100
0000
0000
0001
0000
,
0000
0100
0000
0000
0010
0000
1000
0000
,
0001
0000
1000
0000
0010
0100
0010
0000
,
2002
0000
0000
3003
,
0100
0010
0001
1000
,
0010
0000
0100
0000
0010
0100
0010
0000
,
1000
0100
0010
0001
,
1000
0000
0010
0000
1000
0100
1000
0000
,
0001
0100
0001
0000
1000
0100
1000
0000
,
0001
0100
0010
0000
1000
0100
0010
0000
,
0001
0001
0000
0100
0100
0000
0010
0000
,
2000
0000
3002
0000
0103
0010
0100
0000
,
2002
0000
0000
0000
,
0000
0000
0000
0000
,
3003
0000
0000
0000
;

//--------------- dance-single - Fred-104 ----------------
#NOTES:
     dance-single:
     Fred-104:
     Medium:
     13:
     :
0000
0000
0000
0000
,
0000
0000
0000
0000
,
0000
0000
0000
0000
,
0000
0000
0000
0000
,
0000
0000
0000
0000
,
0000
0000
0000
0000
,
0000
0000
0000
0000
,
0000
0000
0000
0000
,
0000
0000
0000
0000
,
0001
0000
0010
0000
0100
0000
1000
0001
,
0100
0000
0010
0000
1000
0000
0100
0010
,
0001
0000
1000
0000
0100
0000
0001
0100
,
1000
0000
0010
0000
0100
0000
0001
0100
,
0010
0000
1000
0100
0010
0000
0001
1000
,
0100
0000
0010
0001
0100
0000
0010
1000
,
0001
0010
0001
0100
0010
1000
0100
0010
,
0100
0000
0000
0000
0000
0000
0000
0000
0020
0030
0000
0000
0020
0030
0000
0000
0100
0000
0000
0000
0010
0000
0000
0000
0110
0000
0000
0000
0000
0000
0000
0000
,
0100
1000
0001
1000
0100
0010
0001
0100
,
0001
1000
0100
1000
0010
0100
0110
0000
,
1001
0000
0100
0100
0010
0001
1000
0010
,
0100
0010
1000
0100
0010
0001
1000
0010
,
0200
0000
0000
0000
0301
0100
1000
0010
,
0100
0010
1000
0100
0010
0001
1000
0010
,
0100
0001
0020
0000
0000
0000
1030
0010
,
0001
0100
0010
1000
0001
0010
0100
0001
,
1000
0100
0010
1000
0002
0000
0000
0000
,
0103
0010
0100
0001
1000
0001
0100
0100
,
0010
0100
0100
0010
1001
0000
0001
0010
,
0001
1000
0010
0100
0010
1000
0100
0010
,
0001
0000
1000
0000
0010
1000
0010
0000
0100
0000
0100
0000
0001
0000
1000
0000
,
0100
1000
0100
0010
0001
0010
1001
0000
,
0100
0000
0000
0000
0010
0000
0000
0100
0000
0000
0100
0000
0001
0000
0010
0000
,
0001
0100
0010
1000
0001
0100
0010
0100
,
1000
0100
0010
0100
0001
1000
0001
0010
,
0100
1000
0010
0100
0001
0010
0110
0000
,
0000
0000
0000
0000
0100
0000
0000
0010
0000
0000
0100
0000
1001
0000
0000
0000
,
0000
0000
0000
0000
,
0000
0000
0000
0000
,
0000
0000
0000
0000
,
0000
0000
0000
0000
0000
0000
0000
0000
0000
0001
0000
0001
,
0010
0000
0010
0100
0000
0100
1000
0000
1000
0020
0000
0000
,
0100
0000
0000
0001
0000
0000
1030
0000
0000
1100
0000
0100
,
0010
0000
0000
0101
0000
0100
0010
0000
0000
1000
0000
0000
,
0001
0100
0001
0200
0000
0000
0320
0000
0000
1030
0000
1000
,
0100
0000
0000
0001
0000
0001
0100
0000
0000
1000
0000
0010
,
0100
0000
0000
0001
0000
0010
0100
0000
0000
1010
0000
0000
,
0100
0000
0010
0100
0000
0000
0001
0000
0100
0010
0000
0010
,
0100
0000
0100
0010
0000
0010
0100
0000
0001
1000
0000
0000
,
1100
0000
0100
0010
0000
0000
0101
0000
0100
0010
0000
0000
,
1000
0000
1000
0001
0000
0001
0100
0000
0000
0110
0000
0000
,
1000
0010
1000
0010
0000
0000
0100
0001
0100
0001
0000
0000
,
1000
0001
1000
0001
0000
0010
0000
0100
0000
1000
0000
0000
,
0001
0000
0001
0100
0000
0010
0100
0000
0000
0001
0000
1000
,
0100
0000
0100
0010
0000
0010
0001
0000
0000
2000
0000
0000
,
0000
0002
3003
1000
,
0010
0000
0000
0100
0000
0110
0000
0110
0000
1001
0000
0000
,
0001
0000
0100
0001
0000
0000
1000
0000
0100
1000
0000
1000
,
0001
0000
0001
0100
0000
0010
0100
0000
0000
0011
0000
0000
,
0011
1010
1010
0001
,
1000
0000
0000
0010
0000
0100
0000
0100
0000
1001
0000
0000
,
0000
0000
0000
0000
,
0000
0000
0000
0000
,
0000
0000
0000
0000
,
0000
0000
0000
0000
0000
0000
1000
0100
,
0100
1000
0001
0100
0010
1000
0100
1000
,
0001
1000
0100
0010
0001
1000
0001
0100
,
0010
0000
0100
0000
0001
0000
1000
0000
0100
0000
0010
0000
0001
0000
1000
0100
,
1000
0000
0001
0000
0100
0010
0100
0000
0002
0000
0000
0000
0000
0000
0000
0000
,
1003
0100
1000
0010
1000
0010
0100
0001
,
0100
0001
0010
0001
0010
0100
1000
0001
,
0100
0010
0100
0001
0100
0001
1000
0001
,
1000
0100
0010
0100
1000
0010
0100
0001
,
1000
0100
0010
0001
0100
0010
1000
0010
,
0100
0001
0010
0100
1000
0010
0100
0001
,
1000
0000
0100
1000
0100
0000
0010
0000
0001
0100
0001
0000
0100
0010
0100
0000
,
2002
0000
0000
3003
,
1100
0000
0100
0010
0001
1000
0010
0000
,
0101
0000
0100
0010
1000
0001
0010
0100
,
1000
0010
0010
1000
0001
0001
0100
0010
,
1000
0000
0010
0000
1000
0000
0001
0000
0100
0010
0100
0000
0002
0000
0003
0000
,
1000
1000
0001
0001
0100
0010
1000
0001
,
0010
0010
0100
0100
1000
0010
0100
0001
,
1000
0000
0010
1000
0010
0000
0100
0000
0001
1000
0001
0000
0100
0000
0010
0000
,
0200
0000
0000
0000
0000
0000
0000
0000
0320
0030
0000
0000
0200
0300
0000
0000
0001
0000
0000
0000
1000
0000
0000
0000
0100
0000
0000
0000
0000
0000
0000
0000
,
2002
0000
0000
0000
,
0000
0000
0000
0000
,
3003
0000
0000
0000
;

//--------------- dance-single - Fred-104 ----------------
#NOTES:
     dance-single:
     Fred-104:
     Hard:
     17:
     :
0000
0000
0000
0000
,
0000
0000
0000
0000
,
0000
0000
0000
0000
,
0000
0000
0000
0000
,
0000
0000
0000
0000
,
0000
0000
0000
0000
,
0000
0000
0000
0000
,
0000
0000
0000
0000
,
0000
0000
0000
0000
,
1100
0000
0010
0000
0001
0000
1000
0100
,
0110
0000
0001
0000
0100
0000
1000
0010
,
1010
0000
0010
0000
0001
0000
0100
0010
,
0011
0000
0001
0000
1000
0000
0001
1000
,
0100
1000
0100
1000
0010
0100
0010
0001
,
0010
0100
1000
0001
0100
0010
1000
0100
,
0010
0001
0100
0000
0010
1000
0100
0000
0010
0001
0100
0010
1000
0010
0100
0001
,
1000
0000
0000
0000
0000
0000
0000
0000
0000
0000
0000
0000
0000
0000
0000
0000
0200
0300
0000
0000
0020
0030
0000
0000
0200
0300
0000
0000
0020
0030
0000
0000
0100
0000
0000
0000
0000
0000
0000
0000
0001
0000
0000
0000
1000
0000
0000
0000
0200
0000
0000
0000
0000
0000
0000
0000
0000
0000
0000
0000
0000
0000
0000
0000
,
1300
0010
1000
0000
0001
0100
0001
0000
1000
0100
1000
0000
0001
0010
0001
0000
,
1000
0001
1000
0000
0010
0100
0010
0000
0100
1000
0100
0000
1001
0000
0000
0000
,
0110
0000
0000
0000
0001
0100
0010
0000
1000
0010
0100
0000
0001
0010
0001
0000
,
1000
0010
1000
0000
0010
0100
0010
0000
0200
0000
0001
1000
0300
0000
0010
0000
,
0220
0000
0000
0000
0000
0000
0330
0000
0010
0100
0010
0000
1000
0001
1000
0000
,
0001
0010
0001
0000
1000
0010
1000
0000
0001
0100
0001
0000
0100
0010
0100
0010
,
1000
0100
0010
0001
2000
0000
0000
0000
0000
0000
0000
0000
3001
0100
0001
0000
,
1000
0010
1000
0000
0001
1000
0001
0000
0100
0010
0100
0000
0001
1000
0100
0000
,
0020
0000
0001
0100
0030
0000
1000
0000
0002
0000
0000
0000
0000
0000
0000
0000
,
1003
0010
0100
0001
1000
0000
0100
0000
0100
0000
0010
0000
0001
0100
0001
0100
,
0001
0000
1000
0100
1000
0001
0100
0001
1000
0000
0001
0000
0100
0010
1000
0000
,
0001
0010
0001
0000
1000
0010
0100
0010
1000
0000
0001
0000
1000
0100
1000
0000
,
0001
0100
0001
0000
1000
0010
0100
0001
0100
0000
0010
0000
1000
0001
0100
0000
,
0001
1000
0100
0000
0010
0001
1000
0100
1000
0000
0001
0000
1001
0000
0000
0000
,
0100
0010
0100
0000
0010
0100
0010
0100
0000
0001
1000
0000
0001
0000
1000
0100
,
1000
0000
0001
0100
0010
0000
1000
0100
0010
0000
0001
0000
1000
0000
0010
1000
,
0001
0000
0100
0010
1000
0001
0000
0010
0100
0000
0010
0000
0001
0100
0001
0100
,
0010
1000
0010
1000
0001
0010
0100
1000
0100
0010
0001
1000
0001
0000
0000
0000
,
0000
0000
0000
0000
1000
0000
0000
1010
0000
0000
0101
0000
1001
0000
0000
0000
,
0000
0000
0000
0000
,
0000
0000
0000
0000
,
0000
0000
0000
0000
,
0000
0000
0000
0000
0000
0000
0000
0000
0000
1000
0100
0010
,
0001
1000
0010
0100
0001
0100
1000
0100
0010
0200
0000
0000
,
0001
0000
0000
1000
0000
0000
0310
0000
0000
1001
0000
0100
,
0010
0001
1000
0001
0000
0000
1001
0000
0000
1010
0000
0010
,
0100
0100
0010
1000
0001
0000
1001
0000
0000
1100
0000
0000
,
0001
0010
0100
1000
0000
0000
0101
0000
0010
1000
0000
0000
,
1001
0000
0100
0010
0000
0010
0100
0000
0100
0001
0000
0000
,
1100
0000
0010
0001
0000
0000
1010
0000
0100
0001
0000
1000
,
0100
0000
1000
0010
0100
0001
1000
0100
0100
0010
0000
0000
,
0011
0000
0100
1000
0000
0000
1010
0000
0100
0001
0000
0000
,
1100
0000
0100
0001
0000
0100
1000
0000
0100
0010
0000
0000
,
0001
0001
1000
0100
0000
0000
0010
0010
0100
0010
0000
0000
,
1000
0100
0010
0001
0000
1100
0000
0101
0000
1001
0000
0000
,
0010
0100
1000
0001
0100
0001
0100
0000
0010
0100
0100
1000
,
0100
0100
0001
0100
0100
0010
0001
1000
0010
1000
0100
1000
,
0100
0010
0100
0010
0001
1000
0010
0100
0001
1000
0000
0000
,
1100
0000
0000
0101
0000
1100
0000
0110
0000
1001
0000
0000
,
0010
1000
0010
0100
0000
0001
0100
0000
0000
1000
0100
0010
,
0100
1000
0010
0100
0001
0100
0010
0100
0001
1000
0000
1000
,
0001
0000
0001
0010
0100
1000
0010
0100
0001
2000
0000
0000
,
0000
0000
0000
3001
0000
1010
0000
0011
0000
0110
0000
0000
,
0000
0000
0000
0000
,
0000
0000
0000
0000
,
0000
0000
0000
0000
,
0000
0000
0000
0000
0000
0000
1000
0010
,
1000
0000
0001
0010
0100
0000
1000
0000
0001
0100
0010
0000
1000
0000
0001
0010
,
0100
0010
0001
0000
1000
0010
0100
0000
0001
0010
0100
0000
1000
0100
0010
0000
,
0001
0000
1000
0001
0100
0000
0001
0000
1000
0100
0010
0000
0001
0000
1000
0100
,
1000
0000
0001
0000
1000
0001
0010
0001
0200
0000
0000
0000
0000
0000
0000
0000
,
0310
0000
0010
0000
0110
0000
0001
1000
0100
0000
0010
0000
0100
1000
0001
0000
,
1000
0100
0010
0000
0001
0000
1000
0010
0100
0000
0001
0000
1000
0100
0010
0000
,
0100
0000
1000
0001
0100
0000
0001
0000
1000
0001
0010
0000
0100
0000
0010
0001
,
1000
0000
0010
0000
1000
0010
0100
0000
0001
0000
0010
0100
1000
0000
0001
0000
,
1000
0000
0001
0000
1001
0000
0100
0010
0100
0000
0001
0000
0100
0010
0100
0000
,
1000
0000
0100
0010
0100
0000
0001
0000
0100
0010
0100
0000
1000
0010
0100
0001
,
1000
0100
1000
0100
0010
0000
0001
0100
0001
0100
0010
0000
1000
0010
0100
0001
,
2000
0000
0000
0000
0000
0000
0000
0000
0000
0000
0000
0000
0000
0000
0000
0000
0000
0000
0000
0000
0000
0000
0000
0000
0000
0000
0000
0000
0000
0000
0000
0000
0000
0000
0000
0000
0000
0000
0000
0000
0000
0000
0000
0000
0000
0000
0000
0000
3002
0003
0000
0000
0000
0000
0000
0000
0002
0003
0000
0000
0000
0000
0000
0000
,
1001
0000
0000
1000
0010
0000
0100
0000
0001
0000
1000
0001
0010
0000
0100
0000
,
0110
0000
0000
0010
0001
0000
1000
0000
0010
1000
0001
0000
0101
0000
0100
0000
,
0010
0000
1000
0010
1000
0010
0100
0000
0001
0010
0001
0010
0100
0000
1000
0000
,
0001
0000
0100
0010
0100
0000
1000
0000
0010
0100
0010
0100
0002
0000
0000
0003
,
1100
0000
0100
0000
0110
0000
0010
0000
0001
0000
1000
0010
0100
0000
0001
0000
,
0101
0000
0100
0000
0110
0000
0010
0000
1000
0000
0100
1000
0001
0000
0100
0000
,
0001
0010
0100
1000
0100
0000
0010
0001
1000
0100
1000
0000
0001
0100
0010
1000
,
0002
0000
0000
0000
0000
0000
0000
0000
0000
0000
0000
0000
0000
0000
0000
0000
0203
0300
0000
0000
0020
0030
0000
0000
2000
3000
0000
0000
0002
0003
0000
0000
0010
0000
0000
0000
0000
0000
0000
0000
0100
0000
0000
0000
1000
0000
0000
0000
0001
0000
0000
0000
0100
0000
0000
0000
1000
0000
0000
0000
0100
0000
0000
0000
,
0002
0000
0000
0000
,
0000
0000
0000
0000
,
0003
0000
0000
0000
;

//--------------- dance-double - Fred-104 ----------------
#NOTES:
     dance-double:
     Fred-104:
     Easy:
     9:
     :
00000000
00000000
00000000
00000000
,
00000000
00000000
00000000
00000000
,
00000000
00000000
00000000
00000000
,
00000000
00000000
00000000
00000000
,
00000000
00000000
00000000
00000000
,
00000000
00000000
00000000
00000000
,
00000000
00000000
00000000
00000000
,
00000000
00000000
00000000
00000000
,
00000000
00000000
00000000
00000000
,
00001000
00010000
00001000
00000000
,
00100000
00010000
00100000
00000000
,
01000000
10000000
01000000
00000000
,
00010000
00001000
00010000
00000000
,
00001000
00000100
00000010
00000010
,
00000001
00000100
00000010
00001000
,
00010000
00001000
00010000
00000000
01000000
00100000
10000000
00000000
,
02000000
00000000
03200000
00000000
00310000
10000000
00010000
00000000
,
10010000
01000000
00100000
00100000
,
00001000
00010000
00100000
01000000
,
01100000
00100000
00010000
00001000
,
00000100
00000010
00001000
00000010
,
00000200
00000000
00000310
00000001
,
00001000
00000010
00001000
00000100
,
00010000
00020000
00000000
01030000
,
10000000
00010000
01000000
00100000
,
00010000
00001000
00000020
00000000
,
00001030
00000000
00010000
00000000
00100000
00000000
00001000
00010000
,
00100000
00000000
01000000
00100000
01000000
00000000
00020000
00000000
,
01030000
20000000
31000000
00010000
,
01000000
00000000
00100000
10000000
01000000
00000000
00200000
00000000
,
00301000
00020000
00030010
00001000
,
00000100
00000000
00000010
00000001
00001000
00000000
00000002
00000000
,
00000103
00002000
00003100
00000001
,
00000100
00000000
00000010
00001000
00000100
00000000
00010000
00001000
,
00010000
00000000
00100000
01000000
00100000
00000000
10010000
00000000
,
00000000
00010000
00001000
00011000
,
00000000
00000000
00000000
00000000
,
00000000
00000000
00000000
00000000
,
00000000
00000000
00000000
00000000
,
00000000
00000000
00000000
00000001
,
00001000
00000001
00000100
00000020
,
00001000
00000230
00010000
00001300
,
00011000
00100000
00110000
01000000
,
01100000
00100000
11000000
20000000
,
31000000
00020000
01030000
00100000
,
00011000
00001000
00000110
00000001
,
00000101
00001000
00001100
00000020
,
00000230
00000320
00000230
00000301
,
00000100
00000001
00000100
00000010
,
00001000
00000100
00010000
00001000
,
00011000
00100000
01100000
10000000
,
00100000
00000000
00000000
10000000
00000000
10000000
00000000
01000000
00000000
00100000
00000000
00000000
,
01100000
00010000
00011000
00001000
,
00000110
00000010
00001001
00000100
,
00000000
00001001
00000000
00000010
,
00000010
00000000
00000000
00010000
00000000
00001000
00000000
00010000
00000000
00011000
00000000
00000000
,
00000000
00100000
00000000
01000000
,
01000000
10000000
00100000
00010000
,
00000000
00001000
00000000
00000010
,
00000001
00000000
00000000
00000100
00000000
00000100
00000000
00000010
00000000
00001001
00000000
00000000
,
00000000
00000000
00000000
00000000
,
00000000
00000000
00000000
00000000
,
00000000
00000000
00000000
00000000
,
00000000
00000000
00000000
00001000
,
00010000
00000000
00001000
00010000
00100000
00000000
01000000
00000000
,
00100000
00000000
00010000
10000000
00100000
00000000
01000000
00000000
,
00010000
00000000
10000000
01000000
00100000
00000000
00001000
00000000
,
00010000
00001000
00022000
00033000
,
00010000
00000000
00000000
00010000
00000000
00000000
00001000
00000000
,
00000000
00000100
00000000
00000000
00000010
00000000
00000001
00000000
,
00001000
00000000
00000000
00000010
00000000
00000000
00000100
00000000
,
00000000
00010000
00000000
00000000
01000000
00000000
00100000
00000000
,
10000000
00000000
00000000
01000000
00000000
00000000
00100000
00000000
,
00000000
00001000
00000000
00000000
00010000
00000000
00010000
00000000
,
00001000
00000000
00000100
00000000
00000001
00000100
00000010
00000000
,
00002002
00000000
00000000
00003003
,
00000010
00001000
00000100
00010000
,
00001000
00000000
00010000
00000000
00100000
01000000
00100000
00000000
,
00010000
10000000
01000000
00100000
,
00010000
00000000
01000000
00000000
00100000
10000000
01000000
00000000
,
00100000
00010000
01000000
00000000
00001000
00010000
00000100
00000000
,
00001000
00000010
00000100
00000000
00000001
00000100
00000010
00000000
,
00000001
00001000
00000000
00000100
00010000
00000000
00001000
00000000
,
00100000
00000000
00020000
00000000
10030000
00100000
01000000
00000000
,
20020000
00000000
00000000
00000000
,
00000000
00000000
00000000
00000000
,
30030000
00000000
00000000
00000000
;

//--------------- dance-double - Fred-104 ----------------
#NOTES:
     dance-double:
     Fred-104:
     Medium:
     13:
     :
00000000
00000000
00000000
00000000
,
00000000
00000000
00000000
00000000
,
00000000
00000000
00000000
00000000
,
00000000
00000000
00000000
00000000
,
00000000
00000000
00000000
00000000
,
00000000
00000000
00000000
00000000
,
00000000
00000000
00000000
00000000
,
00000000
00000000
00000000
00000000
,
00000000
00000000
00000000
00000000
,
00001000
00010000
01000000
00000000
,
00100000
10000000
01000000
00100000
,
00001000
00010000
00000010
00000000
,
00001000
00000100
00000100
00000010
,
00000001
00000000
00000100
00000010
00001000
00000000
00000001
00000100
,
00001000
00000000
00010000
00001000
00010000
00000000
00001000
00010000
,
00100000
01000000
10000000
00100000
01000000
00010000
10000000
01000000
,
00200000
00000000
00000000
00000000
00000000
00000000
00000000
00000000
00302000
00003000
00000000
00000000
00002000
00003000
00000000
00000000
00010000
00000000
00000000
00000000
00001000
00000000
00000000
00000000
00011000
00000000
00000000
00000000
00000000
00000000
00000000
00000000
,
00001000
00100000
00010000
01000000
00010000
00100000
01000000
10000000
,
00100000
10000000
01000000
00100000
00010000
01000000
00002000
00000000
,
00023000
00000000
00031000
00010000
00010000
00001000
00000100
00000010
,
00001000
00000100
00010000
00000010
00001000
00000100
00010000
00001000
,
00002000
00000000
00000000
00003000
00001000
00000100
00001000
00000100
,
00000001
00000100
00000010
00000001
00001000
00000001
00000100
00000010
,
00001000
00000010
00000200
00000000
00000000
00000300
00000100
00000010
,
00001000
00000100
00010000
00001000
00010000
00100000
01000000
00010000
,
10000000
00010000
01000000
00100000
02000000
00000000
00000000
03000000
,
01000000
00100000
00010000
00001000
00000100
00000010
00001000
00010000
,
00100000
01000000
00010000
00001000
00010000
00000000
00000100
00001000
,
00000010
00001000
00000100
00010000
00001000
00010000
00000010
00001000
,
00000100
00010000
00001000
00100000
00010000
01000000
00001000
00010000
,
00100000
01000000
00010000
00100000
00001000
00010000
00000020
00000000
,
00001030
00000000
00000000
00000000
00000010
00000000
00000000
00000100
00000000
00000000
00000100
00000000
00000001
00000000
00000100
00000000
,
00000001
00000100
00001000
00010000
00001000
00010000
01000000
10000000
,
00010000
10000000
00100000
01000000
00010000
00100000
01000000
00100000
,
00010000
00001000
00000100
00000010
00010000
00001000
00010000
00000000
,
00000000
00000000
00000000
00000000
00001000
00000000
00000000
00010000
00000000
00000000
00001000
00000000
00011000
00000000
00000000
00000000
,
00000000
00000000
00000000
00000000
,
00000000
00000000
00000000
00000000
,
00000000
00000000
00000000
00000000
,
00000000
00000000
00000000
00000000
00000000
00000000
00000000
00000000
00000000
00001000
00000000
00001000
,
00010000
00000000
00010000
00100000
00000000
00100000
01000000
00000000
01000000
20000000
00000000
00000000
,
31000000
00000000
00000000
00020000
00000000
00000000
01030000
00000000
00000000
10000000
00000000
01000000
,
00100000
00000000
00000000
00001000
00000000
00010000
00001000
00000000
00000000
00010000
00000000
00000000
,
00001000
00010000
00001000
00000020
00000000
00000000
00000230
00000000
00000000
00000301
00000000
00000100
,
00000001
00000000
00000000
00001000
00000000
00000100
00001000
00000000
00000000
00000100
00000000
00000010
,
00000100
00000000
00000000
00000001
00000000
00001000
00000001
00000000
00000000
00001001
00000000
00000000
,
00000010
00000000
00001000
00000100
00000000
00000000
00010000
00000000
00001000
00100000
00000000
00010000
,
01000000
00000000
00100000
10000000
00000000
01000000
00100000
00000000
00010000
10000000
00000000
00000000
,
01100000
00000000
10000000
01000000
00000000
00000000
01100000
00000000
00010000
01000000
00000000
01000000
,
00100000
00000000
10000000
01000000
00000000
00100000
00001000
00000000
00000000
00011000
00000000
00000000
,
00010000
00000010
00010000
00000010
00000000
00000000
00001000
00000010
00001000
00000010
00000000
00000000
,
00001000
00000001
00001000
00000100
00000000
00000010
00000000
00000001
00000000
00001000
00000000
00000000
,
00000100
00000000
00000100
00010000
00000000
00010000
00000100
00000000
00000000
00001000
00000000
00000100
,
00000010
00000000
00000001
00000100
00000000
00000010
00001000
00000000
00000000
00000200
00000000
00000000
,
00000000
00002300
00000000
00013000
,
00010000
00000000
00000000
00100000
00000000
01000000
00000000
01000000
00000000
10010000
00000000
00000000
,
01000000
00000000
01000000
00100000
00000000
00000000
10000000
00000000
10000000
01000000
00000000
01000000
,
00010000
00000000
00010000
00001000
00000000
00000100
00000010
00000000
00000000
00000001
00000000
00000000
,
00000101
00001000
00001100
00000001
,
00000100
00000000
00000000
00001000
00000000
00010000
00000000
00001000
00000000
00011000
00000000
00000000
,
00000000
00000000
00000000
00000000
,
00000000
00000000
00000000
00000000
,
00000000
00000000
00000000
00000000
,
00000000
00000000
00000000
00000000
00000000
00000000
00010000
01000000
,
00100000
10000000
01000000
00100000
01000000
10000000
00100000
01000000
,
00010000
00100000
00001000
00010000
00000100
00010000
00001000
00100000
,
00001000
00000000
00010000
00000000
00000100
00000000
00000010
00000000
00000001
00000000
00000100
00000000
00000010
00000000
00001000
00000100
,
00001000
00000000
00000001
00000000
00000100
00000010
00000100
00000000
00000020
00000000
00000000
00000000
00000000
00000000
00000000
00000000
,
00001030
00000100
00010000
00001000
00010000
00001000
00100000
00010000
,
00100000
01000000
00100000
01000000
00100000
10000000
00100000
01000000
,
00010000
10000000
01000000
00100000
01000000
00010000
00100000
00001000
,
00010000
00001000
00000100
00000010
00001000
00000100
00010000
00000010
,
00001000
00000100
00010000
00000010
00001000
00000100
00000010
00000001
,
00000100
00000010
00001000
00000100
00010000
00001000
01000000
00010000
,
00100000
00000000
01000000
00100000
01000000
00000000
10000000
00000000
00010000
01000000
00010000
00000000
01000000
00000000
00100000
00000000
,
02200000
00000000
00000000
03300000
,
11000000
00000000
10000000
01000000
00010000
00001000
00000100
00000000
,
00001001
00000000
00000001
00000100
00001000
00010000
01000000
00000000
,
00100000
01000000
10000000
00100000
01000000
00010000
00100000
00001000
,
00100000
00000000
00010000
00000000
01000000
00000000
00001000
00000000
00010000
00001000
00010000
00000000
00002000
00000000
00003000
00000000
,
00010000
00010000
00001000
00001000
00000100
00000010
00000001
00001000
,
00000010
00000010
00000100
00000100
00000001
00000100
00001000
00010000
,
00100000
00000000
00010000
10000000
00010000
00000000
01000000
00000000
00100000
10000000
00100000
00000000
01000000
00000000
00010000
00000000
,
00002000
00000000
00000000
00000000
00000000
00000000
00000000
00000000
00023000
00030000
00000000
00000000
00002000
00003000
00000000
00000000
00000100
00000000
00000000
00000000
00000001
00000000
00000000
00000000
00001000
00000000
00000000
00000000
00000000
00000000
00000000
00000000
,
00002002
00000000
00000000
00000000
,
00000000
00000000
00000000
00000000
,
00003003
00000000
00000000
00000000
;

//--------------- dance-double - Fred-104 ----------------
#NOTES:
     dance-double:
     Fred-104:
     Hard:
     17:
     :
00000000
00000000
00000000
00000000
,
00000000
00000000
00000000
00000000
,
00000000
00000000
00000000
00000000
,
00000000
00000000
00000000
00000000
,
00000000
00000000
00000000
00000000
,
00000000
00000000
00000000
00000000
,
00000000
00000000
00000000
00000000
,
00000000
00000000
00000000
00000000
,
00000000
00000000
00000000
00000000
,
00000110
00000000
00000001
00000000
00000100
00000000
00000010
00001000
,
00010000
00000000
00100000
00000000
01000000
00000000
00010000
00100000
,
00001000
00000000
00010000
00000000
00001000
00000000
00000010
00001000
,
00010000
00000000
01000000
00000000
00010000
00000000
00001000
00010000
,
00000100
00001000
00000100
00001000
00000010
00000100
00000001
00000100
,
00000010
00001000
00000100
00010000
00001000
00100000
00010000
01000000
,
00100000
10000000
00100000
00000000
01000000
00010000
01000000
00000000
00001000
00010000
00001000
00000000
00010000
00000100
00010000
00000000
,
00002000
00000000
00000000
00000000
00000000
00000000
00000000
00000000
00000000
00000000
00000000
00000000
00000000
00000000
00000000
00000000
00003020
00000030
00000000
00000000
00000200
00000300
00000000
00000000
00000020
00000030
00000000
00000000
00000200
00000300
00000000
00000000
00000001
00000000
00000000
00000000
00000000
00000000
00000000
00000000
00001000
00000000
00000000
00000000
00000001
00000000
00000000
00000000
00000200
00000000
00000000
00000000
00000000
00000000
00000000
00000000
00000000
00000000
00000000
00000000
00000000
00000000
00000000
00000000
,
00000301
00000100
00000001
00000000
00000100
00000010
00000100
00000000
00000010
00001000
00000010
00000000
00010000
00001000
00010000
00000000
,
00001000
00100000
00001000
00000000
01000000
00010000
01000000
00000000
00010000
10000000
00010000
00000000
10010000
00000000
00000000
00000000
,
01100000
00000000
00000000
00000000
10000000
00100000
10000000
00000000
00100000
01000000
00100000
00000000
00010000
00001000
00010000
00000000
,
00000100
00001000
00000100
00000000
00000010
00000100
00000010
00000000
00000200
00000000
00001000
00000010
00000300
00000000
00000001
00000000
,
00002002
00000000
00000000
00000000
00000000
00000000
00003003
00000000
00000010
00000100
00000010
00000000
00001000
00000100
00001000
00000000
,
00000001
00000100
00000001
00000000
00001000
00000010
00001000
00000000
00000100
00010000
00000100
00000000
00010000
00001000
00010000
00001000
,
00100000
00010000
00100000
01000000
00200000
00000000
00000000
00000000
00000000
00000000
00000000
00000000
01300000
00100000
01000000
00000000
,
00010000
10000000
00010000
00000000
10000000
01000000
10000000
00000000
00010000
01000000
00010000
00000000
00001000
00010000
00001000
00000000
,
00000200
00000000
00000010
00000001
00000300
00000000
00000010
00000000
00000200
00000000
00000000
00000000
00000000
00000000
00000000
00000000
,
00000310
00001000
00000010
00001000
00000100
00000000
00010000
00000000
00001000
00000000
00100000
00000000
00010000
01000000
00010000
01000000
,
00010000
00000000
10000000
01000000
10000000
00100000
01000000
00010000
10000000
00000000
01000000
00000000
00100000
01000000
00100000
00000000
,
00010000
00100000
00010000
00000000
00001000
00010000
00000000
00010000
00001000
00000000
00000100
00000000
00000010
00000100
00000010
00000000
,
00001000
00000001
00001000
00000000
00000001
00000100
00000000
00000100
00000010
00000000
00001000
00000000
00000100
00010000
00000100
00000000
,
00010000
00001000
00010000
00000000
00001000
00100000
00000000
00100000
00010000
00000000
01000000
00000000
01100000
00000000
00000000
00000000
,
10000000
00100000
10000000
00000000
00010000
00100000
00010000
00100000
00000000
00001000
00010000
00000000
00000010
00000000
00001000
00000010
,
00001000
00000000
00000001
00000100
00000001
00000100
00000010
00000000
00001000
00000000
00000100
00000000
00000010
00000000
00001000
00000100
,
00001000
00000000
00000100
00010000
00001000
00010000
00000000
00001000
01000000
00000000
00100000
00000000
00010000
01000000
00010000
01000000
,
00100000
10000000
00100000
10000000
01000000
00100000
01000000
00100000
00010000
00001000
00010000
00001000
00000100
00000000
00000000
00000000
,
00000000
00000000
00000000
00000000
00000010
00000000
00000000
00000010
00000000
00000000
00000100
00000000
00001001
00000000
00000000
00000000
,
00000000
00000000
00000000
00000000
,
00000000
00000000
00000000
00000000
,
00000000
00000000
00000000
00000000
,
00000000
00000000
00000000
00000000
00000000
00000000
00000000
00000000
00000000
00001000
00010000
00100000
,
00010000
00001000
00000010
00010000
00001000
00100000
00001000
00010000
00001000
00020000
00000000
00000000
,
00000100
00000000
00000000
01000000
00000000
00000000
00030100
00000000
00000000
00011000
00000000
00010000
,
01000000
00010000
01000000
10000000
00000000
00000000
10010000
00000000
00000000
11000000
00000000
01000000
,
00100000
00010000
00100000
00001000
00000000
00000000
00011000
00000000
00000000
00001010
00000000
00000000
,
00001000
00000100
00000010
00000001
00000000
00000000
00000101
00000000
00000010
00001000
00000000
00000000
,
00000100
00000000
00010000
00001000
00000000
00001000
00100000
00000000
00100000
01000000
00000000
00000000
,
01100000
00000000
10000000
00010000
00000000
00000000
01100000
00000000
00010000
10000000
00000000
10000000
,
01000000
00000000
01000000
00100000
00001000
00010000
00001000
00010000
00000100
00001000
00000000
00000000
,
00001010
00000000
00000010
00000100
00000000
00000000
00000011
00000000
00000010
00000100
00000000
00000000
,
00001100
00000000
00000100
00000010
00000000
00000100
00000001
00000000
00000100
00000010
00000000
00000000
,
00000001
00000100
00001000
00010000
00000000
00000000
00001000
00010000
00001000
00010000
00000000
00000000
,
00001000
00010000
01000000
10000000
00000000
00100000
00000000
01000000
00000000
10010000
00000000
00000000
,
01000000
00100000
01000000
00010000
00100000
00001000
00010000
00000000
00010000
00001000
00000100
00000010
,
00000001
00000100
00000010
00001000
00000100
00010000
00001000
01000000
00010000
00100000
01000000
10000000
,
00010000
01000000
00100000
10000000
01000000
00010000
01000000
10000000
00100000
01000000
00000000
00000000
,
10010000
00000000
00000000
01010000
00000000
00011000
00000000
00001100
00000000
00000110
00000000
00000000
,
00000100
00000010
00000100
00000010
00000000
00000001
00001000
00000000
00000000
00000010
00000100
00000010
,
00001000
00000100
00010000
00001000
00010000
00100000
01000000
00010000
00100000
00010000
00000000
00010000
,
00001000
00000000
00001000
00000010
00010000
00001000
00100000
01000000
00100000
00020000
00000000
00000000
,
00000000
00000000
00000000
00031000
00000000
00010000
00000000
01000000
00000000
10010000
00000000
00000000
,
00000000
00000000
00000000
00000000
,
00000000
00000000
00000000
00000000
,
00000000
00000000
00000000
00000000
,
00000000
00000000
00000000
00000000
00000000
00000000
00010000
01000000
,
00100000
00000000
10000000
01000000
00100000
00000000
01000000
00000000
10000000
00100000
01000000
00000000
00010000
00000000
00100000
00001000
,
00010000
00001000
00010000
00000000
00000100
00001000
00000100
00000000
00000010
00000001
00000010
00000000
00000001
00001000
00000001
00000000
,
00000100
00000000
00000010
00001000
00000010
00000000
00010000
00000000
00001000
00010000
00001000
00000000
00100000
00000000
00010000
10000000
,
01000000
00000000
00100000
00000000
00001000
00010000
00001000
00010000
00002000
00000000
00000000
00000000
00000000
00000000
00000000
00000000
,
00013000
00000000
00010000
00000000
00011000
00000000
00001000
00000100
00000010
00000000
00000001
00000000
00000100
00000010
00001000
00000000
,
00000001
00000000
00000010
00000100
00010000
00000000
00001000
00000000
00010000
00001000
00010000
00000000
00001000
00000000
00001000
00000000
,
00100000
00000000
00010000
01000000
00100000
00000000
10000000
00000000
01000000
00100000
01000000
00000000
10000000
00000000
00010000
01000000
,
00100000
00000000
01000000
00000000
00010000
00100000
00001000
00000000
00010000
00000000
00001000
00010000
00001000
00000000
00010000
00000000
,
00000010
00000000
00001000
00000000
00001010
00000000
00000100
00000010
00000100
00000000
00000001
00000000
00000100
00000010
00000100
00000000
,
00001000
00000000
00000001
00000100
00000001
00000000
00000100
00000000
00000010
00001000
00000010
00000000
00010000
00000000
00001000
00000000
,
00100000
00010000
00100000
00010000
10000000
00000000
01000000
10000000
01000000
10000000
00010000
00000000
10000000
01000000
00100000
00010000
,
00200000
00000000
00000000
00000000
00000000
00000000
00000000
00000000
00000000
00000000
00000000
00000000
00000000
00000000
00000000
00000000
00000000
00000000
00000000
00000000
00000000
00000000
00000000
00000000
00000000
00000000
00000000
00000000
00000000
00000000
00000000
00000000
00000000
00000000
00000000
00000000
00000000
00000000
00000000
00000000
00000000
00000000
00000000
00000000
00000000
00000000
00000000
00000000
00302000
00003000
00000000
00000000
00000000
00000000
00000000
00000000
00002000
00003000
00000000
00000000
00000000
00000000
00000000
00000000
,
00011000
00000000
00000000
00010000
00001000
00000000
00000100
00000000
00000010
00000000
00000001
00001000
00000001
00000000
00000100
00000000
,
00000110
00000000
00000000
00000100
00000010
00000000
00001000
00000000
00000001
00000010
00000100
00000000
00010000
00000000
00001000
00000000
,
00010000
00000000
00001000
00100000
00010000
00100000
00010000
00000000
10000000
00100000
01000000
00010000
10000000
00000000
01000000
00000000
,
00100000
00000000
00001000
00010000
00001000
00000000
00010000
00000000
00000100
00001000
00000100
00001000
00000200
00000000
00000000
00000300
,
00000110
00000000
00000010
00000000
00000011
00000000
00000001
00000000
00000100
00000000
00000010
00001000
00000010
00000000
00010000
00000000
,
00011000
00000000
00001000
00000000
00101000
00000000
00100000
00000000
00010000
00000000
10000000
00100000
01000000
00000000
00010000
00000000
,
10000000
01000000
10000000
01000000
00100000
00000000
00001000
00010000
00001000
00010000
00001000
00000000
00000100
00001000
00000001
00000100
,
00000020
00000000
00000000
00000000
00000000
00000000
00000000
00000000
00000000
00000000
00000000
00000000
00000000
00000000
00000000
00000000
00000230
00000300
00000000
00000000
00000020
00000030
00000000
00000000
00000200
00000300
00000000
00000000
00000020
00000030
00000000
00000000
00000100
00000000
00000000
00000000
00000000
00000000
00000000
00000000
00000001
00000000
00000000
00000000
00001000
00000000
00000000
00000000
00000100
00000000
00000000
00000000
00000000
00000000
00000000
00000000
00010000
00000000
00000000
00000000
00000000
00000000
00000000
00000000
,
00022000
00000000
00000000
00000000
,
00000000
00000000
00000000
00000000
,
00033000
00000000
00000000
00000000
;
