#TITLE:LOTUS;
#ARTIST:dj TAKA feat. Nana Takahashi;
#BANNER:LOTUS.png;
#BACKGROUND:LOTUS-bg.png;
#CDTITLE:./CDTitles/RB Reflesia.png;
#MUSIC:LOTUS.ogg;
#SAMPLESTART:61.779;
#SAMPLELENGTH:15;
#BPMS:0=160;
#BGSTAGE:3;

//--------------- dance-single - Fred-104 ----------------
#NOTES:
     dance-single:
     Fred-104:
     Beginner:
     2:
     :
0000
0000
0000
0000
,
0000
0000
0000
0000
,
0000
0000
0000
0000
,
0000
0000
0000
0000
,
0000
0000
0000
0000
,
1000
0000
0000
0000
,
0000
0000
0000
0000
,
0001
0000
0000
0000
,
0000
0000
0000
0000
,
1000
0000
0000
0000
,
0001
0000
0000
0000
,
0010
0000
0000
0000
,
0001
0000
0000
0000
,
1000
0000
0000
0000
,
0001
0000
0000
0000
,
1000
0000
0000
0000
,
0000
0000
0000
0000
,
0001
0000
0000
0000
,
1000
0000
0000
0000
,
0001
0000
0000
0000
,
0100
0000
0000
0000
,
0010
0000
0000
0000
,
0100
0000
0000
0000
,
0001
0000
0000
0000
,
1000
0000
0000
0000
,
0001
0000
0000
0000
,
0000
0000
0000
0000
,
1000
0000
0000
0000
,
0000
0000
0000
0000
,
0010
0000
0000
0000
,
0000
0000
0000
0000
,
1000
0000
0000
0000
,
0001
0000
0000
0000
,
1000
0000
0000
0000
,
1000
0000
0000
0000
,
0100
0000
0000
0000
,
0100
0000
0000
0000
,
0001
0000
0000
0000
,
0001
0000
0000
0000
,
0010
0000
0000
0000
,
1000
0000
0000
0000
,
0000
0000
0000
0000
,
0001
0000
0000
0000
,
1000
0000
0000
0000
,
0100
0000
0000
0000
,
1000
0000
0001
0000
,
1000
0000
0000
0000
,
0100
0000
0000
0000
,
1000
0000
0001
0000
,
1000
0000
0000
0000
,
0001
0000
1000
0000
,
0001
0000
0000
0000
,
0100
0000
0010
0000
,
0100
0000
0000
0000
,
0001
0000
0000
0000
,
1000
0000
0000
0000
,
0001
0000
1000
0000
,
0001
0000
0000
0000
,
1000
0000
0000
0000
,
0010
0000
0000
0000
,
0001
0000
0000
0000
,
0100
0000
0000
0000
,
1000
0000
0001
0000
,
1000
0000
0000
0000
,
0001
0000
0000
0000
,
0000
0000
0000
0000
,
1000
0000
0000
0000
,
0010
0000
0000
0000
,
0100
0000
0010
0000
,
0100
0000
0000
0000
,
0001
0000
1000
0000
,
0001
0000
0000
0000
,
1000
0000
0001
0000
,
1000
0000
0000
0000
,
1000
0000
0000
0000
,
0100
0000
0010
0010
,
0010
0000
0100
0000
,
1000
0000
0001
0000
,
1000
0000
0001
0000
,
0010
0010
0010
0000
,
0001
0000
1000
0000
,
0001
0000
0000
2002
,
3003
0000
0000
0000
;

//--------------- dance-single - Fred-104 ----------------
#NOTES:
     dance-single:
     Fred-104:
     Easy:
     6:
     :
0000
0000
0000
0000
,
0000
0000
0000
0000
,
0000
0000
0000
0000
,
0000
0000
0000
0000
,
0000
0000
0000
0000
,
2000
0000
0000
3000
,
0002
0000
0000
0003
,
1000
0100
0010
0001
,
1000
0001
2002
3003
,
0001
0000
0000
0001
0000
0000
0010
0000
,
0100
0000
0000
0100
0000
0000
1000
0000
,
0001
0000
0000
0001
0000
0000
0100
0000
,
0010
0000
0000
0010
0000
0000
1000
0000
,
0001
0000
0000
0010
0000
0000
0100
0000
,
0010
0000
0000
0001
0000
0000
1000
0000
,
0001
0000
0000
0100
0000
0000
0010
0000
,
2002
0000
0000
3003
0000
0000
0000
0000
,
1000
0100
0001
0100
,
2000
0000
3001
1000
,
0001
0100
0010
1000
,
0001
0010
0110
0000
,
1000
0010
1000
0100
,
0001
0100
1000
0000
,
0001
0100
0010
1000
,
0001
0000
0000
0110
0000
0000
1001
0000
,
2000
0000
3100
0010
,
0002
0000
2003
0000
,
3002
0000
0000
0000
,
1003
0100
0001
0010
,
2000
0000
3001
0010
,
0200
0000
2300
0000
,
3002
0000
0000
0000
,
1003
0010
0001
0100
,
1000
0001
0100
0010
,
1000
0000
0001
0010
,
0100
0000
1000
0001
,
1000
0001
1001
0000
,
1000
0100
0001
0000
,
1000
0010
0001
0000
,
1000
0001
0100
0010
,
0100
0000
0100
0000
0001
1000
0001
0000
,
1001
0000
0000
0000
,
2000
0000
3001
1000
,
0010
0100
0002
0003
,
2000
3000
0002
0003
,
0010
0100
1000
0001
,
0200
0300
0020
0030
,
0100
0001
1000
0000
,
0001
0100
0010
1000
,
1001
0000
0000
0110
0000
0000
0000
0000
,
0001
0010
1000
0010
,
0002
0003
2000
3000
,
0020
0030
0100
0001
,
2000
3000
0100
0010
,
0002
0003
1000
0010
,
0200
0300
0010
1000
,
0001
0010
0100
1000
,
0001
0100
0110
0000
,
2000
0000
3200
0000
,
0320
0000
0031
1000
,
0002
0000
2003
0000
,
3002
0000
0103
0010
,
0100
0100
0001
0001
,
1000
0000
0000
0100
0000
0000
0010
0000
,
0002
0000
2000
3003
,
2002
0000
0000
3003
0000
0000
0000
0000
,
2000
0000
3001
1000
,
0010
0100
0002
0000
,
2003
0000
3100
0010
,
0002
0003
1000
0001
,
0200
0300
0010
1000
,
0002
0003
0010
0100
,
1000
0001
0100
0010
,
0110
0000
0000
1001
0000
0000
2000
0000
,
3001
0100
1000
0100
,
0002
0000
1003
0001
,
1000
0100
0010
0001
,
1000
0010
0110
0000
,
0001
0010
0001
0100
,
1000
0100
0001
0000
,
1000
0100
0010
0001
,
1000
0000
0000
0110
0000
0000
2002
0000
,
3003
0000
0000
0000
;

//--------------- dance-single - Fred-104 ----------------
#NOTES:
     dance-single:
     Fred-104:
     Medium:
     11:
     :
0000
0000
0000
0000
,
0000
0000
0000
0000
,
0000
0000
0000
0000
,
0000
0000
0000
0000
,
0000
0000
0000
0000
,
1000
0100
0001
0010
,
1000
0010
0001
0100
,
1000
0000
0100
0000
0010
0000
0001
0000
1000
0000
0001
0100
0001
0000
1000
0000
,
0100
0010
2002
3003
,
0001
0010
0001
0010
0000
0100
1000
0000
,
0001
0100
0001
0100
0000
0010
1000
0000
,
0001
0010
0100
1000
0000
0001
1000
0000
,
0001
0100
0010
1000
0000
0001
1000
0000
,
0100
0010
0100
0010
0001
1000
0001
0000
,
0100
0010
0100
0010
1000
0010
0100
0000
,
0001
0010
0100
1000
0100
0010
0001
1000
,
2002
0000
0000
3003
0000
0000
0000
0000
,
0001
0010
0100
1000
0001
0100
0010
2000
,
0000
0000
0000
3100
0010
0001
1000
0000
,
0010
0100
0010
0000
1000
0001
0010
0000
,
0100
0000
1000
0000
0001
0000
0000
0001
0000
0000
0001
0000
0100
0000
0000
0000
,
0010
1000
0010
0000
0100
0001
1000
0000
,
0100
0010
0001
1000
0010
0100
0001
0000
,
1000
0100
1000
0100
0001
0100
0001
0100
,
1000
0000
0000
1100
0000
0000
0001
0000
0000
0101
0000
0000
1000
0000
0100
0000
,
0020
0000
0000
0000
0031
0001
1000
0020
,
0000
0130
0001
2000
0000
3100
0010
0001
,
2000
0000
0000
0000
0000
0000
3001
1000
,
0020
0000
0130
0010
1000
0100
0010
0001
,
2000
0000
0000
0000
3100
1000
0001
0200
,
0000
0310
1000
0200
0000
0310
0001
1000
,
0020
0000
0000
0000
0000
0000
0130
0001
,
1000
0100
0001
1000
0010
0001
1000
0000
,
0001
0010
0100
1000
0000
0010
0100
0001
,
1000
0000
0000
0100
0000
0000
0010
0000
0000
0000
0001
0000
1000
0000
0010
0000
,
0200
0000
0010
0000
0310
1000
0001
0010
,
0100
0000
0000
1000
0000
0000
0001
0000
0100
0000
1000
0000
0100
0000
0001
0000
,
1000
0000
0100
0001
1000
0010
0001
0010
,
0100
1000
0001
0000
0100
0001
1000
0001
,
0011
0000
0000
1010
0000
0000
0011
0000
0001
0000
1000
0000
0010
0000
0100
0000
,
0001
0000
0001
0000
0010
0000
0100
0000
1000
0000
1000
0000
0001
1000
0001
1000
,
0001
0000
0000
0000
,
0001
0000
0000
1000
0000
0000
0001
0000
0100
0000
0010
0000
1000
0000
0001
0000
,
0010
0200
1000
0000
0010
0000
1300
0000
,
1001
0000
0001
0100
1000
0001
0010
1000
,
0001
0000
0010
0000
0100
0010
0001
1000
,
0010
0000
0000
0100
0000
0000
0010
0000
1000
0000
0100
0000
1000
0000
0001
0000
,
0100
0000
0000
0010
0000
0000
2000
0000
0000
0000
3001
0000
0010
0000
0200
0000
,
0000
1300
0010
0100
0001
0010
0100
1000
,
0001
0000
0000
0100
0000
0000
0110
0000
0000
0000
0010
0000
1000
0000
0001
0000
,
0010
0100
0100
0010
0001
1000
0010
0002
,
0000
0013
0200
0000
0310
1000
0001
0010
,
0100
0000
1000
0100
0001
0100
1000
0001
,
0200
0000
0010
0000
0310
1000
0001
1000
,
0100
0000
0000
0010
0000
0000
0011
0000
0000
0000
0001
0000
1000
0000
0010
0000
,
0100
0000
0000
0001
0000
0000
1001
0000
0000
0000
1000
0000
0010
0000
0001
0000
,
0000
1000
0100
0001
0100
0010
1000
1000
,
0001
0000
0000
0100
0000
0000
0010
0000
0110
0000
0000
0000
1001
0000
0000
0000
,
0002
0000
1003
0100
,
0020
0000
0000
0000
0031
0000
1000
0002
,
0000
0103
0000
2000
0000
3010
0000
0002
,
0000
0000
0003
0000
1000
0001
1000
0001
,
1000
0000
0000
0001
0000
0000
0010
0000
0000
0000
0100
0000
0010
0000
0001
0000
,
1000
0100
0001
1000
0010
0100
1000
0000
,
0002
0000
2000
3003
,
2002
0000
0000
3003
0000
0000
0000
0000
,
0001
0000
0000
1000
0000
0000
0001
0000
0100
0000
0010
0000
1000
0000
0010
0000
,
0100
0001
1000
0100
0001
0100
1000
0001
,
0200
0000
0301
1000
0100
0010
0001
1000
,
0020
0000
0100
0000
0130
0010
1000
0001
,
0010
0000
0000
0100
0000
0000
1000
0000
0000
0000
0010
0000
1000
0000
0100
0000
,
0010
0000
0000
0001
0000
0000
0200
0000
0000
0000
0301
0000
1000
0000
0200
0000
,
0000
0301
0100
1000
0100
0010
0001
1000
,
1001
0000
0000
0110
0000
0000
1001
0000
0000
0000
0001
0000
1000
0000
0010
0000
,
1000
0010
0100
0001
1000
0100
0010
0002
,
0000
0000
0000
0103
0010
1000
0001
0000
,
0010
0100
0010
0000
0001
1000
0010
0000
,
0100
0000
0001
0000
1000
0000
0000
1000
0000
0000
1000
0000
0100
0000
0000
0000
,
0010
0001
0010
0000
0100
1000
0001
0000
,
0100
0010
1000
0001
0010
0100
1000
0000
,
0001
0100
0001
0100
1000
0100
1000
0100
,
0001
0000
0000
0101
0000
0000
1000
0000
0000
1100
0000
0000
2002
0000
0000
0000
,
3003
0000
0000
0000
;

//--------------- dance-single - Fred-104 ----------------
#NOTES:
     dance-single:
     Fred-104:
     Hard:
     15:
     :
0000
0000
0000
0000
,
0000
0000
0000
0000
,
0000
0000
0000
0000
,
0000
0000
0000
0000
,
0000
0000
0000
0000
,
0001
0010
0100
1000
,
0001
0000
0100
0010
1000
0001
0010
0100
,
1000
0000
0000
0001
0000
0000
0100
0000
0000
0010
0000
0000
0100
0000
0000
0001
1000
0001
1000
0000
0000
0100
0000
0000
,
0010
0000
0000
0010
0001
0000
0000
0000
2002
0000
0000
0000
3003
0000
0000
0000
,
1000
0010
0001
1000
0100
0010
1000
0100
,
0010
0001
0100
0010
0001
1000
0100
0010
,
1000
0001
0010
1000
0001
0100
0010
0001
,
1000
0000
0100
0000
0001
0000
1000
0000
0010
0000
0100
0000
1000
0001
0100
0001
,
1000
0000
0100
0010
0100
0000
1000
0000
0001
0100
0010
0000
1000
0000
0001
0000
,
0010
0000
0100
1000
0100
0000
0010
0000
0001
1000
0010
0000
0100
0000
0001
0000
,
1000
0100
0001
1000
0010
0001
0010
0100
,
2002
0000
0000
0000
0000
0000
3003
0000
0000
0000
1000
0000
0100
0010
0001
0000
,
1000
0010
1000
0010
1000
0000
0001
0010
0100
1000
0001
0000
0100
0000
0020
0000
,
0000
0000
0000
0000
0000
0000
0130
0001
1000
0000
0001
0010
0100
0000
1000
0000
,
0001
0100
0001
0000
1000
0100
1000
0000
0001
0010
0001
0000
1000
0010
1000
0000
,
0001
0010
0001
0010
0100
0000
1000
0001
0000
0100
0001
0000
1000
0100
1000
0100
,
0010
0000
0001
1000
0010
0000
1000
0001
0010
0000
0100
0000
0010
0001
1000
0000
,
0010
0000
0100
0001
1000
0001
0010
0000
0100
1000
0100
1000
0001
0100
0001
0000
,
1000
0000
0100
0010
0001
0000
1000
0010
0100
0000
0001
1000
0100
0010
0001
0000
,
0011
0000
0000
1010
0000
0000
0101
0000
0000
1100
0000
0000
1001
0000
1000
0000
,
0200
0000
0010
0000
0310
0001
1000
0020
,
0000
1030
0001
0020
0000
0130
1000
0010
,
0200
0000
0001
0000
1000
0000
0310
1000
,
0001
0000
1000
0100
0001
0100
0010
0100
,
2000
0000
0010
0000
3001
1000
0100
0020
,
0000
0031
1000
0020
0000
0130
0001
1000
,
0002
0000
0100
0000
1000
0000
0013
0100
,
1000
0001
0100
0010
1000
0010
0100
0001
,
1000
0100
0001
1000
0010
0100
1000
0010
,
0100
0000
0000
0001
0000
0000
2000
0000
0000
0000
3100
0010
0001
0000
1000
0000
,
0002
0000
1000
0000
0013
0001
0100
0010
,
1000
0000
0000
0100
0000
0000
0001
0000
0100
0000
0010
0000
0001
0000
1000
0000
,
0010
0000
0100
0000
0001
0000
0010
0100
0010
0000
0001
0000
1000
0000
0010
0100
,
0010
1000
0001
0000
0010
0100
1000
0001
,
0101
0000
0000
1100
0000
0000
0110
0000
1000
0001
1000
0000
0100
0010
0001
0000
,
1000
0010
0000
0100
0001
0000
1000
0000
0001
0000
0001
0000
1000
0100
0010
0001
,
1000
0000
0000
0000
,
0001
0000
0000
1000
0000
0000
0001
0000
0010
0000
0100
1000
0001
0000
0100
0000
,
0010
0000
1000
0001
0010
0000
0100
0000
0010
0000
0001
1000
0010
0000
0100
0000
,
0101
0000
0000
0000
1000
0000
0001
0100
0010
0000
0100
0010
0001
0000
0010
0000
,
1000
0000
0001
0000
0010
0000
0100
0000
1000
0001
0100
0001
1000
0000
0100
0000
,
0010
0000
0000
0001
0000
0000
1000
0000
0010
0000
0100
0001
0010
0000
0100
0000
,
0010
0000
0000
0001
0000
0000
1000
0000
0001
0000
1000
0010
0100
0000
0010
0000
,
1000
0000
0001
0010
0100
0000
0010
1000
0010
0000
0001
0000
1000
0000
0010
0000
,
0110
0000
0000
0101
0000
0000
1001
0000
0000
0000
1000
0000
0001
1000
0010
0000
,
0210
0300
0001
0000
1000
0000
0100
0000
0010
0000
0001
1000
0010
0000
1000
0000
,
0001
0020
1000
0000
0100
0000
0031
1000
,
0200
0000
0000
0000
0310
0000
0001
0000
1000
0000
0010
0100
0001
0000
1000
0000
,
0200
0000
0000
0000
0010
0000
0000
0000
1300
0001
1000
0010
0100
0000
0001
0000
,
1001
0000
0000
1000
0000
0000
0001
0000
1000
0000
0010
1000
0100
0000
1000
0000
,
0011
0000
0000
0010
0000
0000
0100
0000
0010
0000
0001
1000
0010
0000
0100
0000
,
0001
0000
1000
0100
0010
0000
0001
0010
0100
0000
1000
0000
0001
1000
0001
1000
,
0001
0000
0000
1100
0000
0000
0101
0000
0110
0000
0000
0000
1001
0000
0000
0000
,
2000
0000
0100
0000
3100
0010
0001
1000
,
0020
0000
0000
0000
0130
0000
0001
1000
0100
0000
0010
0100
1000
0000
0002
0000
,
0000
1003
0100
0002
0000
1003
0010
0001
,
1000
0000
0001
0000
0010
0000
0100
0000
1000
0001
0100
0000
0010
0100
0001
0000
,
0010
0000
0000
0100
0000
0000
1000
0000
0001
0000
0100
0010
0100
0000
0001
0000
,
1000
0010
0001
1000
0100
0010
1000
0001
,
0020
0000
0230
1300
,
2002
0000
3003
0001
0000
1000
0001
0100
,
0010
0000
0000
1000
0000
0000
0100
0000
0010
0000
0001
0010
0100
0000
2000
0000
,
0000
3001
0100
1000
0001
0010
0100
0001
,
2000
0000
0000
0000
3100
0000
0010
0000
0001
0000
0100
0010
0001
0000
0010
0000
,
2000
0000
0001
0000
3001
0010
0100
1000
,
1002
0003
0000
1000
0000
0000
0010
0000
0100
0000
0010
1000
0001
0000
0010
0000
,
0100
0000
0000
1000
0000
0000
0001
0000
0100
0000
0001
0000
1000
0000
0100
0010
,
0001
0000
0100
0010
0001
0000
0010
0100
0001
0000
1000
0000
0100
0000
0010
0000
,
0011
0000
0000
1010
0000
0000
0101
0000
0000
0000
2000
0000
3002
0000
0023
0000
,
0031
1000
0100
1000
0001
0000
1000
0100
0010
0001
0010
0000
0100
0000
2000
0000
,
0000
0000
0000
0000
0000
0000
3001
1000
0010
0000
0100
0001
1000
0100
0010
0000
,
0001
0000
0010
0100
0010
0100
1000
0000
0001
0100
0010
1000
0010
0100
0001
0000
,
0010
0100
1000
0100
0010
0000
0001
1000
0000
0010
0100
0000
0001
1000
0100
0000
,
0010
0000
0100
1000
0001
0000
0100
0001
1000
0001
0010
0000
0100
1000
0001
1000
,
0010
0000
0100
0001
1000
0100
0010
0000
0001
0010
0100
1000
0001
0100
0010
0000
,
1000
0001
1000
0001
0010
0100
0010
0100
1000
0001
0100
0010
1000
0010
0100
0000
,
0101
0000
0000
1010
0000
0000
0011
0000
0000
1100
0000
0000
2002
0000
0000
0000
,
3003
0000
0000
0000
;

//--------------- dance-single - Fred-104† ----------------
#NOTES:
     dance-single:
     Fred-104†:
     Challenge:
     17:
     :
0000
0000
0000
0000
,
0000
0000
0000
0000
,
0000
0000
0000
0000
,
0000
0000
0000
0000
,
0000
0000
0000
0000
,
2000
0000
0000
0000
0000
0000
3001
0002
,
0000
0000
0000
0000
,
0103
0000
0000
0010
0000
0000
0100
0000
0000
0001
0000
0000
1000
0000
0000
0001
0010
0001
0010
0000
0000
0100
0000
0000
,
1000
0100
1000
0100
1000
0000
0000
0000
2002
0000
0000
0000
3003
0000
0000
0000
,
1000
0010
0100
0000
0001
0000
1000
0100
0010
0000
0001
0000
1000
0001
0100
0000
,
0001
1000
0010
0000
0100
0000
0001
0100
0010
0000
1000
0000
0001
0010
0100
0000
,
1000
0001
0010
0000
0001
0000
1000
0010
0100
0000
0010
0000
1000
0001
0010
0000
,
0100
0010
0001
0000
1000
0000
0001
1000
0010
0000
0100
0000
0001
1000
0001
1000
,
0001
0100
0001
1000
0100
0000
1000
0001
0010
0100
0010
0000
0001
1000
0010
0000
,
0100
0001
1000
0100
0010
0000
0001
1000
0010
1000
0001
0000
0100
0010
1000
0000
,
0001
0010
0001
1000
0010
1000
0001
0100
0001
1000
0100
1000
0001
0100
0010
1000
,
0002
0000
0000
0000
0000
0000
0203
0000
0000
0000
1300
0000
0100
0010
1000
0000
,
0001
0010
0100
1000
0001
0000
0100
0010
1000
0001
0010
0001
1000
0000
0020
0000
,
0000
0000
0000
0000
0000
0000
0000
0000
0000
0000
0000
0000
0000
0000
0000
0000
0000
0000
1030
0000
0001
0000
1000
0000
0100
0000
0000
0000
0000
0000
0010
0000
0000
0100
0000
0000
1000
0000
0000
0001
0000
0000
0100
0000
0000
0010
0000
0000
,
1000
0001
0010
0001
1000
0001
0100
0001
1000
0100
0010
0001
0010
0100
1000
0001
,
0100
0010
1000
0010
0100
0000
0001
0010
0000
0100
1000
0000
0100
0010
0001
1000
,
0001
0100
0010
1000
0010
0100
0001
0000
1000
0000
0100
0010
0001
1000
0001
0100
,
0010
0000
1000
0100
0010
0001
1000
0000
0010
0100
1000
0100
0010
0100
0001
0000
,
1000
0001
0010
0100
1000
0100
0010
0001
0100
0010
1000
0010
0100
0001
1000
0001
,
0010
0000
0000
0011
0000
0000
1010
0000
0000
1100
0000
0000
0101
0000
1001
0000
,
0002
0000
0100
0000
1003
0001
0010
0200
,
0000
1300
0010
0200
0000
0301
1000
0100
,
0020
0000
0001
0000
1000
0000
0031
0010
,
0200
0000
1300
0010
0001
1000
0100
0010
,
2000
0000
0001
0000
3100
1000
0001
0020
,
0000
0031
0010
2000
0000
3001
0100
1000
,
0002
0000
0100
0000
1000
0000
0013
0100
,
1000
0001
0000
0100
0010
0000
1000
0000
0001
0010
0100
1000
0001
0100
0010
1000
,
0001
0000
0100
1000
0100
0000
0001
0000
0010
0000
1000
0010
0001
0000
1000
0000
,
0001
0100
0000
0010
1000
0000
0002
0000
0000
0000
1003
0000
0100
0000
0010
0000
,
0001
0000
1000
0001
0010
0000
0100
0000
0010
0000
0001
0100
0010
0000
1000
0000
,
0001
0010
0000
0100
1000
0000
0001
0000
0100
0010
0100
0000
0001
0000
1000
0000
,
0010
0000
1000
0100
0010
0000
0001
0000
0010
0000
1000
0000
0010
0000
0002
0000
,
0000
0000
1003
0000
0001
0000
0100
0010
1000
0000
0001
0000
0010
0100
1000
0000
,
1010
0000
0000
0101
0000
0000
1100
0000
1000
0001
1000
0000
0001
0010
0100
1000
,
0001
0100
0010
1000
0100
0000
0010
0000
1000
0000
0010
0000
0001
0100
1000
0100
,
0010
0000
0000
0000
,
1001
0000
0001
0100
0000
0010
0100
0000
0001
1000
0010
1000
0001
0010
0100
0000
,
1000
0000
0010
0100
1000
0000
0001
0000
0010
0100
0001
0000
1000
0000
0100
0010
,
0001
0000
0100
0000
1000
0000
0001
0010
1000
0000
0001
0010
1000
0000
0010
0000
,
0100
0000
1000
0000
0001
0000
0010
0000
0100
1000
0001
0100
0010
1000
0100
0010
,
0001
0000
0100
0001
0000
1000
0001
0000
0010
0100
1000
0001
0100
0010
1000
0000
,
0001
0000
0100
0010
0000
1000
0010
0000
0100
0001
0010
0100
0010
0001
1000
0000
,
0001
0000
0100
1000
0001
0000
0010
0100
0001
0000
0010
0000
0100
0000
0010
0000
,
0011
0000
0000
1010
0000
0000
0101
0000
0000
0000
0100
0000
0010
1000
0001
1000
,
0100
0000
1000
0001
0010
0000
0100
0010
0001
1000
0010
0000
0001
0010
0100
0000
,
0001
0000
1000
0010
0100
0000
1000
0000
0001
0010
1000
0000
0001
0000
0010
0000
,
0002
0000
0100
0000
0103
0000
0001
1000
0010
0000
0100
0001
1000
0001
0010
0000
,
0200
0000
1000
0000
1000
0000
1300
0000
0001
1000
0010
1000
0001
0100
0010
1000
,
0001
0010
0000
0010
1000
0000
0100
0000
0010
0000
0001
0010
0100
0000
1000
0000
,
0001
0100
0000
0100
1000
0000
0010
0000
0100
0000
0001
0000
1000
0000
1000
0100
,
0001
0000
0001
0100
1000
0000
0001
0000
0100
0010
1000
0001
0010
0100
1000
0010
,
0100
0000
0000
0101
0000
0000
1100
0000
0110
0000
0000
0000
0001
0000
1000
0000
,
0002
0000
0010
0000
1003
0001
0100
0010
,
2000
0000
0000
0000
3001
0000
0010
0100
1000
0001
0100
0010
1000
0100
0020
0000
,
0000
0031
0010
2000
0000
3010
0001
0100
,
0010
0000
1000
0000
0010
0000
0100
0000
0001
1000
0100
0010
0001
1000
0010
0100
,
0001
0000
1000
0100
0000
0100
0001
0000
0010
0000
0100
0010
0001
0000
1000
0000
,
0010
0000
1000
0100
0010
0000
0001
0000
0100
0010
1000
0000
0001
0000
0010
0000
,
0200
0000
2300
3000
,
2002
0000
3003
2000
0000
3020
0230
0302
,
1003
0000
0000
0001
0000
0000
0010
0000
0100
1000
0001
0100
0010
1000
0002
0000
,
0000
0103
0010
0001
1000
0100
0010
1000
,
0001
0000
0000
0000
0010
0000
0100
1000
0010
0000
0100
0001
1000
0000
0100
0000
,
0010
0001
1000
0001
0100
0100
0010
0010
,
1000
0000
0000
0001
0000
0000
0010
0000
0100
0000
0010
0001
1000
0020
0100
0000
,
1030
0000
0000
0100
0000
0000
0010
0000
0001
0000
1000
0000
0010
0000
0100
0001
,
1000
0000
0100
0010
0001
0000
1000
0010
0100
0000
0001
0100
0010
2000
0001
0000
,
3100
0000
0000
0110
0000
0000
0011
0000
0000
0000
0001
0000
1000
0010
1000
0010
,
0100
0001
1000
0001
0010
0000
0100
1000
0001
0100
0010
1000
0010
0000
0200
0000
,
0001
0000
0000
0000
0000
0000
0010
0000
0000
0000
0000
0000
0301
0000
0000
0000
0000
0000
1000
0000
0100
0000
1000
0000
0100
0000
0000
0000
0000
0000
0010
0000
0000
0100
0000
0000
1000
0000
0000
0001
0000
0000
0100
0000
0000
0010
0000
0000
,
1000
0001
0010
0100
1000
0100
0010
0001
1000
0010
0100
0001
1000
0001
0100
0010
,
1000
0100
0001
0100
1000
0000
0001
0100
0000
0100
1000
0000
0001
0100
0010
1000
,
0001
0010
0100
0010
0001
0000
1000
0001
0100
0010
1000
0001
0010
0100
0010
0001
,
1000
0000
0001
0100
1000
0100
0001
0000
1000
0100
0001
0100
1000
0100
0010
0000
,
0001
1000
0010
1000
0001
1000
0100
1000
0001
0100
0010
1000
0001
0010
0100
1000
,
0001
0000
0100
1000
0000
0001
0010
0000
1000
0001
0000
0010
0220
0000
0000
0000
,
0330
0000
0000
0000
;

//--------------- dance-double - Fred-104 ----------------
#NOTES:
     dance-double:
     Fred-104:
     Easy:
     6:
     :
00000000
00000000
00000000
00000000
,
00000000
00000000
00000000
00000000
,
00000000
00000000
00000000
00000000
,
00000000
00000000
00000000
00000000
,
00000000
00000000
00000000
00000000
,
00000002
00000000
00000000
00000003
,
00002000
00000000
00000000
00003000
,
00000001
00000100
00001000
00010000
,
00001000
00010000
00022000
00033000
,
00001000
00000000
00000000
00010000
00000000
00000000
00100000
00000000
,
01000000
00000000
00000000
00010000
00000000
00000000
10000000
00000000
,
01000000
00000000
00000000
00100000
00000000
00000000
00010000
00000000
,
00100000
00000000
00000000
00001000
00000000
00000000
00010000
00000000
,
00001000
00000000
00000000
00010000
00000000
00000000
00000010
00000000
,
00001000
00000000
00000000
00000001
00000000
00000000
00000010
00000000
,
00000100
00000000
00000000
00001000
00000000
00000000
00000001
00000000
,
00002002
00000000
00000000
00003003
00000000
00000000
00000000
00000000
,
00000001
00001000
00000001
00001000
,
00000200
00000000
00010300
00001000
,
00010000
00001000
01000000
00000000
,
00010000
10000000
10010000
00000000
,
10000000
01000000
00010000
01000000
,
10000000
01000000
00100000
00000000
,
00001000
00010000
00001000
01000000
,
00001000
00000000
00000000
00011000
00000000
00000000
00011000
00000000
,
00002000
00000000
01003000
00001000
,
00020000
00000000
00030200
00000000
,
00002300
00000000
00000000
00003000
,
00000001
00000010
00001000
00010000
,
00002000
00000000
00023000
00000000
,
00031000
00010000
00100000
01000000
,
00020000
00000000
20030000
00000000
,
31000000
00100000
00001000
00010000
,
00001000
00000000
00000000
00010000
00000000
00000000
00000100
00000000
,
00001000
00000000
00000000
00000001
00000000
00000000
00000010
00000000
,
00000200
00000000
00010300
00001000
,
00010000
00000000
00000000
00001000
00000000
00000000
00010000
00000000
,
00011000
00000000
00001000
00000000
,
00010000
00100000
10000000
00000000
,
00010000
00000000
10000000
00000000
,
01000000
00100000
00001000
00010000
,
00011000
00000000
00000000
00000000
,
00020000
00000000
00031000
00010000
,
00000010
00001000
00000002
00000000
,
00000023
00000030
00000100
00010000
,
00002000
00003000
00010000
00001000
,
01000000
00000000
00010000
00000000
,
10000000
01000000
00100000
00000000
,
00001000
00001000
00010000
00010000
,
00011000
00000000
00000000
00011000
00000000
00000000
00010000
00000000
,
00000200
00000000
00001300
00000001
,
00000200
00000000
00001300
00010000
,
00002000
00000000
00013000
01000000
,
20000000
00000000
30010000
10000000
,
00200000
00300000
02000000
03000000
,
00010000
10000000
02000000
03000000
,
00100000
00001000
00100000
00001000
,
00010000
00001000
00011000
00000000
,
00002000
00000000
00023000
00000000
,
00032000
00000000
02003000
00000000
,
03020000
00000000
10030000
01000000
,
00200000
00000000
00301000
00010000
,
00001000
00010000
00000100
00001000
,
00000001
00000000
00000000
00000100
00000000
00000000
00001000
00000000
,
00020000
00000000
00032000
00003000
,
00022000
00000000
00000000
00033000
00000000
00000000
00000000
00000000
,
00002000
00000000
01003000
00010000
,
10000000
01000000
00020000
00000000
,
00032000
00000000
00013000
00001000
,
00000020
00000000
00000031
00000010
,
00000200
00000300
00010000
00001000
,
00020000
00030000
00001000
00010000
,
01000000
10000000
01000000
00100000
,
10010000
00000000
00000000
01100000
00000000
00000000
00020000
00000000
,
10030000
00010000
10000000
00010000
,
02000000
00000000
03001000
00010000
,
00001000
00010000
00000100
00000000
,
00001000
00000001
00001001
00000000
,
00000001
00000100
00001000
00000100
,
00000001
00000100
00000010
00000000
,
00010000
00001000
00010000
00000100
,
00010000
00000000
00000000
00011000
00000000
00000000
00022000
00000000
,
00033000
00000000
00000000
00000000
;

//--------------- dance-double - Fred-104 ----------------
#NOTES:
     dance-double:
     Fred-104:
     Medium:
     11:
     :
00000000
00000000
00000000
00000000
,
00000000
00000000
00000000
00000000
,
00000000
00000000
00000000
00000000
,
00000000
00000000
00000000
00000000
,
00000000
00000000
00000000
00000000
,
10000000
01000000
00010000
00001000
,
00000010
00000001
00000100
00001000
,
00010000
00000000
00001000
00000000
00100000
00000000
00001000
00000000
00010000
00000000
00000100
00001000
00000100
00000000
00010000
00000000
,
00001000
01000000
02200000
03300000
,
10000000
00100000
00010000
00001000
00000010
00000001
00001000
00000000
,
00000001
00000010
00001000
00010000
00100000
10000000
00010000
00000000
,
10000000
01000000
00010000
00001000
00000100
00000001
00001000
00000000
,
00000001
00000100
00001000
00010000
01000000
10000000
00010000
00000000
,
10000000
01000000
00100000
00001000
00010000
00001000
00010000
00000000
,
00001000
00010000
00000010
00001000
00000001
00001000
00000100
00000000
,
00000010
00000001
00000100
00001000
00010000
00001000
00010000
00000000
,
00022000
00000000
00000000
00033000
00000000
00000000
00000000
00000000
,
00001000
00010000
00100000
10000000
00010000
00100000
01000000
20000000
,
00000000
00000000
00000000
31000000
00010000
00001000
00010000
00000000
,
00001000
00010000
00000010
00000000
00001000
00000100
00000010
00000000
,
00000001
00000000
00000100
00000000
00000010
00000000
00000000
00000010
00000000
00000000
00000010
00000000
00001000
00000000
00000000
00000000
,
00000001
00000100
00001000
00000000
00010000
00100000
01000000
00000000
,
00010000
01000000
10000000
01000000
00100000
10000000
00010000
00000000
,
10000000
01000000
00100000
00001000
00010000
00000100
00000010
00000001
,
00001000
00000000
00000000
00010010
00000000
00000000
00010000
00000000
00000000
01001000
00000000
00000000
00010000
00000000
00001000
00000000
,
00020000
00000000
00032000
00000000
00013000
00001000
00000010
00000002
,
00000000
00001003
00000001
00000200
00000000
00000310
00010000
00001000
,
02000000
00000000
03020000
00000000
10030000
01000000
00100000
00001000
,
00020000
00000000
00031000
00010000
01000000
00010000
00001000
00010000
,
00002000
00000000
00023000
00000000
00031000
00000100
00000010
00001000
,
00000002
00000000
00000103
00000002
00000000
00001003
00000100
00010000
,
00002000
00000000
00023000
00000000
00031000
01000000
00010000
10000000
,
01000000
00100000
00001000
00010000
00100000
10000000
00010000
00000000
,
10000000
01000000
00010000
00002000
00000000
00013000
00001000
00000100
,
00000010
00000000
00000000
00001000
00000000
00000000
00000002
00000000
00000000
00000000
00000013
00000000
00000100
00000000
00000010
00000000
,
00000002
00000000
00001003
00000010
00000100
00001000
00010000
00100000
,
10000000
00000000
00000000
01000000
00000000
00000000
00100000
00000000
00001000
00000000
00010000
00000000
00011000
00000000
00000000
00000000
,
00010000
00001000
00000100
00000001
00001000
00000100
00000010
00000001
,
00000100
00001000
00010000
00000000
00001000
00010000
00100000
10000000
,
10010000
00000000
00000000
11000000
00000000
00000000
01100000
00000000
00100000
00000000
00001000
00000000
00010000
00000000
00001000
00000000
,
00000100
00000000
00000001
00000000
00001000
00000000
00000100
00000000
00010000
00000000
00010000
00000000
00001000
00010000
00001000
00010000
,
00001000
00000000
00000000
00000000
,
00011000
00000000
00000000
00001000
00000000
00000000
01000000
00000000
00000000
00000000
00010000
00000000
00100000
00000000
01000000
00000000
,
10000000
00100000
00020000
00000000
10030000
01000000
00010000
10000000
,
02000000
00000000
03100000
00001000
00010000
00001000
00000100
00000001
,
00002000
00000000
00003200
00000000
00000310
00001000
00010000
01000000
,
00100000
00000000
00000000
00010000
00000000
00000000
20000000
00000000
00000000
00000000
30010000
00000000
00100000
00000000
01000000
00000000
,
00100000
00000000
00000000
00010000
00000000
00000000
20000000
00000000
00000000
00000000
30100000
00000000
00010000
00000000
00002000
00000000
,
00000000
00003010
00000001
00000010
00000100
00010000
00001000
00010000
,
00011000
00000000
00000000
01001000
00000000
00000000
00011000
00000000
00000000
00000000
00001000
00000000
00010000
00000000
00100000
00000000
,
10000000
00010000
00100000
10000000
00100000
00010000
10000000
00200000
,
00000000
00310000
00002000
00000000
00013000
00001000
00000010
00000100
,
00002000
00000000
00003001
00001000
00000100
00010000
00000100
00001000
,
00000002
00000000
00000203
00000000
00001300
00010000
01000000
10000000
,
00010000
00000000
00000000
10000000
00000000
00000000
01000000
00000000
00100000
00000000
00001000
00000000
00010000
00000000
00001000
00000000
,
00000010
00000000
00000000
00000001
00000000
00000000
00001000
00000000
00000010
00000000
00010000
00000000
00001000
00000000
02000000
00000000
,
00000000
03001000
00010000
01000000
10000000
01000000
00100000
00001000
,
00010000
00000000
00000000
00001000
00000000
00000000
00000100
00000000
00000110
00000000
00000000
00000000
00001000
00000000
00000000
00000000
,
00000002
00000000
00000103
00001000
,
00020000
00000000
00000000
00000000
00130000
00000000
10000000
00020000
,
00000000
10030000
01000000
00200000
00000000
00301000
00010000
00001000
,
02000000
00000000
00000000
00000000
03010000
10000000
01000000
00100000
,
00001000
00000000
00000000
00010000
00000000
00000000
00000100
00000000
00001000
00000000
00000100
00000000
00000010
00000000
00000001
00000000
,
00000100
00001000
00010000
00100000
01000000
00010000
10000000
01000000
,
00200000
00000000
00302000
00003000
,
00022000
00000000
00000000
00033000
00000000
00000000
00000000
00000000
,
00010000
00000000
00000000
00001000
00000000
00000000
00000100
00000000
00000001
00000000
00001000
00000000
00000100
00000000
00000020
00000000
,
00000000
00000031
00000100
00001000
00010000
00001000
00010000
01000000
,
20000000
00000000
30010000
10000000
00100000
01000000
00010000
10000000
,
02000000
00000000
03100000
00001000
00010000
00001000
00000100
00000001
,
00001000
00000000
00000000
00000100
00000000
00000000
00000020
00000000
00000000
00000000
00000130
00000000
00010000
00000000
00001000
00000000
,
01000000
00000000
00000000
00010000
00000000
00000000
20000000
00000000
00000000
00000000
31000000
00000000
00100000
00000000
00002000
00000000
,
00000000
00013000
00100000
10000000
00010000
00100000
01000000
00100000
,
00110000
00000000
00000000
00101000
00000000
00000000
00011000
00000000
00000000
00000000
00001000
00000000
01000000
00000000
00001000
00000000
,
00010000
00001000
00000010
00000001
00001000
00000010
00000100
00000002
,
00000000
00000000
00000000
00000103
00001000
00010000
00001000
00000000
,
00010000
00001000
00100000
00000000
00010000
01000000
00100000
00000000
,
10000000
00000000
01000000
00000000
00100000
00000000
00000000
00100000
00000000
00000000
00100000
00000000
00010000
00000000
00000000
00000000
,
10000000
01000000
00010000
00000000
00001000
00000010
00000100
00000000
,
00001000
00000100
00000001
00000100
00000010
00000001
00001000
00000000
,
00000001
00000100
00000010
00010000
00001000
01000000
00100000
10000000
,
00010000
00000000
00000000
00101000
00000000
00000000
00001000
00000000
00000000
00010100
00000000
00000000
00022000
00000000
00000000
00000000
,
00033000
00000000
00000000
00000000
;

//--------------- dance-double - Fred-104 ----------------
#NOTES:
     dance-double:
     Fred-104:
     Hard:
     15:
     :
00000000
00000000
00000000
00000000
,
00000000
00000000
00000000
00000000
,
00000000
00000000
00000000
00000000
,
00000000
00000000
00000000
00000000
,
00000000
00000000
00000000
00000000
,
00001000
00010000
01000000
10000000
,
00100000
00010000
00001000
00010000
,
00001000
00000000
00000000
00010000
00000000
00000000
00000100
00000000
00000000
00001000
00000000
00000000
00000001
00000000
00000000
00000100
00000010
00000100
00000010
00000000
00000000
00001000
00000000
00000000
,
00000001
00000000
00000000
00000001
00001000
00000000
00000000
00000000
00002002
00000000
00000000
00000000
00003003
00000000
00000000
00000000
,
00000001
00000010
00000100
00000001
00001000
00000010
00000100
00001000
,
00000001
00000100
00001000
00010000
00100000
10000000
00010000
10000000
,
01000000
00100000
10000000
00010000
01000000
10000000
00010000
01000000
,
00100000
00000000
00010000
00000000
00001000
00000000
00000100
00000000
00000010
00000000
00001000
00000000
00000001
00000010
00000001
00000010
,
00000100
00000000
00010000
00001000
00010000
00000000
00001000
00000000
01000000
00010000
01000000
00000000
00100000
00000000
10000000
00000000
,
00010000
00000000
00100000
00001000
00100000
00000000
00001000
00000000
00010000
00000010
00010000
00000000
00000010
00000000
00001000
00000000
,
00000001
00000010
00000100
00010000
00001000
00100000
01000000
10000000
,
20020000
00000000
00000000
00000000
00000000
00000000
30030000
00000000
00000000
00000000
10000000
00000000
00010000
01000000
00010000
00000000
,
10000000
01000000
10000000
01000000
00100000
00000000
00001000
00010000
00001000
00000000
00010000
00000000
00000010
00000000
00020000
00000000
,
00000000
00000000
00000000
00000000
00000000
00000000
00031000
00100000
00001000
00000000
00100000
00010000
10000000
00000000
00100000
00000000
,
01000000
00010000
01000000
00000000
00100000
10000000
00100000
00000000
10000000
00010000
00100000
00000000
01000000
10000000
00010000
00000000
,
10000000
00000000
00010000
00000000
00100000
00000000
00001000
00010000
00000000
00000010
00001000
00000000
00000001
00000010
00000100
00000000
,
00001000
00000000
00000001
00001000
00000100
00000000
00010000
00001000
01000000
00000000
00010000
10000000
01000000
10000000
00010000
00000000
,
10000000
00000000
01000000
00100000
00010000
00100000
00001000
00000000
00010000
00000010
00001000
00000000
00000001
00001000
00000100
00000000
,
00010000
00000000
00001000
01000000
00010000
00000000
01000000
00001000
00010000
00000000
00000100
00001000
00000100
00000010
00000001
00000000
,
00000011
00000000
00000000
00001010
00000000
00000000
00011000
00000000
00000000
01010000
00000000
00000000
11000000
00000000
00010000
00000000
,
20000000
00000000
01000000
00000000
31000000
00100000
00001000
00010000
,
00001000
00000010
00000001
00000010
00000100
00010000
00001000
01000000
,
00002000
00000000
00010000
00000000
01000000
00000000
00013000
00001000
,
00100000
00010000
00100000
01000000
10000000
00100000
00010000
00001000
,
00020000
00000000
00001000
00000000
00031000
00010000
00000010
00001000
,
00000001
00000100
00001000
00010000
00100000
01000000
00100000
10000000
,
00020000
00000000
00100000
00000000
10000000
00000000
01030000
00100000
,
10000000
00000000
01000000
00000000
00010000
00000000
00001000
00000000
00000010
00000000
00000100
00000000
00001000
00000001
00001000
00000000
,
00000001
00000100
00000010
00000100
00001000
00010000
00100000
10000000
,
01000000
00000000
00000000
00100000
00000000
00000000
00001000
00000000
00000000
00000000
00010000
00000100
00010000
00000000
00001000
00000000
,
00010000
00000000
00000100
00000000
00001000
00000000
00000100
00000000
00000010
00000000
00000001
00001000
00000010
00000000
00010000
00000000
,
00001000
00000000
00000000
01000000
00000000
00000000
00001000
00000000
00100000
00010000
10000000
00010000
01000000
00000000
00100000
00000000
,
10000000
00000000
00010000
00000000
10000000
00000000
01000000
00100000
00001000
00000000
00010000
00000000
00000100
00000000
00001000
00000001
,
00000100
00000000
00000010
00001000
00000001
00000000
00000000
00000000
00000100
00000000
00001000
00000000
00010000
00000000
00001000
00000000
,
01001000
00000000
00000000
01010000
00000000
00000000
10010000
00000000
10000000
01000000
10000000
00000000
01000000
00100000
01000000
00000000
,
00100000
00001000
00000000
00001000
00010000
00000000
00000010
00000000
00001000
00000000
00001000
00000000
00000001
00000010
00000100
00010000
,
00001000
00000000
00000000
00000000
,
00010000
00000000
00000000
00001000
00000000
00000000
00000010
00000000
00000001
00000000
00001000
00000010
00000100
00000000
00001000
00000000
,
00010000
00000000
00100000
00000000
01000000
00000000
00100000
00000000
10000000
00000000
00010000
10000000
01000000
00000000
00100000
00000000
,
00101000
00000000
00000000
00000000
00010000
00000000
00001000
00000100
00000001
00000000
00001000
00000100
00000001
00000000
00000100
00000000
,
00001000
00000000
00000001
00000000
00000100
00000000
00001000
00000000
00010000
00001000
00010000
00001000
00010000
00000000
00100000
00000000
,
01000000
00000000
00000000
00010000
00000000
00000000
10000000
00000000
01000000
00000000
00100000
00001000
00010000
00000000
00001000
00000000
,
01000000
00000000
00000000
00010000
00000000
00000000
10000000
00000000
01000000
00000000
00100000
00000000
00001000
00000000
00000010
00000100
,
00001000
00000000
00000001
00000100
00000010
00000000
00010000
00000000
00001000
00000000
00010000
00000000
00100000
00000000
01000000
00000000
,
01010000
00000000
00000000
11000000
00000000
00000000
00110000
00000000
00000000
00000000
00100000
00000000
00001000
00010000
00001000
00000000
,
00021000
00030000
00000010
00000000
00001000
00000000
00000001
00000000
00000010
00000000
00000100
00001000
00000001
00000000
00001000
00000000
,
00000001
00000200
00001000
00000000
00000010
00000000
00000301
00001000
,
00000002
00000000
00000000
00000000
00000103
00000000
00001000
00000000
00010000
00000000
00001000
01000000
00001000
00000000
01000000
00000000
,
00100000
00000000
10000000
00000000
00100000
00000000
10000000
00000000
00010000
01000000
00010000
10000000
01000000
00000000
00100000
00000000
,
00101000
00000000
00000000
00001000
00000000
00000000
00010000
00000000
00000010
00000000
00001000
00000001
00000010
00000000
00000100
00000000
,
00001100
00000000
00000000
00010000
00000000
00000000
00001000
00000000
01000000
00000000
00010000
00000000
10000000
00000000
01000000
00100000
,
00001000
00000000
00010000
00000100
00001000
00000000
00000100
00000010
00000001
00000000
00001000
00000000
00000100
00000010
00000100
00000010
,
00000100
00000000
00000000
00000011
00000000
00000000
00001010
00000000
00011000
00000000
00000000
00000000
01000000
00000000
00010000
00000000
,
20000000
00000000
00010000
00000000
30010000
10000000
01000000
00100000
,
00002000
00000000
00000000
00000000
00013000
00000000
00000100
00001000
00000001
00000000
00000010
00000100
00001000
00000000
00000200
00000000
,
00000000
00010300
00001000
02000000
00000000
03001000
00010000
00000100
,
00001000
00000000
00000100
00000000
00000001
00000000
00000100
00000000
00001000
00000010
00010000
00000000
00001000
00100000
00010000
00000000
,
10000000
00000000
00000000
00010000
00000000
00000000
00100000
00000000
01000000
00000000
00100000
10000000
00100000
00000000
00010000
00000000
,
10000000
01000000
00010000
00001000
00000010
00000001
00000100
00001000
,
00020000
00000000
00032000
00003000
,
00022000
00000000
00033000
00001000
00000000
00010000
00000010
00001000
,
00000010
00000000
00000000
00001000
00000000
00000000
00000001
00000000
00000010
00000000
00000100
00010000
00001000
00000000
00020000
00000000
,
00000000
00130000
01000000
00010000
00100000
01000000
00010000
00001000
,
00020000
00000000
00000000
00000000
00031000
00000000
00000100
00000000
00000001
00000000
00000010
00000100
00001000
00000000
00000100
00000000
,
00020000
00000000
00001000
00000000
00031000
01000000
00010000
10000000
,
10010000
00000000
00000000
10000000
00000000
00000000
01000000
00000000
00100000
00000000
00001000
00000000
00010000
00000000
00001000
00000000
,
00000100
00000000
00000000
00000001
00000000
00000000
00000010
00000000
00000100
00000000
00001000
00000000
00000100
00000000
00010000
00001000
,
01000000
00000000
00001000
00010000
00000100
00000000
00001000
00000001
00000010
00000000
00000100
00000000
00010000
00000000
00001000
00000000
,
00011000
00000000
00000000
01001000
00000000
00000000
01100000
00000000
00000000
00000000
00200000
00000000
20300000
00000000
30020000
00000000
,
10030000
01000000
10000000
01000000
00100000
00000000
00010000
10000000
00010000
01000000
00001000
00000000
00010000
00000000
00002000
00000000
,
00000000
00000000
00000000
00000000
00000000
00000000
00013000
00000100
00001000
00000000
00000100
00000010
00000001
00001000
00000010
00000000
,
00000100
00000000
00000001
00000000
00001000
00000010
00010000
00001000
00010000
00001000
00100000
00001000
00100000
00010000
10000000
00000000
,
00010000
01000000
00010000
01000000
00010000
00000000
10000000
01000000
00000000
00010000
01000000
00000000
10000000
00010000
10000000
00000000
,
01000000
00000000
00100000
00001000
00010000
00000000
00001000
00010000
00000010
00001000
00000010
00000000
00001000
00000001
00000100
00000001
,
00001000
00000000
00000001
00000010
00000100
00001000
00000100
00000000
00010000
00001000
01000000
00000000
00010000
10000000
01000000
00000000
,
00100000
00010000
00100000
00010000
00100000
00001000
00100000
00001000
00010000
00000010
00010000
00000010
00001000
00000001
00001000
00000001
,
00000010
00000000
00000000
00000110
00000000
00000000
00011000
00000000
00000000
01100000
00000000
00000000
20020000
00000000
00000000
00000000
,
30030000
00000000
00000000
00000000
;

//--------------- dance-double - Fred-104† ----------------
#NOTES:
     dance-double:
     Fred-104†:
     Challenge:
     17:
     :
00000000
00000000
00000000
00000000
,
00000000
00000000
00000000
00000000
,
00000000
00000000
00000000
00000000
,
00000000
00000000
00000000
00000000
,
00000000
00000000
00000000
00000000
,
00002000
00000000
00000000
00000000
00000000
00000000
00013000
00020000
,
00000000
00000000
00000000
00000000
,
00031000
00000000
00000000
00010000
00000000
00000000
00100000
00000000
00000000
10000000
00000000
00000000
01000000
00000000
00000000
10000000
00010000
10000000
00010000
00000000
00000000
01000000
00000000
00000000
,
00001000
00010000
00001000
00010000
00001000
00000000
00000000
00000000
00022000
00000000
00000000
00000000
00033000
00000000
00000000
00000000
,
00010000
00001000
00000010
00000000
00000001
00000000
00000010
00000100
00001000
00000000
00000010
00000000
00000100
00001000
00010000
00000000
,
00100000
01000000
00010000
00000000
00100000
00000000
01000000
10000000
00100000
00000000
01000000
00000000
00010000
10000000
01000000
00000000
,
00100000
00001000
00010000
00000000
00100000
00000000
01000000
00001000
00010000
00000000
00100000
00000000
10000000
00010000
00100000
00000000
,
00001000
00010000
00001000
00000000
00000010
00000000
00000100
00001000
00000001
00000000
00000100
00000000
00000010
00001000
00000010
00010000
,
00001000
00010000
00100000
01000000
00010000
00000000
10000000
01000000
00100000
00010000
00100000
00000000
00001000
00010000
00001000
00000000
,
00010000
00001000
00000100
00000001
00001000
00000000
00000100
00000010
00001000
00010000
01000000
00000000
00100000
00010000
10000000
00000000
,
00010000
01000000
00001000
00010000
00000100
00000000
00001000
00000100
00000010
00000001
00001000
00000000
00000010
00000100
00001000
00010000
,
00002000
00000000
00000000
00000000
00000000
00000000
00003000
00000000
00000000
00000000
00001000
00000000
00010000
00100000
10000000
00000000
,
01000000
00100000
01000000
00100000
00010000
00000000
00100000
00001000
00010000
00000010
00001000
00000001
00000010
00000000
00000200
00000000
,
00000000
00000000
00000000
00000000
00000000
00000000
00000000
00000000
00000000
00000000
00000000
00000000
00000000
00000000
00000000
00000000
00000000
00000000
00010300
00000000
00001000
00000000
00010000
00000000
00001000
00000000
00000000
00000000
00000000
00000000
00100000
00000000
00000000
00001000
00000000
00000000
00010000
00000000
00000000
00001000
00000000
00000000
01000000
00000000
00000000
00000000
00000000
00000000
,
00010000
10000000
01000000
00100000
01000000
10000000
00010000
01000000
00010000
10000000
01000000
00100000
00001000
00010000
00001000
01000000
,
00001000
00010000
00000100
00001000
00000100
00000000
00000010
00000001
00000000
00001000
00000010
00000000
00010000
00001000
00010000
00000000
,
00001000
00010000
00100000
01000000
00100000
10000000
00010000
00000000
10000000
00000000
01000000
00100000
00010000
00100000
00001000
00010000
,
00001000
00000000
00010000
00001000
00000010
00001000
00010000
00000000
00001000
00010000
00100000
00010000
00001000
00010000
00001000
00000000
,
00010000
00001000
00000100
00000010
00001000
00000001
00000010
00000100
00000010
00001000
00010000
01000000
00100000
00010000
10000000
00100000
,
10000000
00000000
00000000
11000000
00000000
00000000
00110000
00000000
00000000
00001010
00000000
00000000
00000101
00000000
00001001
00000000
,
00000001
00000000
00000000
00000000
00000000
00000000
00000000
00000000
00000100
00000000
00000000
00000000
00000000
00000000
00000000
00000000
00001000
00000000
00000000
00000000
00000000
00000000
00000000
00000000
00010000
00000000
00000000
00000000
00000000
00000000
00000000
00000000
00100000
00000000
00000000
00000000
00000000
00000000
00000000
00000000
02000000
03000000
00000000
00000000
00000000
00000000
00000000
00000000
02000000
03000000
00000000
00000000
00000000
00000000
00000000
00000000
10000000
00000000
00000000
00000000
00000000
00000000
00000000
00000000
,
00010000
01000000
00100000
00010000
00001000
00000100
00000010
00010000
,
00001000
00000010
00000001
00001000
00000010
00000100
00010000
01000000
,
00100000
00000000
10000000
00000000
00010000
00000000
00100000
00000000
00001000
00010000
00000010
00000000
00001000
00000000
00000100
00000000
,
00000010
00001000
00010000
01000000
00100000
00010000
00001000
00000100
,
00000010
00010000
00100000
01000000
00100000
00001000
00010000
00100000
,
10000000
00010000
01000000
00100000
00001000
00000010
00010000
00001000
,
00010000
00000100
00000000
00001000
00000001
00000000
00000010
00000000
00000100
00001000
00000100
00010000
00001000
01000000
00010000
00000000
,
10000000
00000000
01000000
00010000
01000000
00000000
10000000
00000000
00100000
00000000
00010000
00100000
10000000
00000000
01000000
00000000
,
00100000
00001000
00000000
00000010
00000100
00000000
00002000
00000000
00000000
00000000
00003001
00000010
00000100
00000000
00010000
00000000
,
00001000
00000000
00010000
00100000
01000000
00000000
00100000
10000000
00010000
00000000
10000000
01000000
00100000
00000000
00001000
00000000
,
00010000
00001000
00000000
00000100
00000001
00000000
00001000
00000000
00000100
00000010
00000001
00000000
00001000
00000000
00001000
00000000
,
00000001
00000000
00000100
00000000
00001000
00000000
00010000
00000000
00100000
00000000
10000000
00010000
10000000
00000000
01000000
00000000
,
00100000
00000000
00002000
00000000
00010000
00000000
00000000
00000000
01000000
00000000
00000000
00000000
00013000
00001000
00000100
00000000
,
00000110
00000000
00000000
00001010
00000000
00000000
00000101
00000000
00001100
00000000
00001000
00000000
00000001
00001000
00000010
00010000
,
00001000
00010000
00100000
01000000
00010000
00000000
10000000
00000000
10000000
00000000
01000000
00000000
01000000
00100000
00001000
00010000
,
00001000
00000000
00000000
00000000
,
00011000
00000000
00010000
00000010
00000000
00001000
00000010
00000000
00001000
00000000
00000001
00000010
00000100
00010000
00001000
00000000
,
00100000
00000000
00001000
00010000
00100000
00000000
01000000
00000000
00010000
00000000
10000000
01000000
00010000
00000000
00001000
00000010
,
00000100
00000000
00001000
00000000
00000010
00000000
00000100
00001000
00010000
00000000
00100000
01000000
00010000
00000000
00100000
00000000
,
02000000
00000000
00000000
00000000
13000000
00000000
01000000
00000000
00100000
00010000
00100000
00001000
00010000
00000010
00001000
00000000
,
00000001
00000100
00000000
00001000
00000100
00000000
00000001
00000000
00000010
00000100
00001000
00000100
00010000
00000000
00001000
00000000
,
01000000
00001000
00000000
00010000
00001000
00000000
01000000
00000000
00010000
10000000
00100000
01000000
00010000
00000000
10000000
01000000
,
00010000
00000000
00001000
00000100
00000001
00000000
00001000
00000100
00000010
00000000
00000001
00000000
00000100
00000000
00001000
00000000
,
00011000
00000000
00000000
01010000
00000000
00000000
11000000
00000000
00000000
00000000
10000000
00000000
01000000
00100000
00010000
00100000
,
00001000
00000000
00010000
00001000
00000010
00000000
00000001
00000010
00000100
00000010
00001000
00000000
00000010
00000001
00001000
00000000
,
00000001
00000000
00000100
00001000
00010000
00000000
00100000
00000000
01000000
00000000
00010000
10000000
01000000
00000000
00100000
00000000
,
00002000
00000000
00000000
00000000
00013000
00000000
00001000
00000010
00000001
00000000
00000010
00001000
00010000
00000000
00001000
00000000
,
02000000
00000000
00010000
00000000
00010000
00000000
03010000
00000000
10000000
01000000
00100000
00010000
01000000
00100000
00010000
00001000
,
00010000
00000000
00001000
01000000
00000000
00010000
00100000
00000000
01000000
00000000
00100000
00001000
00010000
00000000
00001000
00000000
,
00000010
00000000
00000001
00000010
00000000
00000100
00010000
00000000
00001000
00000000
00010000
00000000
00000100
00000000
00001000
00000100
,
00000010
00000000
00000001
00000100
00001000
00000000
00010000
00000000
00100000
10000000
00010000
00100000
01000000
00100000
00010000
10000000
,
00100000
00000000
00000000
11000000
00000000
00000000
01010000
00000000
00011000
00000000
00000000
00000000
00010000
00000000
00001000
00000000
,
00020000
00000000
00001000
00000000
00031000
00010000
00000010
00001000
,
00000200
00000000
00000000
00000000
00000310
00000000
00000001
00000010
00000100
00001000
00000010
00010000
00001000
01000000
00020000
00000000
,
00000000
01030000
10000000
02000000
00000000
03010000
10000000
01000000
,
00001000
00000000
00000100
00000000
00010000
00000000
00001000
00000000
00010000
00000100
00001000
00000100
00000010
00000000
00000001
00000000
,
00001000
00000000
00000001
00000100
00000000
00000100
00001000
00000000
00000100
00000000
00000010
00000001
00001000
00000000
00000010
00000000
,
00010000
00001000
01000000
00010000
00100000
10000000
00100000
00001000
,
00020000
00000000
00032000
00003000
,
00022000
00000000
00033000
00002000
00000000
00023000
00230000
02300000
,
03010000
00000000
00000000
10000000
00000000
00000000
01000000
00000000
00100000
00001000
00010000
00001000
00000100
00000010
00002000
00000000
,
00000000
00003001
00000100
00000010
00000001
00001000
00000100
00000010
,
00002000
00000000
00000000
00000000
00003001
00000000
00000010
00001000
00010000
00000000
01000000
00100000
00010000
00000000
10000000
00000000
,
00100000
00001000
00000010
00010000
00001000
00001000
00010000
00010000
,
00001000
00000000
00000000
00010000
00000000
00000000
00000100
00000000
00001000
00000000
00000100
00000010
00000001
00002000
00000010
00000000
,
00003010
00000000
00000000
00010000
00000000
00000000
00001000
00000000
00010000
00000000
00100000
00000000
10000000
00000000
00010000
00100000
,
01000000
00000000
10000000
01000000
00100000
00000000
00001000
00010000
00000010
00000000
00010000
00001000
00100000
00020000
10000000
00000000
,
01030000
00000000
00000000
01100000
00000000
00000000
10010000
00000000
00000000
00000000
10000000
00000000
01000000
00100000
01000000
00100000
,
00001000
00010000
00000010
00010000
00001000
00000000
00010000
00001000
00000010
00000100
00001000
00000001
00001000
00000000
00000020
00000000
,
00000000
00000000
00000000
00000000
00000000
00000000
00000000
00000000
00000000
00000000
00000000
00000000
00000000
00000000
00000000
00000000
00000000
00000000
00010030
00000000
00001000
00000000
00010000
00000000
00001000
00000000
00000000
00000000
00000000
00000000
00100000
00000000
00000000
00001000
00000000
00000000
00010000
00000000
00000000
00001000
00000000
00000000
01000000
00000000
00000000
00000000
00000000
00000000
,
00001000
00010000
01000000
00100000
00010000
10000000
01000000
00100000
00001000
00010000
00001000
01000000
00010000
01000000
00001000
00010000
,
00000100
00001000
00000001
00000100
00000010
00000000
00001000
00000001
00000000
00000010
00001000
00000000
00010000
00001000
00010000
00000000
,
00001000
00100000
00010000
10000000
00010000
00000000
00100000
01000000
10000000
01000000
00100000
00001000
00010000
00000100
00010000
00001000
,
00010000
00000000
00001000
00010000
01000000
00010000
00001000
00000000
00010000
00001000
00000100
00001000
00010000
00001000
00010000
00000000
,
00001000
00010000
00000010
00001000
00000001
00000010
00000100
00010000
00001000
00100000
00010000
00100000
01000000
10000000
00010000
01000000
,
00100000
00000000
10000000
01000000
00000000
00010000
00001000
00000000
00000010
00000001
00000000
00001000
00000002
00000000
00000000
00000000
,
00000003
00000000
00000000
00000000
;
