#TITLE:LIPS NOISE HUNTER;
#ARTIST:SOUND HOLIC Vs. T.Kakuta feat. Nana Takahashi;
#BANNER:LIPS NOISE HUNTER.png;
#BACKGROUND:LIPS NOISE HUNTER-bg.png;
#CDTITLE:./CDTitles/GITADORA Matixx.png;
#MUSIC:LIPS NOISE HUNTER.ogg;
#SAMPLESTART:48.589;
#SAMPLELENGTH:15;
#BPMS:0=200,228=150,239=200;
#TIMESIGNATURES:0=4=4,228=3=4,234=5=4,239=4=4;
#BGSTAGE:17;

//--------------- dance-single - Fred-104 ----------------
#NOTES:
     dance-single:
     Fred-104:
     Beginner:
     5:
     :
0000
0000
0000
0000
,
0000
0000
0000
0000
,
0000
0000
0000
0000
,
0000
0000
0000
0000
,
0000
0000
0000
0000
,
0000
0000
0000
0000
,
1000
0000
0001
0000
,
1000
0000
0010
0000
,
1000
0000
0100
0000
,
1000
0000
0001
0000
,
0001
0000
0100
0000
,
0010
0000
0100
0000
,
0001
0000
1000
0000
,
0100
0000
1000
0000
,
1000
0000
0000
0000
,
0000
0000
0000
0000
,
0001
0000
0000
0000
,
0010
0000
0000
0000
,
0001
0000
0000
0000
,
1000
1000
1000
1000
,
1000
0000
0000
0000
,
0010
0000
0000
0000
,
1001
0000
0000
0000
,
0000
0000
0000
0000
,
0001
0000
0010
0000
,
0001
0000
1000
0000
,
0001
0000
1000
0000
,
0001
0001
0001
0001
,
0001
0000
0100
0000
,
0001
0000
0010
0000
,
0100
0000
1000
0000
,
1000
1000
1000
1000
,
1000
0000
0000
0000
,
0001
0000
0000
0000
,
0100
0000
0000
0000
,
0010
0000
0000
0000
,
1000
0000
0000
0000
,
0001
0000
0000
0000
,
1000
0000
0000
0000
,
0001
0000
0000
0000
,
0001
0000
0000
0000
,
0001
0000
0000
0000
,
0010
0000
0001
0000
,
1000
0000
0010
0000
,
1000
0000
1000
0000
,
0001
0000
1000
0000
,
0001
0000
0100
0000
,
0001
0000
0010
0000
,
0001
0000
0000
0000
,
1000
0000
0000
0000
,
0001
0000
0100
0000
,
0001
0000
0010
0000
,
0001
0000
1000
0000
,
0001
0000
0001
0000
,
1000
0000
1000
1000
,
1001
0000
0000
0000
,
0000
0000
0000
0000
,
2000
0000
0000
0000
,
0000
3000
0002
0000
,
0000
0000
0003
2000
,
0000
0000
3000
0002
,
0000
0000
0003
0200
,
0000
0000
0300
0020
,
0000
0000
0030
1000
,
1000
2000
3000
0001
,
0001
0002
0003
0100
,
0100
0200
0300
0010
,
0010
0020
0030
1001
,
0000
0000
0000
0110
,
0000
0000
0000
1001
,
0000
0000
0000
0110
,
0000
0000
0000
1001
,
0000
0001
0000
0100
,
0000
0010
0000
1000
,
0000
0000
0000
0002
,
0000
2000
0000
3003
,
0000
0000
0000
1001
,
0000
0000
0000
0110
,
0000
0000
0000
1001
,
0000
0000
0000
0001
,
0000
0000
0000
1000
,
0000
0010
0000
1000
,
0000
0100
0100
0100
,
0000
0010
0000
0001
,
0000
1000
1000
1000
,
0000
0001
0000
0100
,
0000
0010
0010
0010
,
0000
0100
0000
0001
,
0000
1000
1000
1000
,
0000
0001
0000
0100
,
0000
0010
0000
0100
,
0000
0001
0000
1000
,
0000
0000
0000
0001
,
0000
0000
0000
1000
,
0000
0010
0000
1000
,
0000
0100
0000
0010
,
0000
0001
0000
1000
,
0000
0001
0000
1000
,
0000
0100
0000
1000
,
0000
0001
0000
0100
,
0000
0010
0000
1000
,
0000
0001
0000
2002
,
0000
0000
0000
0000
,
0000
0000
3003
0000
0000
0000
0000
0000
0000
0000
0000
0000
;

//--------------- dance-single - Fred-104 ----------------
#NOTES:
     dance-single:
     Fred-104:
     Easy:
     8:
     :
0000
0000
0000
0000
,
0000
0000
0000
0000
,
0000
0000
0000
0000
,
0000
0000
0000
0000
,
0000
0000
0000
0000
,
0000
0000
0000
0000
0000
0000
0000
0000
0000
0000
0000
0001
,
0000
0000
0000
0010
0000
0000
0001
0000
0000
0000
0000
1000
,
0000
0000
0000
0010
0000
0000
0100
0000
0000
0000
0000
0001
,
0000
0000
0000
1000
0000
0000
0100
0000
0000
0000
0000
1000
,
0000
0000
0000
0001
0000
0000
0100
0000
0010
0000
0000
0100
,
0000
0000
0000
0001
0000
0000
0010
0000
0000
0000
0000
0001
,
0000
0000
0000
0100
0000
0000
0010
0000
0000
0000
0000
0100
,
0000
0000
0000
0001
0000
0000
1000
0000
0000
0000
0000
0001
,
0000
0100
0001
1000
,
0001
0001
0010
0010
,
0100
0100
1000
1000
,
0001
0000
1000
0000
,
0010
0010
1000
1000
,
0100
0010
0001
0000
,
1000
0100
0001
0100
,
1000
0000
0001
0000
,
0100
0100
0010
0100
,
1001
0000
0000
0000
,
0000
0000
0000
0000
0000
0001
0000
0000
0000
0100
0000
0000
,
0010
0010
1000
0100
,
1000
0001
0100
0010
,
1000
1000
0001
0000
,
1000
0010
0001
0010
,
1000
0000
0001
0100
,
0010
0100
0001
1000
,
0001
0000
1000
0000
,
0001
0001
0100
0010
,
1000
0100
1100
0000
,
0001
0100
0101
0000
,
1000
0000
0000
0010
0000
0000
1010
0000
0000
0000
0000
0001
,
0000
0000
1000
0000
0000
0001
0000
0000
0100
0000
0000
1001
,
0000
0000
0000
1000
0000
0000
0100
0000
0010
0000
0000
0100
,
0000
0000
0000
1000
0000
0000
0001
0000
0100
0000
0000
0001
,
0000
0000
0000
0100
0000
0000
0010
0000
0000
0000
0000
2002
,
0000
0000
0000
3003
,
1000
0001
1001
0000
,
0001
0100
0010
0000
,
1000
0100
0010
0000
,
0001
0010
1000
0010
,
0001
0000
0000
0000
0000
0000
1000
0000
0000
0000
0000
1000
,
0000
0000
0000
0001
0000
0000
0100
0000
0000
0000
0000
0010
,
0000
0100
0010
1000
,
0100
0000
1000
0000
,
0001
0000
0000
0100
0000
0000
0010
0000
0000
0000
0000
1000
,
0000
0000
0000
0100
0000
0000
0010
0000
0000
0000
0000
0001
,
0000
0000
0000
0100
0000
0000
0010
0000
0000
0000
0000
0100
,
0000
0000
0000
0001
0000
0000
1000
0000
0000
0000
0000
0001
,
0000
0000
0000
0010
0000
0000
0100
0000
0000
0000
0000
0010
,
0000
0000
0000
0001
0000
0000
1000
0000
0000
0000
0000
0100
,
0000
1000
0001
0100
,
0001
0000
0001
0000
0000
0000
1000
0000
1000
0000
0000
1001
,
0000
0001
0100
0010
,
2000
0000
0000
0000
3000
0001
0000
0000
,
1000
0001
0100
0000
,
0010
0100
0110
0001
,
0010
0100
0000
1000
,
0010
0100
0000
0010
,
0010
1000
1000
0100
,
1000
0001
0000
1000
,
1000
0100
0010
0001
,
0001
0100
0010
1000
,
0001
0010
0100
1000
,
0010
0100
0001
1000
,
0010
2020
3030
0001
,
0010
0022
0033
1000
,
0100
2200
3300
0001
,
0100
0202
0303
1000
,
0001
0000
0000
0100
0000
0000
0000
0000
0010
0000
0000
0000
,
0100
0000
0000
0001
0000
0001
0000
0001
0000
2002
0000
0000
,
0000
0000
3003
2000
,
0000
3000
0000
0002
0000
0000
0000
0003
0000
0100
0000
0000
,
0010
0000
0000
0100
0000
0000
0000
0000
1001
0000
0000
0000
,
0000
0000
0000
0000
,
0000
0000
0000
0000
,
0000
0000
0000
0001
0000
0000
0000
0000
1000
0000
0000
1000
,
0000
0000
1000
0000
0000
0001
0000
0000
0100
0000
0000
0000
,
0001
0000
0000
0010
0000
0000
0000
0000
0001
0000
0000
0000
,
0100
0010
0100
0001
,
0000
1000
0000
0001
,
0010
0000
0000
0100
0000
0000
0000
0000
1000
0000
0000
0000
,
0100
0000
0000
1000
0000
0000
0000
0000
0010
0000
0000
0000
,
0100
0000
0000
0010
0000
0000
0000
0000
0100
0000
0000
0000
,
0001
0000
0000
1000
0000
0000
0000
0000
0001
0000
0000
0000
,
0100
0000
0000
0010
0000
0000
0000
0000
1000
0000
0000
0000
,
0100
0000
0000
0010
0000
0000
0000
0000
0100
0000
0000
0000
,
1000
0010
0100
0001
,
1000
0000
0000
0001
0000
0000
0000
0000
2002
0000
0000
0000
,
0000
0000
3003
1000
,
0001
0000
0000
0100
0000
0000
0000
0000
0110
0000
0000
0000
,
0001
0000
0000
0100
0000
0000
0000
0000
0001
0000
0000
0000
,
0010
0000
0000
0100
0000
0000
0000
0000
1000
0000
0000
0000
,
0100
0000
0000
1000
0000
0000
0000
0000
0010
0000
0000
0000
,
0100
0000
0000
0001
0000
0000
0000
0000
1000
0000
0000
0000
,
0001
0000
0000
0010
0000
0000
0000
0000
0001
0000
0000
0000
,
0100
0000
0000
0001
0000
0000
0000
0000
0100
0000
0000
0000
,
0010
0000
0000
0100
0000
0000
0000
0000
0010
0000
0000
0000
,
1000
0000
0000
0100
0000
0000
0000
0000
1001
0000
0000
1001
,
0000
0000
1001
0000
0000
1001
0000
0000
2002
0000
0000
0000
,
0000
0000
3003
0000
0000
0000
0000
0000
0000
0000
0000
0000
;

//--------------- dance-single - Fred-104 ----------------
#NOTES:
     dance-single:
     Fred-104:
     Medium:
     12:
     :
0000
0000
0000
0000
,
0000
0000
0000
0000
,
0000
0000
0000
0000
,
0000
0000
0000
0000
,
0000
0000
0000
0000
,
0000
0000
0000
0000
0000
0000
0000
0000
0000
0000
0000
1000
,
0000
0000
0000
0010
0000
0000
0100
0000
0001
0010
0000
0001
,
0000
0000
0000
0100
0000
0000
0010
0000
0100
0010
0000
1000
,
0000
0000
0000
0100
0000
0000
1000
0000
0001
1000
0000
0100
,
0000
0000
0000
0010
0000
0000
0001
0000
1000
0000
0000
1001
,
0000
0000
0000
0001
0000
0000
0010
0000
0100
0010
0000
0100
,
0000
0000
0000
1000
0000
0000
0010
0000
0100
0010
0000
1000
,
0000
0000
0000
0100
0000
0000
0010
0000
0001
0010
0000
0001
,
0000
0000
0000
0100
0000
0010
0100
0000
0010
0000
0000
1000
,
0100
1000
0001
0100
,
0001
0000
0000
0010
0000
0000
0001
0000
0001
1000
0000
1000
,
0010
0000
0000
0100
0000
0001
0000
0000
1000
0001
0000
0010
,
0000
0000
0001
0000
0000
1000
0000
0000
0010
0100
0000
0000
,
0001
0000
0000
1000
0000
0100
0000
0000
0010
0001
0000
0000
,
1000
1010
0001
0101
,
1000
0000
0000
0001
0000
0000
0100
0000
0010
0100
0000
0010
,
0100
0000
0000
0001
0000
0000
1000
0000
0001
0000
0000
0000
,
1001
0000
0000
0000
,
0000
0000
0000
0000
0000
1001
0000
0000
0001
0100
0000
0100
,
0010
0000
0000
1000
0000
0100
0000
0000
1000
0010
0000
0100
,
0000
0000
0010
0000
0000
1000
0000
0000
0001
0100
0000
0000
,
0001
0000
0000
0010
0000
0001
0100
0000
0010
1000
0000
0000
,
0001
0101
1000
1100
,
0001
0000
0000
0001
0000
0000
0100
0000
0001
0010
0000
0001
,
0010
0100
1000
0010
,
0100
0000
0000
0001
0000
1000
0001
0000
0100
0001
0000
0000
,
1000
0000
0000
0100
0000
0000
1000
0000
0001
0100
0000
0001
,
0000
0000
0001
0100
0000
0100
0010
0000
1000
0100
0000
1000
,
0000
0000
1000
0100
0000
0100
0010
0000
0001
1000
0000
0001
,
0000
0000
0001
1000
0000
1000
0010
0000
0100
0001
0000
0101
,
0000
0000
1001
0000
0000
1010
0000
0000
1001
0000
0000
0110
,
0000
0000
0010
1000
0000
0100
0010
0000
0001
0000
0000
0100
,
0000
0000
0001
0010
0000
0100
0010
0000
0001
0000
0000
1001
,
0000
0000
1000
0001
0000
0001
0100
0000
0100
0010
0000
0220
,
0000
0000
0000
0330
,
0001
0000
0000
1000
0000
0000
0001
0000
0100
0010
0000
0100
,
0000
0000
0000
0001
0000
0000
0010
0000
0100
0010
0000
0001
,
0000
0000
0000
0100
0000
0000
0010
0000
1000
0100
0000
1000
,
0000
0000
0001
0010
0000
0000
0001
0000
0100
0010
0000
0100
,
0000
0000
0001
0010
0000
0000
0001
0000
1000
0001
0000
0100
,
0000
0000
0010
0100
0000
0000
0010
0000
1000
0000
0000
0100
,
0000
0000
1000
0100
0000
0100
0010
0000
0010
0001
0000
0000
,
1000
0000
0000
0001
0000
0000
0100
0000
0010
0100
0000
0001
,
0000
0000
0000
1000
0000
0000
0001
0000
0100
0001
0000
1000
,
0000
0000
0000
0010
0000
0000
1000
0000
0100
1000
0000
0001
,
0000
0000
0000
0100
0000
0000
0010
0000
0100
0001
0000
0010
,
0000
0000
0001
0010
0000
0010
0100
0000
0100
1000
0000
0001
,
0000
0000
0000
0100
0000
0000
0010
0000
0100
0010
0000
1000
,
0000
0000
0100
0010
0000
0010
0001
0000
1000
0000
0000
0001
,
0000
0000
0100
0001
0000
1000
0001
0000
1000
0001
0000
0000
,
1000
0000
1000
0000
0000
0000
0001
0000
0001
0000
0000
0100
,
0000
0000
0010
0100
0000
0000
0001
0000
0000
1000
0000
0000
,
0200
0000
0000
0000
0300
0110
0000
0000
,
0001
1000
0001
0000
1001
0000
0000
0000
,
0110
0000
0000
0000
0000
0000
0000
0000
0000
0001
0000
0000
1000
0000
0000
0010
0000
0000
1000
0000
0000
0000
1000
0000
,
0100
0000
0000
0010
0000
0010
0001
0000
0000
0100
0000
0001
,
1000
0000
0000
0010
0000
1000
0100
0000
0000
0010
0000
0001
,
0100
0000
0000
0001
0000
0010
0100
0000
0000
1000
0000
0010
,
0100
0000
0000
0001
0000
0010
0001
0000
0000
1000
0000
1000
,
0001
0000
0001
0100
0000
0100
0020
0000
0000
1030
0000
1000
,
0001
0000
0001
0010
0000
0010
0200
0000
0000
1300
0000
1000
,
0010
0000
0010
0100
0000
0100
0001
0000
0001
1000
0100
1000
,
0100
0020
0031
1001
,
0110
1001
0000
1001
,
0110
1001
0000
1010
,
0101
1100
0000
0011
,
1010
0101
1001
0001
,
0100
0000
0000
0010
0000
1000
0000
0000
0100
0000
0000
1000
,
0010
0000
0000
0100
0000
0001
0000
1000
0000
2002
0000
0000
,
0000
0000
0000
0000
0000
0000
3003
0000
0000
1000
0000
1000
,
0000
1000
0000
0001
0000
0001
0000
0001
0000
1000
0000
1000
,
0001
0000
0001
0100
0000
0010
0100
0000
0110
0000
0000
0000
,
0000
0000
0000
0000
0000
0000
0000
0000
1001
0000
0000
0000
,
0000
0000
0000
0000
0000
0000
0000
0000
1001
0000
0000
0000
,
0000
0000
0000
1000
0000
0000
0000
0000
0001
0000
0000
0101
,
0000
0000
1000
0000
0000
1100
0000
0000
0001
0000
0000
0100
,
0001
0000
0010
0001
0000
1000
0000
0000
0010
0000
0000
1000
,
0100
0000
1000
0100
0000
0010
0001
0000
0000
1000
0000
0000
,
0001
0000
0000
0100
0000
0010
0100
0000
0001
0000
0000
0000
,
1000
0000
0000
0100
0000
1000
0001
0000
1001
0000
0000
0000
,
0001
0000
0000
0100
0000
0001
0010
0000
0001
0000
0000
0000
,
0100
0000
0000
0010
0000
0100
0010
0000
1000
0000
0000
0001
,
0100
0000
0000
0001
0000
1000
0001
0000
1000
0000
0000
0000
,
0100
0000
0000
1000
0000
0001
0100
0000
0100
0000
0000
0001
,
0010
0000
0000
0100
0000
1000
0000
0000
0010
0000
0000
1000
,
0010
0000
1000
0010
0000
0100
0001
0000
0000
1000
0000
0000
,
0001
0000
0000
0010
0000
0100
1000
0000
2002
0000
0000
0000
,
0000
0000
3003
0001
,
0100
0000
0000
0001
0000
1000
0001
0000
0101
0000
0000
0000
,
0100
0000
0000
0010
0000
1000
0100
0000
1000
0000
0000
0000
,
0010
0000
0000
0100
0000
0001
1000
0000
0001
0000
0000
0000
,
0010
0000
0000
0001
0000
0100
0010
0000
0100
0000
0000
0000
,
0001
0000
0000
0100
0000
0000
0010
0000
1000
0000
0000
0100
,
1000
0000
0000
0010
0000
0100
0001
0000
1000
0000
0000
0000
,
0001
0000
0000
0010
0000
0001
1000
0000
0001
0000
0000
0000
,
0100
0000
0000
0010
0000
0100
0010
0000
1000
0000
0000
0000
,
0100
0000
0000
1000
0000
0001
0100
0000
0110
0000
0000
0110
,
0000
0000
0110
0000
0000
0110
0000
0000
2002
0000
0000
0000
,
0000
0000
3003
0000
0000
0000
0000
0000
0000
0000
0000
0000
;

//--------------- dance-single - Fred-104 ----------------
#NOTES:
     dance-single:
     Fred-104:
     Hard:
     16:
     :
0000
0000
0000
0000
,
0000
0000
0000
0000
,
0000
0000
0000
0000
,
0000
0000
0000
0000
,
0000
0000
0000
0000
,
0000
0000
0000
0000
0000
0000
0000
0000
0000
0000
0000
1001
,
0000
0000
0001
0010
0000
0100
1000
0000
0001
1000
0000
1010
,
0000
0000
1000
0001
0010
0100
1000
0001
1000
0001
0000
0011
,
0000
0000
0001
1000
0010
1000
0010
0100
0010
1000
0000
1001
,
0000
0000
0001
0010
0000
0010
0100
0000
1000
0000
0000
1001
,
0000
0000
0001
0100
0000
0010
1000
0000
0001
0100
0000
0110
,
0000
0000
0010
1000
0100
0010
0001
0100
0001
0100
0000
0101
,
0000
0000
0001
0100
0010
0100
0001
1000
0001
1000
0000
1100
,
0000
0000
0001
1000
0000
0001
0010
0000
0001
0000
0000
0100
,
0002
0100
0203
0320
,
2030
0000
0000
3100
0000
0010
0001
0100
1000
0100
0010
0100
,
0001
0000
0000
0010
0000
0001
0000
0000
1000
0001
0000
0010
,
0000
0000
0100
0000
0000
1000
0000
0000
0001
0100
0000
0010
,
0100
0000
0000
0010
0000
1000
0100
0000
0010
0001
0000
0000
,
1100
0000
0010
0001
0000
0000
0101
0000
0010
1000
0000
0000
,
0001
0000
0010
0001
0000
0000
1000
0000
0100
1000
0000
0001
,
0100
0000
0000
0010
0000
0000
1000
0000
0100
0000
0000
1000
,
1001
0000
0000
0000
,
0000
0000
0000
0000
0000
0101
0000
0000
0001
0010
0100
1000
,
0001
0000
0000
0100
0000
0001
1000
0000
0001
0010
0000
0100
,
0000
0000
1000
0000
0000
0001
0000
0000
0100
0010
0000
1000
,
0100
0000
0000
1000
0000
0010
1000
0000
0100
0010
0000
0000
,
0011
0000
0100
1000
0000
0000
1010
0000
0100
0001
0000
0000
,
1001
0000
0000
1000
0000
0001
0010
0100
0010
0100
1000
0010
,
1000
0000
0100
0010
0000
0000
0001
0000
0100
0010
0000
1000
,
0001
0000
0000
0010
0000
0001
1000
0000
0001
0100
0000
0000
,
0001
0010
0100
1000
0010
0100
1000
0100
0010
1000
0100
0010
,
0001
0100
0001
0010
0001
1000
0010
0000
0010
0100
0000
0100
,
0001
1000
0100
0010
0001
1000
0100
0000
0100
1000
0000
1000
,
0010
1000
0100
0010
0100
1000
0001
0000
0100
0001
0000
1001
,
0000
0000
1010
0000
0000
0101
0000
0000
1100
0000
0000
0011
,
0000
0000
0001
0100
0000
0010
1000
0000
0100
0000
0000
0110
,
0000
0000
0010
0001
0100
0001
0010
0000
0001
0000
0000
1001
,
0000
0000
1000
0100
0000
0001
0010
0000
1000
0100
0000
0010
,
0000
0000
0001
0010
0100
1000
0100
0010
0001
1000
0010
0100
,
0001
0010
1000
0001
0100
1000
0001
0000
0100
0010
0000
1010
,
0000
0000
0000
1100
0000
0000
0100
0000
0100
0010
0000
0011
,
0000
0000
0000
0101
0000
0000
0001
0000
0100
0010
0000
1010
,
0000
0000
1000
0010
0000
0100
0001
0000
1000
0100
0000
0110
,
0000
0000
0010
0001
0000
1000
0001
0000
0100
0001
0000
1001
,
0000
0000
1000
0100
0000
0100
0010
0000
0001
0000
0000
0101
,
0000
0000
0001
0100
0000
0100
0010
0000
1000
0100
0000
0000
,
1100
0000
0000
0101
0000
0000
1100
0000
0100
0010
0000
1001
,
0000
0000
0000
0011
0000
0000
0001
0000
0100
0010
0000
1001
,
0000
0000
1000
0100
0000
0010
1000
0000
0010
0001
0000
1001
,
0000
0000
0001
0100
0000
1000
0100
0000
0010
1000
0000
1100
,
0000
0000
1000
0010
0000
0001
0010
0000
0100
0001
0000
0011
,
0000
0000
0001
0100
0010
0100
0001
0010
0100
1000
0000
1001
,
0000
0000
0001
0010
0000
0100
0010
0000
0001
1000
0000
1001
,
0000
0000
1000
0010
0000
0100
0010
1000
0100
0010
0000
0000
,
0011
0000
1001
0000
0000
0000
1010
0000
1001
0000
0000
1100
,
0000
0000
1000
0100
0010
0100
0010
0100
1000
0010
0100
0001
,
2000
0000
0000
0000
3000
1001
0000
0000
,
0110
1010
0101
0000
1100
0000
0000
0000
,
0011
0000
0000
0000
0000
0000
0000
0000
0000
1001
0000
0000
0110
0000
0000
1001
0000
0000
1000
0000
0100
0000
1000
0000
,
0001
0010
0001
1000
0010
1000
0001
0100
0001
1000
0100
0010
,
0001
0010
0100
1000
0010
0100
0001
0100
0010
1000
0001
0010
,
0100
1000
0100
0010
0001
1000
0010
0100
0001
0010
0001
1000
,
0100
0010
1000
0010
0001
0010
0100
1000
0001
1000
0100
0010
,
0001
0010
0100
1000
0100
0010
1001
0000
0000
0001
0100
0010
,
1000
0010
0100
0001
0100
0010
1001
0000
0000
1000
0010
0001
,
0010
0100
0010
1000
0001
0010
1000
0010
0100
1000
0100
0010
,
0001
0100
0010
0001
0010
1000
0002
0000
0000
1003
0100
1000
,
0001
0100
0001
1000
0000
1001
0000
0000
0000
0001
0010
0001
,
1000
0010
1000
0001
0000
1001
0000
0000
0000
1000
0100
0010
,
0001
0010
0100
1000
0000
0001
1000
0000
0001
0100
0001
0100
,
0010
1000
0010
1000
0100
0010
0001
0000
0000
1001
0000
0000
,
0001
0000
1000
0001
0000
0010
0000
0000
0001
0000
0000
0100
,
0010
0000
1000
0100
0000
0010
0000
0100
0000
2002
0000
0000
,
0000
0000
0000
0000
0000
0000
3003
0000
0000
1000
0000
0100
,
0000
0100
0000
0001
0000
0010
0000
0010
0000
1000
0010
0100
,
0001
0010
0100
1000
0000
0000
0001
0000
1001
0000
0000
0000
,
0000
0000
0000
0000
0000
0000
0000
0000
0110
0000
0000
0000
,
0000
0000
0000
0000
0000
0000
0000
0000
1001
0000
0000
0000
,
0000
0000
0000
1000
0000
0000
0010
0000
0100
0000
0000
0110
,
0000
0000
0110
0000
0000
0100
0001
0000
1000
0001
0000
0001
,
0100
0000
0100
0010
0000
1000
0000
0000
1100
0000
0000
0100
,
0010
0000
0010
0001
0000
1000
0001
0000
0000
1000
0000
0100
,
0010
0000
0001
0100
0000
0001
1000
0000
1001
0000
0000
0000
,
0002
0000
0000
0203
0000
1300
0100
0000
0101
0000
0000
0001
,
0010
0000
1000
0010
0000
0001
0100
0000
0110
0000
0000
0001
,
0100
0000
0010
0001
0000
0010
1000
0000
1001
0000
0000
0001
,
0100
0000
0010
0100
0000
0010
1000
0000
1010
0000
0000
0010
,
0001
0100
0001
1000
0000
0010
0100
0000
0101
0000
0000
0001
,
0010
0000
0100
0010
0000
0001
1000
0000
1001
0000
0000
0001
,
0100
0000
0010
1000
0000
0100
0010
0000
0000
0001
0010
0100
,
1000
0010
0100
0001
0100
0010
1000
0000
2002
0000
0000
0000
,
0000
0000
0000
3003
0000
0000
0000
0000
1000
0001
0010
0100
,
1000
0100
0010
0001
0000
1000
0100
0000
0110
0000
0000
0010
,
0001
0100
0001
0010
0001
0100
0010
0000
1010
0000
0000
1000
,
0100
0010
0100
1000
0010
0100
0001
0000
0101
0000
0000
0001
,
1000
0001
0010
0100
0010
0001
1000
0000
2100
0000
0000
0000
,
0010
0000
0000
3100
0000
1000
0001
0000
1001
0000
0000
0001
,
0010
0100
0010
0001
1000
0010
0100
0000
0101
0000
0000
0001
,
0010
0100
0010
0001
1000
0001
0100
0000
0110
0000
0000
0010
,
1000
0100
0010
0100
0010
0001
1000
0000
1001
0000
0000
0001
,
0100
0000
1000
0100
0001
0010
0100
0000
1100
0000
0000
0101
,
0000
0000
1010
0000
0000
0011
0000
0000
2002
0000
0000
0000
,
0000
0000
3003
0000
0000
0000
0000
0000
0000
0000
0000
0000
;

//--------------- dance-double - Fred-104 ----------------
#NOTES:
     dance-double:
     Fred-104:
     Easy:
     8:
     :
00000000
00000000
00000000
00000000
,
00000000
00000000
00000000
00000000
,
00000000
00000000
00000000
00000000
,
00000000
00000000
00000000
00000000
,
00000000
00000000
00000000
00000000
,
00000000
00000000
00000000
00000000
00000000
00000000
00000000
00000000
00000000
00000000
00000000
00001000
,
00000000
00000000
00000000
00010000
00000000
00000000
00001000
00000000
00000000
00000000
00000000
00100000
,
00000000
00000000
00000000
00010000
00000000
00000000
10000000
00000000
00000000
00000000
00000000
00100000
,
00000000
00000000
00000000
01000000
00000000
00000000
00010000
00000000
00000000
00000000
00000000
10000000
,
00000000
00000000
00000000
01000000
00000000
00000000
00100000
00000000
00100000
00000000
00000000
00001000
,
00000000
00000000
00000000
00010000
00000000
00000000
00001000
00000000
00000000
00000000
00000000
00000010
,
00000000
00000000
00000000
00000100
00000000
00000000
00001000
00000000
00000000
00000000
00000000
00000001
,
00000000
00000000
00000000
00000100
00000000
00000000
00000010
00000000
00000000
00000000
00000000
00000100
,
00000000
00000001
00001000
00000001
,
00000100
00000100
00000010
00000010
,
00010000
00010000
00001000
00001000
,
00010000
00000000
00001000
00000000
,
00100000
00010000
00100000
00010000
,
01000000
00100000
01000000
00000000
,
00010000
01000000
00010000
10000000
,
00010000
00000000
10000000
00000000
,
00010000
01000000
00001000
00010000
,
00011000
00000000
00000000
00000000
,
00000000
00000000
00000000
00000000
00000000
00010000
00000000
00000000
00000000
00000100
00000000
00000000
,
00001000
00001000
00000001
00000100
,
00000010
00000100
00000001
00000000
,
00001000
00000010
00001000
00000000
,
00000001
00000100
00001000
00010000
,
00100000
00000000
01000000
00010000
,
10000000
00010000
10000000
01000000
,
00100000
00000000
00001000
00000000
,
00010000
00001000
00010000
00000000
,
00001000
00010000
00010100
00000000
,
00010000
00001000
01001000
00000000
,
00001000
00000000
00000000
00010000
00000000
00000000
00101000
00000000
00000000
00000000
00000000
00001000
,
00000000
00000000
00010000
00000000
00000000
00001000
00000000
00000000
00010000
00000000
00000000
00011000
,
00000000
00000000
00000000
00010000
00000000
00000000
00001000
00000000
00000010
00000000
00000000
00000001
,
00000000
00000000
00000000
00001000
00000000
00000000
00000100
00000000
00000010
00000000
00000000
00000001
,
00000000
00000000
00000000
00000100
00000000
00000000
00001000
00000000
00000000
00000000
00000000
00022000
,
00000000
00000000
00000000
00033000
,
00001000
00010000
00011000
00000000
,
00001000
00010000
00100000
00000000
,
10000000
00010000
00100000
00000000
,
01000000
10000000
00010000
01000000
,
00100000
00000000
00000000
00000000
00000000
00000000
10000000
00000000
00000000
00000000
00000000
01000000
,
00000000
00000000
00000000
00100000
00000000
00000000
00001000
00000000
00000000
00000000
00000000
00010000
,
00000000
00001000
01000000
00001000
,
00010000
00000000
00001000
00000000
,
00000100
00000000
00000000
00000010
00000000
00000000
00001000
00000000
00000000
00000000
00000000
00000001
,
00000000
00000000
00000000
00000100
00000000
00000000
00000010
00000000
00000000
00000000
00000000
00000100
,
00000000
00000000
00000000
00000001
00000000
00000000
00000010
00000000
00000000
00000000
00000000
00000100
,
00000000
00000000
00000000
00010000
00000000
00000000
00001000
00000000
00000000
00000000
00000000
00010000
,
00000000
00000000
00000000
00001000
00000000
00000000
01000000
00000000
00000000
00000000
00000000
00100000
,
00000000
00000000
00000000
01000000
00000000
00000000
00010000
00000000
00000000
00000000
00000000
10000000
,
00000000
01000000
00100000
00010000
,
00001000
00000000
00001000
00000000
00000000
00000000
00010000
00000000
00010000
00000000
00000000
00011000
,
00000000
00010000
00001000
00010000
,
00002000
00000000
00000000
00000000
00000000
00013000
00000000
00000000
,
00010000
00001000
00000100
00000000
,
00000001
00001000
00001001
00000001
,
00000010
00002000
00003000
00010000
,
01000000
20000000
30000000
00010000
,
01000000
00100000
10000000
01000000
,
00100000
00010000
00000000
10000000
,
01000000
00020000
00030000
00001000
,
00000100
00000002
00000003
00001000
,
00000001
00000010
00000100
00000010
,
00000001
00000100
00001000
00010000
,
00001000
00202000
00303000
00001000
,
00010000
00020020
00030030
00010000
,
01000000
02200000
03300000
10000000
,
01000000
02200000
03300000
10000000
,
01000000
00000000
00000000
00100000
00000000
00000000
00000000
00000000
00001000
00000000
00000000
00000000
,
00010000
00000000
00000000
00001000
00000000
00010000
00000000
00001000
00000000
00022000
00000000
00000000
,
00000000
00000000
00033000
00020000
,
00000000
00030000
00000000
00002000
00000000
00000000
00000000
00003000
00000000
00010000
00000000
00000000
,
00001000
00000000
00000000
00010000
00000000
00000000
00000000
00000000
00011000
00000000
00000000
00000000
,
00000000
00000000
00000000
00000000
,
00000000
00000000
00000000
00000000
,
00000000
00000000
00000000
00000001
00000000
00000000
00000000
00000000
00000100
00000000
00000000
00000100
,
00000000
00000000
00000100
00000000
00000000
00000001
00000000
00000000
00000010
00000000
00000000
00000000
,
00000100
00000000
00000000
00001000
00000000
00000000
00000000
00000000
00000100
00000000
00000000
00000000
,
00010000
00001000
00010000
00001000
,
00000000
01000000
00000000
00001000
,
00010000
00000000
00000000
00001000
00000000
00000000
00000000
00000000
00100000
00000000
00000000
00000000
,
00010000
00000000
00000000
01000000
00000000
00000000
00000000
00000000
00010000
00000000
00000000
00000000
,
10000000
00000000
00000000
00010000
00000000
00000000
00000000
00000000
10000000
00000000
00000000
00000000
,
01000000
00000000
00000000
00100000
00000000
00000000
00000000
00000000
01000000
00000000
00000000
00000000
,
10000000
00000000
00000000
00010000
00000000
00000000
00000000
00000000
01000000
00000000
00000000
00000000
,
00001000
00000000
00000000
00010000
00000000
00000000
00000000
00000000
00001000
00000000
00000000
00000000
,
00100000
00001000
00010000
00000010
,
00001000
00000000
00000000
00000100
00000000
00000000
00000000
00000000
00022000
00000000
00000000
00000000
,
00000000
00000000
00033000
00010000
,
00001000
00000000
00000000
00010000
00000000
00000000
00000000
00000000
00011000
00000000
00000000
00000000
,
00010000
00000000
00000000
00001000
00000000
00000000
00000000
00000000
00000010
00000000
00000000
00000000
,
00000001
00000000
00000000
00000100
00000000
00000000
00000000
00000000
00001000
00000000
00000000
00000000
,
00010000
00000000
00000000
00001000
00000000
00000000
00000000
00000000
00100000
00000000
00000000
00000000
,
00010000
00000000
00000000
10000000
00000000
00000000
00000000
00000000
00010000
00000000
00000000
00000000
,
10000000
00000000
00000000
01000000
00000000
00000000
00000000
00000000
00100000
00000000
00000000
00000000
,
00001000
00000000
00000000
00010000
00000000
00000000
00000000
00000000
00001000
00000000
00000000
00000000
,
01000000
00000000
00000000
00001000
00000000
00000000
00000000
00000000
00010000
00000000
00000000
00000000
,
00000100
00000000
00000000
00001000
00000000
00000000
00000000
00000000
00000010
00000000
00000000
00000110
,
00000000
00000000
00000100
00000000
00000000
00000110
00000000
00000000
00002002
00000000
00000000
00000000
,
00000000
00000000
00003003
00000000
00000000
00000000
00000000
00000000
00000000
00000000
00000000
00000000
;

//--------------- dance-double - Fred-104 ----------------
#NOTES:
     dance-double:
     Fred-104:
     Medium:
     12:
     :
00000000
00000000
00000000
00000000
,
00000000
00000000
00000000
00000000
,
00000000
00000000
00000000
00000000
,
00000000
00000000
00000000
00000000
,
00000000
00000000
00000000
00000000
,
00000000
00000000
00000000
00000000
00000000
00000000
00000000
00000000
00000000
00000000
00000000
00000001
,
00000000
00000000
00000000
00001000
00000000
00000000
00000001
00000000
00000100
00000001
00000000
00000100
,
00000000
00000000
00000000
00000010
00000000
00000000
00001000
00000000
00000100
00001000
00000000
00000100
,
00000000
00000000
00000000
00010000
00000000
00000000
00001000
00000000
00010000
00001000
00000000
00010000
,
00000000
00000000
00000000
01000000
00000000
00000000
00100000
00000000
00010000
00000000
00000000
10010000
,
00000000
00000000
00000000
10000000
00000000
00000000
00100000
00000000
01000000
00100000
00000000
01000000
,
00000000
00000000
00000000
00010000
00000000
00000000
00100000
00000000
00001000
00100000
00000000
00001000
,
00000000
00000000
00000000
00010000
00000000
00000000
00000010
00000000
00001000
00000010
00000000
00001000
,
00000000
00000000
00000000
00000010
00000000
00000100
00000010
00000000
00001000
00000000
00000000
00000001
,
00000100
00000010
00001000
00000001
,
00000010
00000000
00000000
00000100
00000000
00000000
00010000
00000000
00010000
00001000
00000000
00001000
,
01000000
00000000
00000000
00001000
00000000
00010000
00000000
00000000
00001000
00100000
00000000
00010000
,
00000000
00000000
10000000
00000000
00000000
00100000
00000000
00000000
01000000
00100000
00000000
00000000
,
10000000
00000000
00000000
00010000
00000000
00100000
00000000
00000000
00001000
00010000
00000000
00000000
,
00001000
00011000
00010000
00011000
,
00010000
00000000
00000000
00001000
00000000
00000000
00000010
00000000
00000100
00001000
00000000
00000001
,
00001000
00000000
00000000
00000100
00000000
00000000
00000010
00000000
00000001
00000000
00000000
00000000
,
00001001
00000000
00000000
00000000
,
00000000
00000000
00000000
00000000
00000000
00001001
00000000
00000000
00000001
00000100
00000000
00000010
,
00000100
00000000
00000000
00000001
00000000
00001000
00000000
00000000
00000010
00010000
00000000
00000100
,
00000000
00000000
00010000
00000000
00000000
00001000
00000000
00000000
00100000
00001000
00000000
00000000
,
00100000
00000000
00000000
00010000
00000000
01000000
00100000
00000000
01000000
00010000
00000000
00000000
,
10000000
10100000
00010000
00110000
,
10000000
00000000
00000000
01000000
00000000
00000000
00100000
00000000
00010000
00100000
00000000
00010000
,
01000000
00001000
00010000
00001000
,
00000100
00000000
00000000
00000001
00000000
00001000
00000001
00000000
00000100
00000010
00000000
00000000
,
00000100
00000000
00000000
00000001
00000000
00000000
00000010
00000000
00000100
00010000
00000000
00001000
,
00000000
00000000
00001000
00100000
00000000
00100000
00010000
00000000
00010000
10000000
00000000
10000000
,
00000000
00000000
00100000
01000000
00000000
01000000
00100000
00000000
10000000
01000000
00000000
01000000
,
00000000
00000000
00100000
00001000
00000000
00001000
00010000
00000000
00010000
00000010
00000000
00001010
,
00000000
00000000
00001001
00000000
00000000
00000101
00000000
00000000
00001001
00000000
00000000
00000110
,
00000000
00000000
00000001
00000100
00000000
00000100
00000010
00000000
00001000
00000000
00000000
00000100
,
00000000
00000000
00010000
00001000
00000000
01000000
00001000
00000000
00010000
00000000
00000000
00011000
,
00000000
00000000
00001000
00100000
00000000
00100000
00010000
00000000
00010000
10000000
00000000
20020000
,
00000000
00000000
00000000
30030000
,
10000000
00000000
00000000
01000000
00000000
00000000
00100000
00000000
00100000
00001000
00000000
00010000
,
00000000
00000000
00000000
00001000
00000000
00000000
00010000
00000000
00000010
00001000
00000000
00000010
,
00000000
00000000
00000000
00010000
00000000
00000000
00000100
00000000
00001000
00000100
00000000
00000010
,
00000000
00000000
00000100
00001000
00000000
00000000
00000001
00000000
00000100
00000010
00000000
00000100
,
00000000
00000000
00000001
00000010
00000000
00000000
00000100
00000000
00010000
00001000
00000000
00100000
,
00000000
00000000
01000000
10000000
00000000
00000000
00010000
00000000
10000000
00000000
00000000
00100000
,
00000000
00000000
10000000
00100000
00000000
00100000
01000000
00000000
01000000
00010000
00000000
00000000
,
00100000
00000000
00000000
00001000
00000000
00000000
00010000
00000000
00001000
00010000
00000000
00001000
,
00000000
00000000
00000000
01000000
00000000
00000000
00001000
00000000
00010000
00001000
00000000
00100000
,
00000000
00000000
00000000
00001000
00000000
00000000
00010000
00000000
00001000
00000010
00000000
00000001
,
00000000
00000000
00000000
00001000
00000000
00000000
00000010
00000000
00000100
00000001
00000000
00001000
,
00000000
00000000
00000001
00000010
00000000
00000010
00000100
00000000
00000100
00010000
00000000
00001000
,
00000000
00000000
00000000
00100000
00000000
00000000
00001000
00000000
00010000
00001000
00000000
01000000
,
00000000
00000000
00010000
00100000
00000000
00010000
10000000
00000000
00010000
00000000
00000000
10000000
,
00000000
00000000
01000000
00100000
00000000
00001000
00010000
00000000
00001000
00100000
00000000
00000000
,
00001000
00000000
00001000
00000000
00000000
00000000
00010000
00000000
00010000
00000000
00000000
00001000
,
00000000
00000000
00000010
00000100
00000000
00000000
00001000
00000000
00000000
00000100
00000000
00000000
,
00000020
00000000
00000000
00000000
00000030
00000110
00000000
00000000
,
00000001
00000100
00001000
00000000
00011000
00000000
00000000
00000000
,
00011000
00000000
00000000
00000000
00000000
00000000
00000000
00000000
00000000
00001000
00000000
00000000
00010000
00000000
00000000
01000000
00000000
00000000
10000000
00000000
00000000
00000000
00100000
00000000
,
10000000
00000000
00000000
00010000
00000000
01000000
00010000
00000000
00000000
10000000
00000000
01000000
,
10000000
00000000
00000000
00010000
00000000
00100000
00010000
00000000
00000000
01000000
00000000
00001000
,
00010000
00000000
00000000
00001000
00000000
00100000
00010000
00000000
00000000
01000000
00000000
00001000
,
00010000
00000000
00000000
00000010
00000000
00001000
00000100
00000000
00000000
00001000
00000000
00001000
,
00000001
00000000
00000001
00000100
00000000
00000100
00000020
00000000
00000000
00001030
00000000
00001000
,
00000100
00000000
00000100
00010000
00000000
00010000
00002000
00000000
00000000
00103000
00000000
00100000
,
00010000
00000000
00010000
10000000
00000000
10000000
00100000
00000000
00100000
01000000
00010000
01000000
,
00010000
02000000
03100000
11000000
,
01100000
00110000
00000000
00101000
,
00011000
00010010
00000000
00001010
,
00000110
00000101
00000000
00000011
,
00001010
00000101
00001001
00000001
,
00000100
00000000
00000000
00000010
00000000
00000100
00000000
00000000
00001000
00000000
00000000
00010000
,
00100000
00000000
00000000
01000000
00000000
00010000
00000000
10000000
00000000
20020000
00000000
00000000
,
00000000
00000000
00000000
00000000
00000000
00000000
30030000
00000000
00000000
10000000
00000000
00100000
,
00000000
10000000
00000000
00010000
00000000
01000000
00000000
00010000
00000000
10000000
00000000
01000000
,
00100000
00000000
00001000
00010000
00000000
00001000
00010000
00000000
00011000
00000000
00000000
00000000
,
00000000
00000000
00000000
00000000
00000000
00000000
00000000
00000000
00001001
00000000
00000000
00000000
,
00000000
00000000
00000000
00000000
00000000
00000000
00000000
00000000
00011000
00000000
00000000
00000000
,
00000000
00000000
00000000
00001000
00000000
00000000
00000000
00000000
00010000
00000000
00000000
00110000
,
00000000
00000000
10000000
00000000
00000000
10100000
00000000
00000000
10000000
00000000
00000000
01000000
,
00100000
00000000
00001000
00010000
00000000
00001000
00000000
00000000
00100000
00000000
00000000
00001000
,
00010000
00000000
00000010
00001000
00000000
00000100
00001000
00000000
00000000
00000001
00000000
00000000
,
00000010
00000000
00000000
00000100
00000000
00000010
00001000
00000000
00010000
00000000
00000000
00000000
,
01000000
00000000
00000000
00100000
00000000
00010000
10000000
00000000
10010000
00000000
00000000
00000000
,
10000000
00000000
00000000
01000000
00000000
00100000
00010000
00000000
01000000
00000000
00000000
00000000
,
00100000
00000000
00000000
10000000
00000000
01000000
00100000
00000000
00001000
00000000
00000000
00010000
,
00001000
00000000
00000000
01000000
00000000
00001000
00010000
00000000
00001000
00000000
00000000
00000000
,
00100000
00000000
00000000
00001000
00000000
00010000
00001000
00000000
00000010
00000000
00000000
00000100
,
00001000
00000000
00000000
00000001
00000000
00000100
00000000
00000000
00000010
00000000
00000000
00001000
,
00000010
00000000
00000100
00000010
00000000
00001000
00000001
00000000
00000000
00000010
00000000
00000000
,
00000100
00000000
00000000
00010000
00000000
00001000
00010000
00000000
00022000
00000000
00000000
00000000
,
00000000
00000000
00033000
00001000
,
00010000
00000000
00000000
00100000
00000000
10000000
00010000
00000000
10010000
00000000
00000000
00000000
,
10000000
00000000
00000000
01000000
00000000
00100000
00010000
00000000
00100000
00000000
00000000
00000000
,
00001000
00000000
00000000
00010000
00000000
00000010
00001000
00000000
00000010
00000000
00000000
00000000
,
00010000
00000000
00000000
00000100
00000000
00001000
00000100
00000000
00000010
00000000
00000000
00000000
,
00000001
00000000
00000000
00000100
00000000
00000000
00000010
00000000
00001000
00000000
00000000
00000100
,
00010000
00000000
00000000
00001000
00000000
01000000
00001000
00000000
00010000
00000000
00000000
00000000
,
00001000
00000000
00000000
00100000
00000000
00010000
10000000
00000000
00100000
00000000
00000000
00000000
,
10000000
00000000
00000000
01000000
00000000
00100000
01000000
00000000
10000000
00000000
00000000
00000000
,
00010000
00000000
00000000
10000000
00000000
01000000
00100000
00000000
00001000
00000000
00000000
00010000
,
00000000
00000000
00001000
00000000
00000000
01000000
00000000
00000000
00022000
00000000
00000000
00000000
,
00000000
00000000
00033000
00000000
00000000
00000000
00000000
00000000
00000000
00000000
00000000
00000000
;

//--------------- dance-double - Fred-104 ----------------
#NOTES:
     dance-double:
     Fred-104:
     Hard:
     16:
     :
00000000
00000000
00000000
00000000
,
00000000
00000000
00000000
00000000
,
00000000
00000000
00000000
00000000
,
00000000
00000000
00000000
00000000
,
00000000
00000000
00000000
00000000
,
00000000
00000000
00000000
00000000
00000000
00000000
00000000
00000000
00000000
00000000
00000000
00011000
,
00000000
00000000
00010000
00000100
00000000
00000100
00001000
00000000
00001000
00000001
00000000
00001001
,
00000000
00000000
00000001
00000010
00000100
00000010
00000100
00001000
00000100
00010000
00000000
00011000
,
00000000
00000000
00001000
01000000
00010000
01000000
00010000
00100000
01000000
00100000
00000000
00110000
,
00000000
00000000
00010000
10000000
00000000
10000000
01000000
00000000
00100000
00000000
00000000
00101000
,
00000000
00000000
00001000
00010000
00000000
00010000
00000100
00000000
00000100
00001000
00000000
00001001
,
00000000
00000000
00000001
00000010
00000100
00001000
00000100
00010000
00001000
01000000
00000000
01010000
,
00000000
00000000
00010000
10000000
00010000
01000000
00100000
10000000
01000000
00100000
00000000
00110000
,
00000000
00000000
00001000
00010000
00000000
00010000
00000010
00000000
00000010
00001000
00000000
00001000
,
00000200
00000010
00000320
00000032
,
00002003
00000000
00000000
00003001
00000000
00001000
00000001
00000010
00001000
00010000
01000000
00100000
,
00010000
00000000
00000000
01000000
00000000
00100000
00000000
00000000
10000000
01000000
00000000
10000000
,
00000000
00000000
00010000
00000000
00000000
10000000
00000000
00000000
01000000
00100000
00000000
00100000
,
00001000
00000000
00001000
00010000
00000000
00000100
00000000
00000000
00001000
00000010
00000000
00000000
,
00000110
00000000
00001000
00000001
00000000
00000000
00000110
00000000
00000001
00001000
00000000
00000000
,
00000001
00000000
00000100
00000010
00000000
00000000
00001000
00000000
00000010
00000100
00000000
00000010
,
00001000
00000000
00000001
00000010
00000000
00000000
00000100
00000000
00010000
00000000
00000000
00001000
,
00011000
00000000
00000000
00000000
,
00000000
00000000
00000000
00000000
00000000
00011000
00000000
00000000
00001000
00100000
00010000
10000000
,
00010000
00000000
00000000
10000000
00000000
01000000
10000000
00000000
00100000
01000000
00000000
00100000
,
00000000
00000000
10000000
00000000
00000000
01000000
00000000
00000000
00100000
00001000
00000000
00010000
,
00001000
00000000
00000010
00000100
00000000
00001000
00000000
00000000
00000010
00010000
00000000
00000000
,
00011000
00000000
00000010
00001000
00000000
00000000
00011000
00000000
00100000
00010000
00000000
00000000
,
00011000
00000000
00000000
00001000
00000000
00001000
00100000
00000000
00100000
00010000
00000000
00010000
,
10000000
00000000
10000000
01000000
00000000
00000000
00100000
00000000
00100000
00001000
00000000
00000000
,
00001000
00000000
00010000
00000100
00000000
00010000
00001000
00000000
00010000
00000010
00000000
00000000
,
00001000
00000100
00000010
00000001
00000100
00000010
00001000
00000100
00000010
00000001
00000000
00001000
,
00000001
00000010
00000100
00001000
00000100
00000010
00000001
00000000
00000100
00001000
00000000
00010000
,
00001000
00100000
01000000
10000000
00010000
00100000
01000000
00000000
00100000
00010000
00000000
10000000
,
00100000
01000000
00100000
00010000
00001000
00000100
00000010
00000000
00001000
00000100
00000000
00000110
,
00000000
00000000
00000011
00000000
00000000
00001010
00000000
00000000
00000101
00000000
00000000
00001100
,
00000000
00000000
00000001
00000010
00000000
00000010
00000100
00000000
00000100
00010000
00000000
00011000
,
00000000
00000000
00001000
00100000
00000000
00100000
00010000
00000000
00010000
10000000
00000000
10100000
,
00000000
00000000
10000000
01000000
00000000
01000000
00100000
00000000
00100000
00001000
00000000
00010000
,
00000000
00000000
00001000
00010000
00000010
00001000
00000010
00010000
00001000
00100000
00010000
01000000
,
00001000
00010000
00001000
00000010
00000100
00001000
00000001
00000000
00000100
00000010
00000000
00001010
,
00000000
00000000
00000000
00001001
00000000
00000000
00000001
00000000
00000001
00000100
00000000
00000110
,
00000000
00000000
00000000
00000010
00000000
00000000
00010000
00000000
00010000
00001000
00000000
00101000
,
00000000
00000000
00001000
00010000
00000000
00001000
00100000
00000000
00010000
01000000
00000000
01100000
,
00000000
00000000
00100000
10000000
00000000
00100000
01000000
00000000
00010000
01000000
00000000
01001000
,
00000000
00000000
00001000
00010000
00000000
00000100
00010000
00000000
00001000
00000000
00000000
00011000
,
00000000
00000000
00010000
00001000
00000000
00000010
00000100
00000000
00010000
00001000
00000000
00000000
,
00011000
00000000
00000000
00001010
00000000
00000000
00000011
00000000
00000001
00001000
00000000
00000010
,
00000000
00000000
00000100
00000001
00000000
00000000
00001000
00000000
00000100
00000010
00000000
00000011
,
00000000
00000000
00000001
00000100
00000000
00001000
00010000
00000000
00001000
00010000
00000000
00011000
,
00000000
00000000
00010000
01000000
00000000
00100000
00010000
00000000
10000000
00010000
00000000
10010000
,
00000000
00000000
10000000
01000000
00000000
00010000
01000000
00000000
10000000
01000000
00000000
01100000
,
00000000
00000000
00100000
00001000
00000000
00010000
00000100
00000000
00001000
00000001
00000000
00001001
,
00000000
00000000
00000001
00000010
00000000
00000100
00001000
00000000
00000010
00010000
00000000
00011000
,
00000000
00000000
00001000
00100000
00000000
00010000
10000000
00010000
01000000
00100000
00000000
00000000
,
10100000
00000000
10010000
00000000
00000000
00000000
01001000
00000000
00011000
00000000
00000000
00010010
,
00000000
00000000
00010000
00001000
00000010
00000001
00001000
00000100
00000010
00000001
00000100
00001000
,
00020000
00000000
00000000
00000000
00030000
00011000
00000000
00000000
,
00101000
00110000
10010000
00000000
10100000
00000000
00000000
00000000
,
01001000
00000000
00000000
00000000
00000000
00000000
00000000
00000000
00000000
00010010
00000000
00000000
00011000
00000000
00000000
00010100
00000000
00000000
00010000
00000000
00001000
00000000
00010000
00000000
,
00000010
00001000
00000010
00010000
00001000
00010000
00000100
00001000
00000100
00010000
00001000
00010000
,
00001000
00100000
00001000
00010000
00001000
00010000
00001000
01000000
00001000
00010000
00001000
00000100
,
00000001
00001000
00000100
00000010
00000001
00000100
00001000
00010000
00001000
00100000
01000000
10000000
,
00010000
00100000
01000000
10000000
01000000
00100000
00010000
00000000
00000000
10000000
01000000
00010000
,
00001000
00000010
00000001
00001000
00000100
00000010
00000001
00000000
00000000
00000001
00000100
00001000
,
00010000
00100000
10000000
00010000
01000000
00100000
10000000
00000000
00000000
10000000
01000000
00100000
,
00010000
00100000
01000000
00100000
00001000
00010000
00001000
00000010
00000100
00001000
00000100
00000010
,
00000001
00000010
00000100
00010000
00001000
00010000
00011000
00000000
00000000
00010000
00001000
00000010
,
00001000
00010000
00001000
00100000
00000000
00011000
00000000
00000000
00000000
00010000
00001000
00000100
,
00001000
00010000
00001000
01000000
00000000
00011000
00000000
00000000
00000000
00010000
00001000
00000010
,
00001000
00010000
00001000
01000000
00000000
00010000
10000000
00000000
01000000
00100000
00000000
00001000
,
00010000
00000000
00000100
00001000
00000001
00000100
00000010
00000000
00000000
00001001
00000000
00000000
,
00000001
00000000
00000100
00000010
00000000
00001000
00000000
00000000
00000100
00000000
00000000
00010000
,
00001000
00000000
00100000
00010000
00000000
10000000
00000000
00100000
00000000
02200000
00000000
00000000
,
00000000
00000000
00000000
00000000
00000000
00000000
03300000
00000000
00000000
11000000
00000000
01010000
,
00000000
00011000
00000000
00001010
00000000
00000011
00000000
00001001
00000000
00000001
00000010
00000100
,
00001000
00000100
00000010
00000001
00000000
00000000
00001000
00000000
00001100
00000000
00000000
00000000
,
00000000
00000000
00000000
00000000
00000000
00000000
00000000
00000000
00011000
00000000
00000000
00000000
,
00000000
00000000
00000000
00000000
00000000
00000000
00000000
00000000
01010000
00000000
00000000
00000000
,
00000000
00000000
00000000
10000000
00000000
00000000
00100000
00000000
10000000
00000000
00000000
11000000
,
00000000
00000000
00110000
00000000
00000000
10000000
00100000
00000000
01000000
00010000
00000000
00010000
,
00100000
00000000
00100000
00001000
00000000
00010000
00000000
00000000
00011000
00000000
00000000
00010000
,
00001000
00000000
00000010
00000100
00000000
00001000
00000001
00000000
00000000
00001000
00000000
00000001
,
00000010
00000000
00000100
00001000
00000000
00000100
00010000
00000000
00011000
00000000
00000000
00000000
,
00002000
00000000
00000000
00203000
00000000
00310000
01000000
00000000
00100000
00000000
00000000
10000000
,
01000000
00000000
00010000
01000000
00000000
10000000
00010000
00000000
10000000
00000000
00000000
10000000
,
00100000
00000000
00010000
00001000
00000000
00000010
00000100
00000000
00001000
00000000
00000000
00001000
,
00000100
00000000
00000010
00000001
00000000
00000100
00000010
00000000
00001000
00000000
00000000
00000001
,
00000010
00000100
00010000
00001000
00000000
00001000
00010000
00000000
00001000
00000000
00000000
00001000
,
00100000
00000000
00010000
10000000
00000000
00100000
01000000
00000000
01000000
00000000
00000000
00010000
,
10000000
00000000
01000000
00100000
00000000
00001000
00010000
00000000
00000000
00001000
00010000
00100000
,
00010000
00001000
00000010
00001000
00010000
00001000
00010000
00000000
00022000
00000000
00000000
00000000
,
00000000
00000000
00000000
00033000
00000000
00000000
00000000
00000000
00010000
00001000
00010000
00000010
,
00001000
00000010
00010000
00001000
00000000
01000000
00010000
00000000
00110000
00000000
00000000
00010000
,
00100000
00000000
00100000
01000000
00000000
01000000
10000000
00000000
10010000
00000000
00000000
10000000
,
01000000
00100000
00001000
00010000
00100000
10000000
01000000
00000000
01100000
00000000
00000000
00100000
,
00001000
00010000
00001000
00000010
00000001
00001000
00000001
00000000
00000200
00000000
00000000
00000000
,
00000310
00000000
00000000
00001000
00000000
00000100
00010000
00000000
00011000
00000000
00000000
00010000
,
00001000
00000000
00001000
00100000
00000000
00010000
10000000
00000000
10010000
00000000
00000000
00010000
,
00100000
01000000
10000000
01000000
00100000
00010000
10000000
00000000
10100000
00000000
00000000
10000000
,
01000000
00010000
00001000
00010000
00001000
00000010
00000001
00000000
00001001
00000000
00000000
00000001
,
00000010
00000100
00000010
00000001
00000100
00000010
00000100
00000000
00000110
00000000
00000000
00010000
,
00000000
00000000
00001000
00000000
00000000
00100000
00000000
00000000
20020000
00000000
00000000
00000000
,
00000000
00000000
30030000
00000000
00000000
00000000
00000000
00000000
00000000
00000000
00000000
00000000
;
