#VERSION:0.83;
#TITLE:LEADING CYBER;
#ARTIST:dj TAKA;
#GENRE:DIGI ROCK;
#BANNER:LEADING CYBER.png;
#BACKGROUND:LEADING CYBER-bg.png;
#CDTITLE:./CDTitles/bm IIDX 3rd style.png;
#MUSIC:LEADING CYBER.ogg;
#SAMPLESTART:30.4;
#SAMPLELENGTH:15;
#DISPLAYBPM:150;
#BPMS:0=150;
#STAGE:22;

//--------------- dance-single - Fred-104 ----------------
#NOTEDATA:;
#STEPSTYPE:dance-single;
#DESCRIPTION:Fred-104;
#DIFFICULTY:Beginner;
#METER:3;
#CREDIT:Fred-104;
#NOTES:
0000
0000
0000
0000
,
0000
0000
0000
0000
,
0001
0000
1000
0000
,
0001
0000
1000
0000
,
0001
0000
0100
0000
,
0001
0000
0001
0000
,
1000
0000
1000
0000
,
0010
0000
1000
0000
,
0001
0000
1000
0000
,
0002
0000
0003
0000
,
1000
0000
0010
0000
,
1000
0000
1000
0000
,
0001
0000
0100
0000
,
0002
0000
0003
0000
,
0001
0000
1000
0000
,
0001
0000
1000
0000
,
0001
0000
1000
0000
,
0010
0000
1000
0000
,
1001
0000
0000
0000
,
0001
0000
0001
0000
,
0100
0000
0100
0000
,
0001
0000
0001
0000
,
1000
0000
2000
3000
,
1000
0000
0001
0000
,
1000
0000
0010
0000
,
1000
0000
1000
0000
,
0002
0000
0003
0000
,
1000
0000
0010
0000
,
1000
0000
0001
0001
,
0001
0000
0100
0000
,
0010
0000
0100
0100
,
0100
0000
0001
0000
,
1000
0000
0001
0001
,
0001
0000
1000
0000
,
0001
0000
0001
0001
,
0001
0000
0000
0000
,
1000
0000
1000
1000
,
1000
0000
0001
0000
,
0100
0000
0001
0001
,
0001
0000
1000
0000
,
0001
0000
1000
0000
,
0010
0000
1000
0000
,
0002
0000
0003
0000
,
1000
0000
0010
0000
,
1000
0000
0100
0000
,
0100
0000
1000
0000
,
1000
0000
0001
0000
,
0001
0000
1000
0000
,
0001
0000
0001
0000
,
1000
0000
1000
0000
,
0002
0000
0003
0000
,
1000
0000
0001
0000
,
1000
0000
0010
0000
,
1000
0000
0100
0000
,
1000
0000
0001
0001
,
0001
0000
1000
0000
,
0001
0000
1000
0000
,
0001
0000
1000
0000
,
0001
0000
1000
0000
,
2002
0000
0000
0000
,
0000
0000
0000
0000
,
0000
0000
0000
0000
,
3003
0000
0000
0000
;

//--------------- dance-single - Fred-104 ----------------
#NOTEDATA:;
#STEPSTYPE:dance-single;
#DESCRIPTION:Fred-104;
#DIFFICULTY:Easy;
#METER:6;
#CREDIT:Fred-104;
#NOTES:
0000
0000
0000
0000
,
0000
0000
0000
0000
,
1000
1000
0000
1000
,
0001
0001
0000
0100
,
0010
0010
0000
0010
,
0100
0001
0000
1000
,
0001
0100
0001
0100
,
0010
0100
0100
0000
,
0001
1000
0001
1000
,
1000
0100
1000
0001
,
1000
0100
1000
0001
,
0100
0010
0100
0000
,
0001
0001
0010
0001
,
2000
0000
3002
0000
1003
0001
1000
0000
,
0001
0010
0100
0100
,
1000
0010
1000
1000
,
0001
0100
0010
0100
,
0001
0000
0001
0000
1000
0001
1000
0000
,
2002
0000
0000
3003
,
0001
0001
0000
0000
0100
0000
0010
0000
,
1000
0000
1000
0001
,
0100
0000
0001
0010
,
0100
1000
0001
2000
,
3001
0010
0010
0001
,
1000
0010
0100
0010
,
1000
0100
0010
0001
,
1000
0001
0200
0320
,
0130
0000
0001
0000
,
1000
0010
0200
0302
,
1003
0000
0001
0000
,
0010
0100
2000
3002
,
1003
0000
0010
0000
,
0100
0001
0200
0320
,
0130
0000
0010
0000
,
1000
0001
1000
0000
0002
0000
0203
0000
,
0301
0000
0100
0100
,
0010
0000
2000
3002
,
1003
0000
1000
0100
,
0001
0000
0002
0203
,
1300
1000
0010
0100
,
0001
0010
0001
0100
,
0001
0100
1000
0100
,
0002
0000
2003
0000
,
3001
0001
0100
0010
,
0100
0000
0001
0000
1000
0100
1000
0000
,
0001
0001
0100
0010
,
0100
0001
1001
0000
,
1000
1000
0100
1000
,
0010
0000
0100
0000
0001
1000
0001
0000
,
0100
0010
0100
0100
,
0001
1000
1001
0000
,
0001
0010
0100
0100
,
0010
0000
0001
0000
1000
0010
1000
0000
,
0001
0100
0100
0010
,
0100
0000
0001
0000
1000
0100
1000
0000
,
0001
1000
0100
0100
,
0010
0000
0001
0000
0100
0010
0100
0000
,
0001
0001
0100
0010
,
1000
0001
1000
0001
,
2002
0000
0000
0000
,
0000
0000
0000
0000
,
0000
0000
0000
0000
,
3003
0000
0000
0000
;

//--------------- dance-single - Fred-104 ----------------
#NOTEDATA:;
#STEPSTYPE:dance-single;
#DESCRIPTION:Fred-104;
#DIFFICULTY:Medium;
#METER:10;
#CREDIT:Fred-104;
#NOTES:
0000
0000
0000
0000
,
0000
0000
0000
0000
,
0010
0100
0010
0000
0100
0000
0001
0000
,
1000
0100
1000
0000
0010
0000
0100
0000
,
0001
0010
0100
0000
1000
0000
0001
0000
,
1000
0010
0100
0000
0010
0000
1000
0000
,
0001
0010
0100
1000
0010
0100
0001
0000
,
1000
0100
0010
0001
1000
0010
1000
0000
,
0001
0100
0010
0100
0001
1000
0001
0000
,
1000
0010
0100
0010
1000
0001
1001
0000
,
0001
0010
0100
1000
0010
0100
0010
0000
,
0100
0010
0100
0001
1000
0100
0010
0000
,
0001
0100
1000
0100
0001
1000
0001
0000
,
2000
3020
0230
0302
1003
0100
0110
0000
,
0010
0001
1000
0000
0001
1000
0100
1000
,
0010
0100
0001
0000
1000
0100
0010
0100
,
0001
0100
0010
0000
0100
1000
0001
0010
,
0001
0000
1000
0000
0001
0000
0000
0100
0000
0000
0010
0000
1000
0000
0001
0000
,
2002
0000
0000
3003
,
0001
0000
0001
0000
0100
0000
0000
0000
0010
0000
0000
1000
0000
0000
0100
0000
,
1000
0000
0010
0000
0100
0000
0000
0000
0001
0000
0000
0010
0000
0000
0100
0000
,
0010
0000
0001
0000
1000
0000
0000
0000
0100
0000
0000
1000
0000
0000
0001
0000
,
1000
0000
0000
0100
0000
0000
0100
0000
0001
0000
0000
0010
0000
0000
0010
0000
,
1000
0000
0001
0000
0100
0000
0000
0000
0001
0000
0000
0010
0000
0000
0100
0000
,
0010
0000
0100
0000
1000
0000
0000
0000
0001
0000
0000
1000
0000
0000
0100
0000
,
0001
0000
0100
0000
1000
0000
0000
0000
0010
0000
0000
0100
0000
0000
0001
0000
,
1000
0100
0010
0001
0200
0000
0320
0000
,
0130
0000
0000
0100
0010
0000
0000
0000
0010
0000
0000
0010
0100
0000
0000
0000
,
0001
0100
0010
0100
0002
0000
2003
0000
,
3001
0000
0000
0001
1000
0000
0000
0000
1000
0000
0000
1000
0001
0000
0000
0000
,
0001
0100
0010
1000
0020
0000
0230
0000
,
0301
0000
0000
0100
0010
0000
0000
0000
1000
0000
0000
0100
0010
0000
0000
0000
,
0001
0010
0001
1000
0020
0000
0230
0000
,
0301
0000
0000
0010
0100
0000
0000
0000
1000
0000
0000
0010
0100
0000
0000
0000
,
0001
0001
1000
0010
0200
0000
0302
0003
,
1001
1010
1000
1001
,
0001
0010
0001
0100
0110
0000
0110
0000
,
0010
1000
0100
0000
0010
0001
1000
0000
,
0001
0100
1000
0100
0101
0000
1001
0000
,
1000
0010
0100
0000
0010
1000
0100
0000
,
0010
0001
1000
0001
0011
0000
1010
0000
,
0010
0001
1000
0010
0100
0010
1000
0100
,
0010
0001
1000
0010
0100
0100
0010
0010
,
1000
0000
0010
0000
0100
0000
0001
0000
1000
0000
0000
0100
0000
0000
0010
0000
,
0001
0000
0100
0000
0010
0000
1000
0000
0100
0000
0000
0001
0000
0000
0100
0000
,
1000
0010
0100
0000
0001
0100
0010
1000
,
0001
1000
0100
0010
0001
0010
0011
0000
,
0001
0000
0001
0000
0100
0000
0010
0000
0100
0000
0000
0010
0000
0000
1000
0000
,
0010
0100
0001
1000
0100
0010
0001
0001
,
0100
0010
0100
0001
0100
0000
1001
0000
,
0010
0000
1000
0000
0100
0000
0000
0010
0000
0000
0001
0000
1001
0000
0000
0000
,
0001
0010
0011
0000
0100
1000
1100
0000
,
0001
0100
0101
0000
1000
0010
1010
0000
,
0001
0100
0110
0000
1000
0100
0110
0000
,
0001
1000
1001
0000
0100
0010
0110
0000
,
0001
0010
0001
1000
0001
0100
0010
0000
,
1000
0100
0010
0001
1000
0010
0100
0000
,
0001
0100
0010
0100
0001
1000
0001
0000
,
1000
0100
0010
0001
0100
0010
0100
0001
,
2002
0000
0000
0000
,
0000
0000
0000
0000
,
0000
0000
0000
0000
,
3003
0000
0000
0000
;

//--------------- dance-single - Fred-104 ----------------
#NOTEDATA:;
#STEPSTYPE:dance-single;
#DESCRIPTION:Fred-104;
#DIFFICULTY:Hard;
#METER:14;
#CREDIT:Fred-104;
#NOTES:
0000
0000
0000
0000
,
0000
0000
0000
0000
,
0001
0100
0100
0000
0010
0100
0001
0000
,
1000
0000
0100
0000
0010
0001
1000
0000
,
0001
1000
0100
0000
1000
0010
0100
0000
,
0001
0100
0010
0100
0001
1000
0001
0000
,
1000
0000
1000
0100
0000
0100
0010
0000
0010
0001
0000
0001
0100
0000
0010
0000
,
1000
0000
0001
0100
0000
0010
0100
0000
0001
0000
0010
0000
0012
0000
0000
0000
,
1003
0100
0000
0100
0010
0000
0001
0100
0000
0010
0000
0100
0000
0010
1000
0000
,
0001
0001
1000
1000
0001
0010
0100
1000
,
0001
0100
0110
0000
1010
1000
0001
0100
,
0010
1000
1100
0000
0101
0100
1000
0010
,
0100
0001
0011
0000
1010
0010
0001
1000
,
0002
0000
2003
0000
3020
0000
0230
0000
0301
0100
0000
0100
0010
0000
1000
0010
,
1000
0000
0100
0000
0110
0000
0000
0000
0010
0001
0010
0000
0001
0000
1000
0000
,
0001
0000
0100
0000
0110
0000
0000
0000
0001
1000
0001
0000
1000
0000
0100
0000
,
1000
0000
0010
0000
1010
0000
0000
0000
0100
0010
0100
0000
0001
0100
0000
0100
,
0001
0000
1000
0000
0001
0000
1000
0100
0000
0010
0001
0000
0100
0010
0100
0000
,
2002
0000
0000
3003
,
1000
0000
0010
0000
0010
0000
0001
0000
1000
0000
0010
0100
0000
0010
0100
0000
,
0001
0000
0001
0000
0100
0000
0010
0000
0100
0000
0001
0010
0000
0100
1000
0000
,
0001
0100
0010
0000
0100
0000
0100
0000
0001
0000
1000
0100
0000
1000
0010
0000
,
1000
0000
0010
1000
0000
0100
1000
0000
0001
0000
0100
0001
1000
0001
1000
0001
,
1000
0000
0100
0000
0010
0000
0001
0000
1000
0000
0010
1000
0010
0000
0100
0000
,
0001
0010
0000
0001
0100
0000
0010
1000
0000
0100
0000
1000
0000
0001
1000
0000
,
0001
0010
0000
0010
0100
0010
0001
0000
1000
0000
0010
0100
0000
0010
0000
1000
,
0001
0100
0001
0000
1000
0010
1000
0000
2020
0000
0000
3030
0201
0000
0000
0301
,
1000
0000
0000
1000
0010
0000
0000
0010
0100
0000
0001
0000
1001
0000
0000
0000
,
0110
0000
0100
0000
0001
0010
0000
0010
0200
0000
0000
0000
2300
0000
0000
0000
,
3001
0000
0000
0001
1000
0000
0000
1000
0100
0000
0010
0000
0011
0000
0000
0000
,
0001
0100
0010
0000
1000
0010
0100
0010
0200
0000
0000
0000
0302
0000
0000
1003
,
0001
0000
0000
0001
0010
0000
0000
0010
0100
0000
1000
0000
1010
0000
0000
0000
,
0101
0000
0100
0000
0010
0100
0000
0100
0002
0000
0000
0000
2003
0000
3010
1000
,
0010
0000
0000
0010
1000
0000
0000
1000
0001
0000
0010
0000
0011
0000
0001
1000
,
0001
0000
1000
0000
0010
0000
0100
0000
0001
0100
0001
0100
0001
0100
0001
0000
,
1001
0000
0000
0001
0010
0000
0000
0010
0100
0000
0000
0100
1000
0000
0000
0000
,
0001
0100
0001
0100
0000
0000
0010
0000
1010
0000
0000
0000
1001
0000
0000
0000
,
0001
0000
0100
0000
0010
0000
1000
0001
1000
0100
1000
0000
1001
0000
0000
0000
,
1000
0010
1000
0010
0000
0000
0100
0000
0101
0000
0000
0000
0110
0000
0000
0000
,
0010
0000
1000
0010
1000
0000
0100
0000
0010
0000
0001
0000
1000
0000
0001
0000
,
0100
0000
0010
0100
0010
0000
1000
0000
0001
0000
0010
0000
0100
0000
1000
0010
,
1000
0000
0001
0100
0001
0000
0100
0000
0010
0000
0100
0000
0001
0000
0010
0100
,
1000
0000
0010
0100
0001
0000
0010
0000
0001
0100
0001
0000
1000
0010
1000
0000
,
0001
0010
0011
0001
1000
0010
0110
0100
,
0001
1000
1100
0100
0010
0001
1001
1000
,
0010
0000
0100
0000
0101
0000
0001
0000
0010
0000
0100
1000
0001
0000
0100
0000
,
0010
0000
1000
0000
1001
0000
0001
0000
0100
0000
0010
0100
0020
0000
0000
0000
,
1030
0000
0100
0000
1000
0010
0100
0000
0101
0000
0001
0000
1000
0000
0100
0000
,
0010
0000
0001
0000
0100
0010
1000
0000
1010
0000
0010
0000
0100
0000
0010
0000
,
1000
0000
0100
0000
0010
0100
0010
0000
0011
0000
0001
0000
1000
0000
0001
0000
,
0100
0000
0010
0000
0100
0000
0001
0010
0000
0100
1000
0000
1001
0000
0000
0000
,
0001
0000
0010
0001
0000
1000
0001
0000
0100
0001
0000
1000
0001
0000
1000
0100
,
1000
0000
0010
0100
0010
0100
0010
0000
1000
0001
1000
0001
0100
0001
0100
0000
,
0010
0000
1000
0010
1000
0000
0001
0000
0100
0010
0100
0000
0001
0000
1000
0000
,
0001
0000
0100
0010
0000
0100
0001
0000
1000
0100
0000
0010
0001
0000
0001
0100
,
0001
0000
1000
0100
0000
0100
0010
0000
0001
0100
0000
0100
0010
0000
1000
0100
,
0000
0010
0100
0000
1000
0001
0000
0001
0010
0100
0000
0100
2000
0000
3002
0000
,
0103
0000
0010
0100
0001
0100
0010
0000
1000
0001
0000
0010
0001
0000
1000
0001
,
0100
0000
0010
0000
0100
0000
0001
0010
0000
0100
1000
0000
0001
1000
0010
0100
,
0002
0000
0000
0000
,
0000
0000
0000
0000
,
0000
0000
0000
0000
,
0003
0000
0000
0000
;

//--------------- dance-single - Fred-104 (ANOTHER) ----------------
#NOTEDATA:;
#STEPSTYPE:dance-single;
#DESCRIPTION:Fred-104 (ANOTHER);
#DIFFICULTY:Challenge;
#METER:16;
#DISPLAYBPM:150;
#BPMS:0=149,4=150.8,8=149.83,27=148,28=149.172,55.5=155,56=150.119,58.25=152,58.75=150.119,59=147.541,60=150.119,62.5=150.482,63=150.119,67=150.5,68=150.119,74=154,75=147.85,76=150.119,95=150.5,96=150.119,103=152,104=150.5,107=151,108=149.83,115=152.25,116=149.83,123=150.5,124=149.9,139=149,140=149.75,144=147,144.5=148,145=150.119,148=152.5,148.5=150.12,154=151,155=149,156=150,170=149.8,171.5=140.078,172=149.83,187.75=139,188=150,191=149.2,192=150.119,195.75=148,196=150,203.5=148,204=150,207.5=144.5,208=150.3,211=149,212=150,219.5=147.541,220=150,238=149,239=148,240=150,246=152,247=150;
#BANNER:../LEADING CYBER (ANOTHER)/LEADING CYBER (ANOTHER).png;
#MUSIC:../LEADING CYBER (ANOTHER)/LEADING CYBER (ANOTHER).ogg;
#CREDIT:Fred-104 (ANOTHER);
#NOTES:
0000
0000
0000
0000
,
0000
0000
0000
0000
,
0001
0100
0001
0100
0001
0000
1000
0100
0000
0010
0001
0000
1000
0010
1000
0000
,
0001
0000
0010
0001
0000
1000
0001
0000
0100
0010
0100
0000
1001
0000
0000
0000
,
1000
0000
0100
1000
0000
0010
0100
0000
0010
1000
0000
0001
0010
0100
0000
0100
,
1000
0000
0001
0000
1000
0100
0010
0000
0001
0100
0000
0010
1000
0001
0010
0000
,
0001
0100
0001
0100
0010
0100
0000
0100
0010
0000
1000
0000
1100
0000
0000
0000
,
1000
0000
0001
0000
0100
0000
0010
0100
0010
0100
0010
0000
0100
0000
0001
1000
,
0001
0010
0001
0010
0001
0100
0000
0010
0000
1000
0000
0000
1020
0000
0000
0000
,
0130
0000
0001
0000
1000
0100
0000
0010
0001
1000
0010
0000
0100
0010
0100
0000
,
0001
0010
0000
0100
0010
0000
0001
1000
0000
0010
1000
0000
0100
1000
0100
0000
,
0010
0000
0001
0010
0000
0001
1000
0000
0001
0100
0010
0000
1010
0000
0000
0000
,
1100
0000
0100
0010
0000
0010
0001
0000
1000
0010
0000
0010
0100
0010
0000
0010
,
1000
0000
0100
0000
0001
0100
1000
0000
0001
0100
0000
0100
0010
0100
0002
0000
,
1003
0100
0010
0001
1000
0010
0000
0100
0000
0001
0000
0010
0012
0000
0000
0000
,
1003
0000
0001
0000
1000
0000
0100
1000
0100
0010
0001
0000
0100
1000
0100
0001
,
1000
0010
0100
0010
1000
0100
0010
0001
0000
0100
0000
0010
0110
0000
0000
0000
,
1001
0000
0011
0000
0001
1000
0000
0010
0000
0100
0001
0000
1000
0010
1000
0000
,
2002
0000
0000
3003
,
0110
0000
0110
0000
0001
0000
0100
0010
1000
0100
0010
0000
0001
0100
0000
0010
,
1000
0100
1000
0010
0000
0100
0001
0000
1000
0100
0000
0010
0002
0000
0203
0000
,
0301
0000
0100
0000
1000
0000
0100
0001
1000
0000
0100
0000
0001
0000
0100
1000
,
0010
0100
0010
0100
0000
0001
0010
0001
0000
1000
0010
0000
0100
0001
1000
0100
,
0010
0000
0011
0000
0001
0000
1000
0010
0100
0001
1000
0000
1010
0000
0000
0000
,
0100
0010
0100
0001
0000
1000
0100
0000
0010
0001
0000
0001
2000
0000
3200
0000
,
1300
0000
0010
0000
0110
0000
0100
0001
0020
0000
0032
0003
1001
0000
0000
0000
,
1000
0100
0010
0100
0000
1000
0010
0000
0200
0000
0302
0000
2000
0000
3003
0000
,
1001
0000
0000
0100
0010
0000
0001
0100
0000
1000
0100
0000
0001
0000
1000
0100
,
0000
0001
0100
0000
1000
0000
0001
0100
0010
1000
0010
1000
0002
0000
0000
0000
,
1003
0100
0000
0010
0001
0000
1000
0010
0000
0001
0010
0000
1000
0000
0001
0010
,
0000
1000
0010
0000
0001
0000
1000
0010
0100
0001
0100
0001
2000
0000
0000
0000
,
3001
0100
0000
0010
1000
0000
0001
0100
0000
1000
0100
0000
0001
0000
0010
1000
,
0000
0010
0001
0000
1000
0000
0001
1000
0001
1000
0100
0010
0200
0000
0000
0000
,
1300
0100
0000
0010
0001
0000
1000
0100
0000
0001
0100
0000
1000
0000
0001
0010
,
0000
1000
0010
0000
0001
0000
1000
0010
0100
0001
0100
0001
0020
0000
0000
0000
,
0230
0300
0000
0000
0000
0000
0000
0000
0200
0300
0000
0000
0001
0000
0000
0000
1000
0000
0000
0000
0100
0000
0000
0000
0020
0030
0000
0000
0000
0000
0000
0000
0020
0030
0000
0000
1000
0000
0000
0000
0001
0000
0000
0000
0010
0000
0000
0000
0200
0300
0000
0000
0000
0000
0000
0000
0200
0300
0000
0000
0001
0000
0000
0000
,
0020
0030
0000
0000
0000
0000
0000
0000
0020
0030
0000
0000
1000
0000
0000
0000
0001
0000
0000
0000
0100
0000
0000
0000
0020
0030
0000
0000
0000
0000
0000
0000
0020
0030
0000
0000
0001
0000
0000
0000
0100
0000
0000
0000
0010
0000
0000
0000
1000
0000
0000
0000
0100
0000
0000
0000
0001
0000
0000
0000
0100
0000
0000
0000
,
1000
0000
1000
0100
0010
0100
0001
0000
0001
0100
0010
0100
1000
0010
0100
0001
,
1000
0000
0100
0010
0001
1000
0001
0000
0101
0000
0000
0000
1010
0000
0000
0000
,
1000
0010
0000
1000
0100
0000
0010
0001
0100
0001
0010
0001
1000
0000
0001
0100
,
0001
0010
0000
0010
0100
1000
0001
0000
0100
0010
0100
0001
1000
0100
0010
0001
,
0200
0300
0000
0000
0000
0000
0000
0000
0200
0300
0000
0000
1000
0000
0000
0000
0001
0000
0000
0000
1000
0000
0000
0000
0020
0030
0000
0000
0000
0000
0000
0000
0020
0030
0000
0000
0001
0000
0000
0000
1000
0000
0000
0000
0100
0000
0000
0000
0010
0000
0000
0000
0100
0000
0000
0000
1000
0000
0000
0000
0100
0000
0000
0000
,
0010
0001
1000
0001
0100
0010
1000
0000
0001
0100
0010
0100
0001
0100
0010
0000
,
1000
0100
0000
0010
0001
0000
1000
0001
0000
0010
0001
0000
1000
0100
0000
0001
,
0100
0000
1000
0010
0000
0001
0010
0000
1000
0001
0100
0010
0200
0000
0000
0000
,
0301
0000
0010
0100
0000
0010
1000
0000
0010
0100
0000
0010
0001
0100
0000
0010
,
1000
0000
0010
0000
0001
0010
1000
0000
0001
0100
0010
1000
0002
0000
2003
0000
,
3010
1000
0010
0100
0010
1000
0000
0002
0000
0000
0103
0000
1001
0000
0000
0000
,
0001
0100
0001
0000
0100
0000
1000
0100
1000
0100
0001
0000
1000
0001
1000
0001
,
1000
0100
0010
0001
1000
0000
0001
0010
0000
0100
0010
0000
0012
0000
0000
0000
,
1003
0000
1100
0000
0100
0010
0000
0011
0000
0001
0100
0000
0010
0100
0010
0000
,
1000
0001
0100
0001
1000
0000
0001
0010
0000
0100
1000
0000
0001
0100
0100
0000
,
1000
0000
0100
0010
0000
0001
1000
0000
0001
0100
1000
0100
0002
0000
0000
0000
,
1003
0000
0010
1000
0000
0100
1000
0000
0010
0100
0000
0001
0100
0010
0000
1000
,
0100
0000
0010
0000
0001
0010
1000
0000
0010
0001
1000
0010
0200
0000
0302
0000
,
1003
0100
0010
0100
0001
0100
0000
0010
0000
0001
1000
0000
1002
0000
0000
0000
,
1003
0100
1000
0000
0100
0000
0001
0100
0001
0100
1000
0000
0001
1000
0100
1000
,
0001
0100
0010
0100
0001
0010
0000
0100
0000
1000
0001
0000
2010
0000
0000
0000
,
3001
0000
0011
0000
0100
1000
0000
1010
0000
0010
0100
0000
0010
0100
0001
1000
,
2002
0000
0000
0000
,
0000
0000
0000
0000
,
0000
0000
0000
0000
,
3003
0000
0000
0000
;

//--------------- dance-double - Fred-104 ----------------
#NOTEDATA:;
#STEPSTYPE:dance-double;
#DESCRIPTION:Fred-104;
#DIFFICULTY:Easy;
#METER:6;
#CREDIT:Fred-104;
#NOTES:
00000000
00000000
00000000
00000000
,
00000000
00000000
00000000
00000000
,
00001000
00001000
00000000
00010000
,
00001000
00010000
00000000
00001000
,
00100000
00010000
00000000
01000000
,
00100000
01000000
00000000
00010000
,
10000000
01000000
00100000
01000000
,
00100000
00001000
00010000
00000000
,
00001000
00010000
00000100
00010000
,
00001000
00010000
00000010
00010000
,
00001000
00000100
00000001
00001000
,
00000100
00000010
00000001
00000000
,
00000001
00000100
00000010
00001000
,
00000200
00000000
00000320
00000000
00000031
00000100
00000001
00000000
,
00000100
00000100
00001000
00001000
,
00010000
01000000
10000000
00010000
,
01000000
00100000
01000000
00010000
,
10000000
00000000
01000000
00000000
00100000
00010000
00100000
00000000
,
00022000
00000000
00000000
00033000
,
00001000
00001000
00000000
00000000
00010000
00000000
00001000
00000000
,
00010000
00000000
00000010
00001000
,
00000100
00000000
00010000
00000100
,
00001000
00000010
00000100
00000002
,
00000103
00000010
00000100
00000100
,
00000001
00000000
00001000
00000010
,
00000001
00000000
00000010
00001000
,
00000001
00000100
00002000
00023000
,
00031000
00000000
00100000
00000000
,
00010000
01000000
00200000
02300000
,
03010000
00000000
10000000
00000000
,
00100000
01000000
00020000
00032000
,
00003100
00000000
00000010
00000000
,
00010000
00001000
00000020
00000230
,
00010300
00000000
00001000
00000000
,
00100000
01000000
00200000
20300000
,
30010000
00000000
10000000
01000000
,
00100000
00000000
00002000
00023000
,
00031000
00000000
00010000
00001000
,
00000100
00000000
00000020
00000032
,
00001003
00000000
00000001
00000100
,
00000010
00000000
00001000
00010000
,
00100000
00000000
01000000
10000000
,
00020000
00000000
20000000
30030000
,
10000000
00010000
10000000
01000000
,
00100000
00000000
00001000
00000000
00010000
00001000
00010000
00000000
,
00001000
00010000
00000100
00010000
,
00001000
00000100
00000110
00000000
,
00000001
00000010
00000100
00000010
,
00000001
00000000
00001000
00000000
00000010
00001000
00000010
00000000
,
00010000
00001000
00100000
00001000
,
00010000
00001000
00011000
00000000
,
01000000
00001000
00010000
00001000
,
01000000
00000000
00100000
00000000
01000000
00100000
01000000
00000000
,
00010000
01000000
00100000
10000000
,
01000000
00000000
00100000
00000000
00001000
00010000
00001000
00000000
,
00100000
00001000
00010000
00000010
,
00001000
00000000
00000100
00000000
00010000
00001000
00010000
00000000
,
00000010
00001000
00000100
00010000
,
00001000
00000100
00000001
00001000
,
00002002
00000000
00000000
00000000
,
00000000
00000000
00000000
00000000
,
00000000
00000000
00000000
00000000
,
00003003
00000000
00000000
00000000
;

//--------------- dance-double - Fred-104 ----------------
#NOTEDATA:;
#STEPSTYPE:dance-double;
#DESCRIPTION:Fred-104;
#DIFFICULTY:Medium;
#METER:10;
#CREDIT:Fred-104;
#NOTES:
00000000
00000000
00000000
00000000
,
00000000
00000000
00000000
00000000
,
00010000
00001000
00010000
00000000
00000010
00000000
00001000
00000000
,
00000100
00010000
00001000
00000000
01000000
00000000
00010000
00000000
,
00100000
00001000
00010000
00000000
00001000
00000000
00000100
00000000
,
00000010
00001000
00010000
00000000
00100000
00000000
10000000
00000000
,
00010000
01000000
10000000
00000000
00010000
00100000
10000000
00000000
,
10000000
01000000
00010000
00000000
10000000
00100000
00010000
00000000
,
00001000
00000010
00000001
00000000
00000010
00001000
00000001
00000000
,
00000100
00000010
00001000
00000001
00000010
00000100
00001100
00000000
,
00000100
00010000
00001000
00000000
01000000
00100000
10000000
00000000
,
00010000
00100000
10000000
00100000
00010000
10000000
00010000
00000000
,
10000000
01000000
00100000
00000000
00001000
00010000
00001000
00000000
,
02000000
03020000
00230000
00302000
00013000
00001000
00011000
00000000
,
00010000
00001000
00000100
00000000
00000001
00000100
00001000
00000000
,
00010000
01000000
10000000
01000000
00100000
01000000
00010000
00000000
,
10000000
01000000
00100000
00000000
00001000
00010000
00001000
00000000
,
00100000
00000000
00001000
00000000
00010000
00000000
00000000
00000010
00000000
00000000
00010000
00000000
00001000
00000000
00000000
00000000
,
00002200
00000000
00000000
00003300
,
00000001
00000000
00000001
00000000
00000001
00000000
00000000
00000000
00000100
00000000
00000000
00000010
00000000
00000000
00001000
00000000
,
00000001
00000000
00000010
00000000
00000100
00000000
00000000
00000000
00010000
00000000
00000000
00001000
00000000
00000000
00100000
00000000
,
00010000
00000000
00100000
00000000
01000000
00000000
00000000
00000000
10000000
00000000
00000000
01000000
00000000
00000000
00010000
00000000
,
01000000
00000000
00000000
10000000
00000000
00000000
00100000
00000000
01000000
00000000
00100000
00000000
01000000
00000000
01000000
00000000
,
00100000
00000000
01000000
00000000
00100000
00000000
00000000
00000000
00001000
00000000
00000000
00010000
00000000
00000000
00001000
00000000
,
00100000
00000000
00001000
00000000
00010000
00000000
00000000
00000000
00000010
00000000
00000000
00001000
00000000
00000000
00000100
00000000
,
00010000
00000000
00001000
00000000
00100000
00000000
00000000
00000000
01000000
00000000
00000000
00100000
00000000
00000000
00001000
00000000
,
00010000
00000100
00000010
00000100
00002000
00000000
00023000
00000000
,
00031000
00000000
00000000
00010000
00001000
00000000
00000000
00000000
00100000
00000000
00000000
00010000
10000000
00000000
00000000
00000000
,
00010000
10000000
01000000
00100000
00002000
00000000
00023000
00000000
,
00031000
00000000
00000000
00010000
00000100
00000000
00000000
00000000
00010000
00000000
00000000
00000010
00001000
00000000
00000000
00000000
,
00000100
00010000
00001000
00010000
00200000
00000000
02300000
00000000
,
03001000
00000000
00000000
00010000
00001000
00000000
00000000
00000000
00100000
00000000
00000000
00001000
00010000
00000000
00000000
00000000
,
00001000
00010000
00000010
00001000
00000200
00000000
00020300
00000000
,
00030010
00000000
00000000
00001000
00000100
00000000
00000000
00000000
00001000
00000000
00000000
00010000
01000000
00000000
00000000
00000000
,
00010000
00001000
00000100
00000010
00002000
00000000
00023000
00030000
,
00110000
10100000
10000000
11000000
,
01000000
00010000
00001000
00000100
00000110
00000000
00000101
00000000
,
00000011
00001001
00001000
00001010
,
00001000
00010000
00100000
10000000
10010000
00000000
01100000
00000000
,
10000000
01000000
00010000
00000000
00001000
00000100
00000001
00000000
,
00001000
00000010
00000100
00000001
00000011
00000000
00001010
00000000
,
00000010
00000001
00001000
00000010
00000100
00000001
00000010
00000000
,
00000100
00001000
00000100
00010000
00001000
00100000
00010000
00000000
,
01000000
00000000
00001000
00000000
00010000
00000000
00000100
00000000
00010000
00000000
00000000
00010000
00000000
00000000
00010000
00000000
,
00001000
00000000
00010000
00000000
00100000
00000000
01000000
00000000
00010000
00000000
00000000
00001000
00000000
00000000
00000100
00000000
,
00000010
00001000
00010000
00000000
00100000
10000000
00010000
01000000
,
00100000
10000000
01000000
00100000
00001000
00010000
00011000
00000000
,
00010000
00000000
00010000
00000000
00000100
00000000
00001000
00000000
00000100
00000000
00000000
00000010
00000000
00000000
00000100
00000000
,
00000010
00000001
00001000
00000010
00000100
00000001
00001000
00000000
,
00000010
00010000
00001000
00010000
00000100
00000000
00011000
00000000
,
01000000
00000000
00010000
00000000
00100000
00000000
00000000
01000000
00000000
00000000
10000000
00000000
11000000
00000000
00000000
00000000
,
10010000
00100000
00011000
00000010
,
00001001
00000100
00011000
01000000
,
10000000
01000000
01100000
00000000
00001000
00010000
00011000
00000000
,
00000010
00000100
00000110
00000000
00000001
00001000
00001001
00000000
,
00000001
00000100
00001000
00000100
00000001
00000100
00001000
00000000
,
00010000
01000000
10000000
01000000
00010000
01000000
10000000
00000000
,
10000000
00100000
00010000
00100000
10000000
00100000
00010000
00000000
,
00001000
00000010
00000001
00000010
00001000
00000010
00000001
00000010
,
00000200
00000000
00000000
00000000
,
00000000
00000000
00000000
00000000
,
00000000
00000000
00000000
00000000
,
00000300
00000000
00000000
00000000
;

//--------------- dance-double - Fred-104 ----------------
#NOTEDATA:;
#STEPSTYPE:dance-double;
#DESCRIPTION:Fred-104;
#DIFFICULTY:Hard;
#METER:14;
#CREDIT:Fred-104;
#NOTES:
00000000
00000000
00000000
00000000
,
00000000
00000000
00000000
00000000
,
00010000
10000000
01000000
00000000
00100000
00000000
00001000
00000000
,
00010000
00000100
00001000
00000000
00000001
00000100
00000010
00000000
,
00010000
00001000
00000100
00000001
00000100
00001000
00010000
00000000
,
00001000
00010000
01000000
10000000
01000000
00010000
00001000
00000000
,
00010000
00000000
00001000
00010000
00000000
00001000
00010000
00000000
00000100
00001000
00000000
00000100
00001000
00000000
00000010
00000000
,
00000100
00000000
00000001
00000010
00000000
00000010
00000100
00000000
00010000
00000000
00001000
00000000
00012000
00000000
00000000
00000000
,
00103000
00001000
00000000
00010000
00001000
00000000
00100000
00010000
00000000
00010000
00000000
10000000
00000000
00100000
01000000
00000000
,
00010000
00010000
10000000
10000000
01000000
00100000
00001000
00010000
,
00001000
00010000
00011000
00000000
00010100
00010000
00000100
00001000
,
00000010
00000100
00000101
00000000
00000011
00000010
00000100
00001000
,
00000010
00010000
00011000
00000000
00010010
00010000
00001000
00100000
,
00020000
00000000
02030000
00000000
03200000
00000000
02300000
00000000
03010000
00000000
10000000
00000000
01000000
00100000
00000000
00100000
,
00001000
00010000
00011000
00000000
00000010
00001000
00000001
00000100
,
00001000
00010000
00011000
00000000
01000000
10000000
00010000
01000000
,
00100000
00000000
00010000
00000000
00011000
00000000
00000000
00000000
00000100
00000000
00000010
00000000
00001000
00010000
00000000
00010000
,
00100000
00000000
10000000
00000000
00010000
00000000
10000000
01000000
00000000
00100000
00001000
00000000
00010000
00100000
01000000
00000000
,
22000000
00000000
00000000
33000000
,
10000000
00000000
01000000
00000000
01000000
00000000
00010000
00000000
10000000
00000000
01000000
00100000
00000000
00100000
00001000
00000000
,
00010000
00000000
00000100
00000000
00001000
00000000
00000010
00000000
00010000
00000000
00001000
00000100
00000000
00000100
00000010
00000000
,
00000001
00000000
00000010
00000000
00001000
00000000
00000010
00000000
00000001
00000000
00000100
00000010
00000000
00000010
00001000
00000000
,
00000001
00000000
00000010
00000100
00000000
00000100
00010000
00000000
00001000
00000000
00001000
00010000
00001000
00100000
00001000
00100000
,
00001000
00000000
00010000
00000000
00001000
00000000
00100000
00000000
00010000
00000000
00100000
01000000
00000000
10000000
01000000
00000000
,
00100000
01000000
00000000
01000000
00010000
00000000
10000000
01000000
00000000
00100000
00000000
00100000
00000000
00001000
00010000
00000000
,
00001000
00010000
00000000
00000100
00001000
00000000
00000010
00000000
00000100
00000000
00000010
00001000
00000000
00001000
00000000
00000001
,
00000100
00000010
00000100
00000000
00000001
00001000
00000001
00000000
00000201
00000000
00000000
00000300
00001020
00000000
00000000
00001030
,
00000100
00000000
00000000
00000100
00000010
00000000
00000000
00000010
00000001
00000000
00001000
00000000
00001100
00000000
00000000
00000000
,
00000010
00000000
00010000
00000000
00001000
00010000
00000000
00010000
00002000
00000000
00000000
00000000
00203000
00000000
00000000
00000000
,
00310000
00000000
00000000
00010000
10000000
00000000
00000000
10000000
00010000
00000000
01000000
00000000
01100000
00000000
00000000
00000000
,
00010000
01000000
00100000
00000000
10000000
01000000
00100000
00001000
00020000
00000000
00000000
00000000
00032000
00000000
00000000
00013000
,
00001000
00000000
00000000
00001000
00010000
00000000
00000000
00010000
00001000
00000000
00000100
00000000
00000110
00000000
00000000
00000000
,
00000001
00000000
00000010
00000000
00000001
00000010
00000000
00000010
00000200
00000000
00000000
00000000
00020300
00000000
00031000
00010000
,
00001000
00000000
00000000
00001000
00100000
00000000
00000000
00100000
10000000
00000000
00010000
00000000
01010000
00000000
01000000
00100000
,
01000000
00000000
00010000
00000000
10000000
00000000
01000000
00000000
00100000
00010000
00100000
00010000
00100000
00001000
00010000
00000000
,
00011000
00000000
00000000
00001000
00000010
00000000
00000000
00000010
00000001
00000000
00000000
00000001
00001000
00000000
00000000
00000000
,
00000001
00000010
00000001
00000010
00000000
00000000
00000100
00000000
00001100
00000000
00000000
00000000
00000101
00000000
00000000
00000000
,
00000010
00000000
00001000
00000000
00000100
00000000
00010000
00001000
00000000
00010000
00001000
00000000
00011000
00000000
00000000
00000000
,
00001000
01000000
00001000
01000000
00000000
00000000
00010000
00000000
00110000
00000000
00000000
00000000
10010000
00000000
00000000
00000000
,
00100000
10000000
00100000
00000000
10000000
00000000
01000000
00000000
00100000
00000000
00001000
00000000
00010000
00000000
00000100
00010000
,
00000100
00000000
00010000
00000000
00001000
00000000
00000100
00000000
00000001
00000000
00001000
00000001
00001000
00000000
00000001
00000100
,
00000001
00000000
00000100
00000010
00000100
00000000
00000001
00000000
00000010
00000000
00000100
00000000
00010000
00001000
00010000
00000000
,
00001000
00000000
00100000
00010000
00100000
00000000
00010000
10000000
00010000
01000000
00010000
00000000
00100000
00001000
00100000
00000000
,
00001000
00010000
00011000
00010000
00000100
00001000
00001010
00000010
,
00000100
00000001
00000011
00000010
00000100
00010000
00011000
00000000
,
00000010
00010000
00011000
00001000
00100000
00010000
10010000
10000000
,
01000000
00000000
00010000
00000000
00011000
00000000
00001000
00000000
00000100
00000000
00000001
00001000
00000002
00000000
00000000
00000000
,
00000103
00000000
00000010
00000000
00001000
00000100
00001000
00000000
00000010
00000000
00000100
00000000
00000001
00000000
00000100
00000000
,
00000100
00000000
00000010
00000000
00001000
00000100
00001000
00000000
00000010
00000000
00010000
00000000
00001000
00000000
00100000
00000000
,
00010000
00000000
01000000
00000000
00001000
00010000
00001000
00000000
00010000
00000000
00000100
00000000
00001000
00000000
00000100
00000000
,
00000010
00000000
00000001
00000000
00001000
00000000
00000010
00000100
00000000
00000100
00000010
00000000
00000110
00000000
00000000
00000000
,
00000100
00000000
00000001
00000010
00000000
00000001
00000100
00000000
00000001
00000010
00000000
00000001
00000100
00000000
00000010
00001000
,
00000100
00000000
00010000
00001000
00010000
00001000
00010000
00000000
00001000
00100000
00001000
00100000
00001000
00100000
00001000
00000000
,
00100000
00000000
00010000
10000000
00010000
00000000
01000000
00000000
00010000
10000000
00010000
00000000
10000000
00000000
01000000
00000000
,
00100000
00000000
00010000
00100000
00000000
00100000
10000000
00000000
00100000
00010000
00000000
00010000
10000000
00000000
00100000
10000000
,
01000000
00000000
00100000
00001000
00000000
00010000
00001000
00000000
00100000
00001000
00000000
00010000
00000100
00000000
00001000
00000100
,
00000000
00000010
00000100
00000000
00001000
00000001
00000000
00000001
00000100
00000000
00000010
00000000
00000200
00000000
00000320
00000000
,
00001030
00000000
00000001
00000100
00000000
00000010
00000100
00000000
00000010
00000100
00000000
00000010
00001000
00000000
00000001
00000010
,
00000100
00000000
00010000
00000000
00001000
00000000
00100000
00010000
00000000
10000000
00010000
00000000
10000000
01000000
00100000
00010000
,
02000000
00000000
00000000
00000000
,
00000000
00000000
00000000
00000000
,
00000000
00000000
00000000
00000000
,
03000000
00000000
00000000
00000000
;

//--------------- dance-double - Fred-104 (ANOTHER) ----------------
#NOTEDATA:;
#STEPSTYPE:dance-double;
#DESCRIPTION:Fred-104 (ANOTHER);
#DIFFICULTY:Challenge;
#METER:17;
#DISPLAYBPM:150;
#BPMS:0=149,4=150.8,8=149.83,27=148,28=149.172,55.5=155,56=150.119,58.25=152,58.75=150.119,59=147.541,60=150.119,62.5=150.482,63=150.119,67=150.5,68=150.119,74=154,75=147.85,76=150.119,95=150.5,96=150.119,103=152,104=150.5,107=151,108=149.83,115=152.25,116=149.83,123=150.5,124=149.9,139=149,140=149.75,144=147,144.5=148,145=150.119,148=152.5,148.5=150.12,154=151,155=149,156=150,170=149.8,171.5=140.078,172=149.83,187.75=139,188=150,191=149.2,192=150.119,195.75=148,196=150,203.5=148,204=150,207.5=144.5,208=150.3,211=149,212=150,219.5=147.541,220=150,238=149,239=148,240=150,246=152,247=150;
#BANNER:../LEADING CYBER (ANOTHER)/LEADING CYBER (ANOTHER).png;
#MUSIC:../LEADING CYBER (ANOTHER)/LEADING CYBER (ANOTHER).ogg;
#CREDIT:Fred-104 (ANOTHER);
#NOTES:
00000000
00000000
00000000
00000000
,
00000000
00000000
00000000
00000000
,
00010000
00001000
00010000
00001000
00010000
00000000
00001000
00100000
00000000
00010000
01000000
00000000
00010000
10000000
00010000
00000000
,
10000000
00000000
01000000
10000000
00000000
00100000
01000000
00000000
00010000
00100000
01000000
00000000
11000000
00000000
00000000
00000000
,
01000000
00000000
00100000
01000000
00000000
00100000
10000000
00000000
00100000
01000000
00000000
00010000
10000000
01000000
00000000
00100000
,
00001000
00000000
00010000
00000000
00100000
01000000
00100000
00000000
00001000
00010000
00000000
00010000
00000010
00001000
00000010
00000000
,
00010000
00001000
00010000
00001000
00010000
00000100
00000000
00000100
00001000
00000000
00000001
00000000
00001001
00000000
00000000
00000000
,
00001000
00000000
00000010
00000000
00000100
00000000
00000001
00001000
00000001
00001000
00000001
00000000
00000100
00000000
00000010
00000100
,
00000010
00001000
00000010
00001000
00000100
00000010
00000000
00000001
00000000
00000100
00000000
00000000
00012000
00000000
00000000
00000000
,
00013000
00000000
01000000
00000000
00100000
01000000
00000000
00100000
10000000
00100000
01000000
00000000
00010000
00100000
01000000
00000000
,
10000000
01000000
00000000
01000000
00100000
00000000
00100000
00001000
00000000
00001000
00010000
00000000
00000010
00001000
00000010
00000000
,
00010000
00000000
00000100
00001000
00000000
00000100
00010000
00000000
00000010
00001000
00000100
00000000
00011000
00000000
00000000
00000000
,
00011000
00000000
00001000
00100000
00000000
00100000
00010000
00000000
01000000
00100000
00000000
00100000
10000000
00100000
00000000
00100000
,
01000000
00000000
00100000
00000000
10000000
01000000
00100000
00000000
00001000
00010000
00000000
00010000
00001000
00010000
00002000
00000000
,
00013000
00001000
00010000
00000100
00001000
00000100
00000000
00000010
00000000
00000001
00000000
00000000
00002001
00000000
00000000
00000000
,
00003001
00000000
00000100
00000000
00000010
00000000
00000100
00000001
00000100
00000001
00000010
00000000
00000100
00001000
00000100
00001000
,
00000010
00001000
00000100
00010000
00001000
00010000
00000000
00100000
00000000
01000000
00000000
00000000
10010000
00000000
00000000
00000000
,
10000000
00000000
01000000
00000000
00010000
10000000
00000000
00100000
00000000
00010000
10000000
00000000
00010000
01000000
00100000
00000000
,
02200000
00000000
00000000
03300000
,
00011000
00000000
00011000
00000000
00010000
00000000
00000100
00001000
00000000
00000010
00000100
00000000
00000001
00000010
00000000
00000010
,
00000001
00000100
00000010
00000100
00000000
00000001
00000010
00000000
00000100
00001000
00000000
00000001
00002000
00000000
00003200
00000000
,
00010300
00000000
00001000
00000000
00010000
00000000
00100000
01000000
00100000
00000000
00001000
00000000
00010000
00000000
00000010
00001000
,
00000010
00010000
00001000
00010000
00000000
00001000
00010000
00001000
00000000
00100000
00010000
00000000
01000000
00000000
00001000
00010000
,
00001000
00000000
00011000
00000000
00010000
00000000
00000010
00001000
00000100
00010000
00001000
00000000
00011000
00000000
00000000
00000000
,
00001000
00100000
00001000
00100000
00000000
00010000
10000000
00000000
01000000
00100000
00000000
00100000
00020000
00000000
20030000
00000000
,
31000000
00000000
10000000
00000000
10100000
00000000
00100000
01000000
00020000
00000000
00230000
00300000
01100000
00000000
00000000
00000000
,
10000000
01000000
00100000
00001000
00000000
00010000
00001000
00000000
00020000
00000000
00032000
00000000
00020000
00000000
00033000
00000000
,
00011000
00000000
00000000
00001000
00000100
00000000
00000100
00000010
00000000
00000010
00000001
00000000
00000100
00000000
00000100
00000010
,
00000000
00000010
00001000
00000000
00000100
00000000
00000100
00000010
00000001
00000010
00000001
00001000
00000020
00000000
00000000
00000000
,
00010030
00001000
00000000
00100000
00001000
00000000
00001000
00010000
00000000
00100000
01000000
00000000
00010000
00000000
00010000
00001000
,
00000000
00000010
00000100
00000000
00001000
00000000
00010000
00001000
00010000
00001000
00100000
00001000
00020000
00000000
00000000
00000000
,
00031000
00000000
00010000
00001000
00010000
00000000
01000000
10000000
00000000
01000000
00010000
00000000
00001000
00000000
00000100
00000001
,
00000000
00000100
00001000
00000000
00010000
00000000
00001000
00010000
01000000
10000000
01000000
10000000
02000000
00000000
00000000
00000000
,
03010000
00001000
00000000
00010000
00001000
00000000
00000010
00000001
00000000
00000010
00001000
00000000
00010000
00000000
00100000
10000000
,
00000000
00100000
00010000
00000000
00001000
00000000
00000010
00000001
00001000
00000001
00001000
00000001
00002000
00000000
00000000
00000000
,
00003001
00000000
00000000
00000000
00000000
00000000
00000000
00000000
00000100
00000000
00000000
00000000
00000010
00000000
00000000
00000000
00001000
00000000
00000000
00000000
00000100
00000000
00000000
00000000
00000020
00000030
00000000
00000000
00000000
00000000
00000000
00000000
00000020
00000030
00000000
00000000
00001000
00000000
00000000
00000000
00000100
00000000
00000000
00000000
00001000
00000000
00000000
00000000
00000001
00000000
00000000
00000000
00000010
00000000
00000000
00000000
00000100
00000000
00000000
00000000
00010000
00000000
00000000
00000000
,
00001000
00000000
00000000
00000000
00000000
00000000
00000000
00000000
00100000
00000000
00000000
00000000
00010000
00000000
00000000
00000000
10000000
00000000
00000000
00000000
00100000
00000000
00000000
00000000
02000000
03000000
00000000
00000000
00000000
00000000
00000000
00000000
02000000
03000000
00000000
00000000
10000000
00000000
00000000
00000000
00010000
00000000
00000000
00000000
01000000
00000000
00000000
00000000
00100000
00000000
00000000
00000000
01000000
00000000
00000000
00000000
00010000
00000000
00000000
00000000
10000000
00000000
00000000
00000000
,
02000000
03000000
00000000
00000000
00000000
00000000
00000000
00000000
02000000
03000000
00000000
00000000
00010000
00000000
00000000
00000000
00100000
00000000
00000000
00000000
01000000
00000000
00000000
00000000
00100000
00000000
00000000
00000000
00000000
00000000
00000000
00000000
00010000
00000000
00000000
00000000
10000000
00000000
00000000
00000000
01000000
00000000
00000000
00000000
00100000
00000000
00000000
00000000
00001000
00000000
00000000
00000000
00010000
00000000
00000000
00000000
00000100
00000000
00000000
00000000
00010000
00000000
00000000
00000000
,
00001000
00000000
00010000
00001000
00010000
00000010
00001000
00000000
00001100
00000000
00000000
00000000
00001001
00000000
00000000
00000000
,
00000001
00000010
00000000
00000010
00000100
00000000
00001000
00000010
00000100
00000001
00000100
00000010
00001000
00000000
00000100
00010000
,
00001000
00010000
00000000
00000100
00010000
00001000
00100000
00000000
00010000
01000000
00100000
01000000
00010000
10000000
01000000
00100000
,
00001000
00000000
00010000
00001000
00100000
00010000
10000000
00000000
01000000
00100000
00010000
00001000
00000100
00000010
00000001
00001000
,
00000010
00000000
00000100
00000001
00001000
00000010
00000100
00000000
00000001
00000100
00001000
00000100
00000001
00000100
00000010
00000000
,
00001000
00000100
00000000
00000100
00000010
00000000
00000010
00000001
00000000
00000001
00000100
00000000
00000100
00001000
00000000
00001000
,
00010000
00000000
00010000
01000000
00000000
01000000
10000000
00000000
10000000
00010000
01000000
00100000
20000000
00000000
00000000
00000000
,
30010000
00000000
00100000
01000000
00000000
01000000
10000000
00000000
00100000
10000000
00000000
10000000
01000000
00100000
00000000
00100000
,
00001000
00000000
00010000
00000010
00000000
00001000
00000100
00000000
00010000
00000100
00001000
00000100
00000020
00000000
00000032
00000000
,
00001003
00000100
00000010
00000001
00000100
00000010
00000000
00001000
00000000
00000100
00000000
00000000
00011000
00000000
00000000
00000000
,
00001000
00010000
01000000
00000000
10000000
00000000
01000000
00010000
01000000
00010000
00001000
00000000
00010000
00001000
00000100
00000001
,
00000100
00000001
00000100
00000001
00000010
00000100
00000000
00010000
00000000
00001000
00000000
00000000
00011000
00000000
00000000
00000000
,
00001000
00000000
00100000
00000000
00010000
01000000
00000000
01100000
00000000
00100000
10000000
00000000
01000000
00100000
00010000
00000000
,
10000000
01000000
00100000
01000000
10000000
00000000
00010000
01000000
00000000
00100000
10000000
00000000
01000000
00100000
00001000
00000000
,
00010000
00000000
00000100
00001000
00000000
00000100
00010000
00000000
00000010
00001000
00000100
00000010
00000200
00000000
00000000
00000000
,
00000301
00000000
00000100
00000010
00000000
00000100
00001000
00000000
00000001
00000010
00000000
00000010
00000100
00010000
00000000
00010000
,
00001000
00000000
00100000
00000000
00001000
00010000
00100000
00000000
01000000
10000000
00010000
01000000
00200000
00000000
02300000
00000000
,
03010000
10000000
01000000
00100000
00001000
00010000
00000000
00000100
00000000
00000010
00000000
00000000
00001001
00000000
00000000
00000000
,
00001000
00000010
00000100
00000000
00000001
00000000
00000100
00000010
00001000
00000100
00010000
00000000
00001000
00100000
00010000
10000000
,
00100000
01000000
00100000
10000000
01000000
00100000
00000000
00010000
00000000
00001000
00000000
00000000
00001001
00000000
00000000
00000000
,
00000110
00000000
00001000
00000000
00000001
00000010
00000000
00000100
00000000
00010000
00001000
00000000
00010000
00100000
00001000
00010000
,
00022000
00000000
00000000
00000000
,
00000000
00000000
00000000
00000000
,
00000000
00000000
00000000
00000000
,
00033000
00000000
00000000
00000000
;
