#TITLE:LEAD Gravity(M);
#ARTIST:Des-ROW;
#TITLETRANSLIT:LEAD Gravity(M);
#BANNER:LEAD Gravity(M).png;
#BACKGROUND:LEAD Gravity(M)-bg.png;
#CDTITLE:./CDTitles/pnm Usaneko.png;
#MUSIC:LEAD Gravity(M).ogg;
#SAMPLESTART:79.148;
#SAMPLELENGTH:15;
#BPMS:0=94,36=188,148=94,164=188;
#BGSTAGE:14;

//--------------- dance-single - Fred-104 ----------------
#NOTES:
     dance-single:
     Fred-104:
     Beginner:
     5:
     :
0000
0000
0000
0000
,
0000
0000
0000
0000
,
0000
0000
0000
0000
,
1000
0000
0000
0000
,
0001
0000
0000
0000
,
1000
0000
0010
0000
,
1000
0000
0001
0000
,
1000
1000
1000
1000
,
0001
0001
0001
0001
,
1000
1000
0000
0000
,
0001
0001
0000
0000
,
1000
1000
0000
0000
,
0001
0001
0000
0000
,
0100
0100
0000
0000
,
0010
0010
0000
0000
,
0100
0100
0000
0000
,
0010
0000
0010
0000
,
1000
0000
0010
0000
,
1000
1000
1000
0000
,
0001
0000
0100
0000
,
0001
0001
0001
0000
,
0100
0000
0010
0000
,
0100
0100
0000
0000
,
0100
0100
0000
0000
,
0010
0000
1000
0000
,
0002
0000
0000
0003
,
2000
0000
0000
3000
,
0002
0000
0000
0003
,
2000
0000
0000
3000
,
0020
0000
0000
0030
,
0200
0000
0000
0300
,
0020
0000
0000
0030
,
0200
0000
0000
0300
,
0001
0000
1000
0000
,
0001
0000
0100
0000
,
0001
0000
1000
0000
,
0001
0001
0001
0001
,
1001
0000
1000
0000
,
0001
0000
0100
0000
,
0010
0000
1000
0000
,
0001
1000
0100
0010
,
1001
0000
0000
0000
,
0110
0000
0000
0000
,
1001
0000
0000
0000
,
0110
0000
0000
0000
,
1001
0000
0000
0000
,
0110
0000
0000
0000
,
0002
0000
2003
0000
,
3001
1000
0001
1000
,
1001
0000
0001
0000
,
0100
0000
0010
0000
,
0100
0000
0001
0000
,
1000
0000
0100
0000
,
1000
0000
0010
0000
,
1000
0000
0100
0000
,
1000
0000
0010
0000
,
0001
0000
0100
0000
,
1000
0000
0001
0000
,
0100
0000
0100
0000
,
0001
0000
0010
0000
,
0001
0000
0001
0000
,
1000
0000
0000
0000
,
0100
0000
0000
0000
,
1000
0000
0010
0000
,
1000
0000
1000
0000
,
0002
0003
0020
0030
,
0002
0003
2000
3000
,
0002
0003
0200
0300
,
0002
0003
0002
0003
,
2000
3000
2000
3000
,
0200
0300
0200
0300
,
0020
0030
0020
0030
,
0001
0001
0001
0001
,
1001
0000
0000
0000
;

//--------------- dance-single - Fred-104 ----------------
#NOTES:
     dance-single:
     Fred-104:
     Easy:
     9:
     :
0000
0000
0000
0000
,
0000
0000
0000
0000
,
0000
0000
0000
0000
,
1000
0000
0000
1000
0000
0000
0000
0000
0000
0000
0000
0000
0001
0000
0000
0000
,
0100
0000
0000
0100
0000
0000
0000
0000
0001
0000
0000
0000
1000
0000
0000
0000
,
1001
0000
0000
0001
0000
0001
0000
0000
0100
0000
0000
0000
0010
0000
0000
0000
,
0100
0000
0000
0010
0000
0010
0000
0000
1000
0000
0000
0000
0100
0000
0000
0000
,
1000
0100
1000
0000
0010
0100
0001
0000
,
0010
0000
0001
0000
1000
0000
0100
0000
1000
0010
1000
0000
0001
0100
0001
0000
,
1000
0000
1000
0000
0000
0010
0000
0010
,
0100
0000
2002
3003
,
0001
0000
0001
0000
0000
0010
0000
0010
,
0100
0000
2002
3003
,
1000
0000
0010
0000
0000
0100
0000
0100
,
0001
0000
1000
0000
0000
0001
0000
0001
,
0100
0000
0010
0000
0000
0100
0000
0100
,
0001
1000
0001
0100
,
0001
0000
0001
0000
0000
0100
0000
0100
,
0010
1000
2002
3003
,
1000
0000
1000
0000
0000
0010
0000
0010
,
0100
0001
2002
3003
,
0001
0000
0001
0000
0000
1000
0000
0010
,
0100
0000
0100
0000
0000
0001
0000
0010
,
0001
0000
0001
0000
0000
1000
0000
1000
,
0010
0100
0001
1000
,
0001
0000
0000
0001
0000
0000
0100
0000
,
0010
0000
0000
0010
0000
0000
1000
0000
,
0100
0000
0000
0100
0000
0000
1000
0000
,
0010
0000
0000
1000
0000
0000
0100
0000
,
0010
0000
0000
0001
0000
0000
0100
0000
,
0001
0000
0000
0010
0000
0000
0001
0000
,
0100
0000
0000
0010
0000
0000
1000
0000
,
0100
0000
0000
1000
0000
0000
0001
0000
,
1000
1000
0010
0010
,
0100
0100
0001
0001
,
0100
0010
0100
0000
0001
0000
0010
0000
,
0001
0100
0001
0000
1000
0010
1000
0000
,
0001
0001
0100
0100
,
0010
0010
1000
1000
,
0100
0100
0010
0010
,
0001
0010
0100
1000
0001
0100
0010
1000
,
0001
0001
0002
0003
,
0100
0100
0200
0300
,
0010
0010
0020
0030
,
1000
1000
2000
3000
,
0100
0100
0200
0300
,
0010
0010
0020
0030
,
0001
0001
0002
0003
,
1000
0100
1000
0000
0001
0100
0001
0000
,
1001
0100
1000
0010
,
0100
0001
0010
0000
,
0001
0010
1000
0010
,
0001
0100
0001
0000
,
0100
0010
1000
0010
,
0100
0001
1000
0000
,
0001
0100
0010
0001
,
0010
0100
0001
1000
,
0001
0001
0100
0100
,
0010
1000
0100
0000
,
1000
0100
0001
1000
,
0010
0001
1000
0000
,
0001
0010
0100
0001
,
0100
1000
0001
0000
,
0100
0100
0010
0010
,
1000
0100
1000
0000
0001
0010
0001
0000
,
0100
0100
0010
1000
,
0100
0100
0010
0001
,
1000
0001
0100
0010
,
0100
0000
0001
0000
1000
0001
1000
0000
,
0001
0100
1000
0100
,
0001
0010
1000
0010
,
0001
0100
1000
0000
1000
0100
0001
0000
,
1000
0100
1000
0001
0100
0001
1000
0000
,
1001
0000
0000
0000
;

//--------------- dance-single - Fred-104 ----------------
#NOTES:
     dance-single:
     Fred-104:
     Medium:
     13:
     :
0000
0000
0000
0000
,
0000
0000
0000
0000
,
0000
0000
0000
0000
,
0001
0000
0000
0001
0000
0000
0000
0000
1001
0000
0000
0000
0000
0000
0000
0000
,
1000
0000
0000
0100
0000
0000
0000
0000
0110
0000
0000
0010
0001
0000
0000
0000
,
0100
0000
0100
0010
0000
0010
0000
0000
1001
0000
0000
0001
0100
0000
0000
0000
,
0010
1000
0010
1000
0000
1000
0000
0000
1001
0000
0001
0100
0001
0000
1000
0000
,
0001
0010
0001
0000
1000
0100
1000
0000
0001
0100
0001
0000
1000
0010
1000
0000
,
0001
0010
0001
0010
0100
1000
0100
1000
0001
0010
0100
1000
0001
0100
0010
1000
,
0001
0010
0100
0000
0000
1100
0000
1000
,
0010
0100
0001
0000
2002
0000
3003
0000
,
1000
0100
0010
0000
0000
0011
0000
0001
,
1000
0010
0100
0000
0202
0000
0303
0000
,
0001
1000
0100
0000
0000
0110
0000
0010
,
0001
1000
0010
0000
0000
1010
0000
1000
,
0010
0100
0010
0000
0000
1100
0000
1000
,
0100
0000
0110
0000
0010
0001
1000
0001
,
1000
0100
0010
0000
0000
1010
0000
0010
,
0001
1000
0001
0000
2002
0000
3003
0000
,
0001
0100
0010
0000
0000
0011
0000
0010
,
1000
0001
0100
0000
2002
0000
3003
0000
,
1000
0010
0100
0000
0000
1100
0000
0100
,
0010
1000
0100
0000
0000
0110
0000
0010
,
0001
0100
0001
0000
0000
1001
0000
0001
,
0100
0000
0010
0100
0000
0110
0000
0010
,
1000
0000
0000
0100
0000
0000
1100
0000
0000
0000
1001
0000
0000
0000
0001
0000
,
0100
0000
0000
0010
0000
0000
2020
0000
0000
0000
0000
0000
3030
0000
0000
0000
,
1000
0000
0000
0100
0000
0000
0110
0000
0000
0000
0011
0000
0000
0000
0001
0000
,
0100
0000
0000
0001
0000
0000
0202
0000
0000
0000
0303
0000
1001
0000
0000
0000
,
1100
0000
0000
1000
0000
0000
1010
0000
0000
0000
0110
0000
0000
0000
0100
0000
,
0001
0000
0000
0010
0000
0000
0011
0000
0000
0000
0001
0000
0000
0000
1000
0000
,
0010
0000
0000
0100
0000
0000
0101
0000
0000
0000
0110
0000
0000
0000
0010
0000
,
1000
0000
0000
0100
0000
0000
0110
0000
0000
0000
1001
0000
0000
0000
0001
0000
,
0010
0001
0100
0001
0010
0001
0100
0010
,
1000
0100
1000
0010
0100
0010
1000
0100
,
0010
0001
0100
0010
1000
0001
0010
0100
,
1000
1000
0001
0001
0100
0010
0100
0000
,
1001
1000
0100
0100
0010
0010
0001
0001
,
0100
0100
1000
1000
0010
0010
0001
0001
,
1000
0100
0001
0100
1000
0010
0001
0010
,
1000
0000
0100
0000
0010
0001
1000
0010
1000
0100
1000
0010
0100
0001
0010
0001
,
0011
0001
0011
0001
,
1010
1000
1010
1000
,
0101
0001
0101
0001
,
1100
1000
1100
1000
,
1001
0001
1001
1000
,
0110
0100
0110
0010
,
1001
1000
1001
0001
,
1000
0100
0001
0100
1000
0010
0100
0000
,
0001
0010
0001
1000
0001
0100
0001
0000
,
0100
0010
1000
0000
0010
1000
0100
0000
,
1000
0010
0100
0000
0010
1000
0001
0000
,
1000
0100
0010
0001
0010
0100
1000
0000
,
0001
0100
0010
0000
0100
0001
0010
0000
,
0001
1000
0010
0000
1000
0010
0100
0000
,
0001
0010
0100
0000
0010
0001
1000
0000
,
0001
0010
0100
1000
0001
0100
0010
1000
,
0100
1000
0010
1000
0100
1000
0001
0000
,
0100
0001
0010
0001
1000
0001
0100
0000
,
0010
1000
0001
1000
0100
0010
0100
0000
,
1000
0001
0010
0001
0100
0001
0010
0000
,
0100
1000
0010
1000
0100
0010
0001
1000
,
0001
0010
0001
1000
0001
0010
0001
0100
,
0010
1000
0010
0100
0001
1000
0001
0000
,
0010
0100
1000
0100
0010
0100
1000
0000
,
0010
1000
0001
1000
0100
1000
0001
0100
,
0010
1000
0001
0010
0100
1000
0001
0000
,
1000
0001
0100
0010
1000
0010
0100
0001
,
0010
0001
1000
0100
1000
0010
0100
0000
,
0001
0010
0001
0010
1000
0010
1000
0010
,
0001
0100
0001
0100
1000
0100
1000
0100
,
0001
0010
0100
1000
0010
0100
0010
1000
,
0001
0100
0010
1000
0100
0010
0001
1000
,
1001
0000
0000
0000
;

//--------------- dance-single - Fred-104 ----------------
#NOTES:
     dance-single:
     Fred-104:
     Hard:
     17:
     :
0000
0000
0000
0000
,
0000
0000
0000
0000
,
0000
0000
0000
0000
,
1000
0000
0000
2000
0000
0000
0000
0000
0002
0000
0000
0000
3003
0000
0000
0000
,
0001
0000
0000
0002
0000
0000
0003
0000
1001
0000
0000
0110
1001
0000
0000
0000
,
1000
0000
1000
0010
0000
0010
0000
0000
0110
0000
0000
0100
0001
0000
0000
0000
,
0010
0010
0010
0001
0000
0001
0000
0000
1001
0000
1000
0100
0010
0001
1000
0000
,
0001
0010
0100
0010
0001
0100
0010
1000
0001
0100
0001
1000
0001
0010
0100
1000
,
0001
0100
0001
0000
1000
0100
1000
0000
0001
0010
0001
0000
1000
0010
1000
0000
0001
1000
0001
1000
0001
1000
0001
1000
0100
0010
0001
1000
0001
0000
0000
0000
,
1000
0100
0001
0000
0000
0101
0000
1100
,
1000
0100
0010
0000
2002
0000
0000
3003
,
1000
0010
0001
0000
0000
0011
0000
1010
,
1000
0001
1000
0000
2002
0000
0000
3003
,
1000
0010
0100
0000
0000
1100
0000
0101
,
0001
1000
0010
0000
0000
0110
0000
1001
,
0001
0010
0100
0000
0000
0101
0000
1100
,
1010
0000
0000
0000
1001
0000
0000
0000
1000
0000
0100
0000
1000
0010
0100
0001
,
2000
0100
3010
1000
0002
0100
0013
0001
,
1000
0000
0001
0000
0100
0000
0010
2000
0002
0000
0000
0000
3003
0000
0000
0000
,
0002
0010
0103
0001
2000
0010
3100
1000
,
0001
1000
0010
0000
0100
0000
0001
1000
0010
0000
1000
0000
0002
0000
0000
0000
,
2003
0010
3100
1000
0002
0010
0103
0001
,
1000
0001
0100
0000
0010
0000
1000
0100
0010
0000
0011
0000
0000
0000
1001
0000
,
0002
0010
0103
0001
2000
0010
3100
1000
,
1001
0000
1100
0011
0000
1010
0000
0101
,
1001
0000
0000
1010
0000
0000
1001
0000
0000
0000
1100
0000
0000
0000
0101
0000
,
1100
0000
0000
0110
0000
0000
0022
0000
0000
0000
0000
0000
0033
0000
0000
0000
,
0011
0000
0000
1010
0000
0000
0101
0000
0000
0000
1100
0000
0000
0000
0110
0000
,
0011
0000
0000
1010
0000
0000
0202
0000
0000
0000
0303
0000
2002
0000
3003
0000
,
1010
0000
0000
0101
0000
0000
1100
0000
0000
0000
0011
0000
0000
0000
1010
0000
,
0011
0000
0000
1100
0000
0000
0101
0000
0000
0000
0110
0000
0000
0000
1001
0000
,
0011
0000
0000
1010
0000
0000
0101
0000
0000
0000
1100
0000
0000
0000
0101
0000
,
0011
0000
0000
1010
0000
0000
0101
0000
0000
0000
1100
0000
0000
0000
1001
0000
,
0001
0100
0010
0000
0001
0010
0100
0000
0001
0010
0100
0000
0001
0100
0010
0000
,
0001
1000
0010
0000
0100
0000
0001
1000
0100
0010
0001
0010
0100
1000
0010
0000
,
0100
0001
1000
0000
0001
0000
0010
0001
1000
0000
0001
0100
0010
1000
0001
0000
,
1000
0001
0100
0001
1000
0000
0001
1000
0100
0010
0001
1000
0010
0100
0001
0000
,
1001
0001
0100
0100
1000
1000
0010
0010
,
0001
0001
0010
0010
1000
1000
0100
0100
,
0001
0000
0010
0000
1000
0010
0100
0000
1000
0000
0010
0000
0100
0000
0001
0000
,
1001
0000
0000
0000
1000
0000
0000
0000
0001
0000
0001
0000
1000
0000
1000
0000
0001
0100
0010
1000
0001
0000
1000
0000
0100
0010
0001
1000
0010
0100
0001
0000
,
0011
0011
0011
0011
,
1010
1010
1010
1010
,
0101
0101
0101
0101
,
1100
1100
1100
1100
,
0011
1010
0011
1010
,
0101
1100
0101
1100
,
0001
0000
1000
0001
0010
0000
0001
1000
0100
0000
1000
0001
0010
0000
0100
1000
,
0010
0100
0001
1000
0100
0010
0001
0010
0100
1000
0001
0100
0001
0000
1000
0000
,
1200
0310
0001
1000
0120
1030
0001
0100
,
0102
0013
0100
0010
0012
1003
0010
0100
,
1002
0013
0100
1000
2001
3010
1000
0100
,
0120
0031
1000
0100
1020
0130
1000
0001
,
1000
0000
0100
0010
0001
0000
1000
0000
0002
0000
0100
0000
1003
0000
0010
0000
,
0100
0000
0001
0010
0100
0000
1000
0000
0020
0000
0100
0000
1030
0000
0001
0000
,
1000
0000
0001
0010
0100
0000
1000
0000
0002
0000
0010
0000
1003
0000
0010
0100
,
0001
0000
0100
0000
0010
0000
1000
0000
0001
0010
0100
1000
0001
0100
0010
1000
,
0100
0000
1000
0010
0100
0000
0010
1000
0001
0000
1000
0100
0010
0000
0001
0000
,
1000
0000
0001
0010
0100
0000
0010
0001
1000
0000
0001
1000
0010
0000
0100
0000
,
0001
0000
1000
0001
0010
0000
0100
1000
0001
0000
1000
0010
0100
0000
0010
0000
,
1000
0000
0001
1000
0010
0000
1000
0000
0001
0100
0010
1000
0001
0000
0010
0000
,
0100
0000
1000
0001
0010
0000
0001
0000
1000
0100
0010
0001
1000
0100
0010
0001
,
1000
0010
1000
0010
0100
0000
1000
0000
0100
0010
1000
0001
2000
0000
0000
0000
,
3001
0000
0010
0000
0100
0000
1000
0000
0001
0100
0010
0100
0001
0000
1000
0001
,
0010
0000
0100
0000
1000
0000
0001
0000
0100
0001
0100
0001
2000
0000
0000
0000
,
3001
0000
0010
0100
1000
0000
0001
1000
0100
0000
0010
0001
1000
0000
0010
0000
,
0100
0000
0001
1000
0100
0000
1000
0001
0100
0000
0001
0100
0010
0000
1000
0000
,
0001
0000
0010
0001
1000
0000
0001
0100
0010
0000
0100
0001
1000
0000
0001
0000
,
0010
0000
0100
0010
0001
0000
1000
0010
0100
0000
0001
1000
0100
0000
1000
0000
,
0001
0010
0001
1000
0020
0100
1030
0001
,
0010
0100
0010
0001
2000
0010
3001
1000
,
0010
1000
0001
0100
1000
0100
0010
1000
,
0001
0010
0001
0010
0100
1000
0100
1000
0001
0010
0100
1000
0001
0100
0010
1000
,
0001
0000
0000
0000
;

//--------------- dance-double - Fred-104 ----------------
#NOTES:
     dance-double:
     Fred-104:
     Easy:
     9:
     :
00000000
00000000
00000000
00000000
,
00000000
00000000
00000000
00000000
,
00000000
00000000
00000000
00000000
,
00010000
00000000
00000000
00010000
00000000
00000000
00000000
00000000
00000000
00000000
00000000
00000000
00001000
00000000
00000000
00000000
,
00010000
00000000
00000000
00010000
00000000
00000000
00000000
00000000
00000010
00000000
00000000
00000000
00010000
00000000
00000000
00000000
,
00011000
00000000
00000000
00001000
00000000
00001000
00000000
00000000
00100000
00000000
00000000
00000000
00010000
00000000
00000000
00000000
,
10000000
00000000
00000000
01000000
00000000
01000000
00000000
00000000
00100000
00000000
00000000
00000000
00001000
00000000
00000000
00000000
,
00010000
00001000
00000010
00000100
,
00001000
00000000
00000001
00000000
00000100
00000000
00000010
00000000
00000100
00000010
00000100
00000000
00000001
00001000
00000001
00000000
,
00000100
00000000
00000100
00000000
00000000
00000010
00000000
00000010
,
00010000
00000000
00022000
00033000
,
00001000
00000000
00001000
00000000
00000000
01000000
00000000
01000000
,
00001000
00000000
00022000
00033000
,
00001000
00000000
00001000
00000000
00000000
00100000
00000000
00100000
,
00010000
00000000
10000000
00000000
00000000
00100000
00000000
00100000
,
01000000
00000000
00010000
00000000
00000000
10000000
00000000
10000000
,
01000000
00100000
00001000
00000000
,
00010000
00000000
00010000
00000000
00000000
00001000
00000000
00001000
,
00010000
00001000
00022000
00033000
,
00010000
00000000
00010000
00000000
00000000
00000100
00000000
00000100
,
00001000
00000001
00002002
00003003
,
00000001
00000000
00000001
00000000
00000000
00001000
00000000
00001000
,
00000010
00000000
00000010
00000000
00000000
00010000
00000000
00010000
,
00001000
00000000
00001000
00000000
00000000
00100000
00000000
00100000
,
00010000
10000000
00100000
01000000
,
00010000
00000000
00000000
10000000
00000000
00000000
01000000
00000000
,
00100000
00000000
00000000
00001000
00000000
00000000
00010000
00000000
,
00001000
00000000
00000000
00000010
00000000
00000000
00000100
00000000
,
00001000
00000000
00000000
00000001
00000000
00000000
00000100
00000000
,
00000010
00000000
00000000
00000100
00000000
00000000
00001000
00000000
,
00010000
00000000
00000000
00100000
00000000
00000000
01000000
00000000
,
00010000
00000000
00000000
10000000
00000000
00000000
01000000
00000000
,
00100000
00000000
00000000
00001000
00000000
00000000
00010000
00000000
,
00001000
00010000
00100000
00010000
,
00001000
00010000
01000000
00010000
,
00001000
00010000
00001000
00000000
00010000
00000000
00000010
00000000
,
00010000
00001000
00010000
00000000
00000100
00010000
00000100
00000000
,
00010000
00001000
00000100
00000010
,
00010000
00001000
00000100
00000010
,
00010000
00001000
00000010
00000100
,
00010000
00001000
00100000
00010000
10000000
00100000
01000000
00010000
,
10000000
01000000
00020000
00030000
,
00001000
00000010
00000002
00000003
,
00000001
00000100
00002000
00003000
,
00010000
00100000
20000000
30000000
,
10000000
00100000
00020000
00030000
,
00001000
00000100
00000002
00000003
,
00000001
00000010
00002000
00003000
,
00010000
01000000
20000000
30000000
,
10010000
00010000
10000000
01000000
,
00010000
00001000
00010000
00000000
,
00100000
10000000
01000000
00100000
,
00001000
00010000
00001000
00000000
,
00000010
00000100
00001000
00000001
,
00000100
00000010
00000100
00000000
,
00001000
00010000
00100000
01000000
,
00100000
10000000
00010000
10000000
,
00010000
01000000
10000000
01000000
,
00010000
10000000
00010000
00000000
,
01000000
00010000
00001000
00010000
,
01000000
00001000
00010000
00000000
,
00001000
00010000
00100000
00010000
,
00001000
00100000
00001000
00000000
,
00010000
00001000
00000010
00001000
,
00010000
00001000
00010000
00000000
00000100
00010000
00000100
00000000
,
00010000
00001000
00000010
00000001
,
00001000
00000100
00000010
00000001
,
00000100
00001000
00010000
00100000
,
01000000
00000000
00010000
00000000
10000000
00100000
10000000
00000000
,
00010000
01000000
00100000
00010000
,
00001000
00000100
00000010
00010000
,
00001000
00100000
00010000
00000000
01000000
00001000
00010000
00000000
,
00000100
00001000
00000001
00000000
00000010
00001000
00010000
00000000
,
00011000
00000000
00000000
00000000
;

//--------------- dance-double - Fred-104 ----------------
#NOTES:
     dance-double:
     Fred-104:
     Medium:
     14:
     :
00000000
00000000
00000000
00000000
,
00000000
00000000
00000000
00000000
,
00000000
00000000
00000000
00000000
,
01000000
00000000
00000000
00100000
00000000
00000000
00000000
00000000
01100000
00000000
00000000
00000000
00000000
00000000
00000000
00000000
,
00001000
00000000
00000000
00010000
00000000
00000000
00000000
00000000
00000110
00000000
00000000
00000010
00000100
00000000
00000000
00000000
,
00000001
00000000
00000100
00001000
00000000
00010000
00000000
00000000
00011000
00000000
00000000
00001000
00010000
00000000
00000000
00000000
,
00001000
00010000
00100000
01000000
00000000
00001000
00000000
00000000
00011000
00000000
00001000
00010000
01000000
00000000
00100000
00000000
,
00001000
00010000
00100000
00000000
10000000
00010000
10000000
00000000
01000000
00100000
00001000
00000000
00010000
00001000
00010000
00000000
,
00000010
00001000
00000100
00000010
00000001
00000100
00001000
00010000
00001000
00100000
01000000
10000000
00010000
01000000
00100000
10000000
,
01000000
00100000
01000000
00000000
00000000
11000000
00000000
10000000
,
01000000
00010000
00001000
00000000
00022000
00000000
00033000
00000000
,
00010000
00001000
00000010
00000000
00000000
00001100
00000000
00001000
,
00000001
00000100
00000010
00000000
00000220
00000000
00000330
00000000
,
00000001
00000100
00000010
00000000
00000000
00011000
00000000
00010000
,
00000010
00001000
00000100
00000000
00000000
00011000
00000000
00001000
,
00010000
01000000
10000000
00000000
00000000
10010000
00000000
10000000
,
00100000
00000000
01100000
00000000
01000000
00010000
00001000
00000010
,
00000100
00000001
00001000
00000000
00000000
00001001
00000000
00000001
,
00000100
00001000
00010000
00000000
00022000
00000000
00033000
00000000
,
00010000
01000000
00100000
00000000
00000000
00110000
00000000
00100000
,
00010000
10000000
00100000
00000000
02200000
00000000
03300000
00000000
,
10000000
01000000
00010000
00000000
00000000
00011000
00000000
00010000
,
00001000
00000100
00000001
00000000
00000000
00001001
00000000
00000001
,
00000100
00001000
00010000
00000000
00000000
00011000
00000000
00001000
,
00010000
00000000
01000000
10000000
00000000
10010000
00000000
01000000
,
00100000
00000000
00000000
00001000
00000000
00000000
00011000
00000000
00000000
00000000
00010010
00000000
00000000
00000000
00001000
00000000
,
00010000
00000000
00000000
00000010
00000000
00000000
00002020
00000000
00000000
00000000
00000000
00000000
00003030
00000000
00000000
00000000
,
00000001
00000000
00000000
00000100
00000000
00000000
00000110
00000000
00000000
00000000
00011000
00000000
00000000
00000000
01000000
00000000
,
00100000
00000000
00000000
10000000
00000000
00000000
20020000
00000000
00000000
00000000
30030000
00000000
11000000
00000000
00000000
00000000
,
01100000
00000000
00000000
00100000
00000000
00000000
00110000
00000000
00000000
00000000
00101000
00000000
00000000
00000000
00001000
00000000
,
00010000
00000000
00000000
00000010
00000000
00000000
00001010
00000000
00000000
00000000
00000001
00000000
00000000
00000000
00000100
00000000
,
00000010
00000000
00000000
00010000
00000000
00000000
00011000
00000000
00000000
00000000
01100000
00000000
00000000
00000000
00010000
00000000
,
10000000
00000000
00000000
00100000
00000000
00000000
01100000
00000000
00000000
00000000
01010000
00000000
00000000
00000000
00010000
00000000
,
10000000
01000000
00010000
00001000
00000010
00000100
00001000
00000000
,
00000001
00000010
00000100
00000010
00001000
00010000
01000000
00000000
,
00100000
00010000
10000000
00100000
00010000
00001000
00000100
00000000
,
00000010
00001000
00000100
00000010
00000001
00000100
00001000
00010000
,
00011000
00001000
00010000
00010000
01000000
01000000
10000000
10000000
,
00010000
00010000
01000000
01000000
00001000
00001000
00010000
00010000
,
00001000
00010000
00100000
00010000
00001000
00010000
01000000
00010000
,
00001000
00000000
00010000
00000000
00001000
00010000
01000000
10000000
00010000
01000000
00100000
00010000
10000000
01000000
00010000
10000000
,
10010000
01000000
00011000
00000100
,
00001001
00000010
00011000
00100000
,
10010000
01000000
00011000
00000010
,
00001001
00000100
00011000
00100000
,
10010000
00100000
00011000
00000100
,
00001001
00000010
00011000
01000000
,
10010000
01000000
01100000
00010000
,
01000000
00100000
00010000
00001000
00000100
00000010
00001000
00000000
,
00000001
00000100
00000001
00000010
00000001
00001000
00000001
00000000
,
00000010
00000100
00000010
00001000
00010000
01000000
00100000
00000000
,
00010000
10000000
00100000
00010000
00001000
00010000
00100000
00000000
,
10000000
00010000
00100000
01000000
10000000
01000000
00010000
00000000
,
00001000
00000010
00000100
00001000
00000010
00000100
00000010
00000000
,
00001000
00000001
00000010
00000100
00010000
00001000
00000100
00000000
,
00000010
00000100
00001000
00010000
00100000
10000000
00010000
00100000
,
01000000
00100000
00010000
10000000
01000000
00100000
01000000
00000000
,
10000000
00010000
01000000
00001000
00010000
00001000
00000010
00000100
,
00001000
00000001
00000100
00000010
00000100
00001000
00010000
00000000
,
00100000
01000000
00010000
00100000
01000000
10000000
00100000
01000000
,
00100000
00010000
00001000
00000100
00000010
00000100
00000001
00000000
,
00001000
00000001
00000100
00001000
00010000
00100000
01000000
00010000
,
10000000
01000000
00010000
01000000
10000000
00010000
01000000
00000000
,
00010000
10000000
00100000
00010000
00100000
10000000
01000000
00100000
,
00001000
00010000
01000000
00010000
00001000
00010000
00000010
00001000
,
00000100
00000001
00000100
00001000
00000001
00000100
00000010
00000100
,
00001000
00010000
00100000
01000000
00010000
10000000
01000000
00010000
,
00001000
00010000
01000000
10000000
01000000
00010000
00001000
00000100
,
00000010
00000100
00001000
00010000
01000000
10000000
00010000
00000000
,
10000000
00010000
00100000
01000000
00100000
00001000
00010000
00000100
,
00000010
00000100
00001000
00000001
00000010
00001000
00010000
01000000
,
00100000
00010000
10000000
00100000
00010000
00001000
00000100
00000010
,
00010000
00001000
00000010
00000100
00001000
00010000
00100000
01000000
,
10010000
00000000
00000000
00000000
;

//--------------- dance-double - Fred-104 ----------------
#NOTES:
     dance-double:
     Fred-104:
     Hard:
     17:
     :
00000000
00000000
00000000
00000000
,
00000000
00000000
00000000
00000000
,
00000000
00000000
00000000
00000000
,
00001000
00000000
00000000
00002000
00000000
00000000
00000000
00000000
00020000
00000000
00000000
00000000
00033000
00000000
00000000
00000000
,
00010000
00000000
00000000
00020000
00000000
00000000
00030000
00000000
00011000
00000000
00000000
00010000
00001000
00000000
00000000
00000000
,
00010000
00000000
00001000
00000010
00000000
00000100
00000000
00000000
00011000
00000000
00000000
00001000
00010000
00000000
00000000
00000000
,
00001000
00000000
00010000
00100000
00000000
01000000
00000000
00000000
00011000
00000000
00010000
00001000
00010000
00001000
00010000
00000000
,
00000100
00010000
00001000
00010000
00000010
00001000
00000010
00000100
00000001
00001000
00000100
00000010
00000001
00000100
00001000
00010000
,
01000000
00100000
00010000
00000000
01000000
00100000
01000000
00000000
00100000
10000000
00100000
00000000
10000000
01000000
10000000
00000000
00010000
01000000
00010000
01000000
00001000
00100000
00001000
00100000
00001000
00010000
00001000
00010000
00001000
00000000
00000000
00000000
,
00010000
00001000
00000010
00000000
00000000
00000100
00000000
00010000
,
00001000
00010000
00001000
00000000
00022000
00000000
00033000
00000000
,
00001000
00010000
00100000
00000000
00000000
01000000
00000000
00001000
,
00010000
00001000
00010000
00000000
00022000
00000000
00033000
00000000
,
00010000
00001000
00000100
00000000
00000000
00000001
00000000
00001000
,
00000100
00000010
00000001
00000000
00000000
00000100
00000000
00001000
,
00010000
01000000
00100000
00000000
00000000
00010000
00000000
10000000
,
11000000
00000000
00000000
00000000
01010000
00000000
00000000
00000000
10000000
00000000
01000000
00000000
10000000
00010000
01000000
00100000
,
10000000
01000000
00100000
00001000
00010000
00100000
10000000
00010000
,
10000000
00000000
01000000
00000000
00100000
00000000
00001000
00020000
00002000
00000000
00000000
00000000
00033000
00000000
00000000
00000000
,
00010000
00001000
00000010
00000100
00001000
00010000
00100000
01000000
,
00010000
00000000
00001000
00000000
00010000
00000000
00000010
00002000
00000200
00000000
00000000
00000000
00003300
00000000
00000000
00000000
,
00001000
00000100
00001000
00000001
00000010
00000100
00010000
00001000
,
00000010
00000000
00000001
00000000
00001000
00000000
00000001
00000100
00000010
00000000
00001010
00000000
00000000
00000000
00011000
00000000
,
00001000
00010000
00100000
01000000
00001000
00010000
00100000
01000000
,
00001000
00000000
00101000
00010010
00000000
01001000
00000000
00010100
,
00011000
00000000
00000000
00001010
00000000
00000000
00011000
00000000
00000000
00000000
01010000
00000000
00000000
00000000
00110000
00000000
,
00101000
00000000
00000000
00011000
00000000
00000000
00020020
00000000
00000000
00000000
00000000
00000000
00030030
00000000
00000000
00000000
,
00011000
00000000
00000000
00010010
00000000
00000000
00001010
00000000
00000000
00000000
00000101
00000000
00000000
00000000
00001100
00000000
,
00000101
00000000
00000000
00001010
00000000
00000000
00000022
00000000
00000000
00000000
00000033
00000000
00002002
00000000
00003003
00000000
,
00000101
00000000
00000000
00001100
00000000
00000000
00011000
00000000
00000000
00000000
00110000
00000000
00000000
00000000
10100000
00000000
,
10010000
00000000
00000000
11000000
00000000
00000000
01100000
00000000
00000000
00000000
11000000
00000000
00000000
00000000
10100000
00000000
,
01010000
00000000
00000000
01001000
00000000
00000000
00011000
00000000
00000000
00000000
00010100
00000000
00000000
00000000
00001010
00000000
,
00000110
00000000
00000000
00001010
00000000
00000000
00000101
00000000
00000000
00000000
00000110
00000000
00000000
00000000
00001001
00000000
,
00000001
00000010
00000100
00000000
00001000
00000100
00000010
00000000
00000001
00000100
00000010
00000000
00001000
00000010
00000100
00000000
,
00000001
00000100
00000001
00000000
00000010
00000000
00000100
00001000
00000100
00000000
00010000
00000000
00001000
01000000
00001000
00000000
,
00100000
00010000
00100000
00000000
01000000
00000000
00100000
00010000
00100000
00000000
01000000
00000000
10000000
00010000
10000000
00000000
,
00010000
01000000
00010000
01000000
00100000
00000000
10000000
01000000
00100000
00010000
01000000
00001000
00010000
00000000
00001000
00000000
,
00011000
00010000
00001000
00000010
00000001
00000100
00001000
00010000
,
00001000
00010000
00100000
10000000
01000000
00010000
00001000
00010000
,
00001000
00000000
00100000
00000000
00010000
00000010
00001000
00000000
00010000
00000000
01000000
00000000
00100000
00000000
00001000
00000000
,
00011000
00000000
00000000
00000000
00010000
00000000
00000000
00000000
00000100
00000000
00001000
00000000
00000100
00000000
00001000
00000000
00000001
00001000
00000001
00001000
00000001
00000000
00000010
00000000
00000100
00001000
00000100
00001000
00000100
00000000
00010000
00000000
,
00011000
00010010
00011000
00010010
,
00011000
01001000
00011000
01001000
,
00011000
00010100
00011000
00010100
,
00011000
00101000
00011000
00101000
,
00011000
00010010
00011000
01001000
,
00011000
10010000
00011000
00001001
,
00000001
00000000
00000100
00000001
00000100
00000000
00000010
00001000
00000010
00000000
00001000
00000100
00001000
00000000
00000001
00000010
,
00000001
00000100
00000010
00000000
00001000
00000100
00010000
00000000
00001000
00100000
00010000
10000000
00010000
00000000
00000000
00000000
,
10000000
00100000
10000000
01000000
00010000
00001000
00010000
00100000
,
10000000
00010000
00100000
01000000
00100000
00001000
00010000
00001000
,
00010000
00100000
01000000
00001000
00010000
00100000
01000000
00001000
,
00010000
00001000
00000010
00000100
00010000
00001000
00000010
00000100
,
00010000
00001000
00000100
00000001
00001000
00000100
00000010
00000001
,
00000100
00010000
00000100
00000010
00010000
00100000
00001000
00000010
,
00010000
00001000
01000000
00010000
00100000
00001000
00010000
00001000
,
00100000
00000000
00010000
00000000
10000000
00000000
01000000
00000000
10000000
00100000
10000000
00100000
10000000
00010000
01000000
00010000
,
00100000
00000000
00010000
10000000
00100000
00000000
01000000
00010000
10000000
00000000
01000000
00100000
00010000
00000000
00100000
00000000
,
00001000
00000000
01000000
00001000
00010000
00000000
00000100
00010000
00001000
00000000
00010000
00000010
00001000
00000000
00000100
00000000
,
00000010
00000000
00000001
00001000
00000010
00000000
00000100
00000001
00000010
00000000
00000100
00000010
00000001
00000000
00001000
00000000
,
00000001
00000000
00000100
00000010
00001000
00000000
00000100
00010000
00001000
00000000
00100000
00010000
01000000
00000000
00100000
00000000
,
10000000
00000000
00010000
01000000
00010000
00000000
00100000
00000000
01000000
00100000
01000000
00000000
00100000
00001000
00010000
00000000
,
00001000
00010000
00001000
00010000
00000010
00000000
00010000
00000000
00001000
00010000
00001000
00100000
00020000
00000000
00000000
00000000
,
01030000
00000000
00010000
00000000
00100000
00000000
00001000
00000000
00010000
00000010
00001000
00000100
00010000
00000000
00000100
00001000
,
00000010
00000000
00000100
00000000
00001000
00000000
00010000
00000000
00100000
01000000
00100000
01000000
00002000
00000000
00000000
00000000
,
00013000
00000000
00001000
00010000
00001000
00000000
00100000
00001000
00100000
00000000
00001000
00010000
00000010
00000000
00001000
00000000
,
00000100
00000000
00010000
00001000
00010000
00000000
00000100
00010000
00000100
00000000
00010000
00001000
01000000
00000000
00001000
00000000
,
00010000
00000000
00000010
00001000
00000100
00000000
00010000
00001000
01000000
00000000
00010000
00100000
00001000
00000000
00010000
00000000
,
00000100
00000000
00001000
00000001
00000100
00000000
00000010
00001000
00000100
00000000
00010000
00001000
01000000
00000000
00100000
00000000
,
01000000
00010000
00100000
00010000
10000000
01000000
00100000
00010000
,
01000000
00001000
00010000
00001000
00000010
00000100
00001000
00000001
,
00000100
00000001
00000010
00000100
00010000
00001000
00000010
00000001
,
00001000
00000100
00001000
00000100
00000010
00000001
00000010
00000001
00001000
00000010
00001000
00000010
00000100
00000001
00000100
00000001
,
00001000
00000000
00000000
00000000
;
