#VERSION:0.83;
#TITLE:L'erisia(Primal Logic);
#ARTIST:Zektbach;
#BANNER:L'erisia(Primal Logic).png;
#BACKGROUND:L'erisia(Primal Logic)-bg.png;
#CDTITLE:./CDTitles/REFLEC BEAT.png;
#MUSIC:L'erisia(Primal Logic).ogg;
#SAMPLESTART:83.077;
#SAMPLELENGTH:15;
#BPMS:0=234;
#BGSTAGE:3;

//--------------- dance-single - Fred-104 ----------------
#NOTEDATA:;
#STEPSTYPE:dance-single;
#DESCRIPTION:Fred-104;
#DIFFICULTY:Beginner;
#METER:4;
#CREDIT:Fred-104;
#NOTES:
0000
0000
0000
0000
,
0000
0000
0000
0000
,
0000
0000
0000
0000
,
0000
0000
0000
0000
,
0000
0000
0000
0000
,
0000
0000
0000
0000
,
0000
0000
0000
0000
,
0000
0000
0000
0000
,
0000
0000
0000
0000
,
1000
0000
1000
0000
,
0010
0000
0010
0000
,
1000
0000
1000
0000
,
0001
0000
0001
0000
,
1000
0000
1000
0000
,
0010
0000
0010
0000
,
0001
0000
0001
0000
,
0010
0000
1000
0000
,
0001
0000
0001
0000
,
1000
0000
1000
0000
,
0001
0000
0010
0000
,
0001
0000
0001
0000
,
1000
0000
0001
0000
,
1000
0000
1000
0000
,
0001
0000
0100
0000
,
1000
0000
0100
0000
,
0002
0000
0000
0003
,
2000
0000
0000
3000
,
0002
0000
0000
0003
,
2000
0000
0000
3000
,
0020
0000
0000
0030
,
0200
0000
0000
0300
,
0020
0000
0000
0030
,
0200
0000
0000
0300
,
1001
0000
0000
0000
,
0000
0000
0000
0000
,
0000
0000
0000
0000
,
0000
0000
0000
0000
,
2000
0000
0000
0000
,
0000
0000
0000
0000
,
0000
0000
0000
0000
,
0000
0000
0000
3000
,
0002
0000
0000
0000
,
0000
0000
0000
0003
,
2000
0000
0000
0000
,
0000
3000
0002
0000
,
0000
0000
0000
0000
,
0000
0000
0000
0000
,
0000
0000
0000
0003
,
2000
0000
0000
3000
,
0200
0000
0000
0000
,
0000
0000
0000
0000
,
0000
0000
0000
0000
,
0000
0000
0000
0300
,
0020
0000
0000
0000
,
0000
0000
0000
0000
,
0000
0000
0000
0000
,
0000
0000
0000
0030
,
0001
0000
0000
0000
,
1000
0000
0000
0000
,
0010
0000
1000
0000
,
1000
0000
0000
0001
,
0000
0000
1000
0000
,
0010
0000
0010
0000
,
0001
0000
0001
0000
,
0010
0000
0000
0100
,
0000
0000
0010
0000
,
1000
0000
1000
0000
,
0001
0000
0001
0000
,
1000
0000
0000
1000
,
0000
0000
0001
0000
,
0001
0000
1000
0000
,
0100
0000
0001
0000
,
0100
0000
1000
0000
,
0001
0000
0000
0000
,
1000
0000
0000
0000
,
0100
0000
0010
0000
,
0100
0000
1000
0000
,
0001
0000
0000
0000
,
0100
0000
0000
0000
,
0001
0000
0100
0000
,
0010
0000
0100
0000
,
0001
0000
0001
0000
,
1000
0000
1000
0000
,
0100
0000
0100
0000
,
1000
0000
1000
0000
,
0001
0000
0001
0000
,
0100
0000
0100
0000
,
0010
0000
0010
0000
,
1000
0000
1000
0000
,
0001
0000
0001
0000
,
0010
0000
0010
0000
,
1000
0000
1000
0000
,
0100
0000
0100
0000
,
0002
0003
0002
0003
,
2000
3000
2000
3000
,
0002
0003
2000
3000
,
2002
0000
0000
0000
,
0000
0000
0000
0000
,
0000
0000
0000
0000
,
0000
0000
0000
0000
,
3003
0000
0000
0000
;

//--------------- dance-single - Fred-104 ----------------
#NOTEDATA:;
#STEPSTYPE:dance-single;
#DESCRIPTION:Fred-104;
#DIFFICULTY:Easy;
#METER:9;
#CREDIT:Fred-104;
#NOTES:
0000
0000
0000
0000
,
0000
0000
0000
0000
,
0000
0000
0000
0000
,
0000
0000
0000
0000
,
0000
0000
0000
0000
,
0000
0000
0000
0000
,
0000
0000
0000
0000
,
0000
0000
0000
0000
,
0000
0000
0000
0000
,
1000
0000
1000
0000
,
0010
0100
0010
0000
,
0001
0000
0001
0000
,
0010
1000
0001
0000
,
0010
0000
0010
0000
,
0100
0010
0100
0000
,
1000
0000
0001
0000
,
1000
0100
0010
0000
,
0001
0000
0001
0000
,
0100
0010
0100
0000
,
1000
0000
0100
0000
,
0001
1000
0100
0000
,
0010
0000
0001
0000
,
1000
0010
0100
0000
,
1000
0000
0100
0000
,
0001
1000
0100
0010
,
0002
0000
0010
0000
0000
0010
0003
0000
,
2000
0000
0010
0000
0000
0010
3000
0000
,
0002
0000
0100
0000
0000
0100
0003
0000
,
2000
0000
0100
0000
0000
0100
3000
0000
,
0001
0000
0010
0000
0000
0110
0000
0000
,
1000
0000
0010
0000
0000
0110
0000
0000
,
0001
0000
0100
0000
0000
1001
0000
0000
,
1000
0000
0100
0000
0000
1001
0000
0000
,
1001
0000
0000
0000
,
0001
0000
0000
0000
,
1000
0000
0000
0000
,
0001
0000
0000
0000
,
2000
0000
0000
0000
,
0010
0000
0000
0000
,
0010
0000
0000
0000
,
0010
0000
0000
0000
,
3002
0000
0000
0000
,
1000
0000
0000
0000
,
2003
0000
0000
0000
,
0100
0000
3200
0000
,
0010
0000
0000
0000
,
0010
0000
0000
0000
,
0010
0000
0000
0000
,
0320
0000
0001
0000
,
0032
0000
0103
0000
,
2000
0000
3100
0000
,
0002
0000
0013
0000
,
2000
0000
3010
0000
,
0002
0000
1003
0000
,
0020
0000
0130
0000
,
0002
0000
1003
0000
,
0200
0000
0310
0000
,
0001
0000
0000
1000
0000
1000
0000
1000
,
0000
0000
0000
0010
0000
0000
0000
0100
,
0000
0100
0000
0000
0001
0000
1000
0000
,
0001
0000
0000
1000
0000
0000
0001
0000
,
0000
0000
0010
0000
0000
0010
0000
0000
,
0010
0000
0000
0100
0000
0000
0100
0000
,
1000
0001
1000
0010
,
0100
0000
0000
0100
0000
0000
0100
0000
,
0000
0001
0000
0000
0001
0000
0000
0001
,
0000
1000
0100
1000
,
0001
0100
1000
0100
,
0001
0000
0000
1000
0000
0000
1001
0000
,
0000
1000
0100
0001
,
0100
1000
0001
0100
,
0010
1000
0010
1000
,
0001
0010
0001
0000
1000
0010
1000
0000
,
1001
0000
0001
0000
,
0010
0010
0100
0100
,
1000
0010
1000
0001
,
0010
0100
1000
0001
,
1001
0000
1000
0000
,
0010
1000
0100
1000
,
0001
0100
0010
0100
,
0001
1000
0100
0010
,
0001
0000
0010
0000
,
1000
0010
0001
0000
,
1000
0000
0010
0000
,
0001
0010
1000
0000
,
0001
0010
0100
0000
,
1000
0010
0100
0000
,
0010
1000
0100
0000
,
0010
0001
1000
0000
,
0001
0100
1000
1000
,
0100
0001
1000
1000
,
0100
0001
0100
0100
,
1000
0001
1000
1000
,
0001
0010
1000
1000
,
0010
0001
1000
1000
,
0010
0100
0001
0001
,
2002
0000
0000
0000
,
0000
0000
0000
0000
,
0000
0000
0000
0000
,
0000
0000
0000
0000
,
3003
0000
0000
0000
;

//--------------- dance-single - Fred-104 ----------------
#NOTEDATA:;
#STEPSTYPE:dance-single;
#DESCRIPTION:Fred-104;
#DIFFICULTY:Medium;
#METER:13;
#CREDIT:Fred-104;
#NOTES:
0000
0000
0000
0000
,
0000
0000
0000
0000
,
0000
0000
0000
0000
,
0000
0000
0000
0000
,
0000
0000
0000
0000
,
0000
0000
0000
0000
,
0000
0000
0000
0000
,
0000
0000
0000
0000
,
0000
0000
0000
0000
,
1000
0000
0100
0000
0010
0001
0010
0000
,
0001
1000
0000
0010
1000
0000
0001
0010
,
0100
0000
1000
0000
0001
0100
0001
0000
,
1000
0100
1000
0000
0100
0000
0010
0000
,
0001
0000
1000
0000
0010
0100
0010
0000
,
1000
0001
1000
0000
0001
0000
0010
0000
,
0100
1000
0100
0000
1000
0000
0001
0000
,
0100
0001
0000
0100
0001
0000
1000
0000
,
0001
0010
0001
0000
1000
0000
0010
0000
,
0100
0001
0100
0000
0010
0000
1000
0000
,
0001
0010
0100
0000
1000
0000
0001
0000
,
0100
0010
1000
0000
0001
0000
0010
0000
,
0001
0100
0010
0000
1000
0000
0001
0000
,
0010
0100
1000
0000
0010
0000
1000
0000
,
0001
1000
0100
0000
1000
0010
0100
0000
,
0001
1000
0100
0010
0100
0010
0001
0000
,
2000
0000
0010
0000
0000
0010
3000
0000
,
0002
0000
0010
0000
0000
0010
0003
0000
,
2000
0000
0100
0000
0000
0100
3000
0000
,
0002
0000
0100
0000
0000
0100
0003
0000
,
1000
0000
0100
0000
0000
0101
0000
0000
,
0001
0000
0100
0000
0000
1100
0000
0000
,
1000
0000
0010
0000
0000
0011
0000
0000
,
0001
0000
0010
0000
0000
1010
0000
0000
,
1001
0000
0000
0000
,
1000
0000
0000
0000
,
0001
0000
0000
0000
,
1000
0000
0000
0000
,
0002
0000
0010
0000
,
0023
0000
0100
0000
,
0230
0000
1000
0000
,
2300
0000
3010
0000
,
0200
0000
0001
0000
,
0302
0000
0010
0000
,
0023
0000
0100
0000
,
0230
0000
2300
0000
,
3002
0000
0100
0000
,
2003
0000
0010
0000
,
3002
0000
0010
0000
,
2003
0000
0100
0000
,
3001
0010
0100
1000
,
0001
0100
0010
1000
,
0100
0010
0001
1000
,
0010
0100
0001
1000
,
0001
0010
0100
0001
,
0100
1000
0001
0100
,
0010
1000
0010
0100
,
0001
1000
0001
0010
,
0210
0000
0000
1000
0000
0001
0000
2000
,
0000
3300
0000
2002
0000
3003
0000
0110
,
0000
1001
0000
1000
0100
0010
0001
1000
,
0010
0100
0010
0100
0000
0001
2000
0000
,
0000
0000
3100
0010
0000
0010
0000
0010
,
0001
0000
1000
0010
0000
0100
0010
0100
,
0001
1000
0010
0000
0100
0001
1000
0000
,
0100
0010
0001
1000
0000
0010
2000
0000
,
0000
3001
0010
0001
0100
0000
0010
1000
,
0000
0001
1000
0100
0010
0100
1000
0000
,
0001
1000
0000
0010
1000
0001
0000
0010
,
0100
0010
0100
1000
0000
0001
2000
0000
,
0000
0000
3001
1000
0100
0000
0010
0100
,
0010
0001
1000
0000
0001
1000
0010
0000
,
0100
0001
1000
0000
0100
0010
0001
0000
,
1000
0010
1000
0001
0010
0100
1000
0000
,
0001
0100
0010
0100
,
1000
0100
0001
0000
1000
0000
0100
0000
,
0010
0001
1000
0010
,
0100
0001
1000
0001
,
1000
0100
0010
0100
,
0001
0100
1000
0000
0001
0000
0100
0000
,
0010
1000
0001
0010
,
0100
0000
1000
0000
0001
1000
0001
0000
,
1000
0100
0000
0100
0010
0001
0010
0000
,
0001
1000
0010
0000
1000
0001
0010
0000
,
0100
0010
0100
0000
1000
0001
1000
0000
,
0010
0100
0010
0000
1000
0100
1000
0000
,
0001
0100
0001
0000
1000
0010
1000
0000
,
0001
0010
0100
0000
0010
0100
1000
0000
,
0010
0100
0001
0000
0100
0010
1000
0000
,
0001
0010
0001
0010
0100
1000
0001
0000
,
1000
0010
0100
0000
0010
0000
1000
0000
,
0001
0010
0100
0000
0010
0000
0001
0000
,
1000
0001
0100
0000
1000
0000
0100
0000
,
0001
1000
0100
0000
0001
0000
0100
0000
,
1000
0100
0010
0001
0100
0010
1000
0000
,
0010
0100
0001
0010
0100
1000
0001
0000
,
1000
0100
0010
0001
0100
0010
0100
0000
,
2002
0000
0000
0000
,
0000
0000
0000
0000
,
0000
0000
0000
0000
,
0000
0000
0000
0000
,
3003
0000
0000
0000
;

//--------------- dance-single - Fred-104 ----------------
#NOTEDATA:;
#STEPSTYPE:dance-single;
#DESCRIPTION:Fred-104;
#DIFFICULTY:Hard;
#METER:16;
#CREDIT:Fred-104;
#NOTES:
0000
0000
0000
0000
,
0000
0000
0000
0000
,
0000
0000
0000
0000
,
0000
0000
0000
0000
,
0000
0000
0000
0000
,
0000
0000
0000
0000
,
0000
0000
0000
0000
,
0000
0000
0000
0000
,
0000
0000
0000
0000
,
0001
0100
0010
1000
0001
1000
0010
1000
,
0001
0010
0100
0010
0001
1000
0100
1000
,
0001
0100
0010
0100
0001
1000
0010
1000
,
0001
0010
0100
1000
0100
0010
0001
1000
,
0010
1000
0100
1000
0001
0100
0010
1000
,
0001
0010
0001
0100
0010
1000
0001
0010
,
0100
1000
0010
1000
0001
0010
0100
1000
,
0001
1000
0100
1000
0010
0100
0001
1000
,
0100
0010
0001
1000
0010
0001
0010
1000
,
0001
0010
0100
1000
0001
0100
0010
1000
,
0001
0010
0100
0010
1000
0010
0001
1000
,
0001
0100
0010
1000
0001
0010
0100
1000
,
0001
0100
0010
0100
1000
0100
0010
1000
,
0001
1000
0100
0010
0001
1000
0010
1000
,
0001
0010
1000
0010
0100
1000
0001
0100
,
0010
0100
1000
0100
0001
1000
0100
0010
,
0002
0000
0100
0000
0000
2000
3003
0000
,
2000
0000
0100
0000
0000
0002
3003
0000
,
0002
0000
0010
0000
0000
2000
3003
0000
,
2000
0000
0010
0000
0000
0002
3003
0000
,
1100
0000
0101
0000
1000
0100
0010
0000
,
0011
0000
1001
0000
0001
0100
0010
0000
,
1010
0000
0101
0000
0001
1000
0100
0000
,
0010
0000
0001
0000
1000
0000
0010
0000
0100
0001
0100
0001
0100
0000
0001
0000
,
2001
0000
0000
0000
,
0001
0000
0000
0000
,
0001
0000
0000
0000
,
0001
0000
3000
0000
,
0002
0000
0010
0000
,
2003
0000
0010
0000
,
3002
0000
0100
0000
,
2003
0000
0100
0000
,
3002
0000
0100
0000
,
0023
0000
0100
0000
,
0032
0000
0100
0000
,
2003
0000
3200
0000
,
0320
0000
0001
0000
,
0230
0000
0001
0000
,
2300
0000
0010
0000
,
3002
0000
2000
3003
,
1000
0100
0010
0001
1000
0010
1000
0001
,
0100
0010
1000
0001
0010
0100
0010
0001
,
1000
0010
1000
0001
0100
0010
1000
0001
,
0010
0100
1000
0010
1000
0100
0010
0000
,
0001
1000
0010
1000
0100
1000
0010
0100
,
0001
0010
0100
0001
1000
0010
0100
1000
,
0010
0100
1000
0001
0010
0100
0001
0010
,
0100
1000
0010
0100
0001
1000
0001
0000
,
2001
0000
0000
0010
0000
0001
0000
0100
,
0000
0000
0000
0010
0000
0000
0000
3001
,
0000
1001
0000
1000
0100
0001
1000
0010
,
0001
1000
0010
0001
1000
0100
0020
0000
,
0000
0000
1030
0200
0000
0301
0100
0010
,
0200
0000
1300
0002
0000
1003
0010
1000
,
0001
0010
0100
0001
0100
0010
0001
0100
,
0010
0001
1000
0100
0001
1000
0200
0000
,
1300
0020
0000
0031
0020
0000
0130
0002
,
0000
1003
0100
0010
0100
0001
0100
1000
,
0001
0100
0000
1000
0001
0010
0000
1000
,
0001
0010
0100
0001
1000
0010
0002
0000
,
0000
0000
1003
0010
1000
0100
0010
0100
,
1000
0001
0100
1000
0001
0010
0100
0001
,
1000
0000
0000
0100
0000
0000
0010
0000
0000
0001
0000
0000
1000
0000
0010
0000
1000
0000
0001
0000
0010
0000
0100
0000
,
1000
0000
0100
0000
0010
0000
0001
0000
1000
0000
0001
0000
0100
0000
0000
0010
0000
0000
0100
0000
0000
0000
0000
0000
,
0001
0000
1000
0000
0100
0000
1000
0000
0001
0100
0001
0000
1000
0000
0100
0000
,
0010
0001
1000
0010
0100
0001
0100
0000
,
0010
1000
0100
0010
0001
0100
0010
1000
,
0100
0000
1000
0000
0010
0000
0100
0000
0001
1000
0001
0000
0010
0000
0000
0000
,
0100
1000
0100
0000
1000
0000
0001
0000
0100
0000
0010
0000
1000
0000
0100
0000
,
0010
0001
1000
0010
0100
0010
1000
0100
,
0010
0001
0010
0000
0100
0000
1000
0000
0001
0000
0100
0000
0010
0000
1000
0000
,
0001
1000
0100
0010
0001
1000
1001
0000
,
1000
0000
0100
1000
0100
0000
0010
0000
0001
0000
1000
0000
0010
0000
1000
0000
,
0001
0010
0100
0010
0100
1000
0001
0100
,
0010
0000
1000
0100
1000
0000
0001
0000
0010
0000
0100
0000
1000
0000
0001
0000
,
0100
0000
0001
0000
1000
0000
0100
0010
0100
0000
1000
0000
0001
0000
0100
0000
,
0010
0000
1000
0000
0001
0000
0010
0100
0010
0000
0100
0000
1000
0000
0001
0000
,
0100
0000
0001
0000
0010
0000
0001
1000
0001
0000
0100
0000
0010
0000
1000
0000
,
0100
0000
1000
0000
0001
0000
0100
0010
0100
0000
0001
0000
1000
0000
0100
0000
,
0010
0000
0001
0000
1000
0000
0010
1000
0010
0000
1000
0000
1001
0000
0000
0000
,
0001
0010
0100
0001
0100
0010
0001
1000
,
0001
0100
1000
0100
0010
0001
0010
1000
,
0001
0010
0100
0001
0100
1000
0001
0100
,
0010
1000
0100
0010
1000
0010
0001
1000
,
0001
0010
0001
0010
1000
0010
1000
0010
,
0100
0001
0100
0001
0100
1000
0100
1000
,
0001
0100
1000
0001
0010
1000
0001
0000
,
2002
0000
0000
0000
,
0000
0000
0000
0000
,
0000
0000
0000
0000
,
0000
0000
0000
0000
,
3003
0000
0000
0000
;

//--------------- dance-single - Fred-104† ----------------
#NOTEDATA:;
#STEPSTYPE:dance-single;
#DESCRIPTION:Fred-104†;
#DIFFICULTY:Challenge;
#METER:18;
#BPMS:0=234,132=117,180=234,336=117;
#CREDIT:Fred-104†;
#NOTES:
0000
0000
0000
0000
,
0000
0000
0000
0000
,
0000
0000
0000
0000
,
0000
0000
0000
0000
,
0000
0000
0000
0000
,
0000
0000
0000
0000
,
0000
0000
0000
0000
,
0000
0000
0000
0000
,
0000
0000
0000
0000
,
1000
0100
1000
0000
0001
0000
0100
0000
0010
1000
0010
0000
0100
0000
0001
0000
,
1000
0010
1000
0000
0001
0000
0010
0000
0100
1000
0100
0000
1000
0000
0001
0000
,
0100
0010
0100
0000
0001
0000
1000
0000
0100
0010
0100
0000
1000
0000
0001
0000
,
0100
0010
0001
1000
0100
0010
1000
0001
,
0010
0100
0010
0000
0001
0000
1000
0000
0010
1000
0010
0000
1000
0000
0001
0000
,
1000
0100
1000
0000
0001
0000
0100
0000
0010
1000
0010
0000
0100
0000
0001
0000
,
1000
0001
1000
0000
0001
0000
0010
0000
0100
1000
0100
0000
0010
0000
0001
0000
,
1000
0010
1000
0000
0001
0000
0010
0000
0100
1000
0100
0000
0010
0000
0100
0000
,
1000
0001
0100
0000
0010
0000
1000
0000
0001
0010
0100
0000
1000
0000
0001
0000
,
0100
0010
1000
0000
0001
0000
0010
0000
0100
0010
0001
0000
1000
0000
0010
0000
,
1000
0001
0010
0000
0100
0000
0010
0000
0001
1000
0010
0000
1000
0000
0001
0000
,
0010
0100
1000
0000
0100
0000
0010
0000
0100
1000
0001
0000
0100
0000
0001
0000
,
1000
0010
0100
0000
0010
0000
1000
0001
0010
0000
0100
0000
1000
0001
1000
0000
,
0100
0010
0001
0000
1000
0000
0010
0100
0001
0000
1000
0000
0001
0010
0100
0000
,
1000
0001
0100
0000
0010
0000
1000
0001
0010
0000
0100
0000
0010
0001
1000
0000
,
0010
0100
1000
0001
0010
0100
0010
1000
,
1100
0000
2002
0000
3003
0202
0000
0303
,
0011
0000
2002
0000
3003
2020
0000
3030
,
0101
0000
2002
0000
3003
2200
0000
3300
,
1010
0000
2002
0000
3003
0022
0000
0033
,
0001
0000
0100
0000
1000
0000
0100
0000
0010
1000
0010
1000
0001
0000
0010
0000
,
0100
0000
1000
0000
0001
0100
0001
0100
0010
0000
0001
0000
0010
0000
0100
0000
,
0001
0000
1000
0000
0100
0000
0001
0000
0100
0010
0100
0010
0100
0000
1000
0000
,
0001
0100
0010
1000
0001
0100
0010
1000
0001
1000
0010
0100
0001
1000
0010
0100
,
0001
0000
0000
0000
,
0000
0000
0000
0000
,
1000
0100
1000
0100
0001
1000
0001
1000
0010
0001
0010
0001
0100
0010
0100
0010
,
1000
0010
1000
0010
0001
1000
0001
1000
0100
0001
0100
0001
0010
0100
0010
0100
,
1000
0100
1000
0100
0001
1000
0001
1000
0010
0100
0010
0100
1000
0001
0100
0010
,
1000
0010
1000
0010
0100
1000
0100
1000
0100
0010
0100
0001
1000
0100
0010
0001
,
0100
0010
0100
0010
0001
1000
0100
0010
1000
0100
0010
0100
0001
1000
0010
0001
,
1000
0010
0100
0010
0001
1000
0100
0001
1000
0100
0010
1000
0001
0100
0010
0001
,
1000
0000
0000
0000
1010
0000
0000
0000
0001
0010
0001
0010
0100
0010
0100
0010
0100
0000
0000
0000
1001
0000
0000
0000
1000
0010
1000
0010
0100
0010
0100
0010
,
0100
0000
0000
0000
0101
0000
0000
0000
1000
0100
1000
0100
0010
0100
0010
0100
1000
0000
0000
0000
1001
0000
0000
0000
0001
1000
0001
1000
0010
0100
0010
0100
,
0001
0000
1000
0000
0100
0000
0010
0000
0001
0010
0001
1000
0010
0000
1000
0000
0001
0000
0100
0000
0010
0000
1000
0000
0001
0010
0100
0010
0001
0000
1000
0000
,
0010
0000
0100
0000
0001
0000
1000
0000
0100
0010
0100
0010
0001
0010
0001
0010
0001
0000
1000
0000
0010
0000
0100
0000
0001
1000
0001
1000
0100
1000
0100
1000
,
0001
0000
1000
1010
0000
1001
0000
2200
,
0000
3300
0000
0220
0000
0330
0000
0011
,
0000
0001
0100
1000
0001
1000
0100
0001
,
1000
0100
0001
1000
0010
0001
0201
0000
,
0000
0000
0310
0000
1000
1100
0000
0001
,
0101
0000
1000
1001
0000
0001
0010
0100
,
1000
0010
0100
1000
0001
0010
0100
0001
,
0010
0100
0001
1000
0010
0100
2100
0000
,
3000
1010
0000
0001
0011
0000
1000
1001
,
0000
1000
0010
0001
1000
0001
0010
1000
,
0001
0010
0000
1000
0001
1000
0000
0010
,
0001
1000
0100
0001
1000
0010
0012
0000
,
0000
0000
1003
0100
0001
0100
1000
0001
,
0100
1000
0100
0010
0100
1000
0100
0001
,
1000
0000
0000
0100
0000
0000
0010
0000
0000
0001
0000
0000
1000
0000
0010
0000
0100
0000
0010
0000
1000
0000
0001
0000
,
0010
0000
0000
0000
0100
0000
0000
0000
1000
0000
0000
0000
0010
0000
0000
0000
0100
0000
0000
0000
0001
0000
0000
0000
0010
0000
0000
0100
0000
0000
0010
0000
0000
0001
0000
0000
1000
0000
0000
0000
0000
0000
0001
0000
0000
0000
0000
0000
,
1000
0000
0001
0000
0100
0010
1000
0010
0100
0000
0001
0000
1000
0000
0100
0000
,
0010
0001
1000
0000
0010
0000
0100
0000
0001
1000
0100
0010
0001
0000
1000
0000
,
0010
0000
0100
0000
0001
1000
0100
1000
0001
0000
0010
0000
0100
0000
1000
0000
,
0001
0000
0100
0000
0010
0000
1000
0000
0001
0010
0001
0010
0100
1000
0100
0010
,
0001
0000
1000
0000
0010
0100
0001
0100
0010
0000
1000
0000
0001
0000
0010
0000
,
0100
0000
0001
0000
1000
0000
0010
0000
0100
0000
1000
0000
0001
1000
0001
0000
,
0100
0010
1000
0010
1000
0000
0001
0000
0010
0000
0100
0000
0010
0000
1000
0000
,
0010
0000
0001
0000
1000
0000
0010
0000
0100
0001
0100
0001
1000
0100
0010
0000
,
0001
1000
0010
0000
1000
0000
0001
0000
0010
0100
1000
0000
0001
0000
0100
0000
,
0010
1000
0100
0000
1000
0000
0001
0000
0010
0100
0010
0000
0001
0000
1000
0000
,
0010
1000
0001
0000
0010
0000
0100
0000
0010
0001
1000
0000
0001
0000
1000
0000
,
0010
1000
0100
0000
1000
0000
0010
0000
0100
0001
0010
0000
0001
0000
0100
0000
,
0010
1000
0001
0000
0010
0000
0100
0000
1000
0010
0100
0000
0010
0000
1000
0000
,
0001
0010
0100
0000
0010
0000
0001
0000
1000
0010
0100
0000
0010
0000
1000
0000
,
0001
0010
0100
0000
1000
0000
0010
0000
1000
0010
0100
0000
0001
0000
0010
0000
,
0001
0100
1000
0100
0010
0001
0010
1000
,
0001
0010
0100
0000
1000
0000
0001
0000
0100
0010
1000
0000
0001
0000
0010
0000
,
0100
0010
0001
1000
0010
0000
1000
0000
0100
0000
0001
0000
0100
0000
1000
0000
,
0001
1000
0010
0000
0100
0000
0001
0000
0010
0100
1000
0000
0001
0000
0100
0000
,
0010
1000
0010
0100
0001
0000
1000
0000
0100
0000
0010
0000
0011
0000
0000
0000
,
1000
0010
0100
0001
1000
0000
0000
0000
0001
0010
0100
1000
0001
0000
0000
0000
,
1000
0100
0010
0001
1000
0000
0000
0000
0001
0100
0010
1000
0001
0000
0000
0000
,
0010
0100
1000
0001
0100
0000
0000
0000
0010
1000
0001
0010
0100
0000
0000
0000
,
2002
0000
0000
0000
,
0000
0000
0000
0000
,
3003
0000
0000
0000
;

//--------------- dance-double - Fred-104 ----------------
#NOTEDATA:;
#STEPSTYPE:dance-double;
#DESCRIPTION:Fred-104;
#DIFFICULTY:Easy;
#METER:9;
#CREDIT:Fred-104;
#NOTES:
00000000
00000000
00000000
00000000
,
00000000
00000000
00000000
00000000
,
00000000
00000000
00000000
00000000
,
00000000
00000000
00000000
00000000
,
00000000
00000000
00000000
00000000
,
00000000
00000000
00000000
00000000
,
00000000
00000000
00000000
00000000
,
00000000
00000000
00000000
00000000
,
00000000
00000000
00000000
00000000
,
00000001
00000000
00000001
00000000
,
00000100
00001000
00000100
00000000
,
00001000
00000000
00001000
00000000
,
00010000
00001000
01000000
00000000
,
00100000
00000000
00100000
00000000
,
10000000
00010000
10000000
00000000
,
01000000
00000000
00100000
00000000
,
00001000
00010000
00001000
00000000
,
00010000
00000000
00010000
00000000
,
00001000
00000100
00000001
00000000
,
00001000
00000000
00001000
00000000
,
00000100
00000010
00000001
00000000
,
00000100
00000000
00000100
00000000
,
00001000
00010000
00001000
00000000
,
00100000
00000000
00100000
00000000
,
01000000
10000000
00010000
01000000
,
00020000
00000000
10000000
00000000
00000000
10030000
00000000
00000000
,
02000000
00000000
00100000
00000000
00000000
03100000
00000000
00000000
,
00002000
00000000
00010000
00000000
00000000
00013000
00000000
00000000
,
00000020
00000000
00001000
00000000
00000000
00001030
00000000
00000000
,
00000100
00000000
00000010
00000000
00000000
00001001
00000000
00000000
,
00000001
00000000
00000100
00000000
00000000
00001100
00000000
00000000
,
00001000
00000000
00010000
00000000
00000000
00011000
00000000
00000000
,
00010000
00000000
00100000
00000000
00000000
10100000
00000000
00000000
,
10010000
00000000
00000000
00000000
,
10000000
00000000
00000000
00000000
,
00100000
00000000
00000000
00000000
,
00010000
00000000
00000000
00000000
,
00002000
00000000
00000000
00000000
,
00100000
00000000
00000000
00000000
,
00000010
00000000
00000000
00000000
,
00010000
00000000
00000000
00000000
,
00023000
00000000
00000000
00000000
,
00000100
00000000
00000000
00000000
,
00030200
00000000
00000000
00000000
,
00010000
00000000
00020300
00000000
,
00000100
00000000
00000000
00000000
,
01000000
00000000
00000000
00000000
,
00000100
00000000
00000000
00000000
,
00032000
00000000
00010000
00000000
,
00023000
00000000
00130000
00000000
,
02000000
00000000
03010000
00000000
,
20000000
00000000
30100000
00000000
,
00020000
00000000
00031000
00000000
,
00000200
00000000
00000301
00000000
,
00002000
00000000
00003001
00000000
,
00000200
00000000
00001300
00000000
,
00020000
00000000
00031000
00000000
,
00010000
00000000
00000000
00001000
00000000
00001000
00000000
00001000
,
00000000
00000000
00000000
01000000
00000000
00000000
00000000
00010000
,
00000000
00010000
00000000
00000000
10000000
00000000
01000000
00000000
,
00010000
00000000
00000000
00001000
00000000
00000000
00010000
00000000
,
00000000
00000000
00000100
00000000
00000000
00001000
00000000
00000000
,
00000100
00000000
00000000
00000010
00000000
00000000
00000001
00000000
,
00001000
00000010
00010000
00001000
,
00010000
00000000
00000000
00010000
00000000
00000000
00010000
00000000
,
00000000
00001000
00000000
00000000
00001000
00000000
00000000
00001000
,
00000000
00010000
01000000
10000000
,
00010000
01000000
00100000
00010000
,
00001000
00000000
00000000
00010000
00000000
00000000
00011000
00000000
,
00000000
00010000
00001000
00000010
,
00001000
00010000
00001000
00010000
,
00000100
00001000
00000001
00000100
,
00001000
00010000
00001000
00000000
00010000
00001000
00010000
00000000
,
00011000
00000000
00001000
00000000
,
00010000
01000000
00100000
00010000
,
10000000
00100000
10000000
00010000
,
00100000
00001000
00010000
00001000
,
00011000
00000000
00010000
00000000
,
00001000
00000100
00000001
00001000
,
00000001
00000100
00000010
00000100
,
00001000
00010000
00001000
00010000
,
00001000
00000000
01000000
00000000
,
00100000
10000000
01000000
00000000
,
00100000
00000000
00001000
00000000
,
00010000
00000100
00001000
00000000
,
00000100
00000010
00000001
00000000
,
00000100
00001000
00010000
00000000
,
00001000
00100000
00001000
00000000
,
00010000
00100000
10000000
00000000
,
00010000
01000000
00100000
00100000
,
10000000
01000000
00100000
00100000
,
00001000
00010000
00000100
00000100
,
00000010
00000001
00001000
00001000
,
00000001
00000001
00000100
00000100
,
00001000
00001000
00010000
00010000
,
00100000
00100000
00010000
00010000
,
00022000
00000000
00000000
00000000
,
00000000
00000000
00000000
00000000
,
00000000
00000000
00000000
00000000
,
00000000
00000000
00000000
00000000
,
00033000
00000000
00000000
00000000
;

//--------------- dance-double - Fred-104 ----------------
#NOTEDATA:;
#STEPSTYPE:dance-double;
#DESCRIPTION:Fred-104;
#DIFFICULTY:Medium;
#METER:13;
#CREDIT:Fred-104;
#NOTES:
00000000
00000000
00000000
00000000
,
00000000
00000000
00000000
00000000
,
00000000
00000000
00000000
00000000
,
00000000
00000000
00000000
00000000
,
00000000
00000000
00000000
00000000
,
00000000
00000000
00000000
00000000
,
00000000
00000000
00000000
00000000
,
00000000
00000000
00000000
00000000
,
00000000
00000000
00000000
00000000
,
00001000
00000000
00010000
00000000
00100000
01000000
00100000
00000000
,
10000000
01000000
00000000
10000000
00100000
00000000
00010000
00000000
,
00001000
00010000
00000100
00000000
00001000
00000000
00000001
00000000
,
00000100
00000010
00001000
00000000
00000001
00000010
00000100
00000000
,
00010000
00000000
00001000
00100000
00010000
00000000
00100000
01000000
,
10000000
00000000
00100000
01000000
00100000
00000000
10000000
00000000
,
01000000
00100000
00001000
00000000
00010000
00000100
00000010
00000000
,
00000100
00001000
00000010
00000000
00010000
00001000
00010000
00000000
,
00001000
00100000
00010000
00000000
01000000
00000000
00001000
00000000
,
00010000
00000100
00000000
00010000
00000100
00000000
00001000
00000000
,
00000100
00000000
00000010
00000000
00000001
00001000
00000010
00000000
,
00010000
00001000
00010000
00000000
00000100
00001000
00000001
00000000
,
00000100
00000010
00000100
00000000
00001000
00010000
00001000
00000000
,
00010000
00100000
01000000
00000000
00100000
10000000
00010000
00000000
,
10000000
01000000
00100000
00000000
01000000
00010000
00001000
00000000
,
00000010
00000001
00001000
00000000
00000010
00000100
00001000
00000000
,
00020000
00000000
00000010
00000000
00000000
00000010
00030000
00000000
,
00002000
00000000
00100000
00000000
00000000
00100000
00003000
00000000
,
00020000
00000000
00000100
00000000
00000000
00000100
00030000
00000000
,
00002000
00000000
01000000
00000000
00000000
01000000
00003000
00000000
,
00010000
00000000
00001000
00000000
00000100
00000001
00000000
00000001
,
00001000
00000000
00000100
00000000
00000010
00000001
00000000
00000001
,
00001000
00000000
00000010
00000000
00000100
00001000
00000000
00001000
,
00010000
00000000
00100000
00000000
10000000
01000000
00000000
01000000
,
00100000
00000000
00000000
00000000
,
00100000
00000000
00000000
00000000
,
00001000
00000000
00000000
00000000
,
00001000
00000000
00000000
00000000
,
00020000
00000000
00001000
00000000
,
00032000
00000000
00000100
00000000
,
00003200
00000000
00000001
00000000
,
00000302
00000000
00000010
00000000
,
00000023
00000000
00001000
00000000
,
00002030
00000000
00010000
00000000
,
00023000
00000000
00001000
00000000
,
00032000
00000000
02003000
00000000
,
03020000
00000000
00100000
00000000
,
00230000
00000000
01000000
00000000
,
02300000
00000000
10000000
00000000
,
20000000
00000000
33000000
00000000
,
00010000
00000000
10000000
00000000
00100000
00010000
00001000
00000000
,
00010000
00000000
00000100
00000000
00001000
00000001
00000100
00000000
,
00000010
00000000
00001000
00000000
00000001
00000010
00000100
00000000
,
00010000
00000000
00001000
00000000
00010000
01000000
00100000
00000000
,
00010000
00000000
01000000
00000000
00100000
00010000
00001000
00000000
,
00010000
00000000
00001000
00000000
00000010
00000100
00001000
00000000
,
00000010
00000000
00000100
00000000
00001000
00010000
00001000
00000000
,
01000000
00000000
00010000
00000000
00100000
00001000
00010000
00000000
,
00012000
00000000
00000000
00010000
00000000
00000010
00000000
00020000
,
00000000
00033000
00000000
00022000
00000000
00033000
00000000
01100000
,
00000000
10010000
00000000
10000000
01000000
10000000
00010000
01000000
,
00001000
00010000
00001000
00010000
00000000
00000100
00000020
00000000
,
00000000
00000000
00000031
00001000
00000000
00000010
00000000
00010000
,
00001000
00000000
00010000
00100000
00000000
01000000
00100000
00000000
,
10000000
00010000
10000000
00000000
01000000
00100000
00001000
00000000
,
00010000
00000010
00010000
00000010
00000000
00010000
00002000
00000000
,
00000000
01003000
00010000
10000000
01000000
00000000
00100000
00001000
,
00000000
00010000
00001000
00000100
00001000
00010000
00001000
00000000
,
00010000
00001000
00000000
00001000
01000000
00010000
00000000
00010000
,
00100000
01000000
00100000
10000000
00000000
00100000
00020000
00000000
,
00000000
00000000
10030000
00100000
00010000
00000000
00001000
00010000
,
00001000
00010000
00000100
00000000
00001000
00000001
00001000
00000000
,
00000001
00000100
00010000
01000000
,
00100000
10000000
01000000
00100000
00001000
00010000
00001000
00000000
,
00010000
00001000
00000100
00000001
,
00001000
00000001
00000010
00001000
,
00010000
01000000
10000000
00010000
,
10000000
00000000
00100000
00000000
00010000
00001000
00010000
00000000
,
00001000
00010000
00100000
10000000
,
00010000
10000000
01000000
00010000
,
00001000
00000010
00000001
00001000
,
00000001
00000000
00000100
00000000
00001000
00010000
00001000
00000000
,
01000000
00010000
01000000
00010000
10000000
00010000
00100000
00000000
,
01000000
10000000
01000000
00000000
00100000
00001000
00010000
00000000
,
00001000
00000100
00000010
00000000
00001000
00000100
00000010
00000000
,
00000001
00001000
00000010
00000000
00000100
00001000
00010000
00000000
,
00100000
01000000
00010000
00000000
00100000
01000000
10000000
00000000
,
00100000
01000000
00010000
00000000
00100000
01000000
00010000
00000000
,
00001000
00010000
00000100
00000000
00001000
00000001
00000100
00000000
,
00000010
00001000
00000001
00001000
00000100
00000010
00000001
00000000
,
00001000
00000001
00000100
00000000
00000010
00001000
00000001
00000000
,
00000010
00000100
00001000
00000100
00010000
00001000
00010000
00000000
,
01000000
10000000
00010000
00000000
01000000
00100000
10000000
00000000
,
01000000
00100000
00010000
00100000
00001000
00010000
00000100
00000000
,
00000010
00000001
00000010
00000000
00000100
00001000
00000100
00000000
,
00010000
00001000
00010000
00000000
00001000
01000000
00001000
00000000
,
00100000
00010000
10000000
00000000
01000000
00100000
00001000
00000000
,
00022000
00000000
00000000
00000000
,
00000000
00000000
00000000
00000000
,
00000000
00000000
00000000
00000000
,
00000000
00000000
00000000
00000000
,
00033000
00000000
00000000
00000000
;

//--------------- dance-double - Fred-104 ----------------
#NOTEDATA:;
#STEPSTYPE:dance-double;
#DESCRIPTION:Fred-104;
#DIFFICULTY:Hard;
#METER:16;
#CREDIT:Fred-104;
#NOTES:
00000000
00000000
00000000
00000000
,
00000000
00000000
00000000
00000000
,
00000000
00000000
00000000
00000000
,
00000000
00000000
00000000
00000000
,
00000000
00000000
00000000
00000000
,
00000000
00000000
00000000
00000000
,
00000000
00000000
00000000
00000000
,
00000000
00000000
00000000
00000000
,
00000000
00000000
00000000
00000000
,
00010000
00001000
00000100
00001000
00010000
00001000
00000010
00000000
,
00000001
00001000
00000010
00000100
00000001
00001000
00000100
00000000
,
00010000
01000000
10000000
00010000
00100000
01000000
00100000
00000000
,
00001000
01000000
00010000
00000100
00000010
00000100
00000001
00000000
,
00001000
00000100
00000010
00001000
00010000
01000000
00100000
00000000
,
00010000
10000000
00100000
00010000
00001000
00010000
01000000
00000000
,
00010000
00001000
00000100
00001000
00010000
00001000
00000010
00000000
,
00000001
00001000
00000010
00000001
00001000
00000100
00000010
00000000
,
00010000
00001000
01000000
00010000
10000000
00010000
00100000
01000000
,
10000000
00100000
10000000
01000000
00100000
00001000
00010000
00000000
,
00001000
00010000
00000100
00001000
00000010
00001000
00000100
00001000
,
00000010
00000100
00000001
00000010
00000100
00010000
00001000
00000000
,
00100000
10000000
00100000
00010000
10000000
00100000
00010000
00100000
,
10000000
00010000
10000000
01000000
00010000
00001000
00010000
00000010
,
00000001
00000010
00001000
00000001
00000010
00001000
00000010
00000001
,
00001000
00000001
00000100
00001000
00010000
01000000
00010000
00001000
,
00020000
00000000
00000010
00000000
00000000
00001000
00000000
00000000
,
00032000
00000000
00100000
00000000
00000000
00010000
00000000
00000000
,
02003000
00000000
00001000
00000000
00000000
00010000
00000000
00000000
,
03002000
00000000
00010000
00000000
00000000
00000010
00000000
00000000
,
00013000
00000000
00011000
00000000
00010000
00001000
00000100
00000001
,
00000010
00000000
00000110
00000000
00001000
00000001
00000100
00001000
,
00010000
00000000
00011000
00000000
00001000
00010000
01000000
00100000
,
00010000
10000000
00100000
00010000
00001000
00000100
00000001
00000010
,
00000200
00000000
00000000
00000000
,
00010000
00000000
00000000
00000000
,
00000001
00000000
00000000
00000000
,
00010000
00000000
00000300
00000000
,
00020000
00000000
00001000
00000000
,
00230000
00000000
01000000
00000000
,
20300000
00000000
00010000
00000000
,
32000000
00000000
00010000
00000000
,
03020000
00000000
00001000
00000000
,
00030020
00000000
00001000
00000000
,
00000230
00000000
00001000
00000000
,
00000302
00000000
00000023
00000000
,
00000230
00000000
00001000
00000000
,
00020300
00000000
00001000
00000000
,
02030000
00000000
10000000
00000000
,
03020000
00000000
00002000
00033000
,
00010000
00001000
00000100
00000010
00000100
00000001
00001000
00000100
,
00010000
01000000
00100000
00010000
10000000
00100000
00010000
00001000
,
00010000
00000100
00000010
00000100
00001000
00000001
00000100
00000010
,
00001000
00000001
00000010
00000100
00010000
01000000
00100000
00010000
,
10000000
00100000
00001000
00010000
00000100
00000001
00001000
00000001
,
00000010
00010000
00001000
01000000
10000000
00010000
01000000
00100000
,
10000000
01000000
00001000
00010000
00000010
00000001
00001000
00000001
,
00000100
00010000
00001000
00100000
10000000
00010000
00100000
01000000
,
20000000
00000000
00000000
00100000
00000000
00010000
00000000
01000000
,
00000000
00000000
00000000
00100000
00000000
00000000
00000000
31000000
,
00000000
10010000
00000000
10000000
01000000
00010000
00001000
00010000
,
00100000
00010000
00001000
00000100
00000000
00000001
00002000
00000000
,
00000000
00000000
00003001
00000200
00000000
00001300
00010000
00001000
,
02000000
00000000
03100000
20000000
00000000
31000000
00100000
00001000
,
00010000
01000000
00100000
10000000
00100000
00001000
00010000
00001000
,
00000100
00000010
00000001
00000010
00000000
00010000
00002000
00000000
,
00013000
00200000
00000000
10300000
00100000
01000000
00010000
20000000
,
00000000
31000000
00100000
01000000
00010000
00001000
00100000
00001000
,
00010000
00000100
00000000
00000001
00001000
00000010
00000000
00000001
,
00001000
00000010
00000100
00001000
00010000
00100000
20000000
00000000
,
00000000
00000000
31000000
00100000
00001000
00010000
00100000
00010000
,
00001000
00010000
00000100
00000010
00000001
00001000
00000010
00000100
,
00001000
00000000
00000000
00010000
00000000
00000000
00100000
00000000
00000000
01000000
00000000
00000000
00010000
00000000
10000000
00000000
01000000
00000000
00100000
00000000
00001000
00000000
00010000
00000000
,
00000010
00000000
00001000
00000000
00000001
00000000
00000010
00000000
00000100
00000000
00001000
00000000
00000001
00000000
00000000
00000100
00000000
00000000
00000010
00000000
00000000
00000000
00000000
00000000
,
00001000
00000001
00000010
00001000
00010000
00001000
00000100
00001000
,
00010000
00100000
00010000
00001000
00010000
01000000
10000000
00010000
,
01000000
10000000
01000000
00100000
01000000
00001000
00010000
00000100
,
00000010
00000100
00000001
00000100
00010000
00001000
01000000
00000000
,
00010000
10000000
01000000
00010000
00001000
00010000
01000000
00010000
,
00001000
00000100
00001000
00010000
00001000
00000100
00000001
00001000
,
00000100
00000001
00000100
00000010
00000100
00010000
00001000
01000000
,
00100000
01000000
10000000
01000000
00100000
00010000
00001000
00000000
,
00010000
00001000
00000010
00000100
00000010
00000001
00000010
00000001
,
00001000
00000010
00000100
00000001
00001000
00000100
00000010
00000100
,
00000001
00000100
00000010
00001000
00010000
00001000
01000000
00010000
,
10000000
01000000
00010000
01000000
00100000
01000000
00100000
01000000
,
10000000
00010000
01000000
00001000
00010000
00000100
00000010
00000100
,
00000001
00000100
00000010
00001000
00010000
01000000
10000000
00010000
,
01000000
00010000
00000100
00000010
00010000
00000100
00000010
00000001
,
00001000
00000010
00001000
00100000
01000000
00010000
10010000
00000000
,
10000000
01000000
00010000
01000000
10000000
01000000
00010000
00001000
,
00010000
00100000
00010000
00001000
00000010
00001000
00010000
00001000
,
00000100
00000001
00000100
00001000
00000100
00000001
00000010
00000100
,
00010000
00001000
00100000
10000000
00100000
00010000
10000000
00100000
,
10000000
01000000
00010000
00001000
00000010
00000001
00001000
00000001
,
00000100
00001000
00010000
00100000
10000000
00010000
10000000
00100000
,
00010000
00001000
00000100
00000001
00001000
00000001
00000010
00001000
,
00022000
00000000
00000000
00000000
,
00000000
00000000
00000000
00000000
,
00000000
00000000
00000000
00000000
,
00000000
00000000
00000000
00000000
,
00033000
00000000
00000000
00000000
;

//--------------- dance-double - Fred-104† ----------------
#NOTEDATA:;
#STEPSTYPE:dance-double;
#DESCRIPTION:Fred-104†;
#DIFFICULTY:Challenge;
#METER:18;
#BPMS:0=234,132=117,180=234,336=117;
#CREDIT:Fred-104†;
#NOTES:
00000000
00000000
00000000
00000000
,
00000000
00000000
00000000
00000000
,
00000000
00000000
00000000
00000000
,
00000000
00000000
00000000
00000000
,
00000000
00000000
00000000
00000000
,
00000000
00000000
00000000
00000000
,
00000000
00000000
00000000
00000000
,
00000000
00000000
00000000
00000000
,
00000000
00000000
00000000
00000000
,
00010000
00001000
00010000
00000000
00001000
00000000
00000100
00000000
00000001
00000000
00001000
00000000
00000100
00000000
00000010
00000000
,
00001000
00010000
00001000
00000000
00010000
00000000
01000000
00000000
00100000
00000000
00001000
00000000
00010000
00000000
00100000
00000000
,
10000000
00010000
10000000
00000000
01000000
00000000
00100000
00000000
00001000
00000000
00000010
00000000
00000100
00000000
00001000
00000000
,
00000001
00000100
00010000
00001000
00100000
10000000
00010000
00100000
,
01000000
10000000
01000000
00000000
00010000
00000000
00001000
00000000
00010000
00000000
00000100
00000000
00000010
00000000
00000001
00000000
,
00001000
00000010
00001000
00000000
00000100
00000000
00000010
00000000
00001000
00000000
00010000
00000000
01000000
00000000
00100000
00000000
,
00010000
10000000
00010000
00000000
00100000
00000000
01000000
00000000
00010000
00000000
00001000
00000000
00000010
00000000
00000100
00000000
,
00001000
00000001
00001000
00000000
00000010
00000000
00000100
00000000
00001000
00010000
00001000
00000000
01000000
00000000
00010000
00000000
,
00100000
01000000
10000000
00000000
00010000
00000000
01000000
00000000
00001000
00000000
00000100
00000000
00000010
00000000
00010000
00000000
,
00001000
00010000
00000100
00000000
00000010
00000000
00000001
00000000
00001000
00000000
00000010
00000000
00010000
00000000
00100000
00000000
,
01000000
00010000
10000000
00000000
00100000
00000000
01000000
00000000
00100000
00000000
00010000
00000000
00000010
00000000
00010000
00000000
,
00001000
00000100
00000010
00000000
00001000
00000000
00000001
00000000
00000010
00000000
00000100
00000000
00010000
00000000
01000000
00000000
,
00100000
00010000
10000000
00000000
00100000
00000000
01000000
00000000
10000000
01000000
00010000
00000000
10000000
00000000
01000000
00000000
,
00100000
00001000
00010000
00000000
00001000
00000000
00000100
00000000
00000010
00001000
00000001
00000000
00000010
00000000
00000100
00000000
,
00001000
00000001
00000100
00000000
00001000
00000000
00010000
00000000
00001000
01000000
00010000
00000000
00100000
00000000
01000000
00000000
,
10000000
00100000
00010000
00000000
00001000
00000000
00010000
00000000
00000100
00010000
00001000
00000000
01000000
00000000
00010000
00000000
,
01010000
00000000
20020000
00000000
30030000
20200000
00000000
30300000
,
11000000
00000000
02020000
00000000
03030000
00022000
00000000
00033000
,
00010010
00000000
00002002
00000000
00003003
00000220
00000000
00000330
,
00000011
00000000
00002020
00000000
00003030
00022000
00000000
00033000
,
00001000
00010000
01000000
00100000
10000000
00100000
00001000
00000010
,
00000001
00001000
00000010
00000100
00010000
01000000
00001000
00010000
,
00100000
01000000
00010000
10000000
01000000
00001000
00000100
00010000
,
00001000
00000010
00010000
00100000
00001000
00000100
00010000
01000000
,
00001000
00000000
00000000
00000000
,
00000000
00000000
00000000
00000000
,
10000000
01000000
00010000
00001000
00010000
00100000
00010000
00001000
00000100
00001000
00010000
00001000
00000010
00000001
00001000
00000001
,
00001000
00000010
00000001
00000010
00000100
00001000
00010000
00100000
00010000
00001000
00010000
01000000
10000000
01000000
00010000
00001000
,
00010000
00000100
00000010
00001000
00010000
00001000
00000100
00000010
00010000
00001000
00010000
00100000
01000000
00001000
00010000
01000000
,
00100000
00001000
00010000
00100000
10000000
00010000
01000000
00001000
00000100
00000010
00010000
00001000
00000100
00000001
00000010
00000100
,
00001000
00000001
00000100
00001000
01000000
00010000
00100000
01000000
10000000
00010000
00100000
00001000
00000010
00000001
00001000
00000010
,
00000100
00001000
00010000
00100000
10000000
00010000
01000000
00100000
00010000
00001000
00000010
00000001
00001000
00000100
00010000
01000000
,
00100000
00000000
00000000
00000000
00110000
00000000
00000000
00000000
10000000
01000000
10000000
01000000
00010000
00001000
00010000
00001000
00010000
00000000
00000000
00000000
00010010
00000000
00000000
00000000
00000010
00001000
00000010
00001000
00000010
00000100
00000010
00000100
,
00000001
00000000
00000000
00000000
00001001
00000000
00000000
00000000
00000001
00000100
00000001
00000100
00001000
00010000
00001000
00010000
00001000
00000000
00000000
00000000
00011000
00000000
00000000
00000000
00001000
00100000
00001000
00100000
00010000
10000000
00010000
10000000
,
00010000
00000000
00100000
00000000
10000000
00000000
00100000
00000000
00001000
00010000
00001000
00010000
00100000
00000000
01000000
00000000
00010000
00000000
10000000
00000000
01000000
00000000
00010000
00000000
00001000
00010000
00001000
00010000
00000100
00000000
00000010
00000000
,
00000001
00000000
00001000
00000000
00000010
00000000
00000100
00000000
00001000
00010000
00001000
00010000
00001000
01000000
00010000
01000000
00010000
00000000
10000000
00000000
01000000
00000000
00100000
00000000
00001000
00010000
00001000
00010000
00001000
00010000
00000010
00001000
,
00000010
00000000
00000000
00001001
00000000
00011000
00000000
20020000
,
00000000
30030000
00000000
02200000
00000000
03300000
00000000
10010000
,
00000000
10000000
00100000
00001000
00010000
00000100
00000001
00001000
,
00000001
00000010
00010000
00001000
01000000
10000000
00020000
00000000
,
00000000
00000000
01030000
00000000
00001000
00011000
00000000
00000001
,
00001001
00000000
00010000
00011000
00000000
00001000
00010000
01000000
,
00100000
00001000
01000000
00010000
00000100
00000010
00001000
00000100
,
00000010
00001000
00010000
01000000
00100000
00001000
02000000
00000000
,
03000000
01001000
00000000
00000100
00010100
00000000
00010000
00011000
,
00000000
00001000
00010000
00100000
10000000
01000000
10000000
00100000
,
00010000
00001000
00000000
00010000
00001000
00000010
00000000
00001000
,
00010000
00000100
00000001
00001000
00000010
00000001
00002001
00000000
,
00000000
00000000
00003001
00000100
00001000
00000001
00000010
00001000
,
00000100
00010000
00001000
00010000
00100000
10000000
00010000
00100000
,
01000000
00000000
00000000
10000000
00000000
00000000
00010000
00000000
00000000
01000000
00000000
00000000
00100000
00000000
10000000
00000000
01000000
00000000
00100000
00000000
00001000
00000000
00010000
00000000
,
00000100
00000000
00000010
00000000
00000001
00000000
00001000
00000000
00000010
00000000
00000100
00000000
00001000
00000000
00000000
00010000
00000000
00000000
00100000
00000000
00000000
10000000
00000000
00000000
,
00010000
00000000
00100000
00000000
01000000
10000000
01000000
10000000
01000000
00000000
00100000
00000000
00001000
00000000
00010000
00000000
,
00000100
00000010
00000001
00000000
00001000
00000000
00000010
00000000
00010000
00001000
00010000
00001000
00010000
00000000
00001000
00000000
,
00100000
00000000
00010000
00000000
10000000
00000000
00100000
00000000
01000000
00010000
01000000
00010000
01000000
00000000
00001000
00000000
,
00010000
00000000
00001000
00000000
00000100
00000000
00000001
00000000
00001000
00000000
00000100
00000000
00000010
00000001
00001000
00000000
,
00000010
00000000
00000100
00000000
00001000
00010000
00001000
00010000
00001000
00000000
00010000
00000000
00001000
00000000
01000000
00000000
,
00100000
00000000
00010000
00000000
10000000
00000000
01000000
00000000
00010000
00000000
10000000
00000000
01000000
00100000
01000000
00000000
,
00100000
00010000
00100000
00001000
00010000
00000000
00000100
00000000
00000010
00000000
00001000
00000000
00000001
00000000
00000100
00000000
,
00001000
00000000
00000001
00000000
00000100
00000000
00001000
00000000
00010000
00001000
01000000
00010000
01000000
00000000
00000000
00000000
,
00010000
00000000
10000000
01000000
10000000
00000000
00010000
00000000
10000000
00000000
01000000
00000000
00010000
00000000
00001000
00000000
,
00010000
00000100
00010000
00000000
00000100
00000000
00000010
00000000
00000001
00000000
00000100
00000000
00001000
00000000
00010000
00000000
,
00001000
00000000
00100000
00010000
00100000
00000000
01000000
00000000
10000000
00000000
00010000
01000000
00010000
00000000
10000000
00000000
,
01000000
00100000
01000000
00000000
00100000
00000000
00001000
00000000
00010000
00000100
00010000
00000000
00000100
00000000
00000010
00000000
,
00000001
00001000
00000001
00000000
00000100
00000000
00000010
00000000
00010000
00001000
00010000
00000000
00001000
00000000
01000000
00000000
,
00010000
00100000
00010000
00000000
10000000
00000000
01000000
00000000
00100000
00010000
00100000
00000000
00001000
00000000
00010000
00000000
,
00000010
00001000
00000010
00000000
00000100
00000000
00000001
00000000
00001000
00000100
00001000
00000000
00000010
00000000
00010000
00000000
,
00001000
00010000
00100000
01000000
10000000
01000000
00100000
10000000
,
00010000
00100000
01000000
00010000
00001000
00000010
00000100
00010000
,
00000010
00001000
00100000
01000000
00001000
00010000
01000000
00100000
,
00001000
00010000
10000000
01000000
00010000
00001000
00000010
00000100
,
00000001
00000010
00001000
00010000
00001000
00000100
00000010
00001000
,
00000001
00000010
00000100
00010000
00001000
00000000
00000000
00000000
00010000
00100000
01000000
00100000
10000000
00000000
00000000
00000000
,
00010000
00100000
00001000
00010000
00000100
00000000
00000000
00000000
00000010
00000001
00001000
00000010
00000100
00000000
00000000
00000000
,
00001000
00010000
00100000
01000000
00010000
00000000
00000000
00000000
10000000
01000000
00100000
00001000
00010000
00000000
00000000
00000000
,
00022000
00000000
00000000
00000000
,
00000000
00000000
00000000
00000000
,
00033000
00000000
00000000
00000000
;
