#TITLE:L'avide;
#ARTIST:Zektbach;
#BANNER:L'avide.png;
#BACKGROUND:L'avide-bg.png;
#CDTITLE:./CDTitles/The Epic of Zektbach -Masinowa-.png;
#MUSIC:L'avide.ogg;
#SAMPLESTART:2.472;
#SAMPLELENGTH:15;
#BPMS:0=170,208=85,232=170;
#TIMESIGNATURES:0=4=4,208=3=4,232=4=4;
#BGSTAGE:3;

//--------------- dance-single - Fred-104 ----------------
#NOTES:
     dance-single:
     Fred-104:
     Beginner:
     2:
     :
0000
0000
0000
0000
,
0000
0000
0000
0000
,
0000
0000
0000
0000
,
0000
0000
0000
0000
,
0000
0000
0000
0000
,
0000
0000
0000
0000
,
2000
0000
0000
0000
,
0000
0000
0000
0000
,
3000
0000
0000
0000
,
0000
0000
0000
0000
,
0001
0000
0000
0000
,
1000
0000
0000
0000
,
0001
0000
0000
0000
,
0100
0000
0000
0000
,
0001
0000
0000
0000
,
0010
0000
0000
0000
,
0001
0000
0000
0000
,
1000
0000
0000
0000
,
0001
0000
0000
0000
,
1000
0000
0000
0000
,
0010
0000
0000
0000
,
1000
0000
0000
0000
,
0100
0000
0000
0000
,
1000
0000
0000
0000
,
0001
0000
0000
0000
,
1000
0000
0000
0000
,
0001
0000
0000
0000
,
0100
0000
0000
0000
,
0001
0000
0000
0000
,
1000
0000
0000
0000
,
0002
0000
0000
0000
,
0003
0000
0000
0000
,
2000
0000
0000
0000
,
3000
0000
0000
0000
,
0002
0000
0000
0000
,
0003
0000
0000
0000
,
2000
0000
0000
0000
,
3000
0000
0000
0000
,
0020
0000
0000
0000
,
0030
0000
0000
0000
,
0200
0000
0000
0000
,
0300
0000
0000
0000
,
0020
0000
0000
0000
,
0030
0000
0000
0000
,
1000
0000
0000
0000
,
0001
0000
0000
0000
,
0100
0000
0000
0000
,
0001
0000
0000
0000
,
0010
0000
0000
0000
,
0001
0000
0000
0000
,
1000
0000
0000
0000
,
0001
0000
0000
0000
,
2000
0000
0000
3000
,
0000
0000
0002
0000
,
0000
0003
0000
0000
,
2000
0000
0000
3000
,
0000
0000
0002
0000
,
0000
0003
0000
0000
,
2000
0000
0000
0000
,
3000
0000
0000
0000
,
0002
0000
0000
0000
,
0003
0000
0000
0000
,
0200
0000
0000
0000
,
0300
0000
0000
0000
,
0020
0000
0000
0000
,
0030
0000
0000
0000
,
1000
0000
1000
0000
,
0001
0000
0001
0000
,
0100
0000
0010
0000
,
1000
1000
1000
1000
,
2002
0000
0000
0000
,
0000
0000
0000
3003
;

//--------------- dance-single - Fred-104 ----------------
#NOTES:
     dance-single:
     Fred-104:
     Easy:
     6:
     :
0000
0000
0000
0000
,
0000
0000
0000
0000
,
0000
0000
0000
0000
,
0000
0000
0000
0000
,
0000
0000
0000
0000
,
0000
0000
0000
0000
,
2000
0000
3020
0000
,
1030
0100
1000
0001
,
0200
0000
0320
0000
,
0130
0100
0001
0010
,
1001
0000
0001
0000
,
0200
0000
0300
0000
,
0001
0000
1000
0000
,
0020
0000
0030
0000
,
1001
0000
1000
0010
,
2000
0000
3200
0000
,
1300
0001
0100
0000
,
0001
0000
0010
0001
,
0100
0000
0010
0000
,
0100
0100
0001
0010
,
0001
0000
0000
1000
0000
0000
0001
0000
,
1000
0000
0000
1001
0000
0000
0000
0000
,
0001
0000
1000
0010
,
0100
0100
0001
0001
,
2000
0000
3002
0000
,
1003
0000
0000
1001
0000
0000
0000
0000
,
0002
0000
0103
0010
,
0100
0000
0001
1000
,
0100
0000
0000
0010
0000
0000
0001
0000
,
1000
0000
0000
1001
0000
0000
0000
0000
,
0001
0000
0010
0000
,
0001
0100
0001
0010
,
0001
0000
0000
1000
0000
0000
0010
0000
,
0100
0100
0001
1000
,
0001
0000
1000
0010
,
1000
0100
1000
0010
,
0100
0000
0000
0001
0000
0000
0000
2002
,
0000
0000
3003
0000
,
0001
0000
1000
0100
,
1000
0010
1000
0010
,
0001
0000
0000
0010
0000
0000
1000
0000
,
0001
0000
1000
0010
,
0100
0000
0010
1000
,
0001
0001
1000
1000
,
1001
0000
0001
0000
,
0100
0010
1000
0010
,
0100
0000
0001
0000
,
1000
0100
0001
0100
,
1000
0000
0001
0000
,
0100
0010
1000
0010
,
0100
0000
0001
0000
,
1000
0001
1000
0001
,
0200
0000
0300
0020
0000
0030
2000
0000
,
3000
0200
0000
0300
0020
0000
0030
0002
,
0000
0003
2000
0000
3000
0002
0000
0003
,
0200
0000
0300
0020
0000
0030
2000
0000
,
3000
0200
0000
0300
0002
0000
0003
0200
,
0000
0300
2000
0000
3000
2002
0000
3003
,
0002
0100
0100
0003
,
2000
0100
0100
3000
,
0001
0010
0001
1000
,
2002
0000
3003
0000
,
1000
0100
0001
0000
,
1000
0010
0001
0000
,
1000
0100
0010
0001
,
2002
0000
0000
3003
,
1000
0000
0010
0000
0100
0000
0000
0001
,
0000
0010
0001
1000
,
1000
0010
1000
0100
,
1000
0000
0001
0000
0100
0100
0100
0000
,
0220
0000
0000
0000
,
0000
0000
0000
0330
;

//--------------- dance-single - Fred-104 ----------------
#NOTES:
     dance-single:
     Fred-104:
     Medium:
     9:
     :
0000
0000
0000
0000
,
0000
0000
0000
0000
,
0000
0000
0000
0000
,
0000
0000
0000
0000
,
0000
0000
0000
0000
,
0000
0000
0000
0000
,
1000
0000
0010
0000
1000
0000
0100
0010
,
0000
0010
0001
0000
0100
0000
0001
0010
,
0000
0010
0001
0000
0000
0100
0010
0000
,
0000
1000
0100
0000
1000
0001
1000
0000
,
0002
0100
0100
0103
,
0010
1000
2002
3003
,
2000
0100
0100
3100
,
0010
0001
2002
3003
,
2000
0000
3100
0001
,
0100
1000
0001
0010
,
0001
0100
0010
0100
,
0001
0010
0000
0001
0100
0000
0010
0000
,
0110
0000
0100
0010
,
1000
0100
0001
0010
,
1000
0100
0000
1000
0000
0001
0000
0000
,
0100
0000
0000
2002
0000
0000
3003
0000
,
2000
0000
0000
0000
3001
0100
0000
0010
,
0100
0001
0010
0001
,
1000
0010
0001
0100
,
1000
0001
0000
1000
0100
0000
0010
0000
,
0002
0000
0000
0000
0103
0001
0000
0010
,
0001
0010
1000
0100
,
0001
0100
0000
0001
0000
0010
0001
0000
,
0100
0000
0000
2002
0000
0000
3003
0000
,
1000
0000
0100
0000
1000
0010
0100
0000
,
0001
0100
0001
0000
0010
0000
0001
0000
,
1000
0000
0001
0100
0000
0001
0010
0000
,
0001
0100
1000
0100
,
0001
0000
0010
0000
0100
0000
1000
0010
,
0100
0000
0010
0000
1000
0001
0010
0000
,
0001
0000
0100
0010
0000
1000
0000
0100
,
1000
0000
0001
0000
0100
0010
0100
0000
,
0001
0000
0010
0100
0000
0001
0000
0100
,
1000
0000
0010
0000
1000
0100
0010
0000
,
0001
0000
0100
0010
0000
1000
0010
0100
,
0010
1000
0100
0000
1000
0001
0100
0000
,
0001
0000
0010
0000
0100
0010
0001
0000
,
0011
1010
0101
1100
,
1001
0000
0001
0010
0001
0000
0100
0010
,
0000
1000
0100
0000
1000
0000
0010
0100
,
0000
0010
1000
0010
0000
0100
0001
0100
,
0000
0001
0010
0000
0001
1000
0001
0000
,
0100
0000
0010
1000
0010
0000
1000
0100
,
0000
1000
0001
0000
0010
0000
0001
0100
,
0000
0001
0010
0001
0000
1000
0010
1000
,
0000
0001
0100
0000
0010
0100
0010
0000
,
2000
0000
3100
0100
0001
0000
2000
0000
,
3010
0010
0001
0000
2000
0000
3001
0100
,
0100
0000
2000
0000
3001
0010
0010
0000
,
2000
0000
3100
0010
0001
0010
0002
0000
,
0103
0010
1000
0010
0200
0000
0301
0010
,
1000
0010
0001
0100
0010
1001
0000
0000
,
2000
3200
0320
0032
,
0103
0010
0110
0000
,
0002
0203
2300
3200
,
0302
0000
0003
0000
,
1000
0100
1000
0000
0001
0100
0001
0000
,
0100
0000
0010
0000
1000
0000
0001
0010
,
0001
0100
0001
1000
,
2002
0000
0000
3003
,
0001
0000
0010
0000
0100
0000
1000
0010
,
0000
0100
0010
0000
1000
0000
0001
0010
,
0000
0001
0100
0001
0000
1000
0100
1000
,
0000
0010
0100
0000
0001
0000
1000
0000
,
2002
0000
0000
0000
,
0000
0000
0000
3003
;

//--------------- dance-single - Fred-104 ----------------
#NOTES:
     dance-single:
     Fred-104:
     Hard:
     14:
     :
0000
0000
0000
0000
,
0000
0000
0000
0000
,
0000
0000
0000
0000
,
0000
0000
0000
0000
,
0000
0000
0000
0000
,
0000
0000
0000
0000
,
0001
1000
0001
0010
0100
0001
0100
2000
,
0000
3100
0010
0001
1000
0010
0001
0020
,
0000
0130
0001
2000
0000
3001
0010
2000
,
0000
0000
3001
0000
0100
0000
1000
0000
0001
0010
0100
0000
1000
0000
0010
0000
,
0200
0000
0001
0000
0010
0000
0301
1000
,
0010
0100
1000
0100
0002
0000
0000
0000
,
2003
0000
0010
0000
0001
0000
3100
0010
,
0001
0100
1000
0100
0020
0000
0030
0000
,
1001
0000
0000
0000
0001
0000
0010
0000
0100
0010
0001
0000
1000
0000
0001
0000
,
2000
0001
0100
0010
,
3002
0010
1000
0100
,
1003
0100
0100
0001
0010
0100
1000
0000
,
1010
0000
0000
0000
0001
0000
0100
0000
0010
1000
0010
0000
0100
0000
0001
0000
,
0200
0010
0001
1000
,
0302
0010
0000
1000
0000
0103
0001
0010
,
0100
1000
0001
2002
0000
3003
0000
0000
,
2100
0000
0010
0000
3001
0100
0001
0010
,
0200
1000
0001
1000
,
0320
0001
0100
1000
,
0031
0010
0010
1000
0100
0010
0001
0000
,
1001
0000
0000
0000
0001
0000
0100
0000
0001
0010
0001
0000
1000
0000
0100
0000
,
0020
0100
0001
1000
,
0032
0010
0000
1000
0000
0103
0001
0010
,
0100
1000
0001
2002
0000
3003
0000
0000
,
1000
0000
0100
0000
1000
0000
0001
0000
0010
0100
1000
0000
0001
0000
1000
0000
,
0010
0000
0100
0001
0010
0000
0001
0000
1000
0010
1000
0010
0100
0000
0001
0000
,
0010
0000
0001
1000
0010
0000
0100
0000
0001
0010
0100
0000
1000
0000
0001
0000
,
0100
0000
0010
1000
0001
0000
0010
0000
0100
1000
0100
1000
0100
0000
1000
0000
,
0001
0000
0100
0000
0010
0000
0100
0000
0001
1000
0001
0000
1000
0000
0100
0000
,
0010
0001
0100
0000
0001
0000
0010
0001
0100
0000
0010
1000
0001
0000
0010
0000
,
0100
1000
0010
0000
0100
0000
0010
1000
0001
0100
0001
0000
0010
0000
0001
0000
,
0100
0000
0001
0100
0001
0000
0010
0000
0001
0000
1000
0000
0100
0000
1000
0000
,
0001
0000
0010
0000
0100
0000
1000
0000
0010
0100
0010
0000
1000
0000
0100
0000
,
1000
0000
0010
0100
0010
0000
1000
0000
0100
0010
0100
0010
0001
0000
0100
0000
,
0001
0000
0010
0000
0001
0000
1000
0000
0001
0100
0001
0000
0010
0000
0100
0000
,
0010
0000
0001
1000
0010
0000
0100
0000
0010
1000
0100
0000
1000
0000
0001
0000
,
0100
0010
0100
0000
0001
0000
1000
0000
0100
0000
1000
0001
1000
0000
0100
0000
,
1100
0101
0011
1010
,
1000
0001
1000
0010
0001
0010
0100
0020
,
0000
1030
0001
0010
1000
0010
0100
2000
,
0000
3001
0010
0200
0000
0301
0100
0020
,
0000
0000
0031
0000
1000
0000
0010
0000
1000
0100
0010
0000
0001
0000
1000
0000
,
0001
0100
0001
0010
1000
0010
0001
0200
,
0000
0310
0001
0010
1000
0001
0100
2000
,
0000
3100
0010
2000
0000
3100
0010
0002
,
0000
0000
1003
0000
0001
0000
0100
0000
0010
1000
0010
0000
0100
0000
0001
0000
,
2000
0000
3200
0000
1300
0010
1000
0000
0002
0000
0023
0000
0230
0000
2300
0000
,
3001
1000
0001
0000
0020
0000
0230
0000
2300
0000
3200
0000
0310
0100
0010
0000
,
0002
0000
0203
0000
0302
0000
0023
0000
0032
0000
0203
0000
2300
0000
3100
0001
,
0020
0000
0230
0000
1300
0001
0200
0000
2300
0000
3200
0000
0320
0000
1030
0100
,
0010
0001
0200
0000
0302
0000
0023
0000
2030
0000
3020
0000
0031
1000
0002
0000
,
2003
3020
0032
0023
0130
2002
0000
3003
,
1000
0100
0020
0000
1000
0000
0032
0000
,
0023
0230
2300
0000
,
3001
0100
2000
0000
3001
0010
2000
0000
,
3002
0000
0000
0003
,
1000
0010
0200
0000
1300
0100
0002
0000
,
2003
0000
0100
0000
0001
0000
3010
0100
,
0001
0010
0001
1000
0010
0100
0001
0000
,
2002
0000
0000
3003
,
1000
0000
0100
0000
0010
0000
0001
0000
0100
0010
0100
0000
0001
0000
0020
0000
,
0000
0000
0031
0100
0001
0000
1000
0000
0100
1000
0100
1000
0100
0000
0010
0000
,
0001
1000
0001
1000
0100
0000
0020
0000
0000
0000
0031
0010
0001
0000
2000
0000
,
0000
0000
3010
1000
0010
0000
0100
0000
0001
0010
0100
0000
1000
0000
0001
0000
,
2002
0000
0000
0000
,
0000
0000
0000
3003
;

//--------------- dance-double - Fred-104 ----------------
#NOTES:
     dance-double:
     Fred-104:
     Easy:
     6:
     :
00000000
00000000
00000000
00000000
,
00000000
00000000
00000000
00000000
,
00000000
00000000
00000000
00000000
,
00000000
00000000
00000000
00000000
,
00000000
00000000
00000000
00000000
,
00000000
00000000
00000000
00000000
,
00002000
00000000
00023000
00000000
,
00031000
00010000
00000010
00010000
,
00002000
00000000
00023000
00000000
,
00031000
00100000
00001000
00010000
,
00011000
00000000
00001000
00000000
,
00000020
00000000
00000030
00000000
,
00000001
00000000
00001000
00000000
,
00000200
00000000
00000300
00000000
,
00000110
00000000
00000001
00000100
,
00002000
00000000
00023000
00000000
,
00031000
00010000
00100000
00000000
,
01000000
00000000
00010000
10000000
,
00010000
00000000
10000000
00000000
,
01000000
00100000
00010000
00100000
,
00001000
00000000
00000000
00100000
00000000
00000000
00001000
00000000
,
00010000
00000000
00000000
00010100
00000000
00000000
00000000
00000000
,
00010000
00000000
00000100
00010000
,
00000100
00001000
00000100
00000010
,
00000002
00000000
00002003
00000000
,
00003100
00000000
00000000
00000110
00000000
00000000
00000000
00000000
,
00000002
00000000
00000013
00001000
,
00010000
00000000
01000000
00100000
,
00010000
00000000
00000000
10000000
00000000
00000000
01000000
00000000
,
00100000
00000000
00000000
00110000
00000000
00000000
00000000
00000000
,
00001000
00000000
01000000
00000000
,
00001000
00010000
00001000
00100000
,
00001000
00000000
00000000
00010000
00000000
00000000
00001000
00000000
,
00000010
00000100
00001000
00000001
,
00000010
00000000
00000100
00001000
,
00000010
00000100
00000001
00001000
,
00000100
00000000
00000000
00010000
00000000
00000000
00000000
00022000
,
00000000
00000000
00033000
00000000
,
00001000
00000000
01000000
00010000
,
00100000
00010000
10000000
01000000
,
10000000
00000000
00000000
01000000
00000000
00000000
00100000
00000000
,
00010000
00000000
01000000
00100000
,
10000000
00000000
01000000
00100000
,
00001000
00001000
00010000
00010000
,
00011000
00000000
00010000
00000000
,
00010000
00001000
00000100
00000001
,
00000010
00000000
00001000
00000000
,
00010000
00001000
00010000
01000000
,
10000000
00000000
00100000
00000000
,
00010000
00001000
00010000
00000100
,
00001000
00000000
00000100
00000000
,
00000010
00000001
00001000
00000010
,
00000200
00000000
00000300
00000002
00000000
00000003
00002000
00000000
,
00003000
00000020
00000000
00000030
00020000
00000000
00030000
00002000
,
00000000
00003000
00200000
00000000
00300000
00020000
00000000
00030000
,
20000000
00000000
30000000
02000000
00000000
03000000
00200000
00000000
,
00300000
00002000
00000000
00003000
00020000
00000000
00030000
00002000
,
00000000
00003000
00020000
00000000
00030000
00022000
00000000
00033000
,
00020000
00000100
00000100
00030000
,
00000200
00001000
00001000
00000300
,
00001000
00000010
00000001
00000010
,
00002002
00000000
00003003
00000000
,
00000001
00000100
00001000
00000000
,
00010000
00100000
10000000
00000000
,
00010000
01000000
00100000
10000000
,
22000000
00000000
00000000
33000000
,
01000000
00000000
00100000
00000000
01000000
00000000
00000000
00010000
,
00000000
01000000
00001000
00010000
,
00001000
00000010
00000100
00001000
,
00000001
00000000
00001000
00000000
00000100
00000100
00000100
00000000
,
00022000
00000000
00000000
00000000
,
00000000
00000000
00000000
00033000
;

//--------------- dance-double - Fred-104 ----------------
#NOTES:
     dance-double:
     Fred-104:
     Medium:
     9:
     :
00000000
00000000
00000000
00000000
,
00000000
00000000
00000000
00000000
,
00000000
00000000
00000000
00000000
,
00000000
00000000
00000000
00000000
,
00000000
00000000
00000000
00000000
,
00000000
00000000
00000000
00000000
,
00010000
00000000
00001000
00000000
00010000
00000000
00000010
00001000
,
00000000
00001000
00000100
00000000
00000010
00000000
00000001
00000100
,
00000000
00000010
00001000
00000000
00000000
00000100
00010000
00000000
,
00000000
00001000
01000000
00000000
00001000
00010000
00001000
00000000
,
00020000
00001000
00001000
00031000
,
00010000
00001000
00022000
00033000
,
00002000
00010000
00010000
00013000
,
00001000
00010000
00022000
00033000
,
00002000
00000000
00013000
00100000
,
01000000
00010000
01000000
00100000
,
10000000
01000000
00100000
01000000
,
10000000
01000000
00000000
00010000
00001000
00000000
00010000
00000000
,
00011000
00000000
00010000
00000100
,
00000010
00000001
00000100
00001000
,
00000100
00000001
00000000
00000010
00000000
00000100
00000000
00000000
,
00010000
00000000
00000000
00022000
00000000
00000000
00033000
00000000
,
00002000
00000000
00000000
00000000
00013000
01000000
00000000
00100000
,
00010000
00100000
01000000
10000000
,
00010000
01000000
00100000
01000000
,
00010000
00100000
00000000
00001000
00010000
00000000
00001000
00000000
,
00000020
00000000
00000000
00000000
00000130
00001000
00000000
00000010
,
00000100
00001000
00010000
00001000
,
00010000
00001000
00000000
00100000
00000000
00010000
01000000
00000000
,
00001000
00000000
00000000
00022000
00000000
00000000
00033000
00000000
,
00010000
00000000
00001000
00000000
00000010
00000001
00001000
00000000
,
00000010
00000100
00000001
00000000
00001000
00000000
00000001
00000000
,
00000100
00000000
00001000
00010000
00000000
00001000
00100000
00000000
,
01000000
10000000
00010000
01000000
,
00100000
00000000
01000000
00000000
00010000
00000000
00100000
01000000
,
00100000
00000000
00001000
00000000
00010000
00000010
00001000
00000000
,
00000100
00000000
00010000
00001000
00000000
00000100
00000000
00000001
,
00001000
00000000
00000100
00000000
00000010
00000001
00001000
00000000
,
00000010
00000000
00010000
00000100
00000000
00001000
00000000
00000100
,
00010000
00000000
00001000
00000000
00100000
00001000
00010000
00000000
,
00000010
00000000
00001000
00000100
00000000
00010000
00001000
00100000
,
00010000
01000000
00001000
00000000
00100000
00010000
01000000
00000000
,
00001000
00000000
00010000
00000000
00000010
00001000
00000100
00000000
,
00010100
01001000
00010010
00101000
,
00011000
00000000
00010000
00001000
00000100
00000000
00000001
00001000
,
00000000
00000010
00000100
00000000
00000001
00000000
00001000
00000010
,
00000000
00010000
00000100
00001000
00000000
00000100
00010000
00001000
,
00000000
00100000
00010000
00000000
01000000
00100000
01000000
00000000
,
00010000
00000000
10000000
01000000
00100000
00000000
01000000
10000000
,
00000000
00100000
01000000
00000000
00010000
00000000
00100000
00001000
,
00000000
00010000
00001000
00000100
00000000
00000010
00001000
00000100
,
00000000
00000010
00000001
00000000
00000100
00000010
00000100
00000000
,
00000002
00000000
00000013
00001000
00010000
00000000
02000000
00000000
,
13000000
00100000
00010000
00000000
00002000
00000000
00003100
00000001
,
00001000
00000000
00000002
00000000
00000103
00001000
00010000
00000000
,
00200000
00000000
10300000
00010000
01000000
00100000
20000000
00000000
,
31000000
00100000
00001000
00010000
00000200
00000000
00000310
00000001
,
00001000
00000001
00000100
00001000
00010000
00011000
00000000
00000000
,
00002000
00023000
00230000
02300000
,
03001000
00010000
00011000
00000000
,
00020000
00032000
00003020
00000230
,
00020300
00000000
00030000
00000000
,
00001000
00010000
00100000
00000000
00010000
00001000
00000010
00000000
,
00001000
00000000
00010000
00000000
01000000
00000000
00010000
00001000
,
00000100
00001000
00010000
00001000
,
00022000
00000000
00000000
00033000
,
00001000
00000000
00010000
00000000
01000000
00000000
10000000
00010000
,
00000000
00100000
01000000
00000000
00100000
00000000
00001000
00010000
,
00000000
00001000
00000010
00000100
00000000
00001000
00000001
00000010
,
00000000
00001000
00010000
00000000
00100000
00000000
10000000
00000000
,
20020000
00000000
00000000
00000000
,
00000000
00000000
00000000
30030000
;

//--------------- dance-double - Fred-104 ----------------
#NOTES:
     dance-double:
     Fred-104:
     Hard:
     14:
     :
00000000
00000000
00000000
00000000
,
00000000
00000000
00000000
00000000
,
00000000
00000000
00000000
00000000
,
00000000
00000000
00000000
00000000
,
00000000
00000000
00000000
00000000
,
00000000
00000000
00000000
00000000
,
10010000
00000000
10000000
01000000
00100000
00010000
01000000
00200000
,
00000000
00310000
00001000
00010000
00000010
00000100
00001000
00000002
,
00000000
00000013
00001000
00020000
00000000
00130000
00010000
00002000
,
00000000
00000000
00003100
00000000
00001000
00000000
00010000
00000000
00100000
01000000
00100000
00000000
10000000
00000000
00100000
00000000
,
02000000
00000000
03020000
00000000
20030000
00000000
31000000
00100000
,
01000000
00010000
00001000
00000010
00000200
00000000
00000000
00000000
,
00002300
00000000
00003002
00000000
00000203
00000000
00000310
00000100
,
00001000
00010000
00100000
01000000
00020000
00000000
00030000
00000000
,
10010000
00000000
01000000
10000000
00100000
10000000
01000000
00100000
,
00002000
00023000
00230000
20300000
,
30020000
00000000
20030000
00000000
32000000
00000000
03010000
00001000
,
00000010
00000100
00001000
00000001
00000100
00000000
00000110
00000000
,
00001001
00000000
00001000
00000001
00000010
00001000
00000010
00000100
,
00002000
00003002
00002003
00003200
,
00020300
00001000
00000000
00000010
00000000
00031000
00100000
00010000
,
10000000
01000000
00100000
02200000
00000000
00000000
03300000
00000000
,
00110000
00000000
00001000
00010000
00001000
00000100
00000010
00001000
,
00000200
00000320
00000032
00002003
,
00003020
00000000
00001000
00000000
00000100
00000000
00001030
00000001
,
00000010
00001000
00010000
01000000
10000000
00000000
10010000
00000000
,
10100000
00000000
10000000
01000000
00100000
01000000
00100000
00001000
,
00010000
00100000
10000000
01000000
,
00020000
00001000
00000000
00000010
00000000
00030100
00010000
00001000
,
00000010
00000001
00001000
00002002
00000000
00000000
00003003
00000000
,
00000001
00000100
00001000
00010000
00100000
01000000
00010000
10000000
,
01000000
00000000
00100000
00010000
00100000
00000000
01000000
00000000
10000000
00000000
00100000
00000000
00010000
00000000
00001000
00000000
,
00000100
00000010
00001000
00100000
01000000
00010000
00000100
00000001
,
00001000
00000000
00000100
00000010
00000001
00000000
00001000
00000000
00000010
00010000
00000010
00010000
00001000
00000000
00100000
00000000
,
00010000
01000000
00010000
00001000
00000010
00000100
00000001
00000100
,
00001000
00010000
00100000
00000000
01000000
00000000
00010000
00000000
10000000
00000000
01000000
00010000
01000000
00000000
00100000
00000000
,
00010000
10000000
00100000
00010000
00001000
00010000
00100000
10000000
,
00010000
00000000
10000000
01000000
00100000
00000000
01000000
00000000
00010000
00000000
00001000
00000000
00000010
00000000
00000100
00001000
,
00000001
00000000
00000010
00000000
00000100
00000000
00001000
00000000
00000010
00010000
00001000
00000000
00010000
00000000
01000000
00000000
,
00100000
00000000
00010000
00100000
01000000
00000000
00100000
00000000
00001000
00000000
00010000
00000010
00001000
00000000
00000010
00000000
,
00010000
00001000
00100000
01000000
00010000
00001000
00100000
00001000
,
00000010
00000000
00000100
00001000
00000001
00000000
00000100
00000000
00001000
00010000
00100000
00000000
01000000
00000000
00010000
00000000
,
10000000
00100000
10000000
00000000
01000000
00000000
00100000
00000000
00010000
00000000
01000000
00001000
00010000
00000000
00001000
00000000
,
00011000
00010010
00101000
00011000
,
00010000
00001000
00000010
00000001
00001000
00000100
00000010
00000002
,
00000000
00000103
00001000
00010000
00001000
01000000
00100000
20000000
,
00000000
31000000
00010000
00002000
00000000
00013000
00100000
20000000
,
00000000
00000000
31000000
00000000
00010000
00000000
00001000
00000000
00000100
00000010
00001000
00000000
00000100
00000000
00000010
00000000
,
00000001
00001000
00000001
00000010
00001000
00010000
01000000
00200000
,
00000000
00310000
01000000
00001000
00010000
00001000
00000100
00000020
,
00000000
00001030
00000100
00000002
00000000
00000103
00001000
00000020
,
00000000
00000000
00000130
00000000
00000001
00000000
00000010
00000000
00000100
00001000
00000010
00000000
00010000
00000000
00001000
00000000
,
00200000
00000000
00320000
00000000
10030000
00010000
10000000
00000000
00200000
00000000
02300000
00000000
03002000
00000000
00023000
00000000
,
00030010
00001000
00000010
00000000
00000200
00000000
00000302
00000000
00002003
00000000
00003200
00000000
00000301
00000100
00001000
00000000
,
00000002
00000000
00000023
00000000
00000230
00000000
00000320
00000000
00002030
00000000
00023000
00000000
02030000
00000000
03100000
00010000
,
20000000
00000000
32000000
00000000
03010000
00001000
00020000
00000000
02030000
00000000
23000000
00000000
30020000
00000000
10030000
00100000
,
00010000
00001000
00020000
00000000
00030200
00000000
00000320
00000000
00000032
00000000
00002003
00000000
00003001
00000100
00002000
00000000
,
00003200
00000000
00000320
00000000
00002030
00000000
00003200
00000000
00020300
00030000
00022000
00000000
00000000
00000000
00033000
00000000
,
00010000
00001000
00000010
00000000
00000001
00000000
00000100
00000000
,
00001000
00010000
00022000
00033000
,
00001000
00010000
01000000
00000000
10000000
00000000
00100000
00000000
,
00020000
00000000
00002000
00033000
,
00010000
00001000
00000200
00000000
00000301
00001000
00000200
00000000
,
00000320
00000000
00000032
00000000
00000203
00000000
00001300
00010000
,
01000000
00100000
00010000
10000000
00010000
01000000
00100000
00000000
,
20020000
00000000
00000000
30030000
,
00010000
00000000
00100000
00000000
01000000
00000000
00100000
00000000
00001000
00010000
00001000
00000000
00010000
00000000
00000020
00000000
,
00000000
00000000
00001030
00000100
00001000
00000000
00000001
00000000
00000100
00000010
00000100
00000010
00000100
00000000
00000001
00000000
,
00000100
00000010
00000100
00000000
00001000
00000000
00010000
00000000
00100000
01000000
00010000
00000000
10000000
00000000
00010000
00000000
,
10000000
00000000
01000000
00000000
00100000
00000000
00001000
00000000
00010000
00000010
00010000
00000010
00001000
00000000
00000100
00000000
,
00000220
00000000
00000000
00000000
,
00000000
00000000
00000000
00000330
;
