#TITLE:L'amour et la liberté;
#ARTIST:NAOKI underground;
#TITLETRANSLIT:L'amour et liberte;
#GENRE:TRANCE;
#BANNER:L'amour et la liberte.png;
#BACKGROUND:L'amour et la liberte-bg.png;
#CDTITLE:./CDTitles/bm IIDX 6th style.png;
#MUSIC:L'amour et la liberte.ogg;
#SAMPLESTART:50.121;
#SAMPLELENGTH:15;
#BPMS:0=145,56=140,88=145,184=140,216=145;
#BGSTAGE:22;

//--------------- dance-single - Fred-104 ----------------
#NOTES:
     dance-single:
     Fred-104:
     Beginner:
     3:
     :
0000
0000
0000
0000
,
0000
0000
0000
0000
,
0000
0000
0000
0000
,
0000
0000
0000
0000
,
0000
0000
0000
0000
,
0000
0000
0000
0000
,
0001
0000
0001
0000
,
0010
0000
0000
0000
,
0100
0000
0100
0000
,
1000
0000
0000
0000
,
0001
0000
1000
0000
,
0010
0000
0000
0000
,
0100
0000
0001
0000
,
1000
1000
1000
0000
,
2000
0000
0000
0000
,
3000
0000
0000
0000
,
0002
0000
0000
0000
,
0003
0000
0000
0000
,
2000
0000
0000
0000
,
3000
0000
0000
0000
,
0002
0000
0000
0000
,
0003
0000
0000
0000
,
0010
0000
0000
0000
,
0100
0000
0100
0100
,
0200
0000
0300
0000
,
1000
0000
1000
1000
,
1000
0000
0001
0000
,
0100
0000
0001
0001
,
0001
0000
1000
0000
,
0002
0000
0000
0003
,
1000
0000
0000
0000
,
0010
0000
0010
0000
,
0001
0000
0000
0000
,
0001
0000
0010
0000
,
0010
0000
0000
0000
,
0100
0000
0100
0000
,
0010
0000
0000
0000
,
0010
0000
1000
0000
,
1000
0000
0000
0000
,
0001
0000
0001
0000
,
0010
0000
0000
0000
,
0010
0000
1000
0000
,
1000
0000
0000
0000
,
0010
0000
0010
0000
,
0010
0000
0000
0000
,
0001
0000
0000
0000
,
1001
0000
0000
0000
,
0000
0000
0000
0000
,
0001
0000
0000
0000
,
0000
0000
0000
0000
,
1000
0000
0000
0000
,
0010
0000
0000
0000
,
0100
0000
0000
0000
,
0002
0003
0002
0003
,
1000
0000
0000
0000
,
0001
0000
0000
0000
,
1000
1000
1000
0000
,
0001
0000
0100
0100
,
0100
0000
0001
0000
,
1000
0000
1000
0000
,
0100
0000
0100
0000
,
0010
0000
0001
0000
,
2002
0000
0000
3003
;

//--------------- dance-single - Fred-104 ----------------
#NOTES:
     dance-single:
     Fred-104:
     Easy:
     6:
     :
0000
0000
0000
0000
,
0000
0000
0000
0000
,
0000
0000
0000
0000
,
0000
0000
0000
0000
,
0000
0000
0000
0000
,
0000
0000
0000
0000
,
1000
0000
0100
0100
,
0010
0000
0000
0001
0000
0000
0001
0000
,
1000
0000
0001
0100
,
0010
0000
0000
0010
0000
0000
0100
0000
,
0001
0001
1000
0100
,
0010
0000
0000
0010
0000
0000
0001
0000
,
1000
0001
0100
0010
,
0100
0100
0001
1000
,
0002
0000
0000
0000
,
2003
0000
0000
0000
,
3002
0000
0000
0000
,
2003
0000
0000
0000
,
3100
0100
0010
0001
,
1000
0000
0000
1000
0000
0000
1000
0000
,
0001
0001
0100
0100
,
1000
1000
0100
0100
,
0001
1000
0000
1000
,
0100
0010
0001
0001
,
1000
0010
0000
0010
,
0100
0010
1000
1000
,
0100
0010
0000
0010
,
0001
1000
0010
0010
,
0100
0001
0000
0001
,
0010
0010
0100
0100
,
1100
0000
1000
0000
,
0001
0001
0100
0010
,
0110
0000
0100
0000
,
0001
0001
1000
0001
,
0101
0000
0100
0000
,
0010
1000
0001
0010
,
0011
0000
0001
0000
,
1000
1000
0001
0100
,
0010
0010
0100
0100
,
0001
0000
0000
0001
0000
0001
0000
0000
,
1000
0100
0010
0010
,
0001
0000
0000
1000
0000
0000
0001
0000
,
0100
0010
0100
0000
,
1001
0000
0110
0000
,
1001
1000
0100
0000
,
0010
0010
0001
1000
,
0020
0000
0000
0000
,
0230
0000
0301
1000
,
0100
0000
0000
0010
0000
0000
0010
0000
,
0001
0000
0000
0001
0000
0000
1000
0000
,
0010
0000
0000
1000
0000
0000
0001
0000
,
1000
0000
0000
0100
0000
0000
0010
0000
,
0001
1000
0001
0000
,
0100
0100
0010
0010
,
1001
0000
1000
0000
,
0100
0000
0001
0000
,
1000
0010
0001
0000
,
1000
0001
0100
0100
,
0110
0000
0010
1000
,
1001
0000
0001
1000
,
1010
0010
1000
0001
,
0010
0100
1000
0001
,
2002
0000
0000
3003
;

//--------------- dance-single - Fred-104 ----------------
#NOTES:
     dance-single:
     Fred-104:
     Medium:
     9:
     :
0000
0000
0000
0000
,
0000
0000
0000
0000
,
0000
0000
0000
0000
,
0000
0000
0000
0000
,
0000
0000
0000
0000
,
0000
0000
0000
0000
,
1000
0100
0010
0001
,
1000
0010
0000
0010
1000
0000
0001
0000
,
0010
0100
1000
0001
,
0100
0010
0000
0010
0100
0000
0001
0000
,
1000
0100
0001
0100
,
1000
0001
0000
0001
1000
0000
0001
0000
,
1000
0010
0001
0010
,
1000
0001
1000
1000
0100
0010
0100
0100
,
0020
0000
0000
0000
,
0032
0000
0000
0000
,
2003
0000
0000
0000
,
3002
0000
0000
0000
,
1003
0001
0100
0010
,
0100
0000
0000
0100
0000
0000
0001
0000
0000
0001
0000
0000
1000
0000
1000
0000
,
0100
0010
0001
1000
,
0001
0100
1000
0000
1000
0100
0001
0000
,
1000
0100
0000
0100
,
0010
0000
0001
0000
1000
0010
0100
0000
,
0010
1000
0000
1000
,
0100
0000
0001
0000
0100
0010
0001
1000
,
0010
0100
0000
0100
,
1000
0000
0100
0000
0001
0010
0100
0000
,
1000
0000
0001
0000
0100
0010
0100
0000
,
0010
1000
0010
0000
0100
0001
0100
0000
,
0001
0000
0001
0000
1000
0000
0000
0000
0100
0000
0000
0010
0000
0010
0000
0000
,
0001
0000
0001
0000
1000
0000
0000
0000
0001
0000
0000
0100
0000
0100
0000
0000
,
0010
0000
0010
0000
0100
0000
0000
0000
0001
0000
0000
1000
0000
1000
0000
0000
,
0100
0000
0100
0000
0010
0000
0000
0001
0000
0001
0000
0000
1000
0000
1000
0000
,
0001
0000
0001
0000
0100
0000
0000
0000
0010
0000
0000
0100
0000
0100
0000
0000
,
0001
0000
0001
0000
1000
0000
0000
0000
0100
0000
0000
0010
0000
0000
0001
0000
,
1000
0000
1000
0000
0010
0000
0000
0000
0100
0000
0000
0010
0000
0010
0000
0000
,
0001
0000
0010
0000
0010
0000
0000
1000
0000
1000
0000
0000
0001
0000
0010
0000
,
0100
1001
0010
1001
,
1000
0000
0000
0010
0000
0000
0001
0000
0000
0000
0010
0000
0100
0000
0000
0000
,
0001
0000
0010
0100
1000
1000
0010
0100
,
0002
0000
0000
2003
0000
0100
3100
0000
,
0010
0000
0000
0000
0001
0000
0000
0000
1000
0000
0000
0001
0000
0001
0000
0000
,
0100
0100
0100
0000
0010
0010
0010
0000
,
0100
0000
0000
0001
0000
0000
0001
0000
1000
0000
0100
0000
0010
0000
0000
0000
,
0001
0000
0000
0001
0000
0000
0100
0000
0010
0000
0000
1000
0000
0000
1000
0000
,
0200
0000
0010
0320
0000
0000
0000
0000
,
0030
0000
0001
1000
,
0002
0000
0000
0100
0000
0000
0103
0000
,
0020
0000
0000
1000
0000
0000
1030
0000
,
0002
0000
0010
0010
0000
0000
0013
0000
,
0200
0000
1000
1000
0000
0000
1300
0000
,
0001
0100
1000
0100
,
0001
0000
0000
0001
0010
0000
0000
0010
0100
0000
0000
0100
1000
0000
0000
1000
,
0001
1000
0100
0001
,
1000
0010
0001
0100
,
1000
1000
1000
0000
0001
0000
0010
0000
,
1000
0000
0100
0100
0010
0000
0001
0001
,
1000
0000
0110
0000
0001
1000
0010
0000
,
0100
0000
0101
0000
1000
0100
0010
0000
,
0001
1000
0010
0000
1000
0001
0010
0000
,
0100
1000
0001
0100
0010
1000
0100
0010
,
2002
0000
0000
3003
;

//--------------- dance-single - Fred-104 ----------------
#NOTES:
     dance-single:
     Fred-104:
     Hard:
     12:
     :
0000
0000
0000
0000
,
0000
0000
0000
0000
,
0000
0000
0000
0000
,
0000
0000
0000
0000
,
0000
0000
0000
0000
,
0000
0000
0000
0000
,
0001
0010
0100
0000
1000
0001
0100
0000
,
0010
1000
1000
0100
1000
1000
0010
0000
,
0100
0001
1000
0000
0100
0010
0001
0000
,
1000
0010
0010
0100
0010
0010
1000
0000
,
0001
0000
0010
0000
0100
0000
0000
0000
1000
0000
0000
0001
0000
0000
0100
0000
,
0010
0100
0100
0001
0100
0100
0010
0000
,
1000
0000
0001
0000
0010
0000
0000
0000
0100
0000
0000
0010
0000
0000
0001
0000
,
0000
0001
1000
0000
0100
0000
0000
0100
0010
0001
0000
0001
1000
0001
1000
0000
,
0002
0000
0203
0000
,
0320
0000
2030
0000
,
3002
0000
0023
0000
,
0230
0000
2300
0000
,
3001
1000
0100
0000
0010
0001
1000
0000
,
0010
0100
0000
0100
0010
0000
0100
0010
0000
0010
0100
0000
0001
0000
1000
0000
,
0100
0010
0001
0000
0100
0010
1000
0000
,
0002
0023
0230
2300
,
3001
1000
0010
0000
0100
0001
1000
0000
,
0100
0000
0010
0000
0001
0000
1000
0010
1000
0010
0000
0010
0100
0000
0000
0000
,
0001
1000
0100
0000
0001
0100
0010
0000
,
0001
0000
1000
0000
0010
0000
0100
0001
0000
0001
0000
0001
0010
0000
0100
0000
,
1000
0001
0100
0000
1000
0100
0010
0000
,
1000
0000
0001
0000
0010
0000
0001
1000
0000
1000
0000
1000
0010
0000
0100
0000
,
0001
1000
0100
0010
0001
0100
0010
1000
,
0001
0010
0001
0000
1000
0000
0001
0000
0100
0010
0100
0000
0001
0000
1000
0000
,
0100
0000
0010
0000
0000
0001
0000
0000
1000
0000
0000
0010
0000
0010
0000
0010
,
0000
0000
0100
0000
0000
0001
0000
0000
1000
0000
0000
0100
0000
0100
0000
0100
,
0000
0000
0010
0000
0000
0001
0000
0000
1000
0000
0000
0001
0000
0001
0000
0001
,
0000
0000
0100
0000
0000
1000
0000
0000
0100
0000
0000
0001
0000
0001
0000
0001
,
0000
0000
0010
0000
0000
0100
0000
0000
1000
0000
0001
1000
0000
0010
0000
1000
,
0000
0000
0001
0000
0000
1000
0000
0000
0100
0000
0010
0001
0000
1000
0001
0000
,
0100
0000
0100
0000
0000
0010
0000
0000
1000
0000
0001
0010
0000
0100
0000
1000
,
0000
0000
0001
0000
0100
0000
0000
0001
1000
0001
0000
0001
0010
0000
0100
0000
,
1000
1100
0001
0101
,
1000
0000
0000
0100
0010
0000
0001
0000
1000
0000
0010
0000
1000
0000
0000
0000
,
0001
0000
0000
0000
1000
0100
1000
0000
0001
1000
0001
0000
0100
0010
0100
0000
,
0001
0000
1000
0100
0000
0001
1000
0010
,
0100
0000
0000
0000
1000
0000
0001
0000
0010
0000
0000
0100
0000
0100
0000
0000
,
1000
0001
0100
0001
1000
0000
0000
0000
0001
1000
0010
1000
0001
0000
0000
0000
,
1000
0000
0000
0001
0000
0000
0010
0100
0000
0100
0000
0100
0010
0000
0001
0000
,
1000
0000
0000
0010
0000
0000
0001
0000
0010
0000
0000
1000
0000
0000
0100
0000
,
0020
0000
0000
0000
0000
0000
0000
0000
0000
0000
0000
0000
0030
0000
0001
1000
,
0001
0000
0000
0000
0000
1000
0001
1000
0001
0000
0100
0000
0000
0100
0000
0000
,
0010
1000
0000
1000
0001
0000
0000
0000
0000
0000
0000
0000
1000
0000
1000
0100
,
0000
0100
0010
0000
0001
0000
1000
0000
0010
0000
1000
0000
0001
0000
0000
0000
,
0010
0100
0000
0000
0100
0000
0000
0000
0000
0000
0000
0000
0000
0100
0010
0100
,
0000
0000
1000
0000
0000
0001
0000
0000
0100
0000
0000
0000
0001
1000
0000
0000
,
0100
0010
0001
1000
0100
0010
0001
1000
,
0010
1000
0000
0000
0001
0010
0000
0000
0100
1000
0000
0000
0001
0100
0000
0000
,
0010
1000
0100
0010
,
0001
1000
0010
0100
,
0001
0001
1000
0000
0100
0000
0001
0000
,
0100
0000
0010
0001
0100
0010
1000
1000
,
0001
0100
0010
0000
1000
0100
0010
0000
,
0001
0000
0100
0000
0010
0000
0000
0000
0100
0001
0100
0000
0010
0000
1000
0000
,
0001
0001
0010
0100
1000
0001
0100
0010
,
1000
0000
0001
0000
0010
0000
0100
0000
1000
0000
0100
0000
0010
0001
0010
0002
,
0000
0000
0000
0003
;

//--------------- dance-single - Fred-104 ----------------
#NOTES:
     dance-single:
     Fred-104:
     Challenge:
     15:
     :
0000
0000
0000
0000
,
0000
0000
0000
0000
,
0000
0000
0000
0000
,
0000
0000
0000
0000
,
0000
0000
0000
0000
,
0000
0000
0000
0000
,
1000
1010
0000
0101
0000
1100
0000
0110
,
0010
0001
0010
0001
0010
0000
0100
1000
0100
1000
0100
0000
1000
0000
0001
0000
,
0100
0101
0000
1010
0000
0011
0000
1100
,
0100
0010
0100
0010
0100
0000
0010
0001
0010
0001
0010
0000
0001
0000
1000
0000
,
0001
0010
0110
0100
0001
0100
1100
1000
,
0001
0100
0001
0100
0010
0000
1000
0100
1000
0100
0010
0000
0001
1000
0010
1000
,
0001
1000
1100
0100
0010
1000
1010
0010
,
0001
1000
0010
1000
0001
0000
0010
0100
0010
0001
1000
0010
0100
0001
1000
0000
,
0002
0000
0000
0000
,
0203
0000
0000
0000
,
0320
0000
0000
0000
,
2030
0000
0000
0000
,
3001
0000
0010
0100
0010
0000
0100
1000
0100
1000
0100
0010
0100
0010
0100
1000
,
0001
0100
0000
0100
1000
0000
1000
0100
0000
0100
0001
0000
0001
1000
0010
0100
,
0001
0000
1000
0100
0010
0100
0010
0100
0010
0001
0010
0001
1000
0001
1000
0001
,
0100
0010
2000
0000
3010
0100
0002
0000
0013
0100
2000
0000
3100
0010
0002
0000
,
1003
0000
0010
0000
0100
0001
0100
0001
0000
1000
0001
0000
0010
0100
1000
0100
,
0010
0000
0001
0000
1000
0010
1000
0010
0000
0010
0000
0010
0100
0001
1000
0000
,
0001
0000
0100
0000
0010
1000
0010
1000
0000
0001
1000
0000
0001
0010
0100
0010
,
0100
0000
1000
0000
0001
0100
0001
0100
0000
0100
0000
0100
1000
0100
0010
0000
,
1000
0000
0001
0000
0010
0100
1000
0001
1000
0001
0000
0001
0100
0010
1000
0010
,
1000
0000
0001
0000
1000
0100
0010
0001
0010
0100
0000
0100
1000
0001
0100
0000
,
0010
0000
1000
0000
0001
0010
0001
0010
0100
1000
0100
1000
0001
0100
0001
0100
,
0010
0000
0000
1000
0000
0000
0010
0000
0000
1000
0000
0000
0100
0000
0000
0010
0000
0000
0001
0000
0000
1000
0000
0000
0001
0000
0000
0000
0000
0000
1000
0000
0010
0000
1000
0000
0010
0000
0000
0100
0000
0000
0001
0000
0000
1000
0000
0000
,
0001
0000
0010
0000
0100
1000
0000
1000
0010
0000
0000
0100
0001
1000
0000
0000
,
0001
0000
0100
0000
0010
0100
0000
0100
0001
1000
0100
1000
0100
0010
0000
0010
,
0001
0000
1000
0000
0100
0010
0000
0010
0100
0000
0000
1000
0001
0100
0000
0000
,
0010
0000
1000
0000
0001
0010
0000
0010
0100
0010
0000
0010
0001
1000
0000
1000
,
0001
0000
0100
0000
1000
0001
0000
0001
0010
0000
0010
1000
0000
1000
0000
1000
,
0001
0000
1000
0000
0100
0010
0000
0010
0001
0010
0001
0010
0100
0010
0100
1000
,
0001
0000
1000
0000
0010
0100
0000
0100
1000
0000
0100
0010
0100
0010
0000
0010
,
1000
0000
0001
0000
1000
0100
0000
0100
0010
0100
0000
0100
1000
0000
0001
0000
,
0200
1000
0302
0010
,
1003
0000
0001
0010
0000
0010
0100
0000
0000
0000
1100
0000
0001
0000
1000
0000
,
0010
0000
0100
0000
0001
1000
0001
1000
0100
0010
0001
0100
0010
1000
0001
1000
,
0200
0000
0000
0002
0003
0000
2300
3000
,
1001
0000
0000
0000
0001
0000
0100
0001
0100
0000
0010
1000
0000
1000
0000
0000
,
0001
1000
0100
0010
0001
0000
0000
0000
1000
0010
0100
0001
1000
0000
0000
0000
,
0001
0000
0000
0010
0000
0000
0100
1000
0000
1000
0001
1000
0010
0000
1000
0000
,
0001
0100
0000
0010
1000
0000
0001
0010
0000
0100
1000
0010
0100
0010
1000
0001
,
0020
0000
0000
0000
0000
0000
0000
0000
0000
0000
0000
0000
0000
0000
0130
0010
,
0100
0000
0000
0000
0000
0010
0001
1000
0001
0000
1000
0010
0100
0010
0100
0001
,
1000
0001
1000
0001
1000
0000
0000
0000
0000
0000
0000
0000
0001
0000
1000
0010
,
0000
1000
0001
1000
0001
0010
0001
0010
0100
1000
0100
1000
0100
0010
0001
1000
,
0010
0100
0000
0000
0110
0000
0000
0000
0000
0000
0000
0000
0000
1000
0001
1000
,
0000
0000
0010
0000
0000
0001
0000
0000
1000
0000
0000
0000
0100
0010
0000
0000
,
1000
0001
1000
0001
0010
0100
0010
0100
1000
0001
0100
0001
0100
0010
1000
0001
,
1000
0100
0020
0000
0031
0100
0020
0000
1030
0010
0200
0000
0301
0010
0200
0000
,
1300
0000
0000
1000
0001
0000
0000
0001
0100
0000
0000
0100
0010
0000
1000
0001
,
1000
0100
0010
0000
0001
1000
0000
0001
0100
0000
0010
1000
0000
0001
0000
0010
,
0000
0110
1000
0000
0001
0000
0100
0000
,
0010
1000
0010
0000
0010
0100
0010
0001
0010
0000
0000
0010
0100
0000
0101
0000
,
1001
0000
0001
1000
0100
0000
0010
0001
1000
0000
0010
0100
0001
0000
1000
0001
,
1000
0000
0001
0010
0100
0000
1000
0001
0010
0001
1000
0010
0100
0001
1000
0000
,
0100
0000
0110
0000
0010
0001
0010
0001
1000
0010
1000
0010
0100
0001
0100
0001
,
1000
0000
0000
0001
0000
0000
0010
0000
0000
0100
0000
0000
1000
0000
0000
0001
0000
0000
0100
0000
0000
0010
0000
0000
0100
0000
0000
0000
0000
0000
0001
0000
1000
0000
0001
0000
1000
0000
0000
0100
0000
0000
0010
0000
0000
0002
0000
0000
,
0000
0000
0000
0003
;

//--------------- dance-double - Fred-104 ----------------
#NOTES:
     dance-double:
     Fred-104:
     Easy:
     6:
     :
00000000
00000000
00000000
00000000
,
00000000
00000000
00000000
00000000
,
00000000
00000000
00000000
00000000
,
00000000
00000000
00000000
00000000
,
00000000
00000000
00000000
00000000
,
00000000
00000000
00000000
00000000
,
00001000
00010000
00010000
00010000
,
00000100
00000000
00000000
00000010
00000000
00000000
00000001
00000000
,
00001000
00000001
00000001
00000100
,
00001000
00000000
00000000
00010000
00000000
00000000
00001000
00000000
,
00100000
00100000
00010000
10000000
,
00100000
00000000
00000000
01000000
00000000
00000000
00010000
00000000
,
10000000
10000000
01000000
00010000
,
00001000
00010000
00100000
01000000
,
00020000
00000000
20030000
00000000
,
32000000
00000000
03200000
00000000
,
00302000
00000000
00023000
00000000
,
00032000
00000000
02003000
00000000
,
03010000
10000000
01000000
00100000
,
00001000
00000000
00000000
00001000
00000000
00000000
00001000
00000000
,
00010000
00000100
00000010
00000001
,
00001000
00000100
00000001
00000100
,
00001000
00000001
00000000
00000001
,
00000100
00001000
00010000
00010000
,
00001000
00100000
00000000
00100000
,
01000000
10000000
00010000
00010000
,
10000000
00100000
00000000
00010000
,
00001000
00010000
00000100
00000100
,
00000010
00000001
00000000
00000001
,
00000100
00001000
00010000
00001000
,
00011000
00000000
00010000
00000100
,
00001100
00000000
00000010
00000001
,
00001001
00000000
00000001
00000100
,
00001100
00000000
00001000
00010000
,
00011000
00000000
00001000
01000000
,
01010000
00000000
00010000
10000000
,
11000000
00000000
01000000
00100000
,
00101000
00001000
00010000
00010000
,
00001000
00001000
00010000
00010000
,
00000100
00000000
00000000
00001000
00000000
00001000
00000000
00000000
,
00000001
00000100
00000010
00000100
,
00001000
00000000
00000000
00001000
00000000
00000000
00001000
00000000
,
00010000
00001000
00010000
00000000
,
00011000
00000000
00011000
00000000
,
00011000
00001000
00100000
00000000
,
00010000
01000000
00100000
00010000
,
00002000
00000000
00000000
00000000
,
00023000
00000000
00030010
00001000
,
00000010
00000000
00000000
00000010
00000000
00000000
00000010
00000000
,
00000100
00000000
00000000
00000100
00000000
00000000
00000100
00000000
,
00000001
00000000
00000000
00001000
00000000
00000000
00000001
00000000
,
00000010
00000000
00000000
00000100
00000000
00000000
00001000
00000000
,
00000100
00010000
00001000
00000000
,
00010000
00010000
00001000
00001000
,
00011000
00000000
00001000
00000000
,
00100000
00000000
01000000
00000000
,
10000000
10000000
00100000
00000000
,
00010000
00010000
00001000
00010000
,
00010010
00000000
00000010
00001000
,
00000100
00000000
00000010
00000001
,
00001000
00000010
00010000
00000010
,
00001000
00000010
00000100
00000001
,
00002002
00000000
00000000
00003003
;

//--------------- dance-double - Fred-104 ----------------
#NOTES:
     dance-double:
     Fred-104:
     Medium:
     9:
     :
00000000
00000000
00000000
00000000
,
00000000
00000000
00000000
00000000
,
00000000
00000000
00000000
00000000
,
00000000
00000000
00000000
00000000
,
00000000
00000000
00000000
00000000
,
00000000
00000000
00000000
00000000
,
00001000
00010000
01000000
00100000
,
00001000
00001000
00000000
00010000
00010000
00000000
00011000
00000000
,
00010000
00001000
00000100
00000001
,
00000010
00000010
00000000
00000100
00000100
00000000
00001100
00000000
,
00000001
00000100
00000010
00000000
00000100
00001000
00010000
00000000
,
00001000
00001000
00000000
00100000
00100000
00000000
10010000
00000000
,
10000000
01000000
00010000
00000000
10000000
00100000
00010000
00000000
,
10000000
01000000
00100000
00100000
00001000
00010000
00010000
00000000
,
00002000
00000000
00023000
00000000
,
00230000
00000000
20300000
00000000
,
32000000
00000000
03020000
00000000
,
00032000
00000000
00003020
00000000
,
00000031
00001000
00000001
00000100
,
00000010
00000000
00000000
00000010
00000000
00000000
00001000
00000000
00000000
00001000
00000000
00000000
00000001
00000000
00000001
00000000
,
00000010
00000100
00010000
00001000
,
00010000
00001000
00000100
00000000
00000100
00001000
00010000
00000000
,
00001000
00101000
00100000
01000000
,
10000000
00000000
00010000
00000000
01000000
00100000
01000000
00000000
,
00010000
10010000
10000000
01000000
,
00010000
00000000
00001000
00000000
00010000
00000100
00000010
00000000
,
00000001
00001001
00001000
00000010
,
00000100
00000000
00001000
00000000
00010000
00001000
00010000
00000000
,
00001000
00100000
00010000
00000000
10000000
00100000
01000000
00000000
,
00010000
10000000
00010000
10000000
01000000
00010000
00001000
00000000
,
00010000
00000000
00000000
00000000
00000100
00000000
00000000
00000000
00000010
00000000
00000000
00000001
00000000
00000001
00000000
00000000
,
00001000
00000000
00000000
00000000
00000001
00000000
00000000
00000000
00000100
00000000
00000000
00000010
00000000
00000010
00000000
00000000
,
00001000
00000000
00000000
00000000
00000100
00000000
00000000
00000000
00010000
00000000
00000000
00001000
00000000
00001000
00000000
00000000
,
00100000
00000000
00000000
00000000
01000000
00000000
00000000
00000000
00100000
00000000
00000000
00010000
00000000
00010000
00000000
00000000
,
10000000
00000000
00000000
00000000
00100000
00000000
00000000
00000000
01000000
00000000
00000000
00010000
00000000
00010000
00000000
00000000
,
10000000
00000000
00000000
00000000
01000000
00000000
00100000
00000000
00001000
00000000
00000000
00001000
00000000
00000000
00001000
00000000
,
00010000
00000000
00000000
00000000
00000100
00000000
00000000
00000000
00000010
00000000
00000000
00000001
00000000
00000001
00000000
00000000
,
00001000
00000001
00000100
00000000
00000010
00001000
00000001
00000000
,
00001000
00000101
00001000
00000011
,
00001000
00000000
00000000
00000001
00000000
00000000
00000010
00000000
00000000
00000000
00000100
00000000
00010000
00000000
00001000
00000000
,
00010000
00000000
00100000
00100000
01000000
01000000
00010000
10000000
,
01000000
00000000
00000000
01000000
00000000
00000000
00100000
00000000
,
00001000
00000000
00000000
00000000
00010000
00000000
00000000
00000000
00000100
00000000
00000000
00000010
00000000
00000010
00000000
00000000
,
00000001
00000001
00000001
00000000
00001000
00001000
00001000
00000000
,
00000001
00000000
00000000
00000100
00000000
00000000
00001000
00000000
00010000
00000000
00001000
00000000
00010000
00000000
00000000
00000000
,
01000000
00000000
00000000
00010000
00000000
00000000
00001000
00000000
00010000
00000000
00000000
00100000
00000000
00000000
10000000
00000000
,
02000000
00000000
00000000
03200000
00000000
00000000
00000000
00000000
,
00300000
00000000
00001000
00010000
,
00000200
00000000
00000000
00001000
00000000
00000000
00001300
00000000
,
00000002
00000000
00000000
00000010
00000000
00000000
00000013
00000000
,
00002000
00000000
00000000
00010000
00000000
00000000
00013000
00000000
,
02000000
00000000
00000000
00100000
00000000
00000000
03100000
00000000
,
00010000
10000000
00100000
00010000
,
00001000
00000000
00000000
00001000
00010000
00000000
00000000
00010000
00001000
00000000
00000000
00001000
00010000
00000000
00000000
00010000
,
00001000
00010000
01000000
00100000
,
00010000
01000000
00001000
00010000
,
00000100
00000100
00000010
00000000
00000100
00000000
00001000
00000000
,
00000100
00000000
00010000
00010000
00001000
01000000
00010000
00010000
,
00100000
00000000
01100000
00000000
10000000
00010000
01000000
00000000
,
00100000
10000000
01000000
00000000
00010000
00000100
00000010
00000000
,
00000001
00001000
00000001
00000100
00000010
00001000
00000001
00000000
,
00000010
00000100
00001000
00000100
00010000
01000000
00100000
00001000
,
00022000
00000000
00000000
00033000
;

//--------------- dance-double - Fred-104 ----------------
#NOTES:
     dance-double:
     Fred-104:
     Hard:
     12:
     :
00000000
00000000
00000000
00000000
,
00000000
00000000
00000000
00000000
,
00000000
00000000
00000000
00000000
,
00000000
00000000
00000000
00000000
,
00000000
00000000
00000000
00000000
,
00000000
00000000
00000000
00000000
,
00010000
00001000
01000000
00000000
00010000
10000000
01000000
00000000
,
00100000
00001000
00001000
00010000
00001000
00001000
00100000
00000000
,
00001000
00010000
00000100
00000000
00000010
00000001
00001000
00000000
,
00000010
00000100
00000100
00000001
00000100
00000100
00000010
00000000
,
00001000
00000000
00000001
00000000
00000010
00000000
00000100
00000000
00010000
00000000
00000000
00010000
00000000
00000000
00010000
00000000
,
00001000
00010000
00100000
10000000
00010000
10000000
01000000
00000000
,
00100000
00000000
00001000
00000000
00010000
00000000
00001000
00000000
00000100
00000000
00000000
00000001
00000000
00000000
00001000
00000000
,
00000100
00000010
00000001
00000100
00000010
00001000
00000100
00000000
,
00020000
00000000
00032000
00000000
,
00003020
00000000
00000230
00000000
,
00020300
00000000
00032000
00000000
,
00023000
00000000
00230000
00000000
,
01300000
00000000
00010000
10000000
01000000
00100000
00001000
00010000
,
00001000
00000000
00000000
00001000
00000000
00000000
00010000
00000000
00000000
00010000
00000000
00000000
00000100
00000000
00000010
00000000
,
00000001
00000100
00001000
00000000
00010000
00001000
00010000
00000000
,
00200000
20300000
32000000
03020000
,
00031000
00010000
00000100
00000000
00000010
00000001
00001000
00000000
,
00000001
00000000
00000100
00000000
00000010
00000000
00000100
00000001
00000100
00000001
00000000
00000001
00000010
00000000
00000100
00000000
,
00010000
00001000
01000000
00000000
00010000
00100000
01000000
00000000
,
00100000
00000000
00001000
00000000
00010000
00000000
00001000
01000000
00000000
01000000
00000000
01000000
00100000
00000000
10000000
00000000
,
00010000
00100000
01000000
00000000
10000000
00010000
01000000
00000000
,
00100000
00000000
10000000
00000000
01000000
00000000
00100000
00001000
00100000
00001000
00000000
00001000
00010000
00000000
00000010
00000000
,
00001000
00000100
00000010
00000000
00000001
00000100
00000010
00000000
,
00001000
00000001
00001000
00000000
00000010
00000000
00000100
00000000
00001000
00010000
00001000
00000000
00100000
00000000
00010000
00000000
,
10000000
00000000
00010000
00000000
00000000
10000000
00000000
00000000
01000000
00000000
00000000
00100000
00000000
00100000
00000000
00100000
,
00000000
00000000
00001000
00000000
00000000
00010000
00000000
00000000
00000010
00000000
00000000
00010000
00000000
00010000
00000000
00010000
,
00000000
00000000
00001000
00000000
00000000
00000100
00000000
00000000
00000001
00000000
00000000
00000010
00000000
00000010
00000000
00000010
,
00000000
00000000
00000100
00000000
00000000
00010000
00000000
00000000
00001000
00000000
00000000
00010000
00000000
00010000
00000000
00010000
,
00000000
00000000
00100000
00000000
00000000
01000000
00000000
00000000
00010000
00000000
00000000
10000000
00000000
10000000
00000000
10000000
,
00000000
00000000
01000000
00000000
00000000
00100000
00000000
00000000
00001000
00000000
00010000
00000010
00000000
00010000
00000010
00000000
,
00001000
00000000
00000001
00000000
00000000
00000010
00000000
00000000
00000100
00000000
00000000
00000010
00000000
00000010
00000000
00000010
,
00000000
00000000
00001000
00000000
00010000
00000000
00000000
00001000
00010000
00001000
00000000
00001000
00010000
00000000
01000000
00000000
,
00100000
00110000
10000000
11000000
,
01000000
00000000
00000000
00100000
00000000
00000000
00001000
00000000
00000000
00000000
00010000
00000000
00000100
00000000
00001000
00000000
,
00000010
00000000
00000000
00000000
00000100
00000001
00000100
00000000
00000010
00001000
00000010
00000000
00010000
00001000
00010000
00000000
,
00001000
00000000
00010000
00000000
00100000
00000000
10000000
00000000
00010000
00000000
00100000
01000000
00100000
00000000
01000000
00000000
,
10000000
00000000
00000000
00000000
00010000
00000000
01000000
00000000
00100000
00000000
00000000
00010000
00000000
00010000
00000000
00000000
,
00001000
00010000
00001000
00010000
00001000
00000000
00000000
00000000
01000000
00010000
01000000
00010000
01000000
00000000
00000000
00000000
,
00001000
00000000
00000000
00010000
00000000
00000000
00000100
00000000
00000010
00000000
00000001
00000000
00001000
00000000
00000001
00000000
,
00000100
00000000
00000000
00001000
00000000
00000000
00010000
00000000
01000000
00000000
00000000
00010000
00000000
00000000
00001000
00000000
,
00020000
00000000
00000000
00000000
00000000
00000000
00000000
00000000
00000000
00000000
00000000
00000000
00030000
00000000
00001000
00100000
,
00001000
00000000
00000000
00000000
00000000
01000000
00010000
01000000
00010000
00000000
10000000
00000000
01000000
10000000
00000000
00000000
,
01000000
00100000
00000000
00100000
00010000
00000000
00000000
00000000
00000000
00000000
00000000
00000000
00100000
00000000
00001000
00010000
,
00000000
00010000
00000100
00000000
00000010
00000000
00001000
00000000
00000001
00000000
00000100
00000000
00001000
00000000
00000001
00000000
,
00000100
00000010
00000000
00000000
00000010
00000000
00000000
00000000
00000000
00000000
00000000
00000000
00000000
00010000
00001000
00010000
,
00000000
00000000
00001000
00000000
00000000
00000010
00000000
00000000
00000100
00000000
00000000
00000000
00001000
00000001
00000000
00000000
,
00000010
00000100
00001000
00000010
00000100
00001000
00010000
00100000
,
10000000
00010000
00000000
00000000
00010000
00100000
00000000
00000000
00100000
01000000
00000000
00000000
01000000
10000000
00000000
00000000
,
10000000
00010000
01000000
00100000
,
00010000
00000010
00001000
00000001
,
00000010
00000010
00000100
00000000
00001000
00000000
00000001
00000000
,
00000100
00000000
00001000
00001000
00010000
00001000
00100000
00100000
,
00010000
10000000
00100000
00000000
01000000
00010000
10000000
00000000
,
01000000
00010000
00001000
00010000
00000100
00000010
00000001
00000000
,
00001000
00000001
00000100
00000010
00000100
00001000
00010000
00100000
,
10000000
00000000
00010000
00000000
00100000
00000000
01000000
00000000
00010000
00001000
00010000
00001000
00010000
00001000
00010000
00002000
,
00000000
00000000
00000000
00003000
;

//--------------- dance-double - Fred-104 ----------------
#NOTES:
     dance-double:
     Fred-104:
     Challenge:
     15:
     :
00000000
00000000
00000000
00000000
,
00000000
00000000
00000000
00000000
,
00000000
00000000
00000000
00000000
,
00000000
00000000
00000000
00000000
,
00000000
00000000
00000000
00000000
,
00000000
00000000
00000000
00000000
,
00010000
00000000
00001000
00000000
00000010
00000100
00000000
00000010
00000001
00000000
00000100
00000010
00000000
00001000
00000001
00000000
,
00001000
00000001
00001000
00000001
00001000
00000000
00000010
00000100
00000010
00000100
00000010
00000000
00000100
00000000
00001000
00000000
,
00010000
00000000
00001000
00000000
01000000
00010000
00000000
01000000
00100000
00000000
10000000
01000000
00000000
00100000
00010000
00000000
,
10000000
01000000
10000000
01000000
10000000
00000000
00010000
01000000
00010000
01000000
00010000
00000000
00100000
00000000
00001000
00000000
,
00010000
00000000
00000100
00000000
00000010
00000001
00001000
00000000
00000010
00000000
00010000
00001000
00000000
00010000
00000100
00000000
,
00001000
00000001
00001000
00000001
00000010
00000000
00000100
00000010
00000001
00000010
00000001
00000000
00001000
00000010
00000100
00000000
,
00001000
00000000
01000000
00000000
00010000
10000000
01000000
00000000
00100000
00000000
00010000
10000000
00000000
00100000
00010000
00000000
,
00001000
00010000
00001000
00010000
00001000
00000000
00010000
00000100
00001000
00000100
00000010
00000100
00000010
00000001
00001000
00000000
,
00000002
00000000
00000023
00000000
,
00002030
00000000
00023000
00000000
,
00230000
00000000
20300000
00000000
,
32000000
00000000
03200000
00000000
,
00301000
00000000
00010000
00001000
00010000
00000000
00000010
00001000
00000010
00000100
00000010
00000100
00000001
00000100
00000001
00000100
,
00000010
00001000
00000000
00000001
00001000
00000000
00000010
00001000
00000000
00000001
00000010
00000000
00000100
00010000
00001000
00000000
,
00010000
00000000
00100000
01000000
00010000
01000000
00010000
01000000
00100000
01000000
00100000
01000000
00100000
10000000
00100000
10000000
,
00010000
10000000
02000000
00000000
03100000
00010000
00002000
00000000
00003100
00000010
00000002
00000000
00000013
00000100
00002000
00000000
,
00003001
00000000
00000100
00000000
00000010
00010000
00000000
00000010
00001000
00000000
00000010
00000000
00000100
00000001
00001000
00000000
,
00000100
00000000
00010000
00000000
01000000
00100000
00000000
00010000
00000000
10000000
00000000
00010000
00100000
01000000
00100000
00010000
,
10000000
00000000
00010000
00000000
01000000
00100000
00000000
00010000
00000000
00001000
00010000
00000000
00000100
00001000
00000001
00000000
,
00001000
00000000
00000100
00000000
00000010
00000001
00000010
00000001
00000000
00001000
00000000
00000010
00010000
00001000
00010000
00000000
,
00001000
00000000
00100000
00000000
01000000
10000000
01000000
10000000
00000000
00010000
10000000
00000000
00100000
01000000
00100000
00000000
,
00010000
00000000
00001000
00000000
01000000
00100000
01000000
00100000
00000000
00010000
00000000
00001000
00010000
00000100
00001000
00000100
,
00000010
00000000
00000001
00000000
00001000
00000010
00001000
00000000
00000010
00010000
00000010
00000000
00010000
00001000
00100000
00000000
,
00010000
10000000
00010000
10000000
00100000
01000000
00100000
01000000
00010000
10000000
01000000
00100000
00010000
00100000
00001000
00010000
,
00001000
00000000
00010000
00000000
00000000
00000100
00000000
00000100
00000010
00000000
00000000
00000001
00001000
00000010
00000000
00000000
,
00000100
00000000
00001000
00000000
00000000
00010000
00000000
00010000
00001000
00100000
00000000
00100000
00010000
10000000
00000000
10000000
,
00100000
00000000
10000000
00000000
00000000
01000000
00000000
01000000
00010000
00000000
00000000
00001000
00010000
00001000
00000000
00000000
,
00010000
00000000
00000100
00000000
00000000
00000010
00000000
00000010
00001000
00000010
00000000
00000010
00000100
00000010
00000000
00000010
,
00000001
00000000
00001000
00000000
00000001
00000010
00000000
00000100
00001000
00000000
00000100
00010000
00000000
00001000
00000000
00001000
,
01000000
00000000
00010000
00000000
00100000
01000000
00000000
01000000
10000000
00010000
10000000
00100000
01000000
00010000
10000000
00000000
,
01000000
00000000
00100000
00000000
00001000
00010000
00000000
00010000
00000100
00000000
00000100
00000010
00000000
00000010
00000000
00001000
,
00000010
00000000
00000001
00000000
00001000
00000001
00000000
00000001
00000100
00000010
00000000
00000010
00000100
00000000
00001000
00000000
,
00020000
00001000
00100000
00000010
,
00031000
00000000
00010000
00001000
00000000
00001000
01000000
00000000
00000000
00000000
01010000
00000000
00000000
00000000
10000000
00000000
,
01000000
00000000
00100000
00000000
00001000
00010000
00001000
00000000
00010000
00000100
00001000
00000100
00000010
00000001
00001000
00000001
,
00000200
00000000
00001000
00002300
00000000
00010000
00023000
00031000
,
00011000
00000000
00000000
00000000
00001000
00000000
00010000
00001000
01000000
00000000
00100000
10000000
00000000
10000000
00000000
00000000
,
00010000
10000000
01000000
00100000
00001000
00000000
00000000
00000000
00010000
00000100
00000010
00000001
00001000
00000000
00000000
00000000
,
00000001
00000000
00000100
00000000
00001000
00000000
00000001
00000010
00000000
00000010
00000000
00001000
00000100
00010000
00001000
00000000
,
00010000
00001000
00000000
01000000
00001000
00000000
00010000
00001000
00000000
00100000
00001000
00010000
00000100
00001000
00000001
00000100
,
00000020
00000000
00000000
00000000
00000000
00000000
00000000
00000000
00000000
00000000
00000000
00000000
00000000
00000000
00001030
00000001
,
00000010
00000000
00000000
00000000
00000000
00000100
00001000
00000100
00010000
00000000
00001000
00000000
00010000
01000000
00000000
10000000
,
00100000
01000000
00100000
01000000
00100000
00000000
00000000
00000000
00000000
00000000
00000000
00000000
10000000
00000000
01000000
00100000
,
00000000
00001000
00010000
00001000
00010000
00001000
00000100
00000010
00000100
00000010
00001000
00000001
00000010
00000100
00000010
00000100
,
00001000
00000001
00000000
00000000
00001001
00000000
00000000
00000000
00000000
00000000
00000000
00000000
00000000
00000001
00001000
00000001
,
00000000
00000000
00000100
00000000
00000000
00001000
00000000
00000000
00010000
00000000
00000000
00000000
00001000
00010000
00000000
00000000
,
00001000
00100000
00001000
00100000
00010000
10000000
00010000
10000000
00100000
01000000
00100000
01000000
00010000
10000000
01000000
00100000
,
00010000
10000000
00200000
00000000
01300000
00010000
00002000
00000000
00003010
00000100
00000002
00000000
00000103
00000010
00002000
00000000
,
00003001
00000000
00000010
00000000
00000100
00000000
00000000
00000000
00010000
00000000
00001000
00000000
01000000
00000000
00010000
10000000
,
00010000
10000000
01000000
00000000
00100000
00001000
00000000
00010000
00001000
00000000
00010000
00001000
00000000
00100000
00000000
01000000
,
00000000
10010000
00010000
00000000
10000000
01000000
00010000
00000000
,
00001000
00010000
00001000
00000000
00001000
00000100
00001000
00010000
00001000
00000000
00000000
00001000
00010000
00000000
00011000
00000000
,
00010000
00000000
00000010
00001000
00000010
00000000
00000100
00000000
00000001
00000000
00000010
00000100
00000010
00000000
00000100
00000000
,
00010000
00000000
00001000
00100000
00001000
00000000
00100000
00010000
10000000
00100000
01000000
00000000
00010000
10000000
01000000
00000000
,
00100000
00000000
00101000
00000000
00001000
00010000
00001000
00010000
00000010
00001000
00000010
00001000
00000100
00000010
00000100
00000010
,
00000001
00001000
00000010
00001000
00000001
00000010
00000100
00001000
00000100
00010000
00001000
00100000
00010000
00100000
01000000
20000000
,
00000000
00000000
00000000
30000000
;
