#VERSION:0.83;
#TITLE:キャトられ♥恋はモ~モク;
#ARTIST:ギュ~っとしたい♥Prim;
#TITLETRANSLIT:Kyatorare koi wa mo~moku;
#ARTISTTRANSLIT:Gyu~ttoshitai Prim;
#GENRE:Hi-ν BLEEP;
#BANNER:Kyatorare koi wa mo~moku.png;
#BACKGROUND:Kyatorare koi wa mo~moku-bg.png;
#CDTITLE:./CDTitles/bm IIDX 20 tricoro.png;
#MUSIC:Kyatorare koi wa mo~moku.ogg;
#SAMPLESTART:50.96;
#SAMPLELENGTH:15;
#BPMS:0=196;
#STAGE:31;

//--------------- dance-single - Fred-104 ----------------
#NOTEDATA:;
#STEPSTYPE:dance-single;
#DESCRIPTION:Fred-104;
#DIFFICULTY:Beginner;
#METER:4;
#CREDIT:Fred-104;
#NOTES:
0000
0000
0000
0000
,
0000
0000
0000
0000
,
1000
0000
0000
0000
,
0001
0000
0000
0000
,
1000
0000
0000
0000
,
0001
0000
0000
0000
,
0100
0000
0000
0000
,
0001
0000
0000
0000
,
1000
0000
0000
0000
,
0002
0000
0000
0003
,
1001
0000
0000
0000
,
0001
0000
0001
0000
,
1000
0000
0000
0000
,
0010
0000
0010
0000
,
0100
0000
0000
0000
,
0001
0000
1000
0000
,
1001
0000
0000
0000
,
0000
0000
0000
0000
,
1000
0000
0010
0000
,
1000
0000
0001
0000
,
0001
0000
1000
0000
,
0001
0000
0001
0000
,
1000
1000
1000
0000
,
0001
0000
1000
0000
,
0001
0000
1000
0000
,
1001
0000
0000
0000
,
1000
0000
0010
0000
,
1000
0000
0001
0000
,
0100
0000
0010
0000
,
0100
0000
0100
0000
,
0100
0000
0010
0000
,
0010
0000
1000
0000
,
1001
0000
0000
0000
,
1001
0000
0000
0000
,
1001
0000
0001
0000
,
0100
0000
0100
0000
,
0010
0000
0010
0000
,
1000
0000
1000
0000
,
1000
0000
0001
0000
,
1000
0000
1000
0000
,
0001
0000
1000
0000
,
1001
0000
0000
0000
,
1000
1000
1000
1000
,
1000
0000
0001
0000
,
0001
0000
1000
0000
,
0010
0000
1000
0000
,
0001
0000
1000
0000
,
1000
0000
1000
0000
,
0001
0000
1000
0000
,
1001
0000
0000
0000
,
1000
0000
1000
0000
,
1000
0000
0001
0000
,
0100
0000
0100
0000
,
0010
0000
0010
0000
,
1000
0000
1000
1000
,
1000
0000
0001
0000
,
1000
0000
0001
0000
,
1001
0000
0000
0000
,
2002
0000
0000
0000
,
0000
0000
3003
0000
,
1000
0000
0000
0000
,
0010
0000
0000
0000
,
1000
0000
0000
0000
,
0001
0000
0001
0001
,
0001
0000
1000
0000
,
1000
0000
0001
0000
,
1001
0000
0000
0000
,
0000
0000
0000
0000
,
0001
0000
0000
0000
,
0100
0000
0000
0000
,
1000
0000
0000
0000
,
0100
0000
0000
0000
,
0001
0000
0000
0000
,
0010
0000
0000
0000
,
1000
0000
0000
0000
,
0010
0000
0000
0000
,
0001
0000
0001
0000
,
1000
0000
1000
0000
,
1001
0000
0000
0000
,
1001
0000
0000
0000
,
0001
0000
1000
0000
,
0001
0000
1000
0000
,
0001
0000
0100
0000
,
0010
0000
0100
0000
,
0000
0000
0000
0000
,
2000
0000
0000
3000
,
0002
0000
0000
0003
,
2000
0000
0000
3000
,
0002
0000
0000
0003
,
1000
0000
0001
0000
,
1000
0000
1000
0000
,
0001
0000
1000
0000
,
1001
0000
0000
0000
,
0100
0100
0100
0100
,
0100
0000
0010
0000
,
0100
0000
0100
0000
,
0001
0000
1000
0000
,
0001
0000
1000
1000
,
1000
0000
0001
0000
,
1000
0000
0001
0000
,
1001
0000
0000
0000
,
1000
0000
0001
0000
,
1000
0000
1001
0000
,
0001
0000
1000
0000
,
0001
0000
2002
0000
,
3003
0000
0000
0000
;

//--------------- dance-single - Fred-104 ----------------
#NOTEDATA:;
#STEPSTYPE:dance-single;
#DESCRIPTION:Fred-104;
#DIFFICULTY:Easy;
#METER:9;
#CREDIT:Fred-104;
#NOTES:
0000
0000
0000
0000
,
0000
0000
0000
0000
,
1000
0000
0010
0000
,
1000
1000
0010
0100
,
0001
0000
1000
0000
,
0001
0001
0010
0100
,
1000
1000
0010
0000
,
1000
1000
0001
1000
,
0100
0100
0100
0000
,
0010
0000
0200
0320
,
1030
0000
0000
0010
0000
0000
1000
0000
,
0001
0000
0000
0010
0000
0000
0010
0000
,
0100
0000
0000
0100
0000
0000
1000
0000
,
0001
0000
0000
1000
0000
0000
0001
0000
,
1000
0010
1000
0000
0001
0000
0001
0000
,
0100
0000
0000
0100
0000
0000
0010
0000
,
1000
0000
0000
0001
0000
1000
0000
1001
,
0000
0000
0000
0000
,
1000
0000
0100
0000
0100
0000
0000
1000
,
0000
0010
1000
0001
,
0001
0000
0000
0010
0000
0000
0001
0000
,
1000
0000
0000
0010
0000
0000
0100
0000
,
0001
0000
1001
0000
1001
0000
0000
1000
,
0000
1000
0000
0010
0000
1000
0000
0000
,
0001
0000
0000
1000
0000
0000
0001
0000
,
1000
0000
0000
0010
0000
0010
0000
1000
,
0001
0010
0100
1000
,
0010
0000
1000
0000
0001
0000
1000
0010
,
2000
0000
0000
0000
3001
0000
1000
0001
,
1000
0001
1000
0000
0001
0000
0100
0010
,
0100
0010
0010
1000
,
0001
0000
0000
1000
0000
0000
0001
0000
,
1000
0000
0000
0010
0000
0010
0100
0000
,
0001
0000
0000
0100
0000
0100
0010
0000
,
2000
3100
0002
0103
,
2000
3010
0002
0013
,
1000
0001
0100
0100
,
0001
0000
0000
0100
0000
0010
0100
0000
,
0010
1000
0001
1000
,
0001
0000
0000
1000
0000
0000
0001
0000
,
1000
1000
0010
0100
,
0001
0001
1000
0001
,
1000
1100
0110
0110
,
0002
0000
0000
2003
0000
0000
3010
0000
,
0100
0000
0000
0010
0100
0000
0000
0000
,
0001
0001
0010
1000
,
0001
0000
0000
0100
0000
0110
0000
0000
,
1000
0000
0000
0100
0000
0110
0000
0000
,
0001
0000
0000
1000
0000
0000
0001
0000
,
1000
0000
0010
0010
0000
0000
0100
0000
,
1001
1000
0010
0100
,
0020
0000
0000
2030
0000
0000
3002
0000
,
0103
0000
0000
0010
0100
0000
0000
0000
,
0001
1000
0010
0100
,
0001
1000
1010
1010
,
0010
0000
0000
0100
0000
0000
0001
0000
,
1000
0000
0000
0100
0000
0000
0010
0000
,
0001
0000
0001
0000
1000
0100
1000
0000
,
0001
0000
1000
0000
0001
0000
0000
1000
,
0000
0010
0000
0100
0220
0000
0330
0000
,
0010
0000
0000
1000
0000
0000
0010
0000
,
1000
0000
0000
0100
0000
0000
0010
0000
,
0001
0000
0000
0100
0000
0000
0100
0000
,
0001
0000
0000
0001
0000
0000
0100
0000
,
0010
0000
0000
1000
0000
0000
0001
0000
,
1000
0000
0000
0100
0000
0000
1000
0000
,
0001
0000
0000
1000
0000
0001
0000
1001
,
0000
0000
0000
0000
,
0002
0000
1003
0000
,
2000
0000
3001
0000
,
0002
0000
1003
0000
,
2000
0000
3001
0000
,
0020
0000
1030
0000
,
0020
0000
0031
0000
,
0200
0000
0010
0310
,
0200
0000
0301
0000
,
1100
0100
0100
0010
,
0101
0100
0100
0010
,
1001
0000
0000
0100
0000
0000
0100
0000
,
0010
0000
0000
0010
0000
0000
0010
0000
,
1000
0010
0010
1000
,
0001
0000
0000
0100
0000
0000
0001
0000
,
0100
0100
0010
1000
,
0001
1000
0001
0000
1000
0001
1000
0000
,
0000
0000
0000
0000
,
2002
0000
0000
3003
,
0200
0000
0000
0320
0000
0000
0230
0000
,
0302
0000
0000
1003
0001
0000
0000
0000
,
1000
0000
0010
0000
1000
0001
1000
0000
,
0001
0000
0100
0001
0000
0000
0100
0000
,
0010
0000
0100
0010
0000
0000
1000
0000
,
0010
0000
1000
0100
0000
0000
0010
0000
,
0001
0000
1000
1000
0000
0001
1001
0000
,
0010
1100
0110
0101
,
0020
0000
0000
2030
0000
0000
3002
0000
,
0103
0000
0000
0010
0100
0000
0000
0000
,
0001
0001
1000
0100
,
0010
0000
0001
0000
1000
0010
1000
0010
,
0100
0001
1000
0001
,
0001
0100
0100
1000
,
0001
0100
0001
0000
1000
0010
1000
0000
,
0001
0000
1000
0000
0010
0000
0000
1000
,
0000
0001
0000
0100
0220
0000
0330
0000
,
0010
0000
1000
0000
0100
0000
0000
1000
,
0000
0001
0000
1000
2002
0000
3003
0000
,
1001
0000
0000
0000
;

//--------------- dance-single - Fred-104 ----------------
#NOTEDATA:;
#STEPSTYPE:dance-single;
#DESCRIPTION:Fred-104;
#DIFFICULTY:Medium;
#METER:14;
#CREDIT:Fred-104;
#NOTES:
0000
0000
0000
0000
,
0000
0000
0000
0000
,
0001
0100
0001
0100
0001
0000
0100
0010
,
0000
0010
1000
0010
0200
0000
1000
0000
,
0301
0010
0001
0010
0001
0000
1000
0010
,
0000
0010
0100
0010
1000
0010
1000
0000
,
0010
1000
0001
1000
0001
0000
1000
0100
,
0000
0100
0010
0001
1000
0001
0100
0000
,
0001
0010
0001
0010
0001
1000
0000
1001
,
0000
0110
0000
0001
2002
0000
3003
0000
,
1000
0100
1000
0020
0000
0130
0001
0000
,
1000
0001
0100
0002
0000
0013
0100
0000
,
0010
0100
1000
0020
0000
0130
0001
0000
,
1000
0001
0010
0002
0000
0013
0100
0000
,
1000
0001
0100
0020
0000
1030
0010
0000
,
1000
0100
0010
0200
0000
0301
0100
0000
,
0001
0100
0010
1000
0000
1100
0000
1001
,
0000
0000
0000
0000
,
0010
0000
1010
0000
0110
0000
0001
0001
,
0000
1000
0010
0100
0001
0000
1000
0000
,
0001
0000
0001
0100
0000
0100
1000
0100
,
1000
0100
1000
0100
0001
0100
0001
0000
,
1000
0000
1010
0000
0101
0000
0100
0010
,
0000
0010
1000
0010
0100
0010
0000
0010
,
1000
0100
0010
0002
0000
0000
0103
0100
,
0010
0000
1000
0010
0000
0100
0101
0000
,
0001
0000
0200
0000
1000
0000
0301
1000
,
0000
0010
1000
0010
0000
1000
0001
1000
,
0200
0000
1000
0000
0301
0000
0100
0010
,
1000
0100
0010
0000
0001
1000
0001
0001
,
0100
0000
0010
0100
0010
1000
0010
1000
,
0000
1001
0000
0110
0000
1000
0001
0100
,
0010
0000
1000
1010
0000
0001
0100
0001
,
0010
0100
1000
0001
0100
0010
0100
0000
,
1010
1010
0011
0011
,
1100
0000
1100
0000
0101
0000
0001
0100
,
0010
0000
1000
0010
0100
0010
1000
1010
,
0000
0101
0000
1001
0000
0001
0100
0001
,
1000
0000
0010
0100
0010
0100
0010
1000
,
0002
0000
1003
0200
0000
0310
0200
0000
,
1300
0010
1000
0010
0100
0001
0100
0001
,
1000
0100
0010
0001
1000
0010
0200
0000
,
0301
0100
0020
1030
0020
0130
0002
0000
,
2003
0000
3100
0020
0000
0031
0200
0000
,
0310
0000
1000
0100
0010
0000
0001
0000
,
1000
0001
0100
0001
0000
0001
0010
0100
,
1000
0010
0100
0010
0000
2010
0000
0000
,
3001
0000
0100
0100
0000
0110
0000
1000
,
0001
0000
1000
1000
0000
0010
0100
0001
,
1000
0000
0001
1000
0000
0100
0110
0000
,
0010
1000
0010
0100
0010
1000
0001
0000
,
2000
0000
3100
0200
0000
0301
0002
0000
,
1003
0000
0001
0100
0010
0000
1000
0000
,
0001
0010
0001
0010
0000
0010
1000
0010
,
0001
1000
0010
0100
0002
0000
2003
0000
,
3010
1000
0100
1000
0000
0100
0000
0100
,
0010
0001
1000
0001
0000
0001
0100
0010
,
1000
0000
0010
0000
0100
0000
0001
0000
1000
0001
1000
0001
2000
0000
0000
0000
,
3001
0010
0001
0010
0001
0011
0000
1010
,
0000
0101
0000
1001
2002
0000
3003
0000
,
0120
0000
1030
0020
0000
0031
0020
0000
,
0230
0000
1300
0200
0000
0301
0200
0000
,
2300
0000
3001
2000
0000
3010
2000
0000
,
3010
1000
0001
0200
0000
0310
0100
0000
,
0010
0100
1000
0200
0000
0000
0301
0000
,
0100
0010
1000
0020
0000
0000
0130
0000
,
0001
1000
0001
0100
0000
0101
0000
1001
,
0000
0000
0000
0000
,
0100
0000
0000
0010
0100
0000
0000
0000
,
0100
0010
0000
0010
0100
0000
0000
0000
,
0100
0000
0000
0010
0100
0000
0000
0000
,
0100
0010
0000
0010
0100
0000
0000
0000
,
0010
0000
0000
0010
0010
0000
0001
0000
,
0100
0100
0000
0100
0100
0000
1000
0000
,
0010
0010
0100
0100
,
0001
0010
1000
0100
,
0110
0110
1010
1010
,
0101
0101
1001
1001
,
0100
0000
0010
0010
0000
0100
0010
1000
,
0010
0100
0010
0100
0000
0001
0100
0001
,
0100
0000
0001
1000
0010
0000
0100
0000
,
0010
0000
1000
0100
0000
1000
0010
0100
,
0001
0100
0001
0000
1000
0010
1000
0000
,
0010
0000
0100
0000
0010
0000
0100
0000
0001
1000
0001
1000
0001
1000
0001
1000
,
0000
0000
0000
0000
,
1200
0000
0000
0000
,
0320
0000
0000
0032
0000
0000
2003
0000
,
3002
0000
0000
0103
0020
0000
0030
0000
,
0010
1000
0010
0100
0010
1000
1000
0001
,
1000
0100
0010
0001
0000
1000
0001
0100
,
0001
1000
0100
0010
0000
0010
0100
1000
,
0010
0100
0010
1000
0000
0001
0100
0001
,
0010
0000
0001
1001
0000
1000
0010
0100
,
0001
0010
0002
0103
0002
1003
0002
0103
,
0020
0000
1030
0200
0000
0310
0200
0000
,
1300
0000
0001
1000
0100
0000
0110
0000
,
0001
0100
0010
0100
0000
0010
0100
0001
,
1000
0100
1000
0100
0010
0001
1000
0000
,
0001
0100
0001
0100
0000
0010
0000
0010
,
1000
0010
0100
0010
0000
0010
1000
0001
,
1000
0000
0100
0000
1000
0000
0100
0000
1000
0001
1000
0001
2000
0000
0000
0000
,
3001
0010
0001
0100
0001
0011
0000
0011
,
0000
1010
0000
1001
2002
0000
3003
0000
,
1000
0100
1000
0100
0010
0110
0000
1100
,
0000
0101
0000
0110
0220
0000
0330
0000
,
1001
0000
0000
0000
;

//--------------- dance-single - Fred-104 ----------------
#NOTEDATA:;
#STEPSTYPE:dance-single;
#DESCRIPTION:Fred-104;
#DIFFICULTY:Hard;
#METER:16;
#CREDIT:Fred-104;
#NOTES:
0000
0000
0000
0000
,
0000
0000
0000
0000
,
0001
0010
0100
1000
0001
0000
0100
0010
,
0000
0010
1000
0001
1000
1000
0001
0001
,
1000
0100
1000
0010
0100
0000
0001
0001
,
0000
0100
0010
1000
0001
1000
0100
0100
,
1000
0010
0010
1000
0010
0000
1000
0100
,
0000
0100
0010
0001
1000
0001
0100
0100
,
0001
0100
0100
0001
0100
0010
0000
1010
,
0000
0101
0000
1100
0110
0000
1001
0000
,
0001
0010
0100
1000
0000
0010
1000
0010
,
0100
0010
1000
0100
0000
0100
0010
0001
,
1000
0001
0010
0001
0000
0001
0100
0010
,
0100
0000
0010
0000
1000
0000
0100
0000
0010
0000
0001
1000
0001
0000
1000
0000
,
0001
0000
0100
0000
0001
0000
0100
0000
0000
0010
0000
0000
0100
0000
0000
0100
0000
0000
0010
0000
0000
1000
0000
0000
,
0100
0000
0010
0000
0100
0000
1000
0000
0000
0000
0001
0000
0010
0000
0001
0100
,
0001
0000
1000
0100
0010
0000
0100
0000
0000
0000
0110
0000
0000
0000
1001
0000
,
0000
0000
0000
0000
,
0100
0010
1000
0100
0010
0000
0001
0101
,
0000
0100
0010
1000
1100
0000
0011
0000
,
0110
0000
0001
1000
0000
1000
0100
0010
,
0100
1000
1000
0001
1000
0100
0010
0001
,
0101
0000
0000
0000
2200
3300
0000
0000
0202
0303
0000
0000
0100
0000
0110
0000
,
0000
0010
1000
0001
0010
0110
0000
1000
,
0001
0100
1000
0200
0000
0000
0301
0100
,
0010
0000
1000
0000
0100
0000
1100
0000
0000
0000
0110
0000
0010
0000
0001
1000
,
0001
0000
0100
0010
0001
0010
0000
0110
,
0000
1100
0000
0101
0000
0100
0010
1000
,
0020
0000
1000
0000
0230
0000
0301
0100
,
0010
0000
1000
0000
1001
0000
0000
0000
0010
0000
0010
0000
0100
0000
0001
1000
,
0001
0000
0010
0010
0001
1000
0010
0200
,
0000
0001
0000
1000
0000
0301
0100
0010
,
1000
0000
0000
0000
0010
0000
1010
0000
0000
0000
0001
0000
1000
0100
1000
0100
,
0010
0000
0001
0000
1000
0000
0001
0100
0001
0000
0100
0000
0010
0000
0000
0000
,
1200
0000
0000
0300
0120
0000
0000
0030
0012
0000
0000
0003
0201
0000
0000
0300
,
0120
0000
0000
0030
1020
0000
0000
0030
0210
0000
0000
0300
2001
0000
0001
3000
,
0100
0010
0100
0001
1000
0010
0100
2000
,
3100
0000
0002
0000
0103
0000
2000
0000
3001
0000
0100
0010
0100
0000
0001
1000
,
0001
0100
0010
1000
0100
0010
1000
0010
,
0002
0000
0103
2000
0000
3100
0002
0000
,
1003
0100
0010
0100
1000
0010
0100
0001
,
0100
0010
0100
0000
0001
1000
0001
0000
1000
0100
1000
0100
0010
0001
0010
0001
,
1000
0100
0110
0010
0011
0001
1001
0000
,
1000
0000
0010
0000
0100
0000
0010
0000
1000
0000
0100
0010
0100
0000
0000
0000
,
0001
0000
0101
0100
0010
0000
1000
0100
,
0110
0010
0001
1001
0000
1010
0010
0100
,
0001
0100
1000
0200
0000
0302
0000
0000
,
1003
0000
0010
1010
0000
0101
0000
0100
,
0010
0000
0000
0000
1000
0000
0100
0000
0000
0000
0010
0001
0010
0000
0001
0000
,
1001
0000
0100
0102
0000
1003
0100
0010
,
0001
0000
0100
0000
0001
0000
0100
0000
0010
0000
1000
0000
0001
0100
0010
0000
,
0110
1000
0100
0110
0001
0100
0010
1000
,
0001
0000
0011
0010
0100
0000
1010
0010
,
0100
0001
1000
0002
0000
0013
0100
1000
,
0001
0000
0010
0000
0001
0000
1000
0000
0020
0000
1030
0100
0020
0000
0031
0100
,
0010
1000
0001
1000
0100
0010
0001
1000
,
0002
0000
0103
0010
2000
0000
3100
0010
0001
0000
1000
0000
0001
0100
0001
0000
,
1000
0010
1000
0010
1000
0010
1000
0001
0100
0001
0100
0001
0200
0000
0320
0000
,
1030
1000
0100
0100
1100
1100
0000
0101
,
0000
1010
0000
1001
2002
0000
3003
0000
,
1000
0010
0100
0020
0000
1030
0100
0010
,
0001
0100
0010
0200
0000
0301
0100
0010
,
1000
0100
0001
0200
0000
1300
0010
0100
,
0001
0100
1000
0200
0000
0301
0010
0001
,
1000
0000
0001
0010
0001
0000
0101
0000
0000
0000
0001
0000
1000
0000
0010
0000
,
0100
0000
0010
1000
0010
0000
0110
0000
0000
0000
0100
0010
0100
0000
0010
0001
,
1000
0000
0001
1000
0001
0000
0011
0000
0000
0000
1010
0000
0000
0000
1001
0000
,
0000
0000
0000
0000
,
0002
0000
0000
0100
0103
0000
0101
0000
,
2000
0100
0000
0100
3100
0000
1100
0000
,
0020
0000
0000
0001
0031
0000
1001
0000
,
0020
1000
0000
1000
1030
0000
1001
0000
,
0200
0000
0000
0001
0301
0000
0011
0000
,
0200
1000
0000
1000
1300
0000
1010
0000
,
0001
0100
1000
0010
,
0100
0001
0010
1000
,
1100
0100
0010
0001
1000
0010
0100
0000
,
0101
0100
0010
1000
0001
0010
0100
0000
,
1001
0000
1010
1010
0000
0001
0011
0010
,
0100
0000
1000
0000
0001
0000
1001
0000
0000
0000
0100
0010
0100
0000
1000
0001
,
1000
0100
1000
0100
0010
0001
0010
0001
,
1000
0010
1000
0010
0100
0001
0100
0001
,
1000
0010
0100
0001
1000
0010
0100
0001
,
1000
0001
1000
0001
1000
0001
1000
0001
1000
0100
1000
0100
0010
0001
0010
0001
,
0000
0000
0000
0000
,
1020
0000
0000
0000
,
0230
0000
0000
0302
0000
0000
2003
0000
,
3200
0000
0000
1000
2300
0000
0000
0000
,
3001
0000
0010
0000
0100
0000
1000
0000
0001
0100
0001
0100
0010
1000
0010
1000
,
0010
1000
0100
0110
0000
0001
0100
0010
,
0100
0010
1000
1100
0000
0100
0010
1000
,
1010
0000
0110
0110
0000
0100
0001
0010
,
0011
0000
1001
1001
0000
0010
0100
0001
,
1000
0010
1010
0010
0110
0100
0101
0000
,
0001
0100
1000
0001
0010
1000
0001
0100
,
0020
0000
1000
1030
0200
0000
0001
0301
,
0100
0010
1000
0200
0000
0301
0100
0100
,
1000
0000
0001
0000
1000
0000
0001
0000
0200
0000
0310
1000
0200
0000
0310
0001
,
0100
0010
1000
0010
0100
0010
1000
0001
,
1000
0100
0010
0001
1000
0100
0010
0001
,
1000
0100
1000
0100
1000
0100
1000
0010
0100
0001
0100
0001
0100
0001
0010
0001
,
1000
1000
0001
0001
1001
1001
0000
1010
,
0000
0101
0000
0110
0110
0000
2002
3003
,
1100
1100
1100
1100
0101
0101
0000
1010
,
0000
0011
0000
0110
0220
0000
0330
0000
,
1001
0000
0000
0000
;

//--------------- dance-single - Fred-104 ----------------
#NOTEDATA:;
#STEPSTYPE:dance-single;
#DESCRIPTION:Fred-104;
#DIFFICULTY:Challenge;
#METER:18;
#CREDIT:Fred-104;
#NOTES:
0000
0000
0000
0000
,
0000
0000
0000
0000
,
0000
0000
0000
0000
,
0000
0000
0000
0000
,
0000
0000
0000
0000
,
0000
0000
0000
0000
,
0000
0000
0000
0000
,
0000
0000
0000
0000
,
0000
0000
0000
0000
,
0000
0000
0000
0000
,
1000
0100
0010
0100
0001
0000
0200
0000
0000
0000
0301
0000
0100
0000
0010
0000
,
0001
0100
0010
0100
1000
0000
0200
0000
0000
0000
1300
0000
0100
0000
0010
0000
,
1000
0010
0100
0010
0001
0000
0020
0000
0000
0000
0031
0000
0010
0000
0100
0000
,
0001
0010
0100
0010
1000
0000
0020
0000
0000
0000
1030
0000
0010
0000
0100
0000
,
0001
0010
0100
1000
0001
0000
0100
0000
0100
0000
0001
0000
1000
0000
0001
0000
,
0100
0000
0000
0010
0000
0000
1000
0000
0000
0100
0000
0000
0010
0000
0000
0000
0000
0000
0001
0000
0000
0000
0000
0000
1000
0000
0000
0000
0000
0000
0001
0000
0000
0100
0000
0000
0010
0000
0000
0000
0000
0000
1000
0000
0100
0000
0010
0000
,
0001
0000
0000
1000
0001
0100
0001
0000
0000
0101
0000
0000
0000
0000
0000
1100
0000
0000
0000
0000
0000
0110
0000
0000
,
0000
0000
0000
0000
,
1010
0010
0110
0100
0101
0000
0011
0010
,
0100
1000
0001
1000
1010
0010
0110
0000
,
0101
0001
0100
0101
0001
1000
1010
0010
,
1000
0010
0100
0000
0001
0010
0100
0000
1000
0010
0100
0001
1000
0000
0001
0000
,
0011
0010
1010
0010
0011
0000
1100
0100
,
0101
0000
0100
0000
1000
0000
0010
0000
0100
0000
0001
1000
0100
0000
0010
0000
,
0001
1000
0100
1000
0010
0000
0210
0000
0000
0000
0301
0000
1000
0000
0001
0000
,
1001
0000
0000
0000
0000
0000
1010
0000
0000
0101
0000
0000
0000
0000
0000
0110
0000
0000
1001
0000
0000
0001
1000
0010
,
1000
0000
0100
0000
0010
0001
1000
0000
0010
0000
0100
0000
0001
1000
0100
0000
,
1000
0000
0100
0010
0002
0000
0103
0010
2000
0000
3100
0010
0002
0000
1003
0000
,
1010
0000
0010
0000
0100
0001
1000
0000
0001
0000
0010
0000
0100
1000
0010
0000
,
0110
0000
0000
0100
0000
0000
0101
0000
0000
0000
0000
0000
0110
0000
0000
0100
0000
0000
1100
0000
0000
1000
0010
0100
,
0001
0010
0011
0001
1001
1000
0010
0110
,
0000
0000
0101
0000
0000
0000
1100
0000
0000
0000
0101
0000
0100
0000
0010
1000
,
1010
0000
0000
0000
1100
0000
0101
0000
0000
0000
1001
0000
0100
0010
1000
0100
,
0010
0000
0000
0000
0000
0000
0001
0000
0000
0000
0000
0000
1000
0000
0000
0000
0000
0000
0001
0000
0000
1000
0000
0000
0100
0000
0000
0000
0000
0000
0010
0000
0000
0000
0000
0000
0001
0000
1000
0000
0001
0000
1000
0000
0001
0000
1000
0000
,
0002
0000
0013
0001
2000
0000
3010
1000
0200
0000
0310
0001
2000
0000
3001
0000
,
2000
0000
3001
1000
0200
0000
1300
0010
0200
0000
0301
1000
0010
0000
0100
0000
,
0101
0000
0001
0000
1000
0000
0010
0000
0110
0000
0100
0000
0020
0000
0001
0100
,
0000
0000
1000
0100
0000
0000
0001
0100
0030
0000
1000
0100
0010
0001
1000
0001
,
0100
0000
0001
0100
0010
0000
1000
0000
0100
0000
0010
0001
1000
0000
0001
0000
,
1000
0100
0010
0001
1000
0000
0001
0100
0010
1000
0001
0000
2000
0000
0000
0000
,
3001
0000
0001
0010
0100
0000
0010
0100
1000
0000
0001
1000
0100
0000
0010
0001
,
1000
0100
0010
0001
0100
0010
1000
0100
0010
0001
0010
0100
1000
0010
0100
0001
,
1000
0000
0100
0000
0001
0100
2000
0000
3001
0010
2000
0000
3001
0100
2000
0000
,
3001
0100
0010
1000
0001
0000
1000
0100
0010
0001
0100
0000
0010
0100
0010
0000
,
1000
0000
0001
0100
0010
0000
0100
0000
0120
0000
0000
0000
1030
0000
0010
0000
,
0100
0000
0001
1000
0010
0000
0100
0000
0010
0000
0010
0000
1000
0000
0001
0000
,
1000
0001
0100
0001
1000
0000
1010
0000
0000
0000
0101
0000
0100
0000
0010
0000
,
1000
0100
0010
0001
1000
0000
1100
0000
0000
0000
0110
0000
0100
0000
0001
0000
,
1000
0010
0100
0001
0100
0000
0110
0000
0000
0000
1010
0000
1000
0000
0001
0000
,
0101
0000
0000
0000
0000
0000
1001
0000
0000
1100
0000
0000
0000
0000
0000
0110
0000
0000
0010
0000
0000
1000
0010
0100
,
0001
0000
0010
0000
0001
0010
0100
0000
1000
0010
0100
0000
0001
1000
0100
0000
,
1000
0100
0010
0001
1000
0000
1000
0010
0100
0001
1000
0000
0001
1000
0100
1000
,
0010
0000
0100
0001
0010
0000
0100
0000
2100
0000
0000
0000
3010
0000
0010
0000
,
0100
0010
1000
0010
0100
0000
0001
0000
1000
0000
0010
0000
0010
0000
0001
0000
,
1000
0000
0000
0100
0000
0000
0001
0000
0000
0100
0000
0000
2000
0000
0000
3001
0100
0010
2000
0000
0000
3001
1000
0100
,
0010
0001
0100
0101
0001
1000
0010
1000
,
0002
0000
0000
0000
0000
0000
1003
0000
0100
0000
0010
0000
0002
0000
0000
0000
0000
0000
0103
0000
0010
0000
1000
0000
0200
0000
0000
0000
0000
0000
0310
0000
0000
0000
0000
0000
0001
0000
0000
0010
0000
0000
0100
0000
0000
1000
0000
0000
,
0010
0000
0000
0000
0100
0000
0000
0000
0001
0000
0000
0000
0010
0000
0000
0000
0100
0000
0000
0000
1000
0000
0000
0000
0010
0000
0000
0000
0100
0000
0000
0000
0001
0000
0000
0000
0010
0000
0000
0000
0100
0000
0000
0000
1000
0000
0000
0000
0002
0000
0000
0000
0000
0000
0000
0000
0000
0000
0000
0000
0000
0000
0000
0003
,
1001
1010
1010
1001
0011
0011
0000
1100
,
0000
0101
0110
0110
2002
0000
3003
0000
,
0001
0100
0010
1000
0010
0000
0210
0000
0000
0000
0301
0000
1000
0000
0100
0000
,
1000
0010
0100
0001
1000
0000
1200
0000
0000
0000
0310
0000
0001
0000
1000
0000
,
0001
0100
0001
0010
0001
0000
2001
0000
0000
0000
3001
0000
0100
0000
0010
0000
,
1000
0010
0100
0010
1000
0000
1002
0000
0000
0000
0103
0000
0010
0000
1000
0000
,
0001
0010
0100
1000
0010
0000
0210
0000
0000
0000
0301
1000
0100
0000
1000
0000
,
0010
1000
0100
0010
0100
0000
0102
0000
0000
0000
0103
0010
1000
0000
0001
0000
,
1000
0000
0000
0001
1000
0010
0100
0000
0000
0110
0000
0000
0000
0000
0000
0110
0000
0000
0000
0000
0000
1001
0000
0000
,
0000
0000
0000
0000
,
0100
0000
0000
0100
0100
0000
MMMM
0000
,
0010
0100
0000
0010
0100
0000
MMMM
0000
,
0100
0000
0000
0100
0100
0000
MMMM
0000
,
0010
0100
0000
0010
0100
0000
MMMM
0000
,
0100
0000
0000
0100
0100
0000
MMMM
0000
,
0010
0100
0000
0010
0100
0000
MMMM
0000
,
0010
0010
0100
MMMM
,
0010
0010
0100
MMMM
,
1100
0100
0110
0010
0011
0001
1001
1000
,
1100
0110
0101
0110
,
1001
0000
1100
0110
0000
0101
1001
0101
,
1001
0000
0000
0011
0000
0000
1001
0000
0000
1010
0000
0000
0000
0000
0000
0001
0100
0010
1000
0000
0000
0001
0010
0100
,
1000
0000
0010
0100
0001
0000
1000
0000
0100
0000
0010
0001
1000
0000
0001
0000
,
1000
0100
0010
0001
1000
0000
0001
0100
0010
1000
0100
0000
0010
0001
1000
0000
,
0001
0000
0100
0001
0010
0000
0100
1000
0010
0000
0100
0001
0010
0000
0100
1000
,
0010
0100
0001
0100
0010
1000
0010
1000
0001
0010
0100
1000
0010
0100
0001
0010
,
0000
0000
0000
0000
,
1200
0000
0000
0000
,
0320
0000
0000
0032
0000
0000
2003
0000
,
3020
0000
0000
0230
0020
0000
0330
0000
,
0001
0000
0000
0000
0000
0000
0100
0000
0000
0000
0000
0000
1000
0000
0000
0000
0000
0000
0100
0000
0000
0000
0000
0000
0001
0000
0000
0100
0000
0000
0010
0000
0000
1000
0000
0000
0001
0000
0100
0000
0001
0000
0100
0000
0001
0000
0100
0000
,
0001
0000
0100
0010
1000
0000
1200
0000
0000
0000
0310
0000
0001
0000
1000
0000
,
0001
0100
0010
0100
0001
0000
1000
0100
0010
0000
0001
1000
0001
0000
0100
0000
,
0010
0000
1000
0010
0100
0000
0210
0000
0000
0000
0301
0000
1000
0000
0001
0000
,
0101
0000
1001
1001
0000
1100
0110
0011
,
0001
0000
0100
0000
1000
0100
0002
0000
1003
0010
0002
0000
1003
0100
0002
0000
,
1003
0001
0100
0010
1000
0000
0001
0100
0010
1000
0100
0000
0010
0001
1000
0000
,
0001
0000
0100
0001
0100
0000
0100
0000
0120
0000
0000
0000
1030
0000
0010
0000
,
0100
0100
0001
1002
0000
1003
0010
0100
,
0001
0000
0000
0010
0000
0000
1000
0000
0000
0010
0000
0000
0001
0000
0000
0100
0001
1000
0100
0000
0000
1000
0010
0100
,
0010
1000
0010
0110
0100
0001
1000
0001
,
1000
0100
0010
0000
0001
0010
0100
0000
1000
0010
0100
0000
0001
0100
0010
1000
,
0100
0000
0000
0000
0010
0000
0000
0000
0001
0000
0000
0000
0100
0000
0000
0000
0010
0000
0000
0000
1000
0000
0000
0000
0100
0000
0000
0000
0010
0000
0000
0000
0001
0000
0000
0000
0100
0000
0000
0000
0010
0000
0000
0000
1000
0000
0000
0000
0002
0000
0000
0000
0000
0000
0000
0000
0000
0000
0000
0000
0000
0000
0000
0003
,
1001
1010
1010
1001
0011
0011
0000
1100
,
0000
0000
0000
0101
0000
0000
0110
0000
0000
0110
0000
0000
1001
0000
0000
0001
0010
0100
1000
0000
0000
0001
0100
0010
,
1000
1100
1100
0110
0101
0101
0000
1010
,
0000
0011
0011
1010
0220
0000
0330
0000
,
1001
0000
0000
0000
;

//--------------- dance-double - Fred-104 ----------------
#NOTEDATA:;
#STEPSTYPE:dance-double;
#DESCRIPTION:Fred-104;
#DIFFICULTY:Easy;
#METER:9;
#CREDIT:Fred-104;
#NOTES:
00000000
00000000
00000000
00000000
,
00000000
00000000
00000000
00000000
,
00010000
00000000
00001000
00000000
,
00100000
00100000
00010000
10000000
,
01000000
00000000
00010000
00000000
,
00010000
00001000
00001000
00000100
,
00000001
00000000
00001000
00000000
,
00000001
00000001
00000100
00000010
,
00001000
00000001
00001000
00000000
,
00000001
00001000
00002002
00003003
,
00000001
00000000
00000000
00000100
00000000
00000000
00001000
00000000
,
00010000
00000000
00000000
00001000
00000000
00000000
00010000
00000000
,
01000000
00000000
00000000
00010000
00000000
00000000
01000000
00000000
,
10000000
00000000
00000000
01000000
00000000
00000000
10000000
00000000
,
00100000
10000000
00100000
00000000
01000000
00000000
01000000
00000000
,
00100000
00000000
00000000
00001000
00000000
00000000
00010000
00000000
,
00000010
00000000
00000000
00001010
00000000
00001010
00000000
00001001
,
00000000
00000000
00000000
00000000
,
00000001
00000000
00001000
00000000
00000010
00000000
00000000
00010000
,
00000000
00001000
00100000
00100000
,
00010000
00000000
00000000
10000000
00000000
00000000
00010000
00000000
,
01000000
00000000
00000000
00100000
00000000
00000000
00100000
00000000
,
00001000
00000000
00011000
00000000
00011000
00000000
00000000
00001000
,
00000000
00001000
00000000
00000100
00000000
00000010
00000000
00000000
,
00000001
00000000
00000000
00001000
00000000
00000000
00000010
00000000
,
00000100
00000000
00000000
00000010
00000000
00000010
00000000
00001000
,
00000001
00000100
00000100
00000010
,
00001000
00000100
00000010
00000001
,
00002000
00000000
00000000
00000000
00003010
00000000
00010000
00001000
,
00010000
00001000
00010000
00000000
00001000
00000000
00100000
00010000
,
00100000
00010000
00010000
01000000
,
00100000
00000000
00000000
00010000
00000000
00000000
00001000
00000000
,
00010000
00000000
00000000
00010000
00000000
00001000
00010000
00000000
,
00000100
00000000
00000000
00001000
00000000
00000010
00000100
00000000
,
00000002
00000203
00000320
00002030
,
00003200
00000000
00020300
00000000
00032000
00000000
00013000
00001000
,
00010000
00001000
00001000
00100000
,
00010000
10000000
00010000
01000000
,
01000000
00100000
10000000
01000000
,
00100000
00000000
00000000
00001000
00000000
00000000
00010000
00000000
,
00000010
00000010
00001000
00000001
,
00000100
00000100
00000220
00000330
,
00000010
00000010
00001001
00001001
,
00000002
00000000
00000000
00000203
00000000
00000000
00000310
00000000
,
00001000
00000000
00000000
00000001
00001000
00000000
00000000
00000000
,
00000100
00000000
00000000
00010000
00000000
00000000
00001000
00000000
,
00100000
00000000
00000000
00010000
00000000
00000000
10000000
00000000
,
00010000
00000000
00000000
00010000
00000000
00000000
10000000
00000000
,
01000000
00000000
00000000
01000000
00000000
00000000
00100000
00000000
,
00001000
00010000
00001000
00010000
00000000
00000000
00001000
00000000
,
00010000
00000010
00001000
00000100
,
00020000
00000000
00000000
00032000
00000000
00000000
00013000
00000000
,
00000100
00000000
00000000
00010000
00001000
00000000
00000000
00000000
,
00100000
00010000
01000000
01000000
,
00010000
00000000
00100000
00000000
00001000
00010000
00001000
00000000
,
00010000
00000100
00000100
00001000
,
00000010
00000100
00000001
00001000
,
00000010
00000000
00010000
00000000
00001000
00010000
00001000
00000000
,
00100000
00000000
00100000
00000000
00100000
00000000
00000000
00010000
,
00000000
10000000
00000000
00010000
20020000
00000000
30030000
00000000
,
00010000
00000000
00000000
01000000
00000000
00000000
00100000
00000000
,
10000000
00000000
00000000
01000000
00000000
00000000
00100000
00000000
,
00001000
00000000
00000000
00010000
00000000
00000000
00010000
00000000
,
00000100
00000000
00000000
00001000
00000000
00000000
00000100
00000000
,
00000010
00000000
00000000
00000001
00000000
00000000
00001000
00000000
,
00000001
00000000
00000000
00000100
00000000
00000000
00000010
00000000
,
00001000
00000000
00000000
00000001
00000000
00001000
00000000
00001001
,
00000000
00000000
00000000
00000000
,
00002000
00000000
00003010
00000000
,
00000002
00000000
00000103
00000000
,
00002000
00000000
00013000
00000000
,
02000000
00000000
13000000
00000000
,
00200000
00000000
00310000
00000000
,
00002000
00000000
00003100
00000000
,
00000002
00000000
00000013
00000000
,
00002000
00000000
00003010
00000000
,
00001001
00000100
00000100
00010000
,
00011000
00001000
00010000
01000000
,
00100000
00000000
00000000
10100000
00000000
00000000
01000000
00000000
,
00100000
00000000
00000000
00110000
00000000
00000000
00001000
00000000
,
00010000
00010000
00000100
00001000
,
00000010
00000000
00000000
00001000
00000000
00000000
00000001
00000000
,
00001000
00001000
00000001
00000100
,
00000010
00000100
00000010
00000000
00001000
00000001
00001000
00000000
,
00000000
00000000
00000000
00000000
,
00021000
00000000
00000000
00000000
,
00032000
00000000
00000000
00203000
00000000
00000000
00320000
00000000
,
10030000
00000000
00000000
00010000
10000000
00000000
00000000
00000000
,
00010000
00000000
01000000
00000000
00100000
01000000
00100000
00000000
,
10100000
00000000
00000000
00100000
00000000
00000000
01000000
00000000
,
00010000
00000000
00000000
00001000
00000000
00000000
00010000
00000000
,
00001000
00000000
00000000
00000100
00000000
00000000
00000010
00000000
,
00000001
00001000
00000001
00001000
00000000
00000000
00000010
00000000
,
00001000
00011000
00011000
00011000
,
00010000
00000000
00000000
01000000
00000000
00000000
00100000
00000000
,
10000000
00000000
00000000
00010000
01000000
00000000
00000000
00000000
,
00100000
10000000
01000000
00100000
,
00001000
00000000
00001000
00000000
00010000
00000100
00001000
00000000
,
00000010
00000010
00001000
00000001
,
00000100
00000100
00001000
00010000
,
01000000
00010000
01000000
00000000
00010000
10000000
00010000
00000000
,
10000000
00000000
00010000
00000000
01000000
00000000
00000000
00100000
,
00000000
00001000
00000000
00010000
00022000
00000000
00033000
00000000
,
00001000
00000000
00000010
00000000
00000100
00000000
00000000
00000010
,
00000000
00001000
00000000
00000001
00002002
00000000
00000000
00000000
,
00003003
00000000
00000000
00000000
;

//--------------- dance-double - Fred-104 ----------------
#NOTEDATA:;
#STEPSTYPE:dance-double;
#DESCRIPTION:Fred-104;
#DIFFICULTY:Medium;
#METER:14;
#CREDIT:Fred-104;
#NOTES:
00000000
00000000
00000000
00000000
,
00000000
00000000
00000000
00000000
,
00010000
10000000
00010000
10000000
00010000
00000000
01000000
00100000
,
00000000
00100000
10000000
00100000
00010000
00000000
00001000
00000000
,
00010000
00000100
00010000
00000100
00001000
00000000
00000100
00000010
,
00000000
00000010
00001000
00000010
00000100
00000010
00001000
00000000
,
00000001
00000100
00000001
00000100
00000010
00000000
00001000
00000010
,
00000000
00000010
00000001
00000010
00000100
00000010
00001000
00000000
,
00000001
00000100
00000001
00000100
00001000
00010000
00000000
00011000
,
00000000
01010000
00000000
01000000
02200000
00000000
03300000
00000000
,
00010000
10000000
01000000
00200000
00000000
01300000
10000000
00000000
,
00100000
01000000
00100000
00002000
00000000
00013000
00000100
00000000
,
00001000
00000100
00000010
00000200
00000000
00000301
00000100
00000000
,
00000010
00001000
00000010
00000200
00000000
00000301
00000100
00000000
,
00000001
00000010
00000100
00020000
00000000
00031000
00100000
00000000
,
00001000
00010000
00000100
00020000
00000000
00030010
00001000
00000000
,
00000100
00010000
00001000
00010000
00000000
00101000
00000000
00011000
,
00000000
00000000
00000000
00000000
,
00010000
00000000
10010000
00000000
01100000
00000000
00100000
10000000
,
00000000
00100000
10000000
00100000
01000000
00000000
00100000
00000000
,
01000000
00000000
00100000
01000000
00000000
01000000
00100000
00001000
,
00010000
00001000
00010000
00001000
00000100
00000010
00000100
00000000
,
00000010
00000000
00001100
00000000
00000101
00000000
00000100
00000010
,
00000000
00000010
00001000
00000001
00000010
00000100
00000000
00010000
,
00001000
00010000
00010000
00001000
00000000
00100000
00001000
00010000
,
00001000
00010000
00100000
10000000
00000000
00010000
10010000
00000000
,
00020000
00000000
01000000
00030000
20000000
00000000
00100000
30100000
,
00000000
00001000
00000000
00010000
00000000
00000010
00001000
00000001
,
00000020
00000000
00000100
00000000
00001000
00000000
00000031
00000010
,
00000100
00000010
00000100
00000000
00001000
00000100
00000100
00010000
,
00001000
00000000
00010000
00010000
00001000
00100000
00010000
10000000
,
00000000
11000000
00000000
01100000
00000000
00100000
00001000
00010000
,
00001000
00000000
00010000
00011000
00000000
00001000
00000010
00000100
,
00000001
00001000
00000001
00000100
00001000
00010000
00001000
00000000
,
00021000
00030010
00012000
00103000
,
00021000
00000000
00030100
00000000
00012000
00000000
01003000
01000000
,
00100000
00000000
10000000
00010000
10000000
00010000
01000000
00100000
,
00000000
00010000
00000000
00011000
00000000
00000100
00000010
00000100
,
00000010
00000000
00000001
00001000
00000001
00000100
00000010
00001000
,
00000002
00000000
00000013
00000200
00000000
00010300
00002000
00000000
,
00013000
00000010
00001000
00000100
00010000
00000010
00001000
00000100
,
00010000
00001000
01000000
00010000
00000000
00100000
00001000
00010000
,
00100000
01000000
00200000
00310000
00200000
01300000
00002000
00000000
,
00023000
00000000
00030100
00002000
00000000
00003100
00000020
00000000
,
00010030
00000000
00000000
00001000
00010000
00000000
00011000
00000000
,
00010000
00001000
00000100
00000010
00000000
00001000
00010000
00100000
,
01000000
00010000
00001000
00000200
00000000
00001000
00000000
00000310
,
00000100
00001000
00010000
01000000
00000000
00001000
00010000
00100000
,
01000000
00000000
00010000
01000000
00000000
00100000
01000000
00010000
,
00100000
00000000
00001000
00011000
00000000
00010000
00000010
00001000
,
00000100
00010000
00000010
00010000
00001000
00100000
01000000
00000000
,
00020000
00000000
01030000
00200000
00000000
00310000
00002000
00000000
,
00013000
00000000
00000000
00001000
00010000
00000000
00011000
00000000
,
00001000
00000100
00000010
00000100
00000000
00000010
00001000
00000100
,
00010000
00001000
00100000
00010000
20000000
00000000
30020000
00000000
,
10030000
01000000
10000000
00100000
00000000
00100000
01000000
00010000
,
00100000
00001000
00010000
00001000
00000000
00001000
00000100
00000010
,
00000001
00001000
00000001
00000100
00000010
00001000
00000100
00010000
,
00001000
00010000
00001000
00010000
00001000
00011000
00000000
00101000
,
00000000
00010010
00000000
00011000
00022000
00000000
00033000
00000000
,
00001000
00010000
01000000
20000000
00000000
31000000
00010000
00000000
,
00010000
00001000
00000100
00000002
00000000
00000103
00001000
00000000
,
00001000
00010000
00100000
20000000
00000000
30100000
00010000
00000000
,
00010000
00001000
00000010
00000002
00000000
00000013
00001000
00000000
,
00010000
00001000
00100000
00020000
00000000
00000000
01030000
00000000
,
00100000
10000000
01000000
00200000
00000000
00000000
00301000
00000000
,
00010000
00001000
00000100
00000001
00000000
00001100
00000000
00000110
,
00000000
00000000
00000000
00000000
,
00000100
00000000
00000000
00000100
00000001
00000000
00001000
00000000
,
00000001
00000100
00000000
00000001
00000100
00000000
00000010
00000000
,
00000100
00000000
00000000
00000100
00001000
00000000
00010000
00000000
,
00001000
00100000
00000000
00001000
00100000
00000000
00010000
00000000
,
00100000
00000000
00000000
01000000
01000000
00000000
10000000
00000000
,
01000000
00010000
00000000
00001000
00001000
00000000
00010000
00000000
,
00001000
00000100
00000010
00000001
,
00000010
00000100
00001000
00010000
,
00100000
10100000
00110000
00011000
,
00001100
00000101
00000110
00001001
,
00000010
00000000
00001000
00001000
00000000
00000010
00000100
00000010
,
00001000
00000001
00000010
00000100
00000000
00001000
00000100
00010000
,
00001000
00000000
00100000
00001000
00010000
00001000
00100000
00010000
,
10000000
00010000
00100000
01000000
00000000
00100000
00010000
00010000
,
10000000
01000000
10000000
01000000
00100000
00010000
00100000
00001000
,
00010000
00000000
00001000
00000000
00010000
00000000
00001000
00000000
00010000
00001000
00010000
00001000
00010000
00001000
00010000
00001000
,
00000000
00000000
00000000
00000000
,
00001002
00000000
00000000
00000000
,
00000203
00000000
00000000
00002300
00000000
00000000
00023000
00000000
,
02030000
00000000
00000000
03100000
20000000
00000000
30000000
00000000
,
00010000
00000000
01000000
00000000
10000000
00000000
01000000
00000000
00010000
10000000
00010000
10000000
00010000
00000000
00000000
00000000
,
01000000
00100000
00010000
00001000
00000000
00001000
00000000
00010000
,
00000100
00001000
00000100
00000010
00000000
00000010
00001000
00010000
,
00100000
01000000
00010000
00001000
00000000
00010000
00001000
00000100
,
00000010
00000000
00000100
00000110
00000000
00000010
00001000
00000100
,
00010000
00001000
00020000
00130000
00020000
00031000
00000200
00000000
,
00000320
00000000
00001030
00000200
00000000
00000310
00000200
00000000
,
00020300
00000000
00000000
00031000
00010000
00000000
00011000
00000000
,
00001000
00100000
01000000
00100000
00000000
00010000
01000000
00100000
,
10000000
01000000
00100000
00001000
00010000
00010000
00001000
00000000
,
00010000
00000100
00001000
00000001
00000000
00000001
00000100
00000010
,
00001000
00000001
00000010
00000100
00000000
00010000
00001000
00100000
,
00010000
00000000
10000000
00000000
00100000
00000000
01000000
00000000
00010000
10000000
00010000
10000000
00020000
00000000
00000000
00000000
,
10030000
01000000
10000000
01000000
00100000
00110000
00000000
00101000
,
00000000
00011000
00000000
00001010
00002020
00000000
00003030
00000000
,
00000001
00000100
00000010
00001000
00000100
00001100
00000000
00011000
,
00000000
01010000
00000000
01100000
02200000
00000000
03300000
00000000
,
10010000
00000000
00000000
00000000
;

//--------------- dance-double - Fred-104 ----------------
#NOTEDATA:;
#STEPSTYPE:dance-double;
#DESCRIPTION:Fred-104;
#DIFFICULTY:Hard;
#METER:16;
#CREDIT:Fred-104;
#NOTES:
00000000
00000000
00000000
00000000
,
00000000
00000000
00000000
00000000
,
00000100
00000010
00001000
00000010
00001000
00000000
00000001
00000100
,
00000000
00000001
00000100
00001000
00010000
00000000
00011000
00000000
,
00001000
00010000
01000000
10000000
00010000
00000000
01000000
01000000
,
00000000
00100000
10000000
00100000
01000000
00010000
10000000
10000000
,
00100000
01000000
00100000
10000000
01000000
00000000
00100000
00100000
,
00000000
00001000
00010000
00001000
00100000
00001000
00001000
00010000
,
00000100
00001000
00000100
00000010
00000001
00001000
00000000
00001100
,
00000000
00000101
00000000
00001100
00000110
00000000
00001001
00000000
,
00000001
00000100
00001000
00010000
00000000
00001000
00000100
00000001
,
00001000
00000100
00000010
00000100
00000000
00000100
00000001
00000100
,
00000001
00001000
00000100
00000010
00000000
00001000
00000100
00010000
,
00001000
00000000
00010000
00000000
00100000
00000000
01000000
00000000
00100000
00000000
01000000
00100000
01000000
00000000
00010000
00000000
,
00100000
00100000
00001000
00010000
00000000
00001000
00000100
00000010
,
00001000
00000000
00000100
00000000
00010000
00000000
00001000
00000000
00000000
00000000
01000000
00000000
00010000
00000000
00100000
00001000
,
00100000
00000000
00001000
00010000
00001000
00000000
00101000
00000000
00000000
00000000
00011000
00000000
00000000
00000000
00010010
00000000
,
00000000
00000000
00000000
00000000
,
00021000
00000000
01000000
00000000
00030100
00000000
00010000
00010000
,
00000000
00001000
00100000
00010000
10000000
00100000
01000000
00000000
,
01100000
00000000
10000000
10000000
00000000
01000000
00010000
00001000
,
00010000
00001000
00000100
00000001
00000000
00000100
00000010
00001000
,
00001010
00000000
00000000
00000000
00022000
00033000
00000000
00000000
00220000
00330000
00000000
00000000
00010000
00000000
10000000
00000000
,
00000000
10000000
01000000
00010000
01000000
00100000
00000000
00100000
,
10000000
00100000
00001000
00010000
00000000
00000010
00010000
00000100
,
00001000
00000000
00000010
00000000
00000100
00000000
00000110
00000000
00000000
00000000
00000010
00000000
00000100
00000000
00000001
00001000
,
00000001
00000000
00000200
00000010
00000010
00000310
00001000
00001100
,
00000000
00010100
00000000
00011000
00000000
00001000
00010000
01000000
,
00020000
00000000
01000000
00000000
00030100
00000000
00010000
00010000
,
00001000
00000000
00000100
00000000
00000110
00000000
00000000
00000000
00000001
00000000
00001000
00000000
00000010
00000000
00000100
00000001
,
00000100
00000000
00000010
00000010
00001000
00000001
00000100
00002000
,
00000000
00010000
00000000
00000010
00000000
00013000
00001000
00100000
,
01000000
00000000
00000000
00000000
01100000
00000000
01100000
00000000
00000000
00000000
10000000
00000000
00100000
10000000
00100000
10000000
,
00010000
00000000
10000000
00000000
01000000
00000000
00100000
01000000
00100000
00000000
00001000
00000000
00010000
00000000
00000000
00000000
,
00012000
00000000
00000000
00003000
00102000
00000000
00000000
00003000
00021000
00000000
00000000
00030000
00020010
00000000
00000000
00030000
,
00012000
00000000
00000000
00003000
01002000
00000000
00000000
00003000
00021000
00000000
00000000
00030000
00020100
00000000
00000100
00030000
,
00010000
00000000
00010000
00001000
00000100
00000001
00001000
00000020
,
00000130
00000000
00000020
00000000
00000031
00000000
00000020
00000000
00001030
00000000
00000100
00000010
00000100
00000000
00000001
00001000
,
00000001
00001000
00000100
00000010
00001000
00000100
00010000
00010000
,
00002000
00000000
00100000
00100000
00000000
00000010
00003010
00000000
,
00010000
00010000
00001000
00001000
00100000
00100000
00010000
00010000
,
10000000
01000000
10000000
00000000
00010000
01000000
00010000
00000000
01000000
00100000
01000000
00100000
01000000
00000000
00100000
00000000
,
10000000
01000000
01100000
00100000
00110000
00010000
00011000
00000000
,
00020000
00000000
00000000
00000000
00031000
00000000
00000200
00000000
00000000
00000000
00000301
00001000
00000001
00000000
00000000
00000000
,
00000110
00000000
00001000
00000100
00000110
00000000
00000001
00000000
,
00000100
00000010
00000001
00001000
00000000
00001000
00000010
00000100
,
00000010
00001000
00000100
00002100
00000000
00023000
00000000
00000000
,
00031000
00000000
00100000
00101000
00000000
00011000
00000000
00001000
,
00100000
00000000
00000000
00000000
01000000
00000000
01000000
00000000
00000000
00000000
00010000
10000000
00010000
00000000
01000000
00000000
,
01100000
00000000
10000000
12000000
00000000
03100000
00001000
00010000
,
00001000
00010000
00001000
00000010
00001000
00010000
00001000
00100000
,
00001000
00010000
00100000
00001000
00010000
00000010
00001000
00010000
,
00100000
00000000
00001000
00010000
00001000
00000000
00020000
00000000
,
00031000
00000100
00000010
00000011
00000000
00000001
00001000
00000010
,
00000100
00000000
00000001
00000000
00000100
00000000
00000001
00000000
00000100
00000000
00000010
00001000
00000010
00000000
00010000
00001000
,
00010000
00001000
00100000
00010000
00100000
00010000
10000000
00100000
,
01000000
00000000
00010000
10000000
00010000
00000000
01000000
00100000
01000000
00000000
00001000
00000000
00010000
00001000
00010000
00000000
,
00000100
00001000
00000100
00000000
00010000
00001000
00010000
00000000
00000010
00001000
00000010
00001000
00000002
00000000
00000000
00000000
,
00000103
00000100
00000010
00000010
00000110
00000110
00000000
00001010
,
00000000
00000101
00000000
00001100
00022000
00000000
00033000
00000000
,
00010000
00000000
00000100
00001000
00000100
00000000
00000020
00000000
00000000
00000000
00000130
00000000
00000010
00000000
00000100
00000000
,
00001000
00000000
00010000
00001000
00010000
00000000
00200000
00000000
00000000
00000000
01300000
00000000
00010000
00000000
00100000
00000000
,
00001000
00000000
01000000
00010000
01000000
00000000
00200000
00000000
00000000
00000000
00310000
00000000
00001000
00000000
00000010
00000000
,
00000100
00000000
00000010
00000100
00000010
00000000
00001000
00000000
00000100
00000000
00010000
00001000
00010000
00000000
00001000
00000000
,
01000000
00100000
01000000
00100000
01000000
00000000
01100000
00000000
00000000
00000000
01000000
00000000
00100000
00000000
00010000
00000000
,
00001000
00010000
00001000
00010000
00001000
00000000
00011000
00000000
00000000
00000000
00010000
00000100
00010000
00000000
00000100
00001000
,
00000100
00000000
00010000
00001000
00010000
00000000
00011000
00000000
00000000
00000000
00110000
00000000
00000000
00000000
10010000
00000000
,
00000000
00000000
00000000
00000000
,
20000000
00000000
00000000
01000000
31000000
00000000
00100000
00000000
,
01000000
00010000
00000000
00001000
00010000
00000000
00011000
00000000
,
00002000
00000000
00000000
00000100
00003100
00000000
00000010
00000000
,
00000100
00000001
00000000
00001000
00000010
00000000
00000110
00000000
,
00002000
00000000
00000000
00010000
00013000
00000000
00100000
00000000
,
10000000
01000000
00000000
00100000
00010000
00000000
10010000
00000000
,
10000000
01000000
00100000
00010000
,
00001000
00000100
00000010
00000001
,
00000100
00000001
00001000
00000010
00000100
00000010
00001000
00000100
,
00000010
00000001
00000100
00000010
00001000
00000100
00010000
00000000
,
00011000
00000000
00101000
00101000
00000000
00001000
00010000
00000100
,
00010000
00000000
00011000
00000000
00011000
00000000
00010010
00000000
00000000
00000000
00010000
00000000
00001000
00000000
00100000
00010000
,
00100000
00010000
10000000
00100000
01000000
00100000
10000000
00100000
,
10000000
01000000
00100000
00001000
00010000
00010000
00000100
00001000
,
00000100
00000010
00000001
00001000
00000010
00000100
00000001
00001000
,
00000010
00001000
00000010
00000000
00010000
00001000
00010000
00000000
00001000
00100000
00001000
00100000
00010000
01000000
00010000
01000000
,
00000000
00000000
00000000
00000000
,
20010000
00000000
00000000
00000000
,
32000000
00000000
00000000
03020000
00000000
00000000
00032000
00000000
,
00003200
00000000
00000000
00000301
00001001
00000000
00000000
00000000
,
00000010
00000000
00000100
00000000
00000010
00000000
00001000
00000000
00000100
00010000
00000100
00010000
00002000
00000000
00000000
00000000
,
00103000
00010000
10000000
11000000
00000000
01100000
01000000
10000000
,
10100000
00000000
01000000
01100000
00000000
00100000
00001000
00010000
,
00011000
00001000
00000100
00000110
00000000
00000010
00000001
00001000
,
00001001
00000000
00000101
00000101
00000000
00000100
00000010
00001000
,
00000100
00010000
00011000
00001000
00101000
00100000
00110000
00000000
,
00010000
01000000
10000000
00010000
00100000
10000000
00010000
01000000
,
00200000
00000000
10000000
01000000
01300000
00000000
00010000
00000000
,
01000000
00010000
00100000
00001000
00010000
00000100
00001000
00000100
,
00000010
00000000
00001000
00000000
00000100
00000000
00010000
00000000
00001000
00000000
00010000
00001000
00010000
00000000
00001000
00010000
,
00001000
00010000
00001000
00010000
00100000
01000000
00010000
00100000
,
01000000
00010000
00100000
00001000
00010000
00001000
00000100
00000010
,
00000001
00000100
00000001
00000100
00000010
00001000
00000010
00001000
00000100
00010000
00000100
00010000
00001000
00010000
00001000
00010000
,
00001000
00001000
00010000
00010000
00011000
00011000
00000000
01001000
,
00000000
00011000
00000000
00010100
00010100
00000000
00022000
00033000
,
00110000
00110000
00110000
00110000
10100000
10100000
00000000
01010000
,
00000000
00011000
00000000
00001100
00000220
00000000
00000330
00000000
,
00001001
00000000
00000000
00000000
;

//--------------- dance-double - Fred-104 ----------------
#NOTEDATA:;
#STEPSTYPE:dance-double;
#DESCRIPTION:Fred-104;
#DIFFICULTY:Challenge;
#METER:18;
#CREDIT:Fred-104;
#NOTES:
00000000
00000000
00000000
00000000
,
00000000
00000000
00000000
00000000
,
00000000
00000000
00000000
00000000
,
00000000
00000000
00000000
00000000
,
00000000
00000000
00000000
00000000
,
00000000
00000000
00000000
00000000
,
00000000
00000000
00000000
00000000
,
00000000
00000000
00000000
00000000
,
00000000
00000000
00000000
00000000
,
00000000
00000000
00000000
00000000
,
00000001
00000100
00000001
00000100
00000010
00000000
00002000
00000000
00000000
00000000
00003100
00000000
00010000
00000000
00001000
00000000
,
00010000
00000010
00010000
00000010
00010000
00000000
00002000
00000000
00000000
00000000
00013000
00000000
00100000
00000000
01000000
00000000
,
00100000
00010000
00100000
00010000
00100000
00000000
00002000
00000000
00000000
00000000
00013000
00000000
00100000
00000000
01000000
00000000
,
10000000
00010000
10000000
00010000
10000000
00000000
02000000
00000000
00000000
00000000
03100000
00000000
00001000
00000000
00010000
00000000
,
00001000
00010000
00000100
00010000
00001000
00000000
00000100
00000000
00000010
00000000
00000001
00000000
00001000
00000000
00000010
00000000
,
00000100
00000001
00001000
00000100
00000010
00000000
00000100
00000000
00001000
00000000
00000001
00000000
00000100
00000000
00000010
00000100
,
00000010
00000000
00000000
00001000
00000001
00000100
00000001
00000000
00000000
00000101
00000000
00000000
00000000
00000000
00000000
00001100
00000000
00000000
00000000
00000000
00000000
00011000
00000000
00000000
,
00000000
00000000
00000000
00000000
,
01010000
00010000
10010000
10000000
10100000
00000000
01000000
00100000
,
00010000
00001000
00000100
00000001
00001001
00000000
00000110
00000000
,
00001001
00001000
00000100
00000110
00000010
00000001
00001000
00000010
,
00010000
00000010
00001000
00000000
00000010
00010000
00001000
00000000
00100000
00001000
00010000
00001000
00100000
00000000
00001000
00000000
,
00011000
00010000
00020010
00030000
00102000
00003000
00011000
00010000
,
00001000
00000100
00010000
00001000
00010000
01000000
10000000
00010000
,
01010000
01000000
00100000
10100000
00000000
01000000
01100000
00100000
,
00110000
00000000
00000000
00000000
00000000
00000000
00011000
00000000
00000000
01001000
00000000
00000000
00000000
00000000
00000000
00001000
00000000
00000000
00010000
00000000
00000000
00000100
00001000
00000100
,
00001000
00000100
00000010
00000001
00001000
00000010
00000100
00000001
,
00001000
00000100
00000001
00000000
00000001
00000100
00001000
00000000
00010000
00001000
00010000
00000000
00100000
10000000
00010000
00000000
,
10000000
01000000
00110000
00010000
01000000
00001000
00011000
00010000
,
00010100
00000000
00000000
00010000
00000000
00000000
00011000
00000000
00000000
00000000
00000000
00000000
00001010
00000000
00000000
00000010
00000000
00000000
00000100
00000000
00000000
00000001
00001000
00000001
,
00000100
00000010
00000110
00000010
00000011
00000001
00001000
00001010
,
00000000
00000000
00011000
00000000
00000000
00000000
10010000
00000000
00010000
00000000
01000000
00000000
00100000
00000000
10000000
01000000
,
00100000
00000000
00000000
00000000
00010000
00000000
01001000
00000000
00000000
00000000
00011000
00000000
00010000
00000100
00001000
00000100
,
00000010
00000000
00000000
00000000
00000000
00000000
00000001
00000000
00000000
00000000
00000000
00000000
00001000
00000000
00000000
00000000
00000000
00000000
00000001
00000000
00000000
00000100
00000000
00000000
00000010
00000000
00000000
00000000
00000000
00000000
00001000
00000000
00000000
00000000
00000000
00000000
00000001
00000000
00000010
00000000
00000100
00000000
00001000
00000000
00000000
00000000
00000000
00000000
,
00000010
00000000
00010000
00000100
00001000
00000000
00000010
00000100
00000001
00000000
00001000
00000100
00000010
00000000
00000001
00000000
,
00001000
00000001
00000100
00000000
00000001
00001000
00000100
00000000
00010000
00000000
00001000
00000000
00010000
00000000
01000000
00000000
,
10000000
00000000
00010000
01000000
00100000
00000000
10000000
00000000
01000000
00000000
00100000
00000000
02000000
00000000
00100000
10000000
,
00000000
00000000
00100000
00010000
00000000
00000000
00100000
10000000
03000000
00000000
00100000
00010000
01000000
00100000
10000000
01000000
,
00100000
00000000
00101000
00001000
00000010
00000001
00001000
00000001
,
00001000
00000100
00000010
00000001
00001000
00000000
00000001
00000100
00000010
00001000
00000010
00000000
00000200
00000000
00000000
00000000
,
00000301
00000100
00001000
00010000
00001000
00000001
00001000
00000010
,
00000100
00000010
00000100
00000001
00000100
00000010
00001000
00000001
00000010
00000100
00010000
00001000
00010000
00001000
00100000
00001000
,
00100000
00000000
00010000
00000000
00100000
01000000
20000000
00000000
30100000
01000000
00020000
00000000
10030000
01000000
00200000
00000000
,
00301000
00010000
00001000
00000000
00000100
00000000
00000010
00000100
00000010
00000000
00001000
00000000
00010000
00001000
00010000
00000000
,
00100000
00000000
01000000
00010000
00100000
00000000
00010000
00000000
00012000
00000000
00000000
00000000
00013000
00000000
00000100
00000000
,
00000010
00001000
00000100
00000010
00001000
00010000
00100000
01000000
,
11000000
01000000
00100000
00110000
00000000
00101000
00001000
00010000
,
00001000
00000000
00010000
00000100
00001000
00000000
00000100
00000010
00000100
00000000
00000010
00000000
00000010
00000000
00000001
00000000
,
00001000
00000000
00000010
00000100
00000001
00000000
00001000
00000000
00000001
00000010
00000100
00000000
00010000
00000000
00001000
00000000
,
00011000
00000000
00010010
00011000
00000000
00101000
00011000
01001000
,
00001000
00010000
00001000
00100000
00010000
01000000
00010000
01000000
00100000
10000000
01000000
00100000
00010000
10000000
00100000
01000000
,
00010000
10000000
01000000
00100000
00010000
00000000
00100000
00001000
00010000
00000100
00001000
00000000
00000010
00000000
00000100
00000000
,
00000001
00000100
00000001
00000100
00000120
00000000
00001030
00000100
,
00000010
00000001
00000100
00001000
00010000
00100000
10000000
00010000
,
01000000
00000000
00000000
01000000
00000000
00000000
00100000
00000000
00000000
00100000
00000000
00000000
20000000
00000000
00000000
30010000
01000000
00100000
20000000
00000000
00000000
31000000
00100000
00010000
,
01000000
00100000
10000000
00100000
00010000
00001000
00000010
00000001
,
00001000
00000000
00000000
00000000
00000000
00000000
00000001
00000000
00000010
00000000
00000100
00000000
00001000
00000000
00000000
00000000
00000000
00000000
00000010
00000000
00000100
00000000
00000010
00000000
00001000
00000000
00000000
00000000
00000000
00000000
00000010
00000000
00000000
00000000
00000000
00000000
00000100
00000000
00000000
00000001
00000000
00000000
00001000
00000000
00000000
00000100
00000000
00000000
,
00000010
00000000
00000000
00000000
00000001
00000000
00000000
00000000
00000010
00000000
00000000
00000000
00000100
00000000
00000000
00000000
00010000
00000000
00000000
00000000
00001000
00000000
00000000
00000000
00100000
00000000
00000000
00000000
00010000
00000000
00000000
00000000
00100000
00000000
00000000
00000000
01000000
00000000
00000000
00000000
10000000
00000000
00000000
00000000
00010000
00000000
00000000
00000000
02000000
00000000
00000000
00000000
00000000
00000000
00000000
00000000
00000000
00000000
00000000
00000000
00000000
00000000
00000000
03000000
,
01100000
01100000
10100000
10100000
00110000
00110000
00000000
00011000
,
00000000
00001010
00001001
00000101
00002002
00000000
00003003
00000000
,
00001000
00000100
00000010
00000001
00001000
00000000
00000020
00000000
00000000
00000000
00010030
00000000
00001000
00000000
00010000
00000000
,
00100000
01000000
10000000
01000000
00100000
00000000
00002000
00000000
00000000
00000000
01003000
00000000
00001000
00000000
00010000
00000000
,
00000100
00001000
00000100
00000010
00000100
00000000
00000002
00000000
00000000
00000000
00001003
00000000
00000010
00000000
00000100
00000000
,
00000001
00000010
00000100
00000010
00000001
00000000
00002000
00000000
00000000
00000000
00003010
00000000
00010000
00000000
00001000
00000000
,
00100000
00010000
10000000
00100000
01000000
00000000
00020000
00000000
00000000
00000000
01030000
00100000
10000000
00000000
01000000
00000000
,
00100000
00010000
00100000
00001000
00010000
00000000
00000200
00000000
00000000
00000000
00000310
00000100
00001000
00000000
00000001
00000000
,
00000100
00000000
00000000
00000001
00000100
00000001
00000100
00000000
00000000
00000110
00000000
00000000
00000000
00000000
00000000
00011000
00000000
00000000
00000000
00000000
00000000
01100000
00000000
00000000
,
00000000
00000000
00000000
00000000
,
01000000
00000000
00000000
01000000
01000000
00000000
MMMMMMMM
00000000
,
00010000
00001000
00000000
00001000
00010000
00000000
MMMMMMMM
00000000
,
00000100
00000000
00000000
00000100
00000100
00000000
MMMMMMMM
00000000
,
00001000
00010000
00000000
00010000
00001000
00000000
MMMMMMMM
00000000
,
01000000
00000000
00000000
01000000
01000000
00000000
MMMMMMMM
00000000
,
00010000
00001000
00000000
00001000
00010000
00000000
MMMMMMMM
00000000
,
00000100
00000100
00001000
MMMMMMMM
,
01000000
01000000
00010000
MMMMMMMM
,
00011000
00001000
00001010
00000000
00000011
00000001
00000101
00000000
,
00001100
00001000
00011000
00000000
01010000
01000000
11000000
00000000
,
10100000
00000000
10010000
10010000
00000000
00100000
00001000
00010000
,
00011000
00000000
00011000
00000000
00010010
00000000
00010010
00000000
00000000
00000000
00001000
00000010
00000100
00000000
00000001
00000100
,
00000010
00001000
00000001
00000010
00000100
00010000
00001000
00000100
,
00000001
00000010
00000100
00000000
00001000
00000000
00000010
00010000
00001000
00000000
00010000
00000000
00000100
00010000
00001000
00000000
,
00100000
00000000
00010000
01000000
00100000
00000000
10000000
01000000
00100000
00000000
00010000
01000000
00100000
00000000
10000000
00000000
,
01000000
00100000
00010000
10000000
00100000
01000000
00100000
00010000
00001000
00000100
00000010
00001000
00000001
00000100
00000010
00000100
,
00000000
00000000
00000000
00000000
,
00001002
00000000
00000000
00000000
,
00002003
00000000
00000000
00023000
00000000
00000000
20030000
00000000
,
30200000
00000000
00000000
02300000
00200000
00000000
03300000
00000000
,
00010000
00000000
00000000
00000000
00000000
00000000
10000000
00000000
00000000
00000000
00000000
00000000
01000000
00000000
00000000
00000000
00000000
00000000
00100000
00000000
00000000
00000000
00000000
00000000
00001000
00000000
00000000
00010000
00000000
00000000
00001000
00000000
00000000
00010000
00000000
00000000
00001000
00000000
00010000
00000000
00001000
00000000
00020000
00000000
00000000
00000000
00000000
00000000
,
00030010
00001000
00000100
00010000
00001000
00000000
00011000
00000000
00000000
00000000
00110000
00000000
00100000
00000000
01000000
00000000
,
10000000
00100000
01000000
00000000
00100000
00000000
00010000
00100000
01000000
00000000
00001000
00010000
00001000
00000000
00010000
00000000
,
00000010
00001000
00000010
00001000
00000100
00000000
00000010
00000001
00001000
00000001
00000100
00000000
00000001
00001000
00000100
00000000
,
00000110
00000000
00000011
00000011
00000000
00001010
00010010
00011000
,
00001000
00000000
00010000
00000000
00001000
00000010
00000002
00000000
00001003
00000100
00000002
00000000
00000103
00000010
00002000
00000000
,
00003001
00000010
00000100
00000010
00000001
00000000
00001000
00000100
00000010
00000100
00001000
00000000
00000001
00000100
00000010
00000000
,
00001000
00000000
00000100
00001000
00010000
00000000
00001000
00000000
00011000
00000000
00000000
00000000
00110000
00000000
00010000
00000000
,
10000000
00100000
00010000
10000000
01000000
00100000
00001000
00010000
,
00011000
00000000
00000000
00001000
00000000
00000000
00000100
00000000
00000000
00000010
00000000
00000000
00000001
00000000
00000000
00001000
00000010
00000100
00000001
00000000
00000000
00001000
00000100
00000010
,
00000001
00000010
00001000
00000001
00000100
00001000
00010000
01000000
,
10000000
00000000
00010000
01000000
00100000
00000000
10000000
01000000
00100000
00000000
00010000
00100000
01000000
00000000
10000000
00100000
,
01000000
00000000
00000000
00000000
00010000
00000000
00000000
00000000
00100000
00000000
00000000
00000000
00001000
00000000
00000000
00000000
00010000
00000000
00000000
00000000
00001000
00000000
00000000
00000000
00000100
00000000
00000000
00000000
00000010
00000000
00000000
00000000
00000001
00000000
00000000
00000000
00001000
00000000
00000000
00000000
00000001
00000000
00000000
00000000
00000100
00000000
00000000
00000000
00000020
00000000
00000000
00000000
00000000
00000000
00000000
00000000
00000000
00000000
00000000
00000000
00000000
00000000
00000000
00000030
,
00000110
00000110
00000011
00000011
00001010
00001010
00000000
00011000
,
00000000
00000000
00000000
00110000
00000000
00000000
10010000
00000000
00000000
11000000
00000000
00000000
10010000
00000000
00000000
00010000
01000000
00100000
10000000
00000000
00000000
00010000
10000000
00010000
,
10000000
11000000
11000000
01100000
01100000
01010000
00000000
00011000
,
00000000
00001100
00000110
00000101
00002002
00000000
00003003
00000000
,
00011000
00000000
00000000
00000000
;
