#TITLE:空葬;
#ARTIST:あさき;
#TITLETRANSLIT:Kuusou;
#ARTISTTRANSLIT:Asaki;
#BANNER:Kuusou.png;
#BACKGROUND:Kuusou-bg.png;
#CDTITLE:./CDTitles/RB colette -Autumn-.png;
#MUSIC:Kuusou.ogg;
#SAMPLESTART:70.048;
#SAMPLELENGTH:15;
#BPMS:0=170;
#BGSTAGE:1;

//--------------- dance-single - Fred-104 ----------------
#NOTES:
     dance-single:
     Fred-104:
     Beginner:
     3:
     :
0000
0000
0000
0000
,
0000
0000
0000
0000
,
0000
0000
0000
0000
,
0000
0000
0000
0000
,
0000
0000
0000
0000
,
0000
0000
0000
0000
,
0000
0000
0000
0000
,
0000
0000
0000
0000
,
0000
0000
0000
0000
,
0000
0000
0000
0000
,
1000
0000
0000
0001
,
0000
0000
1000
0000
,
0100
0000
0000
1000
,
0000
0000
0010
0000
,
1000
0000
0000
0001
,
0000
0000
0010
0000
,
0001
0000
0000
1000
,
0000
0000
0001
0000
,
1000
0000
0000
0000
,
0010
0000
0000
0000
,
0100
0000
0000
0000
,
0001
0000
0000
0000
,
1000
0000
0000
0000
,
0001
0000
0000
0000
,
1000
0000
0000
0000
,
0001
0000
0000
0000
,
2000
0000
0000
0000
,
3000
0000
0000
0000
,
0002
0000
0000
0000
,
0003
0000
0000
0000
,
2000
0000
0000
0000
,
3000
0000
0000
0000
,
0002
0000
0000
0000
,
0003
0000
0000
0000
,
1000
0000
0000
0010
,
0000
0000
0100
0000
,
0001
0000
0000
1000
,
0000
0000
0010
0000
,
1000
0000
0000
0001
,
0000
0000
1000
0000
,
0002
0000
0003
0000
,
2000
0000
3000
0000
,
0001
0000
1000
0000
,
0002
0000
0003
0000
,
0100
0000
0010
0000
,
0200
0000
0300
0000
,
0001
0000
1000
0000
,
0001
0000
0100
0000
,
0001
0000
0000
1000
,
0000
0000
0001
0000
,
1000
0000
0010
0000
,
1000
0000
0000
0000
,
0001
0000
0010
0000
,
0001
0000
0000
0000
,
0100
0000
0010
0000
,
0100
0000
0100
0000
,
0001
0000
1000
0000
,
0001
0000
1000
0000
,
1000
0000
0010
0000
,
1000
0000
0001
0001
,
0001
0000
1000
0000
,
0001
0000
0100
0100
,
0100
0000
0001
0000
,
0010
0010
0001
0000
,
1000
0000
0001
1000
,
1001
0000
0000
0000
,
1000
0000
0010
0000
,
1000
0000
0000
0000
,
0001
0000
1000
0000
,
0010
0000
0000
0000
,
0100
0100
0100
0000
,
0001
0000
1000
0000
,
0001
0001
0001
0000
,
1000
1000
1000
1000
,
1001
0000
0000
0000
;

//--------------- dance-single - Fred-104 ----------------
#NOTES:
     dance-single:
     Fred-104:
     Easy:
     7:
     :
0000
0000
0000
0000
,
0000
0000
0000
0000
,
0000
0000
0000
0000
,
0000
0000
0000
0000
,
0000
0000
0000
0000
,
0000
0000
0000
0000
,
0000
0000
0000
0000
,
0000
0000
0000
0000
,
0000
0000
0000
0000
,
0000
0000
0000
0000
,
1000
0000
0000
1000
0000
0000
0001
0000
,
0000
0001
0000
0000
0100
0000
0010
0000
,
0100
0000
0000
0100
0000
0000
0010
0000
,
0000
0010
0000
0000
0100
0000
0001
0000
,
1000
0000
0000
0100
0000
0000
0010
0000
,
0000
0001
0000
0000
0100
0000
0010
0000
,
0100
0000
0000
0001
0000
0000
1000
0000
,
0010
0100
0100
0001
,
2000
0000
3010
1000
,
0200
0000
0310
0100
,
0010
0001
1000
0001
,
0200
0000
0320
0000
,
0230
0000
0301
0010
,
0002
0000
2003
0000
,
3010
1000
0001
1000
,
0100
0000
0010
0000
0001
1000
0001
0000
,
1001
0000
0000
1000
0000
0000
0010
0000
,
0100
0000
0001
0000
,
0010
0000
0000
0001
0000
0000
1000
0000
,
0001
0000
0001
0000
0100
0000
0010
0100
,
0010
0000
1000
0010
,
1000
0100
0010
0001
,
0100
0000
0010
0100
,
0001
0000
1000
0000
0001
0010
0001
0000
,
1001
0000
0000
1000
0000
0000
0010
0000
,
0100
0000
0010
0000
1000
0001
1000
0000
,
0100
0000
0000
0010
0000
0000
0001
0000
,
0100
0000
0010
0100
0010
0000
0100
0000
,
0001
0000
0000
0010
0000
0000
0100
0000
,
1000
0000
0010
1000
,
0100
0000
0000
1000
0000
0000
0010
0000
,
0100
0000
0001
1000
,
1001
0000
0001
0100
,
0001
0000
0001
0000
0010
0100
0010
0000
,
0100
0000
1000
0010
,
1000
0000
0000
0001
1000
0000
0000
0000
,
0200
0000
0320
0000
,
0032
0203
0320
2030
,
3001
0000
0000
0010
0000
0000
0001
0000
,
1001
0000
1000
0100
,
0110
0110
0010
0001
,
0100
0100
0010
1000
,
0001
0001
0010
0001
,
0100
0010
0100
0000
0001
0000
1000
0000
,
0100
1000
1001
0000
,
0002
0023
0230
2300
,
3001
0000
0000
0100
0000
0000
0010
0000
,
0100
0001
1000
0001
,
1001
1000
0010
0100
,
0002
0000
0000
0000
1003
0001
1000
0000
,
0001
0001
1000
1000
,
0100
0000
0010
0100
,
2000
0000
3020
0000
,
0230
0302
0203
0302
,
0013
0001
1000
0001
,
0100
0000
0100
0000
0010
1000
0010
0000
,
1001
0000
0001
0010
,
0200
0000
2300
0000
,
3001
0000
1000
0000
,
0010
1000
0100
1000
,
0020
0000
0230
0000
,
0302
0000
2003
3002
,
0103
0000
0010
0100
,
0001
0010
0001
0000
1000
0010
1000
0000
,
2002
0000
0000
0000
,
3003
0000
0000
0000
;

//--------------- dance-single - Fred-104 ----------------
#NOTES:
     dance-single:
     Fred-104:
     Medium:
     11:
     :
0000
0000
0000
0000
,
0000
0000
0000
0000
,
0000
0000
0000
0000
,
0000
0000
0000
0000
,
0000
0000
0000
0000
,
0000
0000
0000
0000
,
0000
0000
0000
0000
,
0000
0000
0000
0000
,
0000
0000
0000
0000
,
0000
0000
0000
0000
,
1000
0100
0000
0100
0010
0000
0010
0001
,
0000
0001
0100
0000
0010
0000
0100
0000
,
0001
0100
0000
0100
0010
0000
0010
1000
,
0000
1000
0100
0000
1000
0000
0001
0000
,
1000
0100
0000
0010
0001
0000
1000
0010
,
0000
0100
0001
0000
1000
0000
0100
0000
,
1000
0100
1000
0001
0010
0001
0100
0010
,
0100
0000
0001
0000
1000
0010
1000
0000
,
0002
0000
0100
0000
0103
0000
0010
0100
,
0020
0000
1000
0000
1030
0100
0010
0100
,
0010
0001
0020
0000
0001
0000
0031
1000
,
0002
0103
2000
3100
,
0002
0000
1000
0000
1003
0000
0010
0100
,
0020
1000
2030
0100
,
3100
0010
0100
0000
0010
0000
0001
1000
,
0001
0000
0100
0010
0100
0001
1000
0100
,
1001
0000
0000
1000
0000
0010
1000
0010
,
0000
1000
0100
1000
0000
0001
0100
0000
,
0010
0000
0000
1000
0000
0001
0010
0001
,
0100
0000
0010
0000
0100
0000
0001
1000
,
0001
0000
1000
0100
0000
1000
0010
1000
,
0002
0100
1003
1001
,
0001
0000
0100
0010
0000
1000
0001
0000
,
1000
0100
1000
0010
0100
0001
1000
0000
,
1001
0000
0000
0110
0000
0000
1001
0000
,
0001
0010
0001
1000
0001
0100
0010
0000
,
0110
0000
0000
1010
0000
0000
0101
0000
,
0001
0000
1000
0001
0100
0000
0010
1000
,
0100
0000
0010
0100
0000
1000
0010
0000
,
0100
0001
0010
0000
0001
1000
0010
1000
,
0100
0010
0001
0000
0100
0010
0100
0001
,
2000
0100
3001
1001
,
0110
0000
0010
1000
0000
0001
1000
0100
,
0010
0000
0000
0010
0000
0000
0001
0000
0100
0000
0000
0000
0010
0000
0000
0000
,
0110
0000
0000
0000
0100
0000
0000
0000
0001
0000
0000
1000
0000
0000
1000
0000
,
0100
0000
0010
0001
1000
0000
1001
0000
,
0002
0000
0010
0000
0013
0001
1000
0000
,
0020
2030
3100
0110
,
0010
0001
0010
0100
1000
0100
1000
0001
,
1001
0000
0001
1000
,
1100
0000
1001
0000
1000
0100
0010
0000
,
0011
0000
1001
0000
0001
0100
0010
0000
,
0110
0000
1010
0000
1000
0001
0100
0010
,
1000
0100
1000
0000
0001
0100
0010
1000
,
0100
0000
0000
1000
0000
0000
0010
0000
0100
0000
0000
0000
0001
0000
0000
0000
,
0011
1010
0011
1001
,
1000
0100
0000
0001
0100
0000
1000
0000
,
1100
0000
0011
0000
1000
0001
0100
0010
,
0100
0000
0000
0001
0000
0000
0010
0000
0000
0000
0001
0000
1000
0000
0010
0000
,
0110
0000
1001
0000
0001
0010
1000
0010
,
0001
0000
0000
0001
0000
0000
0100
0000
0010
0000
0000
0010
0000
0000
1000
0000
,
0200
0000
1000
0000
1300
0001
1001
0000
,
1100
0000
0101
0000
0001
1000
0001
0000
,
0101
1010
0011
1010
,
0002
0000
1000
0000
1000
0000
1003
0010
,
0100
0100
0010
0010
1000
0001
1000
0000
,
0001
0010
0100
2000
0000
3001
0010
0100
,
2000
3000
0002
0003
,
0100
0010
1000
0010
0000
0100
0010
1000
,
0020
0030
0200
0302
,
1003
0100
1000
0001
0200
0000
0310
0000
,
2000
3200
0302
0023
,
1030
0001
1000
0200
0000
1300
0010
0100
,
0001
0000
0010
0000
0001
0000
0100
0000
0010
0000
1000
0001
1000
0000
0001
0000
,
2002
0000
0000
0000
,
3003
0000
0000
0000
;

//--------------- dance-single - Fred-104 ----------------
#NOTES:
     dance-single:
     Fred-104:
     Hard:
     14:
     :
0000
0000
0000
0000
,
0000
0000
0000
0000
,
0000
0000
0000
0000
,
0000
0000
0000
0000
,
0000
0000
0000
0000
,
0000
0000
0000
0000
,
0000
0000
0000
0000
,
0000
0000
0000
0000
,
0000
0000
0000
0000
,
0000
0000
0000
0000
,
1000
0100
0100
0010
0100
0100
1000
0010
,
0010
0001
0010
0010
1000
0000
0001
0000
,
0100
0100
1000
0100
0100
0001
0010
0010
,
1000
0010
0010
0001
1000
0000
0001
0100
,
0001
0010
0001
0000
1000
0000
0001
0100
0001
0000
1000
0000
0001
0010
0001
0000
,
1000
0000
0010
0100
0010
0000
1000
0000
0100
0000
0010
0000
0001
0000
1000
0000
,
0001
0100
0001
0100
0001
0000
1000
0100
1000
0100
1000
0000
0001
1000
0001
1000
,
0001
0010
0100
1000
0010
0100
0010
1000
,
0200
0000
0000
0000
1000
0000
0000
0000
0010
0000
0000
0000
1300
0000
0001
0100
,
0002
0000
0010
0000
1003
0001
0100
0010
,
1000
0000
0100
0000
0020
0000
0000
0000
0001
0000
0000
0000
0130
0000
1000
0010
,
2000
0000
0000
0000
0100
0000
0000
0000
3002
0000
0000
0000
0013
0000
0001
1000
,
0020
0000
0100
0000
1000
0000
0130
0001
,
2000
0010
3200
0010
,
0310
0001
2000
0000
0010
0000
3100
1000
,
0001
0000
0010
0000
0001
0100
0000
0001
0010
0000
0100
1000
0100
1000
0100
0000
,
2002
0000
0000
0000
3003
0001
1000
0001
,
0000
0010
0100
1000
0000
0010
0100
0001
,
1000
0001
0000
0100
0010
1000
0001
0020
,
0100
0000
0001
0000
0100
0000
0031
1000
,
0002
0100
0023
0100
,
0031
0000
1000
0010
0100
0010
1000
0100
,
0010
0001
1000
0001
0100
0001
0100
0010
,
1000
0100
1000
0000
0001
0000
0100
0010
0100
0000
0001
0000
1000
0001
1000
0001
,
1000
0000
0000
0000
0100
0000
0110
0000
0000
0000
0010
0000
0001
0000
1000
0001
,
1000
0000
0100
0000
0010
0000
1000
0000
0010
0000
0001
0000
0010
0000
0100
1000
,
0100
0000
0000
0000
1000
0000
1010
0000
0000
0000
0010
0000
0100
0000
0001
1000
,
0002
0000
0100
0000
0010
0000
1003
0010
,
0100
0000
0001
0000
0010
0000
0110
0000
0000
0000
0100
0000
1000
0000
0001
0100
,
0001
0000
1000
0000
0100
0000
0000
0000
1000
0000
0001
0000
0010
0100
0010
0100
,
0010
0000
0001
0000
1000
0000
0000
0000
0010
0000
1000
0000
0001
0100
0001
0100
,
0010
0010
1000
1000
0001
1000
1001
0000
,
1010
0000
1000
1100
0000
0001
0100
0010
,
1000
0000
0000
0100
0000
0000
0100
0000
0001
0000
0010
0000
0110
0000
0000
0000
,
1001
0000
0000
0000
0001
0000
0100
0000
0001
0000
0000
0010
0000
0000
0010
0000
,
2000
0000
3010
1000
0100
0010
0110
0000
,
0002
0000
0100
0000
1003
0001
0010
0100
,
2000
0000
3002
0000
0103
0010
0110
0000
,
1000
0000
0100
0000
0100
0000
0001
0000
0100
0000
0100
0000
1000
0010
1000
0010
,
0200
0000
0301
1000
,
1100
0000
0000
0000
1010
0000
0000
0000
1000
0000
0100
0010
0100
0000
1000
0000
,
0002
0000
0000
0000
0100
0000
0000
0000
1003
0000
0010
1000
0010
0000
1000
0001
,
1000
0001
0020
0000
0031
0100
0010
0100
,
0001
0000
0100
0000
1000
0000
0100
0000
0010
0000
1000
0001
1000
0000
0100
0000
,
0010
0000
0000
0001
0000
0000
1000
0000
0001
0000
0100
0000
0010
0000
1000
0000
,
1100
1000
1010
0000
0101
0001
0011
0000
,
0001
0010
0010
0100
0010
0010
0001
1000
,
1010
0000
0000
0000
0101
0000
0000
0000
1001
0000
0000
1000
0100
0010
0100
0010
,
0100
0000
0000
1000
0000
0000
0001
0000
0000
0000
0010
0000
0001
0000
1000
0000
,
0001
0100
0010
0001
1000
0100
0010
1000
,
0001
0000
0100
0010
0100
0000
0001
0000
1000
0000
0100
0010
0100
0000
1000
0000
,
0002
0000
1000
0000
1003
0001
1001
0000
,
1100
0000
0000
0000
1000
0000
0100
0000
0010
0000
0001
1000
0001
0000
0100
0000
,
0001
0010
2000
0000
3001
0100
2000
0000
,
3002
0000
0010
0000
0100
0000
0013
0100
,
1100
0000
1000
0000
1010
0000
0010
0000
0100
0000
0001
1000
0001
1000
0001
1000
,
0001
0100
1000
0200
0000
0301
0010
0100
,
2000
0010
3002
0100
,
1003
0001
0010
0200
0000
0301
0100
1000
,
0100
0010
0001
1000
0020
2030
3002
0023
,
0031
0100
0010
0100
0002
0000
0103
0010
,
2000
0000
3010
1000
0002
0000
2003
0000
,
3100
0010
0001
1000
0010
0100
0010
1000
,
0100
1000
0100
0000
0010
0001
0010
0000
0001
0000
1000
0010
1000
0001
1000
0001
,
2000
0000
0000
0000
,
3000
0000
0000
0000
;

//--------------- dance-double - Fred-104 ----------------
#NOTES:
     dance-double:
     Fred-104:
     Easy:
     7:
     :
00000000
00000000
00000000
00000000
,
00000000
00000000
00000000
00000000
,
00000000
00000000
00000000
00000000
,
00000000
00000000
00000000
00000000
,
00000000
00000000
00000000
00000000
,
00000000
00000000
00000000
00000000
,
00000000
00000000
00000000
00000000
,
00000000
00000000
00000000
00000000
,
00000000
00000000
00000000
00000000
,
00000000
00000000
00000000
00000000
,
00010000
00000000
00000000
00010000
00000000
00000000
10000000
00000000
,
00000000
10000000
00000000
00000000
00100000
00000000
01000000
00000000
,
00010000
00000000
00000000
00010000
00000000
00000000
00100000
00000000
,
00000000
00100000
00000000
00000000
00001000
00000000
00010000
00000000
,
00001000
00000000
00000000
00000010
00000000
00000000
00000100
00000000
,
00000000
00001000
00000000
00000000
00000001
00000000
00000100
00000000
,
00000010
00000000
00000000
00001000
00000000
00000000
00000001
00000000
,
00000100
00000010
00000010
00010000
,
00002000
00000000
00013000
00001000
,
00020000
00000000
00031000
00010000
,
01000000
00100000
00010000
10000000
,
00200000
00000000
02300000
00000000
,
03020000
00000000
10030000
00100000
,
00020000
00000000
00032000
00000000
,
00003100
00000001
00001000
00000001
,
00000010
00000000
00000100
00000000
00000010
00000100
00000010
00000000
,
00001001
00000000
00000000
00000001
00000000
00000000
00001000
00000000
,
00000001
00000000
00001000
00000000
,
00000010
00000000
00000000
00010000
00000000
00000000
00000010
00000000
,
00001000
00000000
00000010
00000000
00010000
00000000
00001000
00010000
,
00001000
00000000
00100000
00001000
,
00010000
00001000
00100000
00001000
,
00010000
00000000
00000010
00010000
,
00000010
00000000
00010000
00000000
00001000
00010000
00001000
00000000
,
00011000
00000000
00000000
00001000
00000000
00000000
00100000
00000000
,
00001000
00000000
00010000
00000000
00001000
00100000
00001000
00000000
,
00010000
00000000
00000000
00000010
00000000
00000000
00001000
00000000
,
00000010
00000000
00010000
00001000
00010000
00000000
00000010
00000000
,
00010000
00000000
00000000
00001000
00000000
00000000
00010000
00000000
,
00000100
00000000
00010000
00001000
,
01000000
00000000
00000000
00001000
00000000
00000000
00010000
00000000
,
00001000
00000000
01000000
00100000
,
01100000
00000000
00100000
10000000
,
01000000
00000000
01000000
00000000
00100000
00010000
00100000
00000000
,
00001000
00000000
00010000
00001000
,
00010000
00000000
00000000
00000100
00001000
00000000
00000000
00000000
,
00000200
00000000
00000320
00000000
,
00000032
00002003
00003200
00020300
,
00031000
00000000
00000000
00010000
00000000
00000000
00000010
00000000
,
00001010
00000000
00001000
00000100
,
00000110
00000110
00000010
00000001
,
00000100
00000100
00000010
00001000
,
00000100
00000100
00010000
00001000
,
00100000
00010000
00100000
00000000
00010000
00000000
00000000
00000000
,
10000000
01000000
01100000
00000000
,
20000000
32000000
03020000
00032000
,
00013000
00000000
00000000
00000100
00000000
00000000
00000010
00000000
,
00000001
00001000
00000001
00000100
,
00000110
00000010
00001000
00000010
,
00002000
00000000
00000000
00000000
00003001
00001000
00000001
00000000
,
00001000
00000100
00001000
00000001
,
00000010
00000000
00000001
00000100
,
00002000
00000000
00023000
00000000
,
00032000
00203000
02300000
23000000
,
30010000
10000000
00010000
01000000
,
00100000
00000000
10000000
01000000
,
01100000
00000000
00100000
00001000
,
00020000
00000000
00032000
00000000
,
00003010
00000000
00000001
00000000
,
00001000
00000001
00000100
00000001
,
00000200
00000000
00000320
00000000
,
00020030
00000000
00032000
00203000
,
00310000
00000000
01000000
00100000
,
10000000
00000000
01000000
00000000
00010000
00001000
00010000
00000000
,
00022000
00000000
00000000
00000000
,
00033000
00000000
00000000
00000000
;

//--------------- dance-double - Fred-104 ----------------
#NOTES:
     dance-double:
     Fred-104:
     Medium:
     11:
     :
00000000
00000000
00000000
00000000
,
00000000
00000000
00000000
00000000
,
00000000
00000000
00000000
00000000
,
00000000
00000000
00000000
00000000
,
00000000
00000000
00000000
00000000
,
00000000
00000000
00000000
00000000
,
00000000
00000000
00000000
00000000
,
00000000
00000000
00000000
00000000
,
00000000
00000000
00000000
00000000
,
00000000
00000000
00000000
00000000
,
00000001
00000000
00001000
00000001
00000000
00000100
00000001
00000000
,
00001000
00000001
00000000
00000010
00000100
00000000
00000010
00000000
,
00000001
00000000
00000100
00001000
00000000
00010000
00001000
00000000
,
00100000
01000000
00000000
10000000
00010000
00000000
01000000
00100000
,
01000000
00000000
00010000
00100000
00000000
00010000
10000000
00000000
,
00010000
00100000
00000000
00001000
00010000
00000000
00000100
00000000
,
00001000
00000010
00001000
00000001
00000100
00000001
00001000
00000010
,
00000100
00000000
00000001
00000000
00000010
00001000
00010000
01000000
,
00200000
00000000
00010000
00000000
00310000
00000000
01000000
00100000
,
02000000
00000000
00100000
00000000
03100000
10000000
00100000
10000000
,
01000000
00100000
02000000
00000000
03100000
00000000
00001000
00010000
,
00001000
00000000
00010000
00000010
00001000
00000000
00000010
00001000
,
00000200
00000000
00000010
00000000
00000310
00000000
00000001
00001000
,
00000002
00000100
00000203
00000010
,
00000310
00001000
00000100
00000000
00010000
00001000
00010000
00100000
,
01000000
00000000
00010000
01000000
00100000
10000000
00010000
10000000
,
11000000
00000000
00000000
01000000
00000000
00100000
00001000
00010000
,
00000000
00000010
00001000
00000100
00000000
00010000
00001000
00000000
,
00010000
00000000
00000000
00001000
00000000
00010000
00000100
00001000
,
00000010
00010000
00001000
00100000
,
00001000
00000000
00010000
00000100
00000000
00010000
00001000
00000000
,
00100000
00010000
01000000
00002000
,
00013000
00000000
00001000
00010000
00000000
00000100
00001000
00000000
,
00000001
00000100
00000001
00000000
00001000
00000010
00001000
00000000
,
00001001
00000000
00000001
00000010
00000000
00000100
00010000
00001000
,
00010000
01000000
00100000
00000000
00010000
01000000
00001000
00000000
,
00011000
00000000
00000000
00010010
00000000
00000000
00011000
00000000
,
00010000
00000000
00000010
00001000
00000100
00000000
00010000
00001000
,
00010000
00000000
00001000
00100000
00000000
00010000
01000000
00000000
,
00001000
00010000
00001000
00000000
00000010
00000100
00001000
00000010
,
00010000
00000000
00001000
00100000
00010000
01000000
00001000
00010000
,
00002000
00010000
00013000
00011000
,
00000110
00000000
00001000
00000000
00000100
00000010
00000001
00000100
,
00000001
00000000
00000000
00000010
00000000
00000000
00000001
00000000
00001000
00000000
00000000
00000000
00000010
00000000
00000000
00000000
,
00011000
00000000
00000000
00000000
00010000
00000000
00000000
00000000
00000100
00000000
00000000
00010000
00000000
00000000
00001000
00000000
,
00010000
00000000
01000000
00100000
00010000
00000000
10010000
00000000
,
20000000
00000000
00100000
00000000
30100000
00000000
10000000
00010000
,
02000000
03020000
00230000
00302000
,
00013000
00000000
00001000
00000010
00000000
00001000
00010000
00000000
,
00011000
00000000
01000000
00100000
,
10010000
00000000
01100000
00000000
00010000
10000000
01000000
00000000
,
01100000
00000000
01010000
00000000
00100000
00001000
00010000
00000000
,
00011000
00000000
00010010
00000000
00000010
00001000
00000001
00000100
,
00000010
00001000
00000001
00000100
00001000
00010000
00100000
01000000
,
00010000
00000000
00000000
01000000
00000000
00000000
00100000
00000000
10000000
00000000
00000000
00000000
01000000
00000000
00100000
00000000
,
00002000
00023000
00032000
00003020
,
00000130
00001000
00000001
00000100
00000010
00001000
00000100
00000000
,
00000110
00001001
00001010
00010010
,
00010000
00000000
00000000
00000010
00000000
00000000
00001000
00000000
00000000
00000000
00000100
00000000
00010000
00000000
00001000
00000000
,
00100000
00010000
01000000
00000000
00001000
00010000
00000010
00001000
,
00000100
00000000
00000000
00010000
00000000
00000000
00010000
00000000
01000000
00000000
00000000
00001000
00000000
00000000
00001000
00000000
,
00000020
00000000
00000100
00000000
00000130
00000001
00001001
00000000
,
00000110
00000000
00001001
00000000
00000001
00000100
00001000
00000000
,
00020000
00032000
00203000
02300000
,
23000000
00000000
00100000
00000000
01000000
00000000
30100000
10000000
,
00010000
00000000
01000000
00001000
00010000
00001000
00100000
00001000
,
00010000
00001000
00000010
00000001
00000000
00001000
00000001
00001000
,
00000020
00000030
00020000
00030000
,
00000100
00001000
00000001
00000010
00000000
00000100
00010000
00001000
,
00200000
00300000
02000000
23000000
,
30010000
01000000
10000000
01000000
00200000
00000000
20300000
00000000
,
32000000
03020000
00032000
00003020
,
00000031
00001000
00000100
00000020
00000000
00000031
00001000
00000010
,
00000100
00000000
00000001
00000000
00000010
00000000
00000100
00000000
00010000
00000000
00001000
00000000
00000010
00000000
00000001
00001000
,
00000002
00000000
00000000
00000000
,
00000003
00000000
00000000
00000000
;

//--------------- dance-double - Fred-104 ----------------
#NOTES:
     dance-double:
     Fred-104:
     Hard:
     14:
     :
00000000
00000000
00000000
00000000
,
00000000
00000000
00000000
00000000
,
00000000
00000000
00000000
00000000
,
00000000
00000000
00000000
00000000
,
00000000
00000000
00000000
00000000
,
00000000
00000000
00000000
00000000
,
00000000
00000000
00000000
00000000
,
00000000
00000000
00000000
00000000
,
00000000
00000000
00000000
00000000
,
00000000
00000000
00000000
00000000
,
00010000
00001000
00000010
00000001
00001000
00000100
00000010
00000001
,
00000100
00001000
00010000
00001000
01000000
00100000
10000000
01000000
,
00100000
00001000
00001000
00000010
00010000
00010000
01000000
00001000
,
00001000
00000100
00010000
00010000
00001000
00010000
00001000
00010000
,
00000100
00001000
00000100
00000000
00010000
00000000
00001000
01000000
00001000
00000000
00010000
00000000
00000010
00001000
00000010
00000000
,
00010000
00000000
00001000
00100000
00001000
00000000
01000000
00000000
00010000
00000000
00100000
00000000
01000000
00000000
10000000
00000000
,
00100000
01000000
00100000
01000000
00100000
00000000
10000000
01000000
10000000
01000000
10000000
00000000
00010000
10000000
00010000
10000000
,
00010000
10000000
00100000
00010000
00001000
00010000
00000010
00000100
,
00000002
00000000
00000000
00000000
00000100
00000000
00000000
00000000
00000010
00000000
00000000
00000000
00001003
00000000
00000001
00000010
,
00000200
00000000
00001000
00000000
00000310
00000100
00010000
00001000
,
01000000
00000000
00010000
00000000
00200000
00000000
00000000
00000000
00010000
00000000
00000000
00000000
01300000
00000000
00100000
00010000
,
00200000
00000000
00000000
00000000
00310000
00000000
10000000
00000000
00200000
00000000
00000000
00000000
10300000
00000000
01000000
00100000
,
00020000
00000000
01000000
00000000
00130000
00001000
00010000
00000010
,
00002000
00000100
00003002
00000010
,
00000103
00000010
00002000
00000000
00000100
00000000
00003001
00000100
,
00000010
00000000
00000000
00000000
00001000
00000001
00000000
00000010
00000100
00000000
00010000
00001000
00010000
00001000
00010000
00000000
,
00011000
00000000
00000000
00001000
00000000
00010000
00100000
01000000
,
00000000
10000000
00010000
01000000
00000000
00100000
10000000
00010000
,
10000000
00000000
01000000
00100000
00000000
00001000
00010000
00001000
,
00000200
00000000
00000302
00000000
00002003
00000000
00003100
00000010
,
00000002
00000100
00002003
00000010
,
00003001
00000000
00000010
00001000
00010000
01000000
00100000
00000000
,
00010000
10000000
00010000
01000000
00010000
00100000
00001000
00100000
,
00001000
00010000
00001000
00000000
00010000
00000000
00000010
00001000
00000010
00000000
00010000
00000000
00001000
00010000
00001000
00000000
,
00011000
00000000
00000000
00000000
00001000
00000000
01001000
00000000
00000000
00000000
00001000
00000000
00100000
00000000
00010000
10000000
,
00010000
00000000
10000000
00000000
01000000
00000000
00100000
00000000
01000000
00000000
00010000
00000000
00001000
00000000
00000010
00000100
,
00001000
00000000
00000000
00000000
00000010
00000000
00001010
00000000
00000000
00000000
00001000
00000000
00000100
00000000
00010000
00001000
,
00020000
00000000
00001000
00000000
00031000
00100000
00010000
01000000
,
00001000
00000000
00010000
00000000
00001000
00000000
00101000
00000000
00000000
00000000
00001000
00000000
00100000
00000000
00001000
00010000
,
00001000
00000000
00010000
00000000
00000100
00000000
00000000
00000000
00001000
00000000
00000010
00000000
00010000
00001000
00010000
00001000
,
00010000
00000000
00001000
00000000
00100000
00000000
00000000
00000000
01000000
00000000
10000000
00000000
00010000
10000000
00010000
10000000
,
00100000
00010000
00001000
00000100
00000010
00001000
00001100
00000000
,
00000110
00000000
00000001
00000011
00000000
00000001
00000100
00001000
,
00010000
00000000
00000000
00001000
00000000
00000000
00100000
00000000
01000000
00000000
10000000
00000000
00010000
00000000
00000000
00000000
,
10010000
00000000
00000000
00000000
10000000
00000000
01000000
00000000
00010000
00000000
00000000
01000000
00000000
00000000
00100000
00000000
,
00010000
00000000
01000000
00001000
00010000
00001000
00000010
00000000
,
00000200
00000000
00001000
00000000
00000010
00000000
00001300
00000001
,
00000200
00000000
00002300
00000000
00013000
00001000
00011000
00000000
,
00001000
00000000
00010000
00000000
00100000
00000000
10000000
00000000
00010000
00000000
00100000
00000000
01000000
10000000
01000000
10000000
,
02000000
00000000
03100000
00001000
,
00011000
00000000
00010010
00000000
00010000
00001000
00000100
00000001
,
00002000
00000000
00000000
00000000
00000100
00000000
00000000
00000000
00003001
00000000
00000100
00000010
00000100
00000000
00000001
00000000
,
00000010
00000001
00002000
00000000
00003010
00001000
00010000
01000000
,
00100000
00000000
10000000
00000000
00010000
00000000
01000000
00000000
00100000
00000000
10000000
01000000
10000000
00000000
00010000
00000000
,
10000000
00000000
00000000
01000000
00000000
00000000
00100000
00000000
00010000
00000000
00000000
00000000
00100000
00000000
00001000
00000000
,
00011000
01001000
00011000
00010010
,
00010000
00001000
00000100
00000001
00000010
00001000
00010000
00000000
,
00011000
00000000
00000000
00000000
00101000
00000000
00000000
00000000
00001000
00000000
00000000
00010000
00100000
10000000
00100000
10000000
,
00010000
00000000
00000000
10000000
00000000
00000000
01000000
00000000
00000000
00000000
00100000
00000000
00001000
00000000
00010000
00000000
,
00001000
00000100
00000010
00001000
00000100
00000010
00000001
00001000
,
00000001
00000010
00001000
00010000
00001000
01000000
00100000
10000000
,
00020000
00000000
01000000
00000000
01030000
00100000
10010000
00000000
,
10100000
00000000
00010000
00100000
01000000
00100000
00001000
00010000
,
00000020
00001000
00000230
00000010
,
00000302
00000000
00000000
00000000
00001000
00000000
00000000
00000000
00000013
00000000
00000001
00000000
00000100
00000000
00001000
00010000
,
00001000
00000000
00010000
00000000
01000000
00000000
00100000
00000000
00010000
00000000
01000000
00100000
01000000
00100000
01000000
00100000
,
10000000
01000000
00100000
00002000
00000000
00013000
00000100
00000010
,
00000002
00000100
00002003
00000010
,
00003100
00000010
00000001
00002000
00000000
00003001
00000100
00001000
,
00010000
00000000
01000000
00100000
00020000
20030000
32000000
03200000
,
00301000
00010000
00100000
10000000
02000000
00000000
03010000
00001000
,
00020000
00000000
00030010
00001000
00000002
00000000
00002003
00000000
,
00003100
00000001
00000100
00002000
00000000
00003001
00000010
00001000
,
00010000
00000000
00100000
00000000
01000000
00000000
00010000
00000000
10000000
00000000
00100000
10000000
01000000
10000000
01000000
10000000
,
00020000
00000000
00000000
00000000
,
00030000
00000000
00000000
00000000
;
