#TITLE:狂イ咲ケ焔ノ華;
#ARTIST:覚醒ノPrim;
#TITLETRANSLIT:Kuruizake homura no hana;
#ARTISTTRANSLIT:Kakusei no Prim;
#GENRE:Hi-GOTH;
#BANNER:Kuruizake homura no hana.png;
#BACKGROUND:Kuruizake homura no hana-bg.png;
#CDTITLE:./CDTitles/bm IIDX 20 tricoro.png;
#MUSIC:Kuruizake homura no hana.ogg;
#SAMPLESTART:54.175;
#SAMPLELENGTH:15;
#BPMS:0=206,148=103,164=206,284=103,300=206;

//--------------- dance-single - 覚醒ノFred-104 ----------------
#NOTES:
     dance-single:
     覚醒ノFred-104:
     Beginner:
     5:
     :
0000
0000
0000
0000
,
0000
0000
0000
0000
,
0000
0000
0000
0000
,
0000
0000
0000
0000
,
0000
0000
0000
0000
,
0000
0000
0000
0000
,
0000
0000
0000
0000
,
0000
0000
0000
0000
,
0000
0000
0000
0000
,
1000
0000
0001
0000
,
1000
1000
1000
0000
,
0001
0000
0100
0000
,
0001
0001
0001
0000
,
1001
0000
1000
0000
,
0010
0010
0010
0000
,
0100
0000
0001
0000
,
1000
0001
1000
0000
,
1001
0000
0001
0000
,
1000
0000
0010
0000
,
0100
0000
0001
0000
,
1000
0000
0001
0001
,
0001
0000
0100
0000
,
0010
0000
0100
0100
,
0100
0000
0001
0000
,
2000
0000
0000
3000
,
0001
0000
0100
0000
,
0001
0001
0001
0000
,
1000
0000
0010
0000
,
0100
0010
0100
0000
,
0110
0000
0010
0000
,
1000
0000
0001
0000
,
0001
0000
0010
0000
,
0010
0000
1000
0000
,
1000
0000
0100
0000
,
0100
0000
0001
0000
,
1000
0000
0001
0000
,
1000
1000
0001
0001
,
1001
0000
0001
0000
,
0100
0000
0010
0000
,
1000
0000
0001
0000
,
0100
0000
0010
1000
,
1000
0000
0001
0000
,
2002
0000
3003
0000
,
1000
0000
0010
0000
,
1000
0000
1000
0000
,
0001
0000
0100
0000
,
0001
0000
0100
0100
,
0100
0000
0010
0000
,
1000
0000
0001
0000
,
1000
1000
0000
0001
,
0001
0000
1000
0000
,
0001
0000
0100
0000
,
0001
0001
0100
0000
,
0010
0000
0100
0000
,
0010
0010
1000
0000
,
0001
0000
1000
0000
,
0001
0000
0100
0000
,
0010
0000
1000
0000
,
0001
0000
1000
0000
,
1001
0000
1000
0000
,
0001
0000
0100
0000
,
0001
0000
0100
0000
,
0010
0000
1000
0000
,
0001
0000
1000
0000
,
0001
0000
1000
0000
,
0010
0000
0100
0000
,
0010
0000
0100
0000
,
0100
0000
0001
0000
,
1000
1000
1000
0000
,
0001
0000
0100
0000
,
0010
0010
0010
0010
,
0110
0000
0100
0000
,
0001
0000
1000
0000
,
0010
0000
1000
0000
,
0100
0000
0010
0001
,
1000
0000
0001
0000
,
2002
0000
3003
0000
,
0001
0000
0010
0000
,
0001
0000
0001
0000
,
1000
0000
0100
0000
,
1000
0000
0100
0100
,
0100
0000
0010
0000
,
0001
0000
1000
0000
,
0001
0001
0000
1000
,
1000
0000
0001
0000
,
1000
0000
0100
0000
,
1000
1000
0100
0000
,
0010
0000
0100
0000
,
0010
0010
0001
0000
,
1000
0000
0001
0000
,
1000
0000
0100
0000
,
0010
0000
0001
0000
,
1000
0000
0000
0001
0000
0000
1000
0000
,
1001
0000
0001
0000
,
0100
0000
0010
0010
,
0010
0000
1000
0000
,
0001
0000
1000
1000
,
1000
0000
0001
0000
,
0100
0000
0010
0010
,
0010
0000
0100
0000
,
0001
1000
0001
0000
,
2002
0000
0000
0000
,
0000
0000
0000
0000
0000
0000
0000
3003
;

//--------------- dance-single - 覚醒ノFred-104 ----------------
#NOTES:
     dance-single:
     覚醒ノFred-104:
     Easy:
     10:
     :
0000
0000
0000
0000
,
0000
0000
0000
0000
,
0000
0000
0000
0000
,
0000
0000
0000
0000
,
0000
0000
0000
0000
,
0000
0000
0000
0000
,
0000
0000
0000
0000
,
0000
0000
0000
0000
,
0000
0000
0000
0000
,
1001
0000
0100
0010
,
0100
0001
1000
0001
,
0100
0000
0010
1000
,
0100
1000
0001
0100
,
0110
0000
0010
1000
,
0100
0010
0001
1000
,
0001
0000
0100
0100
,
0010
0000
1000
0000
0001
1000
0001
1000
,
0001
0000
1001
0000
0000
0100
0000
0100
,
0000
0010
0000
0010
0000
0010
0000
0010
,
1000
0000
1100
0000
0000
0100
0000
0100
,
0000
0010
0000
0010
0000
0100
0000
0001
,
0100
0000
0101
0000
0000
0001
0000
0001
,
0000
0010
0000
0001
0000
1000
0000
0001
,
0100
0010
0100
0001
,
1000
0000
0010
0100
0000
0010
0100
0000
,
1001
0000
0001
0100
,
0010
0000
1000
0000
0001
0100
0001
0000
,
1001
0000
1000
0100
,
0010
0000
0001
0000
0100
0010
0100
0000
,
0001
0000
0000
0000
0100
0000
0010
1000
,
0010
0000
0000
0000
1000
0000
0100
0010
,
0100
0000
0000
0000
0010
0000
0001
0100
,
0001
0000
0000
0000
0100
0000
0010
0100
,
0010
0000
0000
0000
1000
0000
0001
1000
,
0100
0000
0000
0000
1000
0000
0100
0010
,
0001
1000
0010
0100
,
0001
0100
0001
0000
1000
0100
1000
0000
,
1001
0000
0000
0000
1000
0000
0000
0001
0000
0000
0100
0000
0110
0000
0000
0000
,
0001
0000
0000
0000
0100
0000
0000
0010
0000
0000
1000
0000
1100
0000
0000
0000
,
0100
0000
0000
0000
0010
0000
0000
0001
0000
0000
0100
0000
0101
0000
0000
0000
,
0001
0000
0000
0100
0000
0000
0010
0000
1000
0000
0000
0000
1000
0000
0001
0000
,
1001
0010
0100
0002
,
0103
0010
0100
0010
0100
0100
0000
0001
,
0100
0000
0001
0100
0000
0010
0100
0000
,
0010
0000
1000
0100
0000
1000
0010
0000
,
0100
0000
0001
0010
0000
0001
0100
0000
,
0010
0000
1000
0100
0000
1000
0010
0000
,
1000
0000
0100
0010
0000
0001
0100
0000
,
0001
0000
0100
0010
0000
1000
0100
0000
,
0010
0000
0011
0000
0001
0000
0100
0010
,
0100
0000
0001
1000
0001
0000
1000
0000
,
0001
0100
0001
0100
0000
0010
0100
0000
,
0010
1000
0010
1000
0000
0001
1000
0000
,
0100
0010
0100
0010
0000
0001
0100
0000
,
0001
0010
0001
0020
0000
0000
0030
0000
,
0001
0100
0001
0000
1000
0100
1000
0000
,
0001
0000
0000
0000
0100
0000
0000
0000
0010
0000
0000
0010
0000
0000
1000
0000
,
0002
0100
0010
0103
,
0202
0303
2020
3030
,
1000
0010
1000
0010
,
0100
0001
1000
0100
,
0010
0001
1000
0001
,
0100
0010
0100
0001
,
1000
0100
0010
0001
,
1000
0001
0100
0100
,
0010
0100
0001
1000
,
0001
0000
1000
0000
0010
1000
0010
1000
,
0001
0000
0100
0010
,
1000
0000
0100
0000
0010
0100
0010
0000
,
0001
0000
1000
0010
,
0100
0010
0100
0000
0001
0100
0001
0000
,
1001
0000
0000
0010
0000
0000
0100
0000
0001
0000
1000
0000
0100
0000
0010
0000
,
0001
0000
0000
0100
0000
0000
0010
0000
0100
0000
0001
1000
0001
0000
0100
0000
,
0010
0000
0000
1000
0000
0000
0100
0000
0010
0000
0001
0000
1000
0000
0001
0000
,
0100
0000
0000
0000
0001
0000
0100
0000
0000
0000
0010
0000
0100
0000
0000
0000
0010
0000
0000
0000
1000
0000
0000
0000
0001
0000
0000
0001
0000
0000
0001
0000
,
2000
3020
0230
0302
,
1003
0001
1000
0001
0100
0010
0000
0000
,
0100
0000
1000
0100
0000
0010
0100
0000
,
0010
0000
0001
0100
0000
0001
0010
0000
,
0100
0000
1000
0010
0000
1000
0100
0000
,
0010
0000
0001
0100
0000
0001
0010
0000
,
0001
0000
0100
0010
0000
1000
0100
0000
,
1000
0000
0100
0010
0000
0001
0100
0000
,
0010
0000
1010
0000
1000
0000
0100
0010
,
0100
0000
1000
0001
1000
0000
0001
0000
,
1000
0100
1000
0100
0000
0010
0100
0000
,
0010
0001
0010
0001
0000
1000
0001
0000
,
0100
0010
0100
0010
0000
1000
0100
0000
,
1000
0010
1000
0020
0000
0000
0030
0000
,
1000
0100
1000
0000
0001
0100
0001
0000
,
1000
0000
0000
0000
0100
0000
0000
0000
0010
0000
0000
0010
0000
0000
0001
0000
,
2000
0100
0010
3100
,
1000
0000
0000
0100
0000
0000
0110
0000
,
1001
0000
0010
1000
,
0001
0000
0100
0000
0010
0100
0010
0000
,
0110
0000
0001
0100
,
0010
0000
1000
0000
0100
1000
0100
0000
,
0110
0000
0010
0001
,
1000
0000
0001
0000
0100
0001
0100
0000
,
0002
0203
0320
2030
,
3001
0100
0001
0000
0100
0010
0100
0000
,
0010
1000
0100
0010
,
0001
0000
1000
0000
0001
1000
0001
1000
;

//--------------- dance-single - 覚醒ノFred-104 ----------------
#NOTES:
     dance-single:
     覚醒ノFred-104:
     Medium:
     15:
     :
0000
0000
0000
0000
,
0000
0000
0000
0000
,
0000
0000
0000
0000
,
0000
0000
0000
0000
,
0000
0000
0000
0000
,
0000
0000
0000
0000
,
0000
0000
0000
0000
,
0000
0000
0000
0000
,
0000
0000
0000
0000
,
1000
0010
1000
0000
0001
0100
0010
0100
,
0001
0010
0100
1000
0100
0010
0001
1000
,
0010
1000
0100
0000
1000
0100
0010
0100
,
0001
0100
1000
0010
0100
0001
0010
1000
,
0010
0001
1000
0000
0001
0100
0010
0100
,
1000
0100
0010
0100
0001
1000
0100
0010
,
0001
0010
1000
0000
0010
0001
0100
0010
,
1000
0000
0100
0000
0010
0000
0001
0000
0100
0010
0100
0000
0001
0100
0001
0000
,
1000
0100
1000
0000
0010
1000
0100
0110
,
0000
0011
0000
0001
1000
0001
0100
0101
,
0000
0100
0010
0100
1000
0100
0010
1010
,
0000
1000
0001
0100
0010
1000
0100
0110
,
0000
1001
0000
1000
0010
0100
0001
0101
,
0000
0001
0010
0100
1000
1010
0000
0010
,
0100
0001
0100
0010
0100
1000
0100
0010
,
0001
0000
1000
0100
0000
0010
1001
0000
,
0001
0100
0100
0000
1000
0100
0100
0001
,
1000
0100
0010
0001
0100
0010
1000
0010
,
0001
0010
0010
0000
1000
0010
0010
0001
,
1000
0010
0100
0001
1000
0100
0010
0100
,
1000
0001
0100
0001
1000
0100
0010
0100
,
0000
0100
1000
0010
0100
0010
1000
0100
,
0000
0100
0010
0001
1000
0001
0100
0010
,
0000
0010
0100
0010
1000
0010
0100
0001
,
0000
1000
0100
0001
1000
0010
0001
1000
,
0000
0001
0010
1000
0001
0100
1000
0001
,
0000
0100
0010
1000
0100
0010
0001
1000
,
1010
0101
1100
0011
,
1001
0000
0000
0001
0100
0010
0100
0001
2000
0000
0000
0000
3010
0000
0000
0000
,
0100
0000
0001
0100
0000
0100
1000
0100
0010
0000
0000
0001
1001
0000
0000
1000
,
1100
0000
0100
0010
0000
0010
0001
1000
0002
0000
0000
0000
0103
0000
0000
0000
,
0010
0000
0100
0010
0000
1000
0010
0100
0002
0000
0000
0003
0101
0000
1010
0000
,
1001
0001
1000
1000
,
0001
0100
0010
1000
1000
1100
0000
0100
,
0010
0001
1000
1010
0000
1000
0001
0100
,
0001
1000
0100
0110
0000
0010
0001
1000
,
0001
0010
0001
0101
0000
0100
0010
1000
,
0001
1000
0100
1100
0000
0100
0010
0001
,
1000
0100
1000
1001
0000
0001
0010
0100
,
0010
0001
0100
0110
0000
0010
1000
0100
,
0020
0000
1000
0030
0001
1000
0010
0100
,
0001
0010
0100
1000
0001
0100
0010
0100
,
0001
0010
0100
1000
0010
0100
0010
1000
,
0100
0010
0001
0100
0010
0100
0001
0100
,
0001
1000
0100
0010
0100
0001
0100
0010
,
0001
1000
0001
0200
0000
0000
0000
0300
,
0001
0001
0100
0010
1000
1000
0100
0010
,
0001
0000
0100
0000
0010
0000
1000
0000
0010
0000
0000
0110
0000
0000
0100
0000
,
0002
1000
0010
1003
,
0001
0000
0100
0000
0010
0000
1000
0000
0001
1000
0001
1000
0001
0000
0000
0000
,
1001
0100
0010
0001
,
1000
0010
0100
0001
1000
0100
0010
0100
,
1000
0001
0100
0010
,
0100
1000
0100
0001
0100
0010
1000
0010
,
0001
0010
1000
0001
,
0100
0010
1000
0010
0100
1000
0100
0010
,
1000
0001
0100
0010
,
0100
0001
0100
0010
0100
0100
1001
0000
,
1000
0100
1100
0000
0100
0010
0001
1000
,
0001
0001
0100
0010
0100
0100
0001
1000
,
0001
0100
0110
0000
0010
1000
0100
1000
,
0001
0001
1000
1000
0001
1000
1001
0000
,
2001
0000
0000
3020
0000
0130
0001
1000
0100
0000
0010
0000
0001
0000
1000
0000
,
0001
0100
1000
0200
0000
0301
0100
1000
0200
0000
0000
0301
1001
0000
0000
1000
,
0020
0000
0000
0230
0000
0301
0010
0100
1000
0000
0010
0000
0100
0000
0010
0000
,
1000
0000
0010
0000
0001
0000
0020
0000
0000
0000
1030
0000
0010
0000
0001
0000
0010
0000
0000
0000
1000
0000
0000
0000
0001
0000
0000
0100
0000
0000
0001
0000
,
1000
1000
0100
0100
0010
0010
0001
0001
,
0100
0100
0100
0100
0010
0110
0000
0100
,
0010
1000
0001
0011
0000
0001
1000
0100
,
1000
0001
0100
0110
0000
0010
1000
0001
,
1000
0010
1000
1100
0000
0100
0010
0001
,
1000
0001
0100
0101
0000
0100
0010
1000
,
0001
0100
0001
1001
0000
1000
0010
0100
,
0010
1000
0100
0110
0000
0010
0001
0100
,
0020
0000
0001
0030
1000
0001
0010
0100
,
1000
0010
0100
0001
1000
0100
0010
0100
,
1000
0010
0100
0001
0010
0100
0010
0001
,
0100
0010
1000
0100
0010
0100
1000
0100
,
1000
0001
0100
0010
0100
1000
0100
0010
,
1000
0001
1000
0200
0000
0000
0000
0300
,
1000
1000
0100
0010
0001
0001
0100
0010
,
1000
0000
0100
0000
0010
0000
0001
0000
0010
0000
0000
0110
0000
0000
0100
0000
,
2000
0001
0010
3001
,
1000
0100
1000
0100
1000
0000
0001
0100
0001
0100
0001
0000
1001
0000
0000
0000
,
1000
0001
1001
0000
0001
0100
0001
0100
,
1000
0100
1000
0100
0001
0100
0010
1000
,
0001
0100
0110
0000
1000
0010
1000
0010
,
0001
0010
0001
0010
1000
0010
0100
0001
,
1000
0100
0110
0000
0001
0100
0010
0100
,
0001
0100
1000
0100
0001
1000
0100
0010
,
0002
0203
0320
2030
,
3001
0000
0100
0000
0010
0000
1000
0000
0001
1000
0001
1000
0001
0000
0000
0000
,
1000
0100
1000
0100
0010
0100
0010
0100
,
0010
0001
0010
0001
1000
0010
0100
0001
;

//--------------- dance-single - 覚醒ノFred-104 ----------------
#NOTES:
     dance-single:
     覚醒ノFred-104:
     Hard:
     17:
     :
0000
0000
0000
0000
,
0000
0000
0000
0000
,
0000
0000
0000
0000
,
0000
0000
0000
0000
,
0000
0000
0000
0000
,
0000
0000
0000
0000
,
0000
0000
0000
0000
,
0000
0000
0000
0000
,
0000
0000
0000
0000
,
0001
0000
0000
0000
0000
0000
0000
0000
0100
0000
0000
0000
0000
0000
0000
0000
0110
0000
0000
0000
0000
0000
0000
0000
0000
0000
0000
0000
0000
0000
0000
0000
1000
0000
0000
0000
0000
0000
0000
0000
0200
0300
0000
0000
0000
0000
0000
0000
0200
0300
0000
0000
0000
0000
0000
0000
0001
0000
0000
0000
0000
0000
0000
0000
,
1000
0000
0001
0000
0100
0000
0010
0000
1000
0100
1000
0100
1000
0000
0100
0000
,
0010
0000
0000
0000
0000
0000
0000
0000
0001
0000
0000
0000
0000
0000
0000
0000
0101
0000
0000
0000
0000
0000
0000
0000
0000
0000
0000
0000
0000
0000
0000
0000
0001
0000
0000
0000
0000
0000
0000
0000
0020
0030
0000
0000
0000
0000
0000
0000
0020
0030
0000
0000
0000
0000
0000
0000
1000
0000
0000
0000
0000
0000
0000
0000
,
0100
0000
1000
0000
0010
0000
0100
0000
0001
0100
0001
0100
0001
0000
0100
0000
,
0010
1000
1100
0000
0010
0100
0001
1000
,
0010
0000
0100
0000
0001
0000
0001
0000
1000
0100
0010
0001
1000
0000
0001
0000
,
0100
0010
1010
0000
1000
0001
0100
0010
,
0100
0000
0010
0000
1000
0000
1000
0000
0001
0100
0010
0000
0100
0001
1000
0100
,
0010
0001
1000
0001
0100
0001
0010
0110
,
0000
0100
1000
0001
0100
1000
0100
0101
,
0000
0001
1000
0010
0001
0010
1000
1010
,
0000
0001
0100
0010
0100
1000
0100
0110
,
0000
0100
0001
1000
0001
0010
0100
1100
,
0000
1000
0001
0100
0001
1001
0000
0110
,
0000
1010
1000
0010
0100
0001
0001
0100
,
0110
0000
1100
1001
0000
0101
1001
0000
,
0001
0000
0100
0000
0110
0000
0000
0000
0010
0000
1000
0100
0010
0000
0001
0000
,
1000
0000
0001
0100
0010
0000
0100
0000
0001
0010
0100
1000
0100
0000
1000
0000
,
0010
0000
0100
0000
0101
0000
0000
0000
0001
0000
0010
0100
1000
0000
0001
0000
,
1000
0000
0010
1000
0100
0000
1000
0000
0001
0100
0010
0100
0001
0000
1000
0000
,
0002
0103
1000
0100
0001
0100
1000
0200
,
0300
0001
0010
2000
3020
0031
0010
2000
,
3000
0100
0001
0100
1000
0100
0001
0200
,
0300
1000
0010
0002
0023
1030
0010
0002
,
0003
0100
1000
0100
0010
1000
0010
0002
,
0003
1000
0001
0020
2030
3010
0100
1000
,
1001
0001
0010
0100
1000
0010
0100
0001
,
1000
0100
1000
0100
0010
0001
0010
0001
1000
0010
0100
0001
0100
0000
0000
0000
,
1002
0000
0000
0103
0001
0010
0100
1000
0001
0100
0010
0000
1010
0000
1000
0001
,
0100
0000
0001
0010
0000
1000
0010
0001
1000
0000
0000
0001
1001
0000
0000
0100
,
0110
0000
0010
0001
0000
0001
1000
0010
0100
0001
1000
0000
0010
0000
1000
0001
,
0100
0000
0010
0100
0000
0001
1000
0100
0010
0000
0001
0000
0101
0000
1010
0000
,
1001
0001
0100
0010
,
1000
0010
0100
0001
1000
0010
0100
0001
0100
0000
0020
0000
0000
0000
0130
0000
,
0101
0001
1000
1100
0000
1010
1000
0001
,
1001
1000
0100
0110
0000
0011
0001
1000
,
1010
0010
0100
0101
0000
0011
0010
0100
,
0110
0010
1000
1001
0000
1100
0100
0010
,
0101
0100
0010
1010
0000
1010
0010
0100
,
0011
0010
0100
1001
0000
0101
0100
0010
,
1010
0000
0101
0000
0001
1000
0010
0100
,
0001
0000
0100
0010
1000
0000
0001
0000
1000
0100
0010
0001
1000
0100
0010
0001
,
1000
0000
0001
0100
0001
0000
0102
0000
0000
0000
0103
0000
0010
0000
1000
0000
,
0001
0000
0010
0001
0010
0000
0210
0000
0000
0000
1300
0000
0010
0000
0100
0000
,
0010
0000
1000
0001
1000
0000
1200
0000
0000
0000
0310
0000
0001
0000
0010
0000
,
0100
0000
1000
0001
1000
0000
0010
0000
0010
0000
0010
0000
0110
0000
0000
0000
,
0001
0000
0001
0100
0010
0000
0010
0000
1000
0000
1000
0100
0010
0000
0010
0000
,
0001
0000
1000
0001
0100
0000
0010
0000
1010
0000
0000
0101
0000
0000
1100
0000
,
0012
0100
0010
1003
,
0001
0010
0100
1000
0010
0100
0001
0100
0010
1000
0001
0100
0001
0000
0000
0000
,
1000
0100
1000
0010
0100
0010
1000
0100
,
0010
0001
0010
0100
1000
0001
0100
0010
,
1000
0100
0001
0100
1000
0010
0100
0001
,
0010
1000
0010
0001
0100
0010
1000
0001
,
1000
0100
0010
1000
0001
0100
0010
0001
,
1000
0010
0100
0001
0010
0100
0010
0001
,
1000
0010
0001
1000
0100
0001
1000
0010
,
0001
0000
1000
0000
0100
0000
0001
0000
1000
0001
1000
0000
0001
0100
0001
0100
,
0010
0000
1000
0000
1100
0000
0000
0000
0100
0000
0010
0001
1000
0000
0001
0000
,
0100
0000
0010
1000
0100
0000
0010
0000
0001
0010
0100
1000
0001
0000
0100
0000
,
0010
0000
1000
0000
1100
0000
0000
0000
0100
0000
0010
0100
0001
0000
1000
0000
,
0001
0010
0001
0010
0100
1000
0100
1000
0001
0100
0010
1000
0001
0000
0000
0000
,
1001
0000
0000
0000
0000
0000
0000
0000
0001
0000
0000
0000
0100
0000
0000
0000
0000
0000
0000
0000
0010
0000
0000
0000
1000
0000
0000
0000
0010
0000
0000
0000
0200
0300
0000
0000
0200
0300
0000
0000
1000
0000
0000
0000
0000
0000
0000
0000
1001
0000
0000
0000
0000
0000
0000
0000
0001
0000
0000
0000
0100
0000
0000
0000
,
0010
1000
0010
1000
0000
0010
0100
0010
1000
0100
0010
0001
0011
0000
0001
1000
,
1001
0000
0010
0100
0000
0010
1000
0010
0100
0001
1000
0000
1100
0000
0100
0010
,
0001
0000
0001
0000
1000
0000
0010
0000
0000
0000
0010
0000
0100
0000
0001
0000
1000
0000
0000
0000
0100
0000
0000
0000
0001
0000
0000
0100
0000
0000
0010
0000
,
1000
0100
1000
0100
1000
0100
1000
0100
0010
0001
0010
0001
0010
0000
0001
1000
,
0001
0100
0001
0100
0001
0100
0010
0100
0010
0000
0200
0000
0000
0000
0301
0000
,
0011
0001
1000
1010
0000
0110
0100
0001
,
1001
1000
0100
1100
0000
0110
0100
0001
,
0101
0100
0010
1010
0000
1100
0100
0010
,
0011
0001
1000
1010
0000
0101
0100
0010
,
0110
0100
1000
1001
0000
0101
0001
0010
,
0110
0100
1000
1010
0000
0110
0100
0001
,
0101
0100
0110
0000
1000
0010
0100
0001
,
2000
0000
0000
0000
0000
0000
0000
0000
0000
0000
0000
0000
0000
0000
0000
0000
3020
0030
0000
0000
0000
0000
0000
0000
0020
0030
0000
0000
0000
0000
0000
0000
0001
0000
0000
0000
0000
0000
0000
0000
0100
0000
0000
0000
0000
0000
0000
0000
0010
0000
0000
0000
0000
0000
0000
0000
1000
0000
0000
0000
0000
0000
0000
0000
,
0001
0000
0100
0010
1000
0000
0100
0000
0010
0000
0001
1000
0010
0000
0100
0000
,
0010
0000
1000
0100
0010
0000
0001
0000
1000
0000
0001
0100
0010
0000
0100
0000
,
0001
0000
0010
0100
1000
0000
0001
0000
0100
0000
0010
1000
0100
0000
0010
0000
,
0001
0100
0010
0100
0001
0000
1000
0000
1000
0000
1000
0000
1001
0000
0000
0000
,
0001
0000
0100
0010
0100
0000
0001
0000
1000
0000
0100
0010
0100
0000
1000
0000
,
0001
0100
0001
0100
0010
1000
0010
1000
0001
0000
0000
0101
0000
0000
1010
0000
,
0110
0100
0001
0100
0001
1000
0001
1000
,
0001
0100
0010
0100
0001
1000
0100
0010
0001
1000
0010
0100
0001
0000
0000
0000
,
1000
0000
0100
0000
0110
0000
0000
0000
0010
0000
0001
1000
0001
0000
0100
0000
,
0010
0000
1000
0100
0010
0000
0001
0000
1000
0001
0100
0010
1000
0000
0100
0000
,
0010
0000
0001
0000
0011
0000
0000
0000
0001
0000
0100
0010
1000
0000
0010
0000
,
0100
0000
0001
1000
0100
0000
1000
0000
0010
1000
0100
1000
0010
0100
0001
0000
,
0100
0000
0010
0000
0110
0000
0000
0000
0001
0000
0100
0010
1000
0000
0100
0000
,
0010
0000
0100
1000
0010
0000
0100
0000
0001
0010
0100
0010
0001
0000
1000
0000
,
0001
0100
0001
0000
0100
0010
0100
0000
0010
1000
0010
0000
1000
0100
1000
0000
,
0001
0100
0001
0100
0010
1000
0010
1000
0001
0010
0100
1000
0100
0010
0001
1000
,
0001
0100
0001
0100
1000
0100
1000
0100
,
0001
0010
0001
0010
1000
0010
1000
0010
;

//--------------- dance-double - 覚醒ノFred-104 ----------------
#NOTES:
     dance-double:
     覚醒ノFred-104:
     Easy:
     10:
     :
00000000
00000000
00000000
00000000
,
00000000
00000000
00000000
00000000
,
00000000
00000000
00000000
00000000
,
00000000
00000000
00000000
00000000
,
00000000
00000000
00000000
00000000
,
00000000
00000000
00000000
00000000
,
00000000
00000000
00000000
00000000
,
00000000
00000000
00000000
00000000
,
00000000
00000000
00000000
00000000
,
00011000
00000000
00001000
00010000
,
00001000
00100000
00010000
10000000
,
00010000
00000000
01000000
00100000
,
10000000
01000000
00100000
00001000
,
00011000
00000000
00010000
00000010
,
00001000
00000100
00010000
00000010
,
00001000
00000000
00000001
00000100
,
00000010
00000000
00001000
00000000
00000001
00000100
00000001
00000000
,
00000100
00000000
00000110
00000000
00000000
00000001
00000000
00000100
,
00000000
00000010
00000000
00010000
00000000
00001000
00000000
00001000
,
00100000
00000000
00110000
00000000
00000000
00010000
00000000
00010000
,
00000000
10000000
00000000
00100000
00000000
01000000
00000000
00010000
,
10000000
00000000
11000000
00000000
00000000
00100000
00000000
00001000
,
00000000
00010000
00000000
00000100
00000000
00000100
00000000
00001000
,
00000001
00000100
00000010
00001000
,
00000001
00000000
00000100
00000010
00000000
00001000
00000001
00000000
,
00001001
00000000
00000001
00000100
,
00000001
00000000
00000100
00000000
00001000
00010000
00001000
00000000
,
00011000
00000000
00010000
01000000
,
00010000
00000000
01000000
00000000
10000000
01000000
10000000
00000000
,
00010000
00000000
00000000
00000000
10000000
00000000
01000000
00100000
,
01000000
00000000
00000000
00000000
00100000
00000000
00001000
00010000
,
00001000
00000000
00000000
00000000
00010000
00000000
00000010
00001000
,
00000010
00000000
00000000
00000000
00000100
00000000
00000001
00000100
,
00000001
00000000
00000000
00000000
00001000
00000000
00000010
00010000
,
00000010
00000000
00000000
00000000
00010000
00000000
00001000
01000000
,
00001000
01000000
00001000
00100000
,
00010000
00100000
00010000
00000000
00001000
00010000
00001000
00000000
,
00011000
00000000
00000000
00010000
00000000
00000000
00001000
00000000
00000100
00000000
00000000
00000000
00000110
00000000
00000000
00000000
,
00000010
00000000
00000000
00000001
00000000
00000000
00001000
00000000
00000010
00000000
00000000
00000000
00000110
00000000
00000000
00000000
,
00010000
00000000
00000000
00001000
00000000
00000000
00100000
00000000
00010000
00000000
00000000
00000000
10010000
00000000
00000000
00000000
,
10000000
00000000
00000000
01000000
00000000
00000000
00100000
00000000
00001000
00000000
00000000
00000000
00010000
00000000
00001000
00000000
,
00011000
00010000
00000100
00000010
,
00000001
00000100
00000001
00000100
00000010
00000010
00000000
00001000
,
00000100
00000000
00010000
00001000
00000000
00100000
00001000
00000000
,
01000000
00000000
00001000
00010000
00000000
00000010
00001000
00000000
,
00000100
00000000
00001000
00000010
00000000
00010000
00001000
00000000
,
00100000
00000000
00001000
00010000
00000000
00000100
00001000
00000000
,
00000100
00000000
00000010
00001000
00000000
00000100
00010000
00000000
,
00001000
00000000
00100000
00010000
00000000
00100000
01000000
00000000
,
00010000
00000000
10010000
00000000
10000000
00100000
01000000
00000000
,
00010000
00000000
00100000
00001000
00010000
00000000
00001000
00000000
,
00010000
00000100
00010000
00000100
00000000
00001000
00000010
00000000
,
00000100
00000010
00000100
00000010
00000000
00000100
00000001
00000000
,
00000001
00000100
00000001
00000100
00000000
00000010
00001000
00000000
,
00000100
00010000
00001000
00020000
00000000
00000000
00030000
00000000
,
00001000
00100000
00001000
00000000
00100000
00010000
00100000
00000000
,
00010000
00000000
00000000
00000000
10000000
00000000
00000000
00000000
00100000
00000000
00000000
10000000
00000000
00000000
00100000
00000000
,
02000000
00010000
10000000
03010000
,
02020000
03030000
00022000
00033000
,
00011000
00001000
00010000
00000100
,
00001000
00000000
00000001
00000000
00000100
00000000
00000010
00000100
,
00000010
00001000
00000100
00000010
,
00000001
00000000
00000100
00000000
00001000
00000000
00010000
00001000
,
00010000
00001000
00100000
00010000
,
10000000
00000000
00010000
00000000
01000000
00000000
00100000
01000000
,
00100000
10000000
01000000
00100000
,
00001000
00000000
00010000
00000000
00001000
00010000
00001000
00000000
,
00011000
00000000
00000010
00001000
,
00000001
00000000
00000100
00000000
00000010
00000100
00000010
00000000
,
00001001
00000000
00000001
00000100
,
00001000
00010000
00001000
00000000
00010000
00001000
00010000
00000000
,
00011000
00000000
00000000
00001000
00000000
00000000
00100000
00000000
00010000
00000000
00000000
00000000
10010000
00000000
00000000
00000000
,
01000000
00000000
00000000
00100000
00000000
00000000
00010000
00000000
10000000
00000000
00000000
00000000
10100000
00000000
00000000
00000000
,
00100000
00000000
00000000
01000000
00000000
00000000
00001000
00000000
00010000
00000000
00000000
00000000
00010100
00000000
00000000
00000000
,
00000100
00000000
00000000
00000000
00000000
00000000
00001000
00000000
00000000
00000000
00000000
00000000
00000001
00000000
00000000
00000000
00000100
00000000
00000000
00000000
00000010
00000000
00000000
00000000
00000100
00000000
00000000
00000100
00000000
00000000
00000100
00000000
,
00000002
00000023
00000230
00020300
,
00031000
00100000
00001000
00100000
00010000
10000000
00000000
00100000
,
01000000
00000000
00001000
00010000
00000000
00000010
00010000
00000000
,
00000100
00000000
00010000
00001000
00000000
00100000
00010000
00000000
,
01000000
00000000
00010000
00100000
00000000
00001000
00010000
00000000
,
00000010
00000000
00010000
00001000
00000000
01000000
00010000
00000000
,
01000000
00000000
00100000
00010000
00000000
01000000
00001000
00000000
,
00010000
00000000
00000010
00001000
00000000
00000010
00000100
00000000
,
00001000
00000000
00001001
00000000
00000001
00000010
00000100
00000000
,
00001000
00000000
00000010
00010000
00001000
00000000
00010000
00000000
,
00001000
01000000
00001000
01000000
00000000
00010000
00100000
00000000
,
01000000
00100000
01000000
00100000
00000000
01000000
10000000
00000000
,
10000000
01000000
10000000
01000000
00000000
00100000
00010000
00000000
,
01000000
00001000
00010000
00002000
00000000
00000000
00003000
00000000
,
00010000
00000010
00010000
00000000
00000010
00001000
00000010
00000000
,
00001000
00000000
00000000
00000000
00000001
00000000
00000000
00000000
00000010
00000000
00000000
00000001
00000000
00000000
00000010
00000000
,
00000200
00001000
00000001
00001300
,
00000001
00000000
00000000
00001000
00000000
00000000
00010000
00000000
,
00011000
00000000
00001000
00100000
,
00010000
00000000
01000000
00000000
00100000
10000000
01000000
00000000
,
00100000
00000000
00001000
00010000
,
00001000
00000000
00000100
00000000
00000010
00000001
00001000
00000000
,
00001001
00000000
00000001
00000100
,
00001000
00000000
00010000
00000000
00001000
00010000
01000000
00000000
,
20000000
30200000
02300000
03020000
,
10030000
01000000
10000000
00000000
00100000
01000000
00100000
00000000
,
00001000
00010000
00001000
00000100
,
00000001
00000000
00001000
00000000
00000100
00000010
00000100
00000001
;

//--------------- dance-double - 覚醒ノFred-104 ----------------
#NOTES:
     dance-double:
     覚醒ノFred-104:
     Medium:
     15:
     :
00000000
00000000
00000000
00000000
,
00000000
00000000
00000000
00000000
,
00000000
00000000
00000000
00000000
,
00000000
00000000
00000000
00000000
,
00000000
00000000
00000000
00000000
,
00000000
00000000
00000000
00000000
,
00000000
00000000
00000000
00000000
,
00000000
00000000
00000000
00000000
,
00000000
00000000
00000000
00000000
,
00001000
00010000
00001000
00000000
00100000
00010000
00100000
00010000
,
10000000
00100000
01000000
00010000
01000000
00100000
10000000
01000000
,
00100000
00001000
00010000
00000000
00001000
00010000
00000010
00001000
,
00000001
00000010
00000100
00000010
00000001
00001000
00000001
00000100
,
00000010
00010000
00001000
00000000
00010000
00100000
01000000
10000000
,
00010000
01000000
10000000
01000000
00010000
10000000
00100000
01000000
,
00010000
00100000
10000000
00000000
00100000
00010000
01000000
00100000
,
10000000
00000000
01000000
00000000
00100000
00000000
00001000
00000000
00010000
00001000
00010000
00000000
00000100
00001000
00000100
00000000
,
00010000
00001000
00010000
00000010
00001000
00000100
00000010
00000011
,
00000000
00000101
00000000
00000001
00001000
00000001
00000100
00000110
,
00000000
00010000
00001000
00100000
00001000
00010000
00000010
00010010
,
00000000
00010000
00001000
01000000
00001000
00010000
00000100
00010100
,
00000000
00011000
00000000
00001000
00010000
00100000
01000000
01100000
,
00000000
01000000
10000000
00100000
01000000
01010000
00000000
00010000
,
01000000
10000000
01000000
00010000
00001000
00010000
00001000
00000100
,
00000001
00000000
00001000
00000010
00000000
00000100
00000101
00000000
,
00000001
00000010
00000100
00000000
00001000
00000010
00000100
00000001
,
00000100
00001000
00010000
01000000
10000000
00010000
01000000
00000000
,
00010000
01000000
00100000
00000000
10000000
00100000
01000000
00010000
,
10000000
00100000
00010000
00001000
00000010
00000001
00001000
00000000
,
00000001
00000010
00000100
00000010
00000001
00001000
00000001
00000100
,
00000000
00000100
00001000
00010000
00001000
00010000
01000000
00100000
,
00000000
01000000
00100000
10000000
00100000
01000000
00010000
10000000
,
00000000
01000000
00100000
00001000
00010000
00000100
00000010
00000100
,
00000000
00001000
00000001
00000100
00000010
00001000
00000001
00000010
,
00000000
00000001
00000100
00001000
00010000
00001000
00000100
00000001
,
00000000
00000100
00000010
00001000
00000001
00000010
00000100
00000010
,
00000011
00001010
00010010
00011000
,
00101000
00000000
00000000
00001000
00010000
00001000
00100000
00010000
02000000
00000000
00000000
00000000
03100000
00000000
00000000
00000000
,
10000000
00000000
00100000
01000000
00000000
00100000
01000000
00010000
10000000
00000000
00000000
01000000
01100000
00000000
00000000
00001000
,
00011000
00000000
00001000
00010000
00000000
00000010
00001000
00000010
00000200
00000000
00000000
00000000
00000301
00000000
00000000
00000000
,
00000100
00000000
00000010
00001000
00000000
00000001
00000010
00000100
00020000
00000000
00000000
00030000
00010010
00000000
00101000
00000000
,
00011000
00001000
00010000
00100000
,
10000000
00010000
01000000
00100000
10000000
10100000
00000000
00010000
,
00100000
01000000
10000000
11000000
00000000
01000000
00100000
01000000
,
00001000
00010000
00001000
00101000
00000000
00001000
00010000
00000100
,
00001000
00000100
00000010
00000011
00000000
00000001
00000100
00001000
,
00000100
00000001
00001000
00001010
00000000
00000010
00000100
00000001
,
00000010
00000100
00010000
00011000
00000000
00100000
00010000
01000000
,
00100000
10000000
01000000
01100000
00000000
00100000
01000000
00001000
,
00020000
00000000
00100000
00000000
00030010
00010000
00001000
00100000
,
00010000
00000000
01000000
00001000
00010000
00010000
00010000
00010000
,
00001000
00010000
00001000
00000200
00000000
00000301
00000100
00001000
,
00000100
00000001
00000010
00000200
00000000
00010300
00001000
00010000
,
00100000
10000000
00100000
00020000
00000000
01030000
00100000
10000000
,
01000000
00010000
00001000
00000200
00000000
00000000
00000300
00000000
,
00000001
00000001
00000100
00000100
00000010
00000010
00001000
00001000
,
00000001
00000000
00000010
00000000
00000100
00000000
00001000
00000000
00000100
00000000
00000000
00011000
00000000
00000000
00001000
00000000
,
00020000
01000000
00000100
01030000
,
00001000
00000000
00010000
00000000
00001000
00000000
00010000
00000000
00001000
00010000
00001000
00010000
00001000
00000000
00000000
00000000
,
00011000
00001000
00000010
00000001
,
00001000
00000001
00000100
00000010
00001000
00000100
00000010
00000001
,
00000100
00001000
00010000
01000000
,
10000000
00010000
00100000
01000000
10000000
00010000
01000000
10000000
,
01000000
00010000
10000000
01000000
,
00010000
01000000
10000000
00100000
01000000
00010000
00100000
00010000
,
00001000
00000010
00000001
00000100
,
00001000
00000010
00000100
00000001
00000001
00000001
00001001
00000000
,
00000001
00000100
00000101
00000000
00000100
00000010
00001000
00000010
,
00000100
00001000
00010000
00100000
01000000
00001000
00010000
00000000
,
00000100
00010000
00011000
00000000
00001000
00100000
00010000
10000000
,
00010000
00010000
10000000
10000000
00010000
10000000
10010000
00000000
,
12000000
00000000
00000000
03200000
00000000
01300000
00010000
00100000
00001000
00000000
00010000
00000000
00000010
00000000
00001000
00000000
,
00000001
00000100
00001000
00000200
00000000
00000301
00000100
00001000
00000200
00000000
00000000
00000301
00001001
00000000
00000000
00000010
,
00020000
00000000
00000000
00032000
00000000
00103000
00010000
00100000
01000000
00000000
10000000
00000000
01000000
00000000
00100000
00000000
,
10000000
00000000
01000000
00000000
00010000
00000000
02000000
00000000
00000000
00000000
13000000
00000000
01000000
00000000
00010000
00000000
01000000
00000000
00000000
00000000
10000000
00000000
00000000
00000000
00100000
00000000
00000000
00010000
00000000
00000000
00001000
00000000
,
00000010
00000001
00001000
00000001
00000100
00000010
00001000
00000001
,
00000100
00000100
00000100
00000100
00000010
00000110
00000000
00000100
,
00000010
00000100
00000001
00000101
00000000
00000100
00000010
00000100
,
00010000
00001000
00010000
00010010
00000000
00010000
00001000
01000000
,
00010000
01000000
00100000
10100000
00000000
10000000
01000000
00010000
,
01000000
10000000
00010000
00110000
00000000
00100000
01000000
10000000
,
00100000
01000000
00001000
00011000
00000000
00000010
00001000
00000100
,
00000010
00000001
00000100
00000110
00000000
00000010
00000100
00010000
,
00002000
00000000
00000010
00000000
00103000
00001000
00010000
00000010
,
00001000
00000000
00000100
00010000
00001000
00001000
00001000
00001000
,
00010000
00001000
00010000
02000000
00000000
13000000
01000000
00010000
,
01000000
10000000
00100000
02000000
00000000
03001000
00010000
00001000
,
00000010
00000001
00000010
00002000
00000000
00003100
00000010
00000001
,
00000100
00001000
00010000
02000000
00000000
00000000
03000000
00000000
,
10000000
10000000
01000000
01000000
00100000
00100000
00010000
00010000
,
10000000
00000000
00100000
00000000
01000000
00000000
00010000
00000000
01000000
00000000
00000000
00011000
00000000
00000000
00001000
00000000
,
00020000
00000100
01000000
00030100
,
00010000
00001000
00010000
00001000
00010000
00000000
00000100
00001000
00000100
00001000
00000100
00000000
00000110
00000000
00000000
00000000
,
00000001
00000100
00000001
00000100
00000010
00000100
00000001
00000010
,
00000100
00010000
00001000
00010000
00100000
10000000
00010000
00000000
,
10000000
01000000
00100000
01000000
10000000
00100000
01000000
00100000
,
10000000
00010000
00100000
01000000
00001000
00010000
00001000
00000000
,
00010000
00001000
00000100
00000001
00001000
00000100
00000010
00000001
,
00000100
00000010
00000100
00000001
00000010
00000100
00001000
00001000
,
00000002
00000203
00002300
00023000
,
01030000
00000000
10000000
00000000
00010000
00000000
01000000
00000000
00100000
01000000
00100000
01000000
00100000
00000000
00000000
00000000
,
10000000
01000000
10000000
00100000
01000000
00010000
00100000
00001000
,
00010000
00000100
00001000
00000010
00000100
00000001
00001000
00000001
;

//--------------- dance-double - 覚醒ノFred-104 ----------------
#NOTES:
     dance-double:
     覚醒ノFred-104:
     Hard:
     17:
     :
00000000
00000000
00000000
00000000
,
00000000
00000000
00000000
00000000
,
00000000
00000000
00000000
00000000
,
00000000
00000000
00000000
00000000
,
00000000
00000000
00000000
00000000
,
00000000
00000000
00000000
00000000
,
00000000
00000000
00000000
00000000
,
00000000
00000000
00000000
00000000
,
00000000
00000000
00000000
00000000
,
00000001
00000100
00000110
00000000
00000001
00000100
00001000
00010000
,
00001000
00000000
00010000
00000000
01000000
00000000
10000000
00000000
00010000
01000000
00010000
01000000
00010000
00000000
01000000
00000000
,
00100000
10000000
10100000
00000000
10000000
00100000
00010000
00100000
,
00010000
00000000
00001000
00000000
00000010
00000000
00000001
00000000
00001000
00000001
00001000
00000001
00001000
00000000
00000001
00000000
,
00000100
00000010
00000110
00000000
00000001
00000100
00001000
00000100
,
00000001
00000000
00000010
00000000
00000100
00000000
00010000
00000000
00001000
00010000
00001000
00010000
00001000
00000000
00100000
00000000
,
00010000
10000000
11000000
00000000
00100000
01000000
00010000
10000000
,
00010000
00000000
01000000
00000000
00100000
00000000
10000000
00000000
01000000
00100000
01000000
00000000
00100000
00001000
00010000
00000100
,
00001000
00000100
00000010
00000001
00001000
00000001
00000100
00000110
,
00000000
00000010
00010000
00001000
00100000
00010000
01000000
01100000
,
00000000
00100000
10000000
01000000
00010000
00001000
00000100
00000110
,
00000000
00000010
00000001
00001000
00000001
00000100
00000010
00001010
,
00000000
00000001
00000100
00001000
00010000
01000000
10000000
10010000
,
00000000
10000000
00100000
00010000
00001000
00000010
00000001
00001001
,
00000000
00000001
00000100
00000010
00001000
00000001
00000010
00000100
,
00010000
00000000
00000010
00010000
00000000
00001000
01000000
00000000
,
10010000
00000000
01100000
00000000
00010000
01000000
00100000
10000000
,
00100000
00000000
00010000
00000000
00001000
00000000
00100000
00000000
00001000
00010000
00000010
00001000
00000100
00000000
00010000
00000000
,
00011000
00000000
00001010
00000000
00000010
00000001
00001000
00000001
,
00000100
00000000
00000010
00000000
00001000
00000000
00000001
00000000
00000010
00000100
00000010
00000100
00001000
00000000
00010000
00000000
,
00010000
00100000
10000000
00100000
00010000
00100000
10000000
00100000
,
00000000
00001000
00000010
00000001
00000010
00001000
00000010
00000001
,
00000000
00000100
00001000
00010000
01000000
10000000
01000000
00010000
,
00000000
00010000
01000000
10000000
01000000
00010000
01000000
10000000
,
00000000
01000000
00010000
00001000
00000100
00000001
00000100
00001000
,
00000000
00010000
00100000
10000000
00100000
00010000
00001000
00000010
,
00000110
00000100
00000001
00001000
00000001
00000010
00000100
00000010
,
00000001
00000100
00000010
00000000
00001000
00000100
00010000
00000000
00001000
01000000
00010000
10000000
00100000
00000000
00000000
00000000
,
02100000
00000000
00000000
03010000
01000000
10000000
01000000
00010000
00100000
01000000
11000000
00000000
10010000
00000000
00010000
01000000
,
00100000
00000000
01000000
01000000
00000000
00001000
00010000
00001000
00000100
00000000
00000000
00000010
00000011
00000000
00000000
00000001
,
00001001
00000000
00000001
00000100
00000000
00000100
00000010
00001000
00000001
00000010
00000100
00000000
00011000
00000000
00010000
00001000
,
00100000
00000000
00010000
01000000
00000000
10000000
01000000
00010000
00001000
00000000
00000001
00000000
00000101
00000000
00001100
00000000
,
00001001
00001000
00010000
10000000
,
00010000
01000000
00100000
01000000
00010000
10000000
00010000
10000000
01000000
00000000
00200000
00000000
00000000
00000000
01300000
00000000
,
11000000
10000000
00100000
01100000
00000000
01010000
00010000
00001000
,
00011000
00010000
00000100
00001100
00000000
00001010
00001000
00000001
,
00000101
00000100
00000010
00000110
00000000
00001001
00000001
00000100
,
00000110
00000010
00001000
00001100
00000000
00010100
00010000
00001000
,
01001000
01000000
00010000
00110000
00000000
01100000
01000000
10000000
,
10010000
00010000
00100000
00110000
00000000
01100000
01000000
10000000
,
10200000
00000000
00010000
00300000
10000000
00010000
01000000
00100000
,
10000000
00000000
00000000
00000000
01000000
00000000
00100000
00000000
00001000
00010000
00001000
00010000
00001000
00010000
00001000
00000000
,
00010000
00000000
00000100
00001000
00000100
00000000
00000120
00000000
00000000
00000000
00000031
00000000
00001000
00000000
00000001
00000000
,
00000100
00000000
00000010
00001000
00000010
00000000
00020010
00000000
00000000
00000000
00031000
00000000
00100000
00000000
00010000
00000000
,
10000000
00000000
00010000
01000000
00010000
00000000
00210000
00000000
00000000
00000000
01300000
00000000
10000000
00000000
00010000
00000000
,
01000000
00100000
01000000
00100000
01000000
00000000
00001000
00000000
00001000
00000000
00001000
00000000
00011000
00000000
00000000
00000000
,
00010000
00001000
00000010
00000001
00001000
00000100
00000001
00001000
,
00000100
00000000
00000010
00000000
00001000
00000000
00000100
00000000
00010100
00000000
00000000
00011000
00000000
00000000
01001000
00000000
,
02010000
00100000
10000000
03010000
,
10000000
01000000
00100000
00010000
00100000
00001000
00010000
00001000
00100000
00001000
00010000
00000010
00001000
00000000
00000000
00000000
,
00000001
00000100
00000001
00000100
00001000
00000100
00001000
00000100
,
00001000
00010000
00001000
00010000
01000000
00010000
01000000
10000000
,
00100000
10000000
00100000
10000000
00100000
00010000
00100000
00010000
,
00001000
00010000
00001000
00000010
00001000
00000010
00000001
00000010
,
00000001
00000100
00000010
00001000
00000100
00000010
00000001
00000100
,
00001000
00010000
01000000
10000000
00010000
01000000
00100000
10000000
,
00100000
00010000
00001000
00000010
00000001
00001000
00000001
00000100
,
00000010
00000000
00001000
00000000
00000100
00000000
00010000
00000000
00001000
00010000
00001000
00000000
00010000
00000010
00001000
00000010
,
00000100
00000001
00001001
00000000
00000001
00000100
00001000
00010000
,
01000000
00000000
10000000
00000000
00010000
00000000
01000000
00000000
00010000
00100000
01000000
00100000
00010000
00000000
10000000
00000000
,
00100000
01000000
01100000
00000000
00001000
00010000
00001000
00000100
,
00000010
00000001
00001000
00000001
00000100
00000010
00001000
00000100
00010000
00001000
00010000
00000010
00001000
00000000
00000000
00000000
,
00001001
00000000
00000001
00000100
00000000
00000100
00000010
00001000
00000100
00001000
00010000
00000000
00011000
00000000
00010000
01000000
,
00100000
00100000
10000000
00100000
00000000
00100000
00010000
00100000
01000000
00000000
10000000
00010000
10000000
00000000
01000000
00100000
,
01100000
00000000
01000000
01000000
00000000
00010000
00001000
00010000
00001000
00000100
00000010
00000000
00001001
00000000
00000001
00000100
,
00000010
00000000
00001000
00000000
00000010
00000000
00000100
00000000
00000000
00000000
00000001
00000000
00000010
00000000
00000100
00000000
00010000
00000000
00000000
00000000
00001000
00000000
00000000
00000000
00010000
00000000
00000000
00010000
00000000
00000000
00010000
00000000
,
01000000
00010000
01000000
00010000
10000000
00010000
10000000
00010000
10000000
01000000
10000000
01000000
00100000
00000000
00001000
00010000
,
00000010
00001000
00000010
00001000
00000001
00000100
00000001
00000100
00000010
00000000
00000200
00000000
00000000
00000000
00000301
00000000
,
00000011
00000001
00001000
00001010
00000000
00001001
00001000
00000010
,
00010010
00010000
00001000
00101000
00000000
01001000
00001000
00010000
,
00011000
00001000
00010000
00010100
00000000
00001010
00000010
00010000
,
00011000
00001000
00100000
00110000
00000000
10010000
00010000
01000000
,
01100000
00100000
10000000
11000000
00000000
01100000
00100000
00001000
,
00011000
00010000
00000100
00000110
00000000
00000011
00000001
00001000
,
00001020
00000000
00000001
00000000
00001030
00000001
00000100
00000010
,
00002000
00000000
00000000
00000000
00000000
00000000
00000000
00000000
00000000
00000000
00000000
00000000
00000000
00000000
00000000
00000000
00013000
00000000
00000000
00000000
00000000
00000000
00000000
00000000
00100000
00000000
00000000
00000000
00000000
00000000
00000000
00000000
10000000
00000000
00000000
00000000
00000000
00000000
00000000
00000000
00010000
00000000
00000000
00000000
00000000
00000000
00000000
00000000
02000000
03000000
00000000
00000000
00000000
00000000
00000000
00000000
02000000
03000000
00000000
00000000
00000000
00000000
00000000
00000000
,
10000000
00000000
00100000
01000000
00100000
00000000
20100000
00000000
00000000
00000000
31000000
00000000
00100000
00000000
00001000
00000000
,
00010000
00000000
00000100
00001000
00000100
00000000
00000120
00000000
00000000
00000000
00000031
00000000
00001000
00000000
00000001
00000000
,
00000100
00000000
00000010
00000100
00000010
00000000
00002010
00000000
00000000
00000000
00003001
00000000
00000100
00000000
00001000
00000000
,
00010000
00001000
00010000
00001000
00010000
00000000
01000000
00000000
01000000
00000000
01000000
00000000
01100000
00000000
00000000
00000000
,
00010000
00000000
01000000
00010000
01000000
00000000
00100000
10000000
00100000
00000000
10000000
01000000
10000000
00000000
01000000
00000000
,
00100000
00001000
00010000
00000000
00001000
00010000
00000100
00000000
00001100
00000000
00000000
00000101
00000000
00000000
00000110
00000000
,
00001010
00001000
00000001
00000000
00000100
00000010
00001000
00001000
,
00000001
00000010
00000100
00001000
00000100
00010000
00001000
00100000
00010000
00100000
01000000
10000000
00010000
00000000
00000000
00000000
,
10000000
00000000
01000000
00000000
01100000
00000000
00000000
00000000
00010000
00000000
00100000
01000000
00100000
00000000
00010000
00000000
,
01000000
00000000
00100000
10000000
00100000
00000000
01000000
00000000
00010000
00100000
00010000
00100000
00001000
00000000
00010000
00000000
,
00000100
00000000
00001000
00000000
00001001
00000000
00000000
00000000
00000001
00000000
00000100
00000010
00000100
00000000
00000001
00000000
,
00001000
00000000
00000100
00000010
00000001
00000000
00001000
00000000
00000001
00000100
00000010
00001000
00000001
00000010
00000100
00000000
,
00010000
00000000
00001000
00000000
00011000
00000000
00000000
00000000
00001000
00000000
00100000
00010000
10000000
00000000
00100000
00000000
,
01000000
00000000
00010000
00100000
01000000
00000000
10000000
00000000
00010000
01000000
00100000
10000000
01000000
00000000
00100000
00000000
,
00001000
00010000
00001000
00000000
00010000
00000010
00010000
00000000
00000010
00001000
00000010
00000000
00000100
00000001
00000100
00000000
,
00000001
00000010
00000001
00000010
00000001
00000100
00000001
00000100
00000010
00001000
00000010
00001000
00000100
00010000
00000100
00010000
,
00001000
00010000
00100000
01000000
10000000
00010000
00100000
01000000
,
00001000
00010000
00000100
00001000
00000001
00000100
00000010
00001000
;
