#TITLE:黒髪乱れし修羅となりて (STARDOM Remix);
#ARTIST:Endorfin.;
#TITLETRANSLIT:Kurokami midareshi shura to narite (STARDOM Remix);
#BANNER:Kurokami midareshi shura to narite (STARDOM Remix).png;
#BACKGROUND:Kurokami midareshi shura to narite (STARDOM Remix)-bg.png;
#CDTITLE:./CDTitles/DANCERUSH STARDOM.png;
#MUSIC:Kurokami midareshi shura to narite (STARDOM Remix).ogg;
#SAMPLESTART:31.035;
#SAMPLELENGTH:15;
#BPMS:0=145;
#BGSTAGE:3;

//--------------- dance-single - Fred-104 ----------------
#NOTES:
     dance-single:
     Fred-104:
     Beginner:
     3:
     :
0000
0000
0000
0000
,
0000
0000
0000
0000
,
0000
0000
0000
0000
,
0000
0000
0000
0000
,
0000
0000
0000
0000
,
1000
0000
0000
0000
,
0000
0000
0000
0000
,
0001
0000
0000
0000
,
0000
0000
0000
0000
,
1000
0000
1000
0000
,
1000
0000
0000
0000
,
0001
0000
0001
0000
,
0001
0000
0000
0000
,
1000
0000
1000
0000
,
1000
0000
0000
0000
,
0001
0000
0001
0000
,
0001
0000
0000
0000
,
1001
0000
0000
0000
,
0000
0000
0000
0000
,
1000
0000
0100
0000
,
0010
0000
0000
0000
,
0010
0000
0001
0000
,
1000
0000
0000
0000
,
0001
0000
1000
0000
,
0010
0000
0000
0000
,
0100
0000
0100
0000
,
0001
0000
0001
0000
,
1001
0000
0000
0000
,
2000
0000
0000
3000
,
0002
0000
0000
0003
,
2000
0000
0000
3000
,
0002
0000
0003
0000
,
0020
0000
0000
0030
,
0200
0000
0000
0300
,
0020
0000
0000
0030
,
0002
0000
0003
0000
,
1000
0000
1000
0000
,
0100
0000
0100
0000
,
0001
0000
0001
0000
,
0010
0000
0010
0000
,
1000
0000
1000
0000
,
0001
0000
0001
0000
,
0010
0000
0010
0000
,
0100
0000
0100
0000
,
2000
0000
3000
0000
,
0002
0000
0003
0000
,
2000
0000
0000
0000
,
3000
0000
0000
0000
,
0002
0000
0000
0000
,
0003
0000
0000
0000
,
1000
0000
1000
0000
,
0100
0000
0100
0000
,
0010
0000
0010
0000
,
0001
0000
0001
0000
,
1000
1000
1000
0000
,
0001
0000
0001
0000
,
0100
0000
0100
0000
,
1000
0000
1000
0000
,
0100
0000
0100
0000
,
0001
0000
0001
0000
,
1000
0000
1000
0000
,
0100
0000
0100
0000
,
1000
0000
1000
0000
,
0001
0000
0001
0000
,
1000
0000
1000
0000
,
0100
0000
0000
0000
;

//--------------- dance-single - Fred-104 ----------------
#NOTES:
     dance-single:
     Fred-104:
     Easy:
     6:
     :
0000
0000
0000
0000
,
0000
0000
0000
0000
,
0000
0000
0000
0000
,
0000
0000
0000
0000
,
0000
0000
0000
0000
,
2000
0000
3000
0002
0000
0003
0200
0000
,
0000
0000
0000
0300
,
0002
0000
0003
2000
0000
3000
0020
0000
,
0000
0000
0000
0030
,
0200
0300
0002
0003
,
2000
3000
0100
0010
,
0002
0003
2000
3000
,
0001
0100
0010
0010
,
0200
0300
0002
1003
,
2000
3100
0100
0001
,
0200
0300
2000
3001
,
0001
0000
0100
0010
0100
0000
0001
0000
,
2002
0000
0000
0000
,
0000
0000
0000
3003
,
0001
1000
1000
0001
,
0100
0010
0200
0300
,
0001
0001
0010
0100
,
2000
3000
0002
0003
,
1000
1000
0010
1000
,
0100
0010
0002
0003
,
1000
0001
0100
0010
,
0100
0000
0000
0100
0000
0000
0001
0000
,
1000
0001
2002
3003
,
1000
0000
0100
0000
,
0001
0001
0010
0000
,
2000
3000
0002
0003
,
0010
0000
0002
2003
,
3001
0000
0100
0000
,
1000
1000
0010
0000
,
0002
0003
2000
3000
,
0001
1000
1001
1001
,
2001
3000
0002
0003
,
0100
0010
0010
1000
,
0200
0300
0020
0030
,
0001
0001
1000
0001
,
0200
0300
2000
3000
,
0100
0010
0010
0100
,
0002
0003
2000
3000
,
0100
0100
0010
0001
,
1000
0100
0110
0000
,
0001
0100
0110
0000
,
0002
0000
2003
0000
,
0002
0000
3003
0000
,
2000
0000
3002
0000
,
2000
0000
3003
0000
,
1001
0001
0010
0010
,
0100
0100
1000
1000
,
0001
0100
0010
0100
,
0001
0001
1000
0100
,
0010
0001
1000
0001
,
1001
0000
1000
0100
,
0010
0100
1000
0001
,
0100
1000
0100
0001
,
1000
0000
0000
0001
0000
0000
1000
0000
,
0001
0010
1000
0010
,
0001
1000
0001
0100
,
0010
1000
0100
0010
,
0001
0000
0000
1000
0000
0000
0010
0000
,
0100
0001
1000
0100
,
0001
0000
0100
0000
1000
0001
1000
0000
,
1001
0000
0000
0000
;

//--------------- dance-single - Fred-104 ----------------
#NOTES:
     dance-single:
     Fred-104:
     Medium:
     9:
     :
0000
0000
0000
0000
,
0000
0000
0000
0000
,
0000
0000
0000
0000
,
0000
0000
0000
0000
,
0000
0000
0000
0000
,
2000
0000
0000
3002
0000
0000
2003
0000
,
0000
0000
0000
3000
,
0200
0000
0000
0320
0000
0000
0032
0000
,
0000
0000
0000
0003
,
1000
0000
0000
0010
0010
0000
0000
0100
,
0100
0000
0000
0001
0001
0000
0010
0000
,
0100
0000
0000
0010
0010
0000
0000
0001
,
0001
0000
0100
0010
0100
0000
0010
0000
,
1000
0000
0000
0001
0001
0000
0000
0010
,
0010
0000
0000
1000
1000
0000
0010
0000
,
0001
0000
0000
0100
0100
0000
0000
1000
,
1000
0000
0100
0001
1000
0000
0100
0000
,
0220
0000
0000
0000
,
0000
0000
0000
0330
,
0001
0000
1000
0001
0010
0000
0100
0010
,
0001
0000
0100
0010
1000
0000
0001
0010
,
0100
0000
1000
0001
0100
0000
0010
0000
,
0200
0000
0010
0000
0010
0000
0310
1000
,
0001
0000
0010
0100
1000
0000
0100
0010
,
0001
0000
1000
0001
0100
0000
0010
1000
,
0010
0000
0000
0000
0100
0000
0001
0000
1000
0000
0000
1000
0000
0000
1000
0000
,
0100
0000
0000
0010
0000
0000
0001
0000
0000
1000
0000
0000
0010
0000
0100
0000
,
0001
0000
0000
0001
0000
0000
0001
0000
1000
0000
0001
0000
1001
0000
0000
0000
,
0001
0000
0010
0100
1000
0000
0010
0100
,
0001
0000
0010
1000
0010
0001
1000
0000
,
0020
0100
0230
0000
,
0301
1000
0200
0320
,
0031
0000
1000
0001
0100
0000
0010
1000
,
0100
0000
0001
0100
1000
0100
1000
0000
,
0002
0100
0203
0000
,
0310
0000
0000
0010
0000
0000
0010
0000
0110
0000
0000
0000
0110
0000
0000
0000
,
1001
0000
0000
1000
0100
0000
0000
0001
,
0100
0000
1000
0100
0010
0000
0001
0000
,
1001
0000
0000
0001
0100
0000
0000
1000
,
0100
0000
0001
0100
0010
0000
1000
0000
,
1001
0000
0000
1000
0010
0000
0000
0001
,
0010
0000
1000
0001
0010
0000
0100
0000
,
1001
0000
0000
0001
0010
0000
0000
1000
,
0010
0000
0001
1000
0010
0000
0100
0000
,
0001
0010
0001
0010
0001
0000
0001
0000
,
1000
0100
1000
0100
2000
0000
3002
0000
,
0203
0000
0320
2030
,
3200
0000
0320
0032
,
2003
0000
3020
0230
,
0302
0000
1000
1003
,
1001
0001
0100
0100
,
1000
1000
0010
0010
,
0001
0000
0000
0000
1000
0000
0001
0000
0100
0000
0000
0010
0000
0000
0100
0000
,
0001
1000
0100
0000
0010
0001
1000
0000
,
0001
0000
0000
0000
1000
0000
0000
0000
0001
1000
0001
0000
1000
0000
0001
0000
,
1001
0000
0001
0010
0100
0000
1000
0010
,
0100
0000
0010
1000
0001
0000
1000
0000
,
0100
0000
0010
0001
0100
0010
1000
0000
,
0001
0000
0000
0010
0000
0000
0100
0000
0000
0010
0000
0000
0001
0000
1000
0000
,
0010
0000
0100
0001
1000
0000
0100
0001
,
0100
0000
0010
0001
1000
0010
1000
0100
,
0010
0000
0000
0000
0001
0000
0100
0000
1000
0000
0000
0100
0000
0000
0001
0000
,
0010
0000
0000
0100
0000
0000
1000
0000
0000
0010
0000
0000
0100
0000
0001
0000
,
1000
0100
0001
0000
0001
0100
1000
0000
,
0001
0000
0100
0000
1000
0000
0100
0000
0001
1000
0000
0001
1000
0000
0000
0000
,
1001
0000
0000
0000
;

//--------------- dance-single - Fred-104 ----------------
#NOTES:
     dance-single:
     Fred-104:
     Hard:
     13:
     :
0000
0000
0000
0000
,
0000
0000
0000
0000
,
0000
0000
0000
0000
,
0000
0000
0000
0000
,
0000
0000
0000
0000
,
2000
0000
3000
1000
0100
0010
0000
0010
,
0002
0000
0003
0002
0000
0103
0001
1000
,
0100
1000
0020
0000
0000
0000
0000
0000
,
0000
0030
0000
0000
,
1002
0000
0000
0000
0000
0000
1003
0100
2000
0000
0000
0000
0000
0000
3010
0100
,
0020
0000
1030
0100
0110
0000
0011
0000
,
2001
0000
0000
0000
3000
0000
0001
0100
0002
0000
0000
0000
0000
0000
0013
0100
,
0010
0000
0000
0000
0001
0000
0100
0010
0100
0000
0010
0000
1010
0000
0000
0000
,
1002
0000
0000
0000
0000
0000
0103
0010
0200
0000
0000
0000
0310
0000
1000
0100
,
2000
0000
0000
0000
3100
0000
0010
0001
0010
0000
0001
0000
1001
0000
0000
0000
,
0110
0000
0000
0110
0000
0000
1000
0001
0020
0000
0000
0000
0130
0000
0010
0001
,
0200
0000
0000
0000
0310
0000
1000
0001
0010
0000
0100
0000
1000
0000
0001
0000
,
2002
0000
0000
0000
,
0000
0000
0000
0000
0000
0000
0003
3000
,
0001
0000
0010
0000
0100
0000
1000
0001
1000
0000
0001
0000
0100
0000
0010
0000
,
1000
0000
0100
0000
0001
0000
0100
0010
0100
0000
0010
0000
0001
0000
1000
0000
,
0001
0000
0100
0000
0010
0000
1000
0001
1000
0000
0001
0000
0010
0000
0100
0000
,
1000
0000
0001
0100
0001
0000
1000
0010
1000
0000
0100
0000
0010
0000
0001
0000
,
1000
0000
0001
0000
0100
0000
0010
1000
0010
0000
0100
0000
0001
0000
1000
0000
,
0100
0000
0010
0000
0001
0000
1000
0001
1000
0000
0001
0000
0100
0000
0010
0000
,
0110
0000
0000
0000
1000
0000
0001
0010
0001
0000
0000
1000
0000
0000
0010
0000
,
0110
0000
0000
0100
0000
0000
0101
0000
0000
0001
1000
0000
0100
0000
0010
0000
,
0011
0000
0000
1000
0000
1000
0001
0000
1000
0000
0001
0000
1001
0000
0000
0000
,
1000
0000
0001
0010
0000
0010
0001
0000
1000
0000
0001
0000
0100
0000
0010
0000
,
1000
0000
0001
0010
0000
0010
0100
0000
0001
0000
0100
0000
1000
0000
0001
0000
,
1000
0020
0001
0000
0100
0000
1030
0000
,
0001
0000
0000
0000
0000
0000
0010
0000
0000
0100
0000
0000
0000
0000
0000
0100
0000
0000
1000
0000
0000
0000
0000
0000
0010
0000
0000
0000
0100
0000
0000
0000
0010
0000
0000
0000
0100
0000
0000
0000
0001
0000
0000
0000
1000
0000
0000
0000
,
0001
0000
1000
0001
0000
0001
0100
0000
0010
0000
1000
0000
0100
0000
0001
0000
,
0100
0000
0010
0001
0000
0001
1000
0000
0010
0000
0001
0000
0010
0000
0100
0000
,
0001
0020
0100
0000
1000
0000
0031
0000
,
1000
0000
0001
1000
0000
1000
0001
0000
1000
0100
0010
0000
0001
0100
0010
0000
,
0110
0000
0100
0000
0001
0000
1000
0100
1000
0000
0001
0000
0010
0000
0100
1000
,
0100
0000
0010
0000
0001
0000
1000
0010
0100
0000
0001
0000
1000
0000
0000
0000
,
1001
0000
0001
0000
0010
0000
0100
1000
0100
0000
0010
0000
0001
0000
1000
0010
,
0100
0000
0010
0000
1000
0000
0001
0010
0100
0000
1000
0000
0010
0100
0001
0000
,
1001
0000
1000
0000
0100
0000
0010
0001
0010
0000
0100
0000
1000
0000
0001
1000
,
0010
0000
0100
0000
0001
0000
1000
0100
0010
0000
0001
0000
1000
0000
0000
0000
,
1001
0000
0001
0000
0100
0000
0010
1000
0010
0000
0100
0000
0001
0000
1000
0100
,
0010
0000
0001
0000
1000
0000
0001
0100
0010
0000
1000
0000
0001
0000
0000
0000
,
0010
0100
0010
0000
0010
0100
0010
0000
0001
0000
0100
0000
0010
0000
1000
0000
,
0100
0010
0100
0000
0100
0010
0100
0000
2000
0000
0000
0000
3200
0000
0000
0000
,
0320
0000
0000
0001
0032
0000
1003
0100
,
2000
0000
0000
3001
0200
0000
1300
0100
,
0002
0000
0000
1003
0200
0000
0320
0000
,
0032
0000
1000
1003
,
1001
0001
0010
0010
,
0100
0100
1000
1000
,
0001
0000
0100
0000
0010
0000
1000
0000
0100
0000
0000
0110
0000
0000
1100
0000
,
1000
0000
0001
0000
1000
0010
1000
0000
0001
0000
0010
0000
0100
0000
1000
0000
,
0001
0000
0000
0000
0100
0000
0000
0000
0010
0000
0000
0000
0100
0000
0000
0001
0000
0000
0100
0000
0000
0000
0000
0000
0010
0000
0000
1000
0000
0000
0010
0000
0000
1000
0000
0000
0010
0000
0000
0000
0000
0000
1000
0000
0000
0000
0000
0000
,
1001
0000
0000
0000
0001
0000
0010
0100
0010
0000
0001
0000
1000
0000
0001
0000
,
0100
0000
0010
0000
1000
0000
0001
0100
0001
0000
1000
0000
0100
0000
0010
0000
,
0001
0000
1000
0000
0010
0000
0100
0001
0100
0000
0010
0000
0100
0000
0001
0000
,
0010
0000
0000
0110
0000
0000
0100
0000
0000
1100
0000
0000
1000
0001
1000
0001
,
1000
0000
0100
0000
0010
0000
0001
1000
0001
0000
0100
0000
0010
0000
0100
0000
,
0010
0000
1000
0000
0001
0000
0010
0001
0010
0000
0100
0000
1000
0000
0001
0000
,
0100
0000
1000
0000
0100
0000
0001
0000
0010
0000
0000
0110
0000
0000
0011
0000
,
0001
0000
0000
0101
0000
0000
1010
0000
0000
0011
0000
0000
1000
0000
0100
0000
,
0010
0000
0000
0010
0000
0000
0010
0000
0001
0000
1000
0000
0010
0000
0100
0000
,
0001
0000
1000
0001
0100
0000
0010
0000
0100
0001
0000
0001
0010
0000
0000
0100
,
0010
0000
0000
0000
;

//--------------- dance-single - Fred-104 ----------------
#NOTES:
     dance-single:
     Fred-104:
     Challenge:
     15:
     :
0000
0000
0000
0000
,
0000
0000
0000
0000
,
0000
0000
0000
0000
,
0000
0000
0000
0000
,
0000
0000
0000
0000
,
0002
0000
0000
0023
0000
0000
0230
0000
,
0000
0000
1000
1300
,
2000
0000
0000
3020
0000
0000
0230
0000
,
0000
0000
0001
0301
,
1002
0000
0000
0000
0000
0000
0000
0000
0000
0000
0000
0000
1003
0000
0000
0000
0000
0000
0100
0000
0010
0000
0100
0000
0020
0000
0000
0000
0000
0000
0000
0000
0000
0000
0000
0000
0031
0000
0000
0000
0000
0000
1000
0000
0000
0010
0000
0000
,
0200
0000
1300
0100
0110
0000
0101
0000
,
2001
0000
0000
0000
3001
0000
1000
0100
0020
0000
0000
0000
1030
0000
0010
0001
,
0200
0000
0000
0000
0310
0000
1000
0100
0010
0001
0010
0000
0011
0000
0000
0000
,
0001
0000
0000
0000
0000
0000
0100
0000
0000
0000
0000
0000
0010
0000
0000
0000
0000
0000
1000
0000
0100
0000
1000
0000
0100
0000
0000
0000
0000
0000
0010
0000
0000
0000
0000
0000
0001
0000
0000
0000
0000
0000
1000
0000
0000
0010
0000
0000
,
0100
0000
0001
0000
0010
0000
0100
0010
0001
0010
0001
0000
2002
0000
3003
0000
,
0001
0000
0000
0000
0000
0000
1000
0000
0000
0000
0000
0000
0100
0000
0000
0000
0000
0000
0010
0000
0001
0000
0010
0000
0001
0000
0000
0000
0000
0000
0100
0000
0000
0000
0000
0000
0010
0000
0000
0000
0000
0000
1000
0000
0000
0001
0000
0000
,
0010
0000
0010
0000
0100
0000
0001
0100
0001
0100
0010
0000
0001
0000
0100
0000
,
0220
0000
0000
0000
,
0000
0000
0000
0000
0330
0000
0001
1000
,
1002
0000
0000
0000
1003
0000
0001
0010
0002
0000
0000
0000
0103
0000
0010
0000
,
1010
0000
1000
0000
0100
0000
0010
0001
0010
0000
0001
0000
0100
0000
0010
0000
,
0210
0000
0000
0000
0301
0000
1000
0100
1000
0000
0010
0100
0010
0000
0001
0000
,
0010
0000
1000
0001
1000
0000
0001
0010
0001
0010
0100
0010
0100
1000
0100
1000
,
0200
0000
0000
0000
1300
0000
0010
0100
0010
0000
0001
0000
0010
0000
0100
0001
,
0100
0000
1000
0000
0100
0000
0001
0000
0010
0100
0010
0100
1000
0000
0001
0000
,
0201
0000
0000
0000
0310
0000
0001
0010
0100
0000
0100
0010
1000
0000
0001
0000
,
0011
0000
0000
1010
0000
0000
0101
0000
0000
1100
0000
0000
0110
0000
0011
0000
,
1001
0000
0000
0100
0000
0100
0010
0000
0010
0100
0000
0100
1001
0000
0001
0000
,
1000
0000
0100
0010
0000
0010
0001
1000
0010
0000
1000
0001
0000
0001
0010
0100
,
0010
0000
0001
0100
0000
0100
0010
1000
0001
0000
0010
0000
0100
0000
1000
0001
,
0010
0001
0200
0000
1000
0000
0010
0000
,
0301
0000
0000
0000
0000
0000
1000
0000
0000
0001
0000
0000
1000
0000
0000
0001
0000
0000
1000
0000
0000
0000
0000
0000
0001
0000
0000
0000
0010
0000
0000
0000
0100
0000
0000
0000
1000
0000
0000
0000
0010
0000
0000
0000
0100
0000
0000
0000
,
0001
0000
1000
0100
0000
0100
0010
0001
1000
0000
0010
0100
0000
0100
0001
0010
,
0001
0000
0100
0001
0000
0001
0010
0100
1000
0000
0001
0000
0100
0000
0010
1000
,
0001
0020
0100
0000
1000
0000
0031
1000
,
0100
0000
0000
0000
0000
0000
0020
0000
0000
0230
0000
0000
0300
0000
0000
0020
0000
0000
0230
0000
0000
0300
0000
0000
1000
0000
0010
0000
1000
0000
0010
0000
0000
0000
0000
0000
0100
0000
0001
0000
0100
0000
0001
0000
0000
0000
0000
0000
,
1001
0000
0000
0000
0000
0000
1000
0000
0000
0001
0000
0000
0010
0000
0000
0000
0000
0000
0100
0000
0010
0000
0100
0000
0010
0000
0000
0000
0000
0000
0001
0000
0000
0000
0000
0000
1000
0000
0000
0010
0000
0000
0100
0000
0000
0001
0000
0000
,
1000
0000
0001
0000
1000
0010
0100
0001
0010
0000
0100
0010
0001
0000
0000
0000
,
0011
0000
0010
0000
0100
0010
0001
1000
0010
0000
0100
0000
0001
1000
0100
1000
,
0001
0100
0010
0000
1000
0000
0100
0010
0001
0000
1000
0010
1000
0001
0010
0000
,
0110
0000
0000
0000
0000
0000
0100
0000
0000
0000
0000
0000
1000
0000
0000
0000
0000
0000
0001
0000
0100
0000
0001
0000
0100
0000
0000
0000
0000
0000
0010
0000
0000
0000
0000
0000
0100
0000
0000
0001
0000
0000
1000
0000
0000
0100
0000
0000
,
0010
0000
0001
0000
1000
0001
0100
0010
0100
0000
0001
0000
0101
0000
0000
0000
,
1001
0000
1000
0000
0100
0010
0100
1000
0001
0000
0100
0000
0010
1000
0010
0100
,
0001
0000
0010
0000
0100
0010
0001
0100
0010
1000
0010
1000
0002
0000
0000
0000
,
1003
0100
1000
0000
1000
0100
1000
0000
0010
0000
0100
0001
0100
0001
0100
0000
,
0010
1000
0010
0000
0010
1000
0010
0000
0100
0000
0001
0010
0001
0010
0001
0000
,
2001
0000
0000
0000
0000
0000
3001
1000
0020
0000
0000
0000
0031
0000
1000
0000
,
0200
0000
0000
0310
2000
0000
3100
0010
,
0002
0000
0000
0103
0001
0010
0100
1000
,
0002
0000
0000
0000
0100
0000
0000
0000
0103
0010
0100
0000
0100
0010
0100
0000
,
1002
0000
0000
0000
1003
0000
1000
0100
0020
0000
0000
0000
0031
0000
0100
0000
,
0020
0000
0130
0001
0010
0110
0100
1000
,
0001
0000
0100
0000
0001
0000
0100
0010
1000
0000
0000
1100
0000
0000
0101
0000
,
1001
0000
0001
0000
0010
0100
0010
0000
0001
0000
1000
0000
0100
0000
0010
0000
,
0001
0000
0000
0000
0100
0000
0000
0000
0010
0000
0000
0000
1000
0000
0000
0100
0000
0000
0010
0000
0000
0001
0000
0000
1000
0000
0001
0000
1000
0000
0001
0000
1000
0000
0001
0000
1000
0000
0000
0000
0000
0000
0001
0000
0000
0000
0000
0000
,
1001
0000
0000
0000
0110
0000
1000
0001
0010
0000
0100
0000
1000
0000
0001
0100
,
0010
0100
0010
0100
0001
0000
1000
0100
1000
0100
0010
0100
0010
0000
0001
0000
,
1001
0000
0000
0000
0000
0000
1000
0000
0000
0001
0000
0000
0010
0000
0000
0000
0000
0000
0001
0000
0000
1000
0000
0000
0010
0000
0000
0000
0000
0000
0100
0000
0001
0000
0100
0000
0001
0000
0000
0000
0000
0000
1000
0000
0000
0000
0000
0000
,
1100
0000
0000
0101
0000
0000
0011
0000
0000
1010
0000
1000
0001
0010
0001
0010
,
0100
0000
1000
0000
0001
0000
0100
0001
1000
0100
0010
0100
0010
0000
0001
1000
,
0010
0000
0100
0001
1000
0000
0001
0000
0010
0100
0010
1000
0010
0000
0100
0000
,
1100
0000
1000
0000
0001
0100
0010
1000
0001
0000
0000
0110
0000
0000
1001
0000
,
0001
1000
0001
0010
0001
1000
0001
0000
0100
0010
0100
0001
0100
0001
1000
0000
,
1010
0000
0000
0011
0000
0000
1100
0000
0101
0000
0001
1000
0001
0000
0010
0100
,
0010
0000
0100
1000
0001
0000
0110
0000
1000
0001
0000
0001
0100
0000
0000
0100
,
1001
0000
0000
0000
;

//--------------- dance-double - Fred-104 ----------------
#NOTES:
     dance-double:
     Fred-104:
     Easy:
     6:
     :
00000000
00000000
00000000
00000000
,
00000000
00000000
00000000
00000000
,
00000000
00000000
00000000
00000000
,
00000000
00000000
00000000
00000000
,
00000000
00000000
00000000
00000000
,
00002000
00000000
00003000
00020000
00000000
00030000
00002000
00000000
,
00000000
00000000
00000000
00003000
,
00020000
00000000
00030000
00000020
00000000
00000030
00000200
00000000
,
00000000
00000000
00000000
00000300
,
00000002
00000003
00000020
00000030
,
00001000
00010000
00001000
01000000
,
00200000
00300000
20000000
30000000
,
01000000
00010000
00001000
00010000
,
00000200
00000300
00000020
00000030
,
00000001
00001000
00000010
00000100
,
00002000
00003000
00020000
00030000
,
00001000
00010000
00000010
00001000
,
00002002
00000000
00000000
00000000
,
00000000
00000000
00000000
00003003
,
00000001
00000100
00001000
00010000
,
00010000
00001000
00000010
00001000
,
00010000
00010000
00001000
00100000
,
00020000
00030000
20000000
30000000
,
00010000
00010000
10000000
01000000
,
00010000
00010000
00001000
00010000
,
00100000
00100000
00010000
00001000
,
00010000
00000000
00000000
00000100
00000000
00000000
00001000
00000000
,
00000100
00010000
00022000
00033000
,
00001000
00000000
00010000
00000000
,
00100000
10000000
01000000
00010000
,
00002000
00000000
00023000
00000000
,
00031000
00000000
00020000
00032000
,
00013000
00000000
00001000
00000000
,
00000100
00000001
00000010
00001000
,
00020000
00000000
00032000
00000000
,
00013000
00001000
00011000
00011000
,
00021000
00030000
00002000
00003000
,
00100000
00010000
10000000
00100000
,
00020000
00030000
00002000
00003000
,
00010000
00000100
00000010
00000001
,
00002000
00003000
00000020
00000030
,
00000100
00001000
00010000
00001000
,
02000000
03000000
00200000
00300000
,
10000000
01000000
00010000
00001000
,
00010000
00001000
00011000
00000000
,
00001000
00010000
00011000
00000000
,
00020000
00000000
00030020
00000000
,
00002030
00000000
00000000
00000000
,
00003020
00000000
00020030
00000000
,
00002000
00000000
00033000
00000000
,
00011000
00001000
00010000
00010000
,
00000100
00000100
00000010
00000010
,
00000001
00001000
00000010
00000100
,
00001000
00001000
00010000
00010000
,
00001000
00000000
00010000
00000000
00001000
00010000
00001000
00000000
,
00011000
00000000
00010000
00001000
,
00000010
00000010
00001000
00010000
,
00001000
00001000
00010000
01000000
,
00010000
00000000
00000000
00001000
00000000
00000000
00010000
00000000
,
00001000
00001000
00010000
00100000
,
10000000
10000000
01000000
00010000
,
00001000
00001000
00010000
00000100
,
00000010
00000000
00000000
00000010
00000000
00000000
00000010
00000000
,
00000001
00000100
00001000
00010000
,
00001000
00000000
00010000
00000000
01000000
10000000
01000000
00000000
,
10010000
00000000
00000000
00000000
;

//--------------- dance-double - Fred-104 ----------------
#NOTES:
     dance-double:
     Fred-104:
     Medium:
     9:
     :
00000000
00000000
00000000
00000000
,
00000000
00000000
00000000
00000000
,
00000000
00000000
00000000
00000000
,
00000000
00000000
00000000
00000000
,
00000000
00000000
00000000
00000000
,
00020000
00000000
00000000
00032000
00000000
00000000
00203000
00000000
,
00000000
00000000
00000000
00300000
,
00020000
00000000
00000000
20030000
00000000
00000000
30200000
00000000
,
00000000
00000000
00000000
00300000
,
01000000
00000000
00000000
00001000
00001000
00000000
00000000
00010000
,
00010000
00000000
00001000
00000100
00000001
00000000
00000010
00000000
,
00000100
00000000
00000000
00001000
00001000
00000000
00000000
00000001
,
00000001
00000000
00000010
00001000
00010000
00000000
00001000
00000000
,
00010000
00000000
00000000
00001000
00001000
00000000
00000000
00010000
,
00010000
00000000
00000100
00000010
00000001
00000000
00001000
00000000
,
00000010
00000000
00000000
00000100
00000100
00000000
00000000
00001000
,
00001000
00000000
00010000
00100000
10000000
00000000
01000000
00000000
,
20020000
00000000
00000000
00000000
,
00000000
00000000
00000000
30030000
,
00010000
00000000
10000000
01000000
00010000
00000000
00001000
00010000
,
00000100
00000000
00001000
00000010
00000100
00000000
00000010
00001000
,
00000100
00000000
00000010
00000001
00000100
00000010
00001000
00000000
,
00000001
00000010
00001000
00000000
00010000
00001000
00010000
00000000
,
00001000
00000000
00100000
00010000
10000000
00000000
00100000
01000000
,
00010000
00000000
00100000
01000000
00010000
00000000
00001000
00010000
,
00000100
00000000
00000000
00000000
00000010
00000000
00000100
00000000
00001000
00000000
00000000
00000010
00000000
00000000
00010000
00000000
,
00001000
00000000
00000000
00001000
00000000
00000000
00010000
00000000
00000000
00010000
00000000
00000000
00000100
00000000
00000010
00000000
,
00000001
00000000
00000000
00000001
00000000
00000000
00000001
00000000
00001000
00000000
00000001
00000000
00001001
00000000
00000000
00000000
,
00000001
00000000
00001000
00000010
00000100
00000000
00001000
00010000
,
00001000
00000000
00100000
00010000
00000000
00010000
10000000
00100000
,
02000000
00010000
10000000
03010000
,
10000000
01000000
00020000
00032000
,
00013000
00000000
00000100
00001000
00000001
00000000
00000100
00000010
,
00001000
00000000
00000100
00000010
00000000
00000010
00000001
00001000
,
00000020
00000100
00000001
00000130
,
00000010
00000000
00000000
00010000
00000000
00000000
00001000
00000000
00011000
00000000
00000000
00000000
00011000
00000000
00000000
00000000
,
00101000
00000000
00000000
00100000
00010000
00000000
00000000
10000000
,
00100000
00000000
00010000
00100000
10000000
00000000
01000000
00000000
,
01100000
00000000
00000000
00100000
00001000
00000000
00000000
00010000
,
00001000
00000000
00000100
00000001
00000010
00000000
00000100
00000000
,
00001100
00000000
00000000
00000001
00000100
00000000
00000000
00001000
,
00010000
00000000
00100000
10000000
00100000
00000000
01000000
00000000
,
01010000
00000000
00000000
10000000
01000000
00000000
00000000
00010000
,
00001000
00000000
00000010
00000001
00000100
00000000
00000010
00000000
,
00000100
00000001
00000100
00000001
00000100
00000000
00001000
00000000
,
00010000
00001000
00010000
00001000
00020000
00000000
00032000
00000000
,
02003000
00000000
03200000
20300000
,
32000000
00000000
03200000
00302000
,
00023000
00000000
00030020
00020030
,
00032000
00000000
00010000
00013000
,
00011000
00001000
00010000
00010000
,
00100000
00100000
10000000
10000000
,
01000000
00000000
00000000
00000000
00010000
00000000
00000000
00000000
00001000
00000000
00000000
00001000
00000000
00000000
00001000
00000000
,
00010000
00000100
00001000
00000001
00000100
00000010
00001000
00000000
,
00000001
00000000
00000010
00000000
00001000
00001000
00010000
00010000
,
00011000
00000000
00001000
00010000
00100000
00000000
00010000
00001000
,
00000100
00000000
00001000
00010000
01000000
00000000
10000000
00010000
,
10000000
00000000
00100000
00010000
00001000
00010000
00001000
00000000
,
00010000
00000000
00000000
00000100
00000000
00000000
00010000
00000000
00000000
00001000
00000000
00000000
00010000
00000000
00000010
00000000
,
00001000
00000000
00000100
00000010
00000001
00000000
00000100
00000010
,
00001000
00000000
00000010
00000100
00001000
00000000
00010000
00001000
,
01000000
00000000
00010000
00000000
00100000
00000000
01000000
00000000
10000000
00000000
00000000
00010000
00000000
00000000
10000000
00000000
,
00100000
00000000
00000000
00100000
00000000
00000000
01000000
00000000
00000000
01000000
00000000
00000000
00010000
00000000
10000000
00000000
,
01000000
00010000
00001000
00000000
00010000
00000100
00000010
00000000
,
00000100
00000000
00001000
00000000
00000100
00000000
00000000
00000000
00010000
00001000
00000000
00001000
00010000
00000000
00000000
00000000
,
00011000
00000000
00000000
00000000
;

//--------------- dance-double - Fred-104 ----------------
#NOTES:
     dance-double:
     Fred-104:
     Hard:
     13:
     :
00000000
00000000
00000000
00000000
,
00000000
00000000
00000000
00000000
,
00000000
00000000
00000000
00000000
,
00000000
00000000
00000000
00000000
,
00000000
00000000
00000000
00000000
,
00002000
00000000
00003000
00001000
01000000
00010000
00000000
00010000
,
20000000
00000000
30000000
20000000
00000000
31000000
00010000
00001000
,
00010000
00000100
00000020
00000000
00000000
00000000
00000000
00000000
,
00000000
00000030
00000000
00000000
,
00001002
00000000
00000000
00000000
00000000
00000000
00001003
00000001
00002000
00000000
00000000
00000000
00000000
00000000
00003100
00010000
,
00000200
00000000
00010300
00001000
01001000
00000000
10100000
00000000
,
01020000
00000000
00000000
00000000
00000000
00000000
10030000
01000000
20000000
00000000
00000000
00000000
00000000
00000000
31000000
00100000
,
01000000
00000000
00000000
00000000
00100000
00000000
00001000
00010000
00001000
00000000
00010000
00000000
00010100
00000000
00000000
00000000
,
00002001
00000000
00000000
00000000
00000000
00000000
00003001
00000010
00000002
00000000
00000000
00000000
00000000
00000000
00001003
00000100
,
00002000
00000000
00000000
00000000
00003001
00000000
00000100
00000010
00000100
00000000
00001000
00000000
00011000
00000000
00000000
00000000
,
00011000
00000000
00000000
00001000
00000000
00000000
01000000
00010000
00200000
00000000
00000000
00000000
01300000
00000000
00100000
00010000
,
20000000
00000000
00000000
00000000
30100000
00000000
01000000
00100000
01000000
00000000
00100000
00000000
00010000
00000000
00001000
00000000
,
00022000
00000000
00000000
00000000
,
00000000
00000000
00000000
00000000
00000000
00000000
00003000
00030000
,
00001000
00000000
00100000
00000000
00010000
00000000
10000000
00010000
10000000
00000000
00100000
00000000
01000000
00000000
00100000
00000000
,
00010000
00000000
00001000
00000000
00010000
00000000
00000010
00001000
00000010
00000000
00000100
00000000
00000001
00000000
00001000
00000000
,
00000100
00000000
00000010
00000000
00000001
00000000
00001000
00000001
00001000
00000000
00000010
00000000
00000100
00000000
00001000
00000000
,
00010000
00000000
00001000
00010000
00001000
00000000
01000000
00000000
00010000
00000000
01000000
00100000
01000000
00000000
00001000
00000000
,
00010000
00000000
00001000
00000000
00000100
00000000
00000010
00001000
00000010
00000000
00000100
00000000
00000001
00000000
00001000
00000000
,
00000001
00000000
00000010
00000000
00000100
00000000
00001000
00000100
00001000
00000000
00000100
00000000
00010000
00000000
01000000
00000000
,
00100000
00000000
00010000
00000000
10000000
00000000
00100000
01000000
00100000
00000000
00000000
00010000
00000000
00000000
00001000
00000000
,
00011000
00000000
00000000
00010000
00000000
00000000
00010100
00000000
00000000
00010000
00001000
00000000
01000000
00000000
00001000
00000000
,
00011000
00000000
00000000
00010000
00000000
00010000
00001000
00000000
00010000
00000000
00001000
00000000
00022000
00000000
00033000
00000000
,
00010000
00000000
00001000
00010000
00000000
00000100
00001000
00000000
00000001
00000000
00001000
00000000
00000100
00000000
00000010
00000000
,
00000001
00000000
00001000
00000010
00000000
00000100
00001000
00000000
00010000
00000000
00001000
00000000
01000000
00000000
00010000
00000000
,
10000000
02000000
00010000
00000000
10000000
00000000
03100000
00000000
,
00001000
00000000
00000000
00000000
00000000
00000000
00010000
00000000
00000000
00001000
00000000
00000000
00000000
00000000
00000000
00010000
00000000
00000000
00001000
00000000
00000000
00000000
00000000
00000000
00010000
00000000
00000000
00000000
00000100
00000000
00000000
00000000
00001000
00000000
00000000
00000000
00000100
00000000
00000000
00000000
00000010
00000000
00000000
00000000
00000001
00000000
00000000
00000000
,
00000010
00000000
00000001
00001000
00000000
00000010
00000100
00000000
00000001
00000000
00001000
00000000
00000100
00000000
00000010
00000000
,
00001000
00000000
00010000
00001000
00000000
00100000
00010000
00000000
10000000
00000000
00100000
00000000
01000000
00000000
00100000
00000000
,
00010000
00002000
00000100
00000000
00010000
00000000
00013000
00000000
,
00001000
00000000
00100000
00010000
00000000
00010000
10000000
00000000
00100000
01000000
00010000
00000000
01000000
00100000
10000000
00000000
,
10010000
00000000
00000000
00000000
00010000
00000000
10000000
01000000
10000000
00000000
00000000
00000000
01000000
00000000
00100000
00001000
,
00010000
00000000
00001000
00000000
00000100
00000000
00000010
00001000
00000010
00000000
00010000
00000000
00001000
00000000
00000000
00000000
,
00011000
00000000
00000000
00000000
00010000
00000000
00000100
00000010
00000100
00000000
00000010
00000000
00000001
00000000
00001000
00000001
,
00000100
00000000
00000010
00000000
00000100
00000000
00001000
00010000
00001000
00000000
01000000
00000000
00100000
00000000
10000000
00000000
,
10010000
00000000
00000000
00000000
10000000
00000000
01000000
00100000
00010000
00000000
00100000
00000000
00001000
00000000
00010000
00000010
,
00001000
00000000
00000100
00000000
00010000
00000000
00001000
00010000
00000100
00000000
00000010
00000000
00000001
00000000
00000000
00000000
,
00001001
00000000
00000000
00000000
00000001
00000000
00001000
00000010
00000100
00000000
00000010
00000000
00010000
00000000
00001000
00100000
,
00010000
00000000
10000000
00000000
00010000
00000000
01000000
00100000
01000000
00000000
00100000
00000000
00020000
00000000
00000000
00000000
,
00031000
00010000
00001000
00000000
00001000
00010000
00001000
00000000
00010000
00000000
00100000
00000000
10000000
00000000
01000000
00000000
,
00100000
00010000
00100000
00000000
00100000
00010000
00100000
00000000
00001000
00000000
00010000
00000000
00000010
00000000
00001000
00000000
,
00000002
00000000
00000000
00000013
00000200
00000000
00001300
00000001
,
00000200
00000000
00000000
00001300
00020000
00000000
00031000
01000000
,
00020000
00000000
10030000
01000000
00010000
00001000
00010000
00000100
,
00000020
00000000
00000001
00000031
,
00001001
00000001
00000100
00000100
,
00001000
00001000
00010000
00010000
,
00100000
00000000
00000000
00000000
10000000
00000000
01000000
00000000
00100000
00000000
00000000
00001000
00000000
00000000
00010000
00000000
,
00011000
00000000
00010000
00000000
00000010
00001000
00000010
00000000
00000100
00000000
00000001
00000000
00001000
00000000
00000100
00000000
,
00000010
00000000
00000000
00000000
00000001
00000000
00000000
00000000
00000010
00000000
00000000
00000000
00000100
00000000
00000000
00001000
00000000
00000000
00000100
00000000
00000000
00000000
00000000
00000000
00010000
00000000
00000000
00001000
00000000
00000000
00010000
00000000
00000000
00001000
00000000
00000000
00010000
00000000
00000000
00000000
00000000
00000000
00001000
00000000
00000000
00000000
00000000
00000000
,
00011000
00000000
00000000
00000000
00001000
00000000
01000000
00010000
10000000
00000000
01000000
00000000
00100000
00000000
01000000
00000000
,
10000000
00000000
00010000
00000000
01000000
00000000
00100000
00010000
00100000
00000000
00010000
00000000
00001000
00000000
00010000
00000000
,
00000100
00000000
00000010
00000000
00000001
00000000
00001000
00000010
00001000
00000000
00000100
00000000
00000010
00000000
00001000
00000000
,
00010000
00000000
00000000
00011000
00000000
00000000
00001000
00000000
00000000
00101000
00000000
00000000
00100000
00010000
00100000
00010000
,
10000000
00000000
00010000
00000000
01000000
00000000
00100000
10000000
00100000
00000000
01000000
00000000
00100000
00000000
00010000
00000000
,
00001000
00000000
00010000
00000000
00000010
00000000
00001000
00000010
00000100
00000000
00000010
00000000
00001000
00000000
00000100
00000000
,
00000010
00000000
00000001
00000000
00001000
00000000
00000010
00000000
00000100
00000000
00000000
00001100
00000000
00000000
00011000
00000000
,
00010000
00000000
00000000
00011000
00000000
00000000
00010000
00000000
00000000
00010100
00000000
00000000
00010000
00000000
00001000
00000000
,
00100000
00100000
00010000
00010000
01000000
00100000
00010000
00001000
,
00010000
00000000
00000010
00001000
00000010
00000000
00001000
00000000
00000100
00010000
00000000
00010000
00001000
00000000
00000000
00001000
,
00010000
00000000
00000000
00000000
;

//--------------- dance-double - Fred-104 ----------------
#NOTES:
     dance-double:
     Fred-104:
     Challenge:
     15:
     :
00000000
00000000
00000000
00000000
,
00000000
00000000
00000000
00000000
,
00000000
00000000
00000000
00000000
,
00000000
00000000
00000000
00000000
,
00000000
00000000
00000000
00000000
,
00020000
00000000
00000000
00032000
00000000
00000000
00023000
00000000
,
00000000
00000000
00001000
00031000
,
00002000
00000000
00000000
00023000
00000000
00000000
00032000
00000000
,
00000000
00000000
00000000
00003000
,
00021000
00000000
00000000
00000000
00000000
00000000
00000000
00000000
00000000
00000000
00000000
00000000
00030100
00000000
00000000
00000000
00000000
00000000
00001000
00000000
00000001
00000000
00001000
00000000
00000002
00000000
00000000
00000000
00000000
00000000
00000000
00000000
00000000
00000000
00000000
00000000
00000013
00000000
00000000
00000000
00000000
00000000
00000100
00000000
00000000
00000010
00000000
00000000
,
00002000
00000000
00000000
00000000
00013000
00000000
00001000
01000000
00010000
00000000
00000000
00000000
01100000
00000000
00000000
00000000
,
20010000
00000000
00000000
00000000
31000000
00000000
10000000
01000000
00200000
00000000
00000000
00000000
00301000
00000000
00010000
00001000
,
00000020
00000000
00000000
00000000
00000130
00000000
00001000
00000001
00000100
00000000
00000010
00000000
00001010
00000000
00000000
00000000
,
00001001
00000000
00000000
00000000
00000000
00000000
00000000
00000000
00000000
00000000
00000000
00000000
00000001
00000000
00000000
00000000
00000000
00000000
00000100
00000000
00000010
00000000
00000100
00000000
00000020
00000000
00000000
00000000
00000000
00000000
00000000
00000000
00000000
00000000
00000000
00000000
00000031
00000000
00000000
00000000
00000000
00000000
00000010
00000000
00000000
00000100
00000000
00000000
,
00001000
00000000
00010000
00000000
00100000
00000000
01000000
00010000
10000000
00000000
00010000
00000000
20020000
00000000
30030000
00000000
,
21000000
00000000
00000000
00000000
00000000
00000000
00000000
00000000
00000000
00000000
00000000
00000000
30010000
00000000
00000000
00000000
00000000
00000000
10000000
00000000
00100000
00000000
10000000
00000000
00100000
00000000
00000000
00000000
00000000
00000000
01000000
00000000
00000000
00000000
00000000
00000000
00100000
00000000
00000000
00000000
00000000
00000000
00010000
00000000
00000000
00001000
00000000
00000000
,
00010000
00000000
00010000
00000000
00000010
00000000
00001000
00000010
00000100
00000000
00000001
00000000
00000010
00000000
00000100
00000000
,
00002200
00000000
00000000
00000000
,
00000000
00000000
00000000
00000000
00003300
00000000
00010000
00001000
,
00021000
00000000
00000000
00000000
00031000
00000000
01000000
00010000
00200000
00000000
00000000
00000000
01300000
00000000
00100000
00000000
,
00110000
00000000
00010000
00000000
10000000
00000000
00100000
00010000
00100000
00000000
00010000
00000000
00001000
00000000
00010000
00000000
,
00012000
00000000
00000000
00000000
00013000
00000000
00000100
00001000
00000001
00000000
00000100
00000010
00000100
00000000
00001000
00000000
,
00010000
00000000
00001000
00100000
00001000
00000000
00100000
00010000
00100000
01000000
00100000
00000000
01000000
10000000
00010000
00000000
,
20010000
00000000
00000000
00000000
30010000
00000000
10000000
00100000
01000000
00000000
10000000
00000000
01000000
00000000
00010000
10000000
,
01000000
00000000
00100000
00000000
00001000
00000000
00010000
00000000
00000100
00000010
00000100
00000010
00000100
00000000
00000001
00000000
,
00000201
00000000
00000000
00000000
00001300
00000000
00000001
00001000
00000010
00000000
00000100
00001000
00000000
00001000
00010000
00000000
,
00011000
00000000
00000000
00001010
00000000
00000000
00011000
00000000
00000000
00110000
00000000
00000000
00011000
00000000
00001000
00000000
,
00011000
00000000
00000000
01000000
00000000
01000000
00100000
00000000
00100000
01000000
00000000
01000000
10010000
00000000
10000000
00000000
,
00010000
00000000
01000000
10000000
00000000
10000000
01000000
00010000
10000000
00000000
01000000
00010000
00000000
00010000
00001000
00010000
,
00001000
00000000
00000100
00000010
00000000
00000010
00001000
00000001
00000010
00000000
00001000
00000000
00000010
00000000
00000001
00001000
,
00000010
00000100
00002000
00000000
00010000
00000000
01000000
00000000
,
00013000
00000000
00000000
00000000
00000000
00000000
00001000
00000000
00000000
00010000
00000000
00000000
00001000
00000000
00000000
00010000
00000000
00000000
00001000
00000000
00000000
00000000
00000000
00000000
00010000
00000000
00000000
00000000
00001000
00000000
00000000
00000000
00001000
00000000
00000000
00000000
00010000
00000000
00000000
00000000
00001000
00000000
00000000
00000000
00001000
00000000
00000000
00000000
,
00010000
00000000
00001000
01000000
00000000
01000000
00010000
00100000
01000000
00000000
10000000
00010000
00000000
00010000
01000000
00100000
,
01000000
00000000
10000000
01000000
00000000
01000000
00010000
10000000
01000000
00000000
00010000
00000000
00001000
00000000
00010000
00000010
,
00001000
00000020
00000001
00000000
00000100
00000000
00001030
00000000
,
00000001
00000000
00000000
00000000
00000000
00000000
00002000
00000000
00000000
00003020
00000000
00000000
00000030
00000000
00000000
00002000
00000000
00000000
00003020
00000000
00000000
00000030
00000000
00000000
00010000
00000000
00001000
00000000
00010000
00000000
00001000
00000000
00000000
00000000
00000000
00000000
00010000
00000000
00001000
00000000
00010000
00000000
00001000
00000000
00000000
00000000
00000000
00000000
,
00011000
00000000
00000000
00000000
00000000
00000000
00001000
00000000
00000000
00000000
00000000
00000000
00010000
00000000
00000000
00000000
00000000
00000000
00100000
00000000
01000000
00000000
00100000
00000000
01000000
00000000
00000000
00000000
00000000
00000000
00100000
00000000
00000000
00000000
00000000
00000000
10000000
00000000
00000000
00000000
00000000
00000000
00010000
00000000
00000000
10000000
00000000
00000000
,
01000000
00000000
00100000
00000000
00001000
00010000
00001000
00010000
00001000
00000000
00010000
00000000
00011000
00000000
00000000
00000000
,
00010100
00000000
00000100
00000000
00001000
00000000
00000001
00000100
00000010
00000000
00001000
00000000
00000100
00000010
00000100
00000010
,
00000001
00001000
00000010
00000000
00000100
00000000
00001000
00010000
00001000
00000000
00100000
00010000
01000000
00010000
00100000
00000000
,
01100000
00000000
00000000
00000000
00000000
00000000
00000000
00000000
00000000
00000000
00000000
00000000
01000000
00000000
00000000
00000000
00000000
00000000
10000000
00000000
00010000
00000000
10000000
00000000
00010000
00000000
00000000
00000000
00000000
00000000
01000000
00000000
00000000
00000000
00000000
00000000
00100000
00000000
00000000
00000000
00000000
00000000
10000000
00000000
00000000
01000000
00000000
00000000
,
00100000
00000000
00001000
00000000
00010000
00000100
00001000
00000001
00000100
00000000
00000010
00000000
00001010
00000000
00000000
00000000
,
00000001
00000000
00001000
00000000
00000010
00010000
00000010
00010000
00001000
00000000
00010000
00000000
01000000
00100000
01000000
00100000
,
00010000
00000000
10000000
00000000
00100000
01000000
00010000
01000000
00001000
00010000
00001000
00010000
00002000
00000000
00000000
00000000
,
00013000
00001000
00010000
00000000
00010000
00001000
00010000
00000000
00001000
00000000
00000010
00001000
00000010
00001000
00010000
00000000
,
00001000
00010000
00001000
00000000
00001000
00010000
00001000
00000000
00010000
00000000
00100000
00010000
00100000
00010000
00001000
00000000
,
00021000
00000000
00000000
00000000
00000000
00000000
00031000
00100000
00020000
00000000
00000000
00000000
00031000
00000000
00000100
00000000
,
00000020
00000000
00000000
00001030
00000020
00000000
00000031
00000100
,
00002000
00000000
00000000
01003000
00010000
00100000
01000000
00100000
,
00002000
00000000
00000000
00000000
00010000
00000000
00000000
00000000
00013000
00001000
00010000
00000000
00010000
00001000
00010000
00000000
,
00012000
00000000
00000000
00000000
01003000
00000000
01000000
00100000
20000000
00000000
00000000
00000000
30010000
00000000
00100000
00000000
,
02000000
00000000
03010000
01000000
11000000
10000000
00100000
00010000
,
00001000
00000000
00010000
00000000
00001000
00000000
00010000
00000100
00001000
00000000
00000000
00001010
00000000
00000000
00000101
00000000
,
00001100
00000000
00001000
00000000
00000001
00000010
00000001
00000000
00001000
00000000
00000010
00000000
00000100
00000000
00001000
00000000
,
00010000
00000000
00000000
00000000
00001000
00000000
00000000
00000000
00010000
00000000
00000000
00000000
00001000
00000000
00000000
00010000
00000000
00000000
00001000
00000000
00000000
00010000
00000000
00000000
00001000
00000000
00010000
00000000
00001000
00000000
00010000
00000000
00001000
00000000
00010000
00000000
00001000
00000000
00000000
00000000
00000000
00000000
00010000
00000000
00000000
00000000
00000000
00000000
,
00011000
00000000
00000000
00000000
00011000
00000000
00010000
00000100
00001000
00000000
00000001
00000000
00000100
00000000
00000010
00001000
,
00000001
00000010
00000001
00000010
00000100
00000000
00010000
00001000
00010000
00001000
00100000
00010000
00100000
00001000
00010000
00000000
,
00011000
00000000
00000000
00000000
00000000
00000000
00001000
00000000
00000000
00000000
00000000
00000000
01000000
00000000
00000000
00000000
00000000
00000000
00010000
00000000
00000000
10000000
00000000
00000000
01000000
00000000
00000000
00000000
00000000
00000000
00100000
00000000
01000000
00000000
00100000
00000000
01000000
00000000
00000000
00000000
00000000
00000000
10000000
00000000
00000000
00000000
00000000
00000000
,
10010000
00000000
00010000
01000000
00000000
00001000
00010000
00000000
00000100
00001000
00000000
00000001
00001000
00000000
00000001
00000000
,
00000100
00000000
00000010
00000000
00001000
00000000
00000001
00000010
00000100
00000000
00001000
00000100
00010000
00000000
00001000
00000000
,
00010000
00000000
00100000
00000000
01000000
00000000
00100000
10000000
00010000
00100000
00010000
00100000
01000000
10000000
01000000
00000000
,
10010000
00000000
00000000
00000000
00010000
10000000
01000000
00100000
00001000
00000000
00000000
00010000
00000000
00000000
00011000
00000000
,
00010000
00000010
00001000
00000010
00000100
00000010
00001000
00000000
00000001
00000010
00000100
00001000
00000100
00010000
00001000
00000000
,
00011000
00000000
00000000
00110000
00000000
00000000
10100000
00000000
01010000
00000000
00010000
10000000
00010000
00000000
10000000
01000000
,
00100000
00000000
00001000
00010000
00001000
00000000
00011000
00000000
00010000
00000100
00000000
00000100
00000010
00000000
00000000
00000010
,
00001001
00000000
00000000
00000000
;
