#TITLE:昏き甲鉄のヴェルガ;
#ARTIST:arcane feat.rionos;
#TITLETRANSLIT:Kuraki koutetsu no Verga;
#GENRE:FANTASIA;
#BANNER:Kuraki koutetsu no Verga.png;
#BACKGROUND:Kuraki koutetsu no Verga-bg.png;
#CDTITLE:./CDTitles/RB Reflesia.png;
#MUSIC:Kuraki koutetsu no Verga.ogg;
#SAMPLESTART:66.506;
#SAMPLELENGTH:15;
#BPMS:0=174;
#BGSTAGE:1;

//--------------- dance-single - Fred-104 ----------------
#NOTES:
     dance-single:
     Fred-104:
     Beginner:
     2:
     :
0000
0000
0000
0000
,
0000
0000
0000
0000
,
0000
0000
0000
0000
,
0000
0000
0000
0000
,
0000
0000
0000
0000
,
1000
0000
0000
0000
,
0001
0000
0000
0000
,
1000
0000
0000
0000
,
0001
0000
0000
0000
,
1000
0000
0000
0000
,
0000
0000
0000
0000
,
0001
0000
0000
0000
,
0000
0000
0000
0000
,
0100
0000
0000
0000
,
0000
0000
0000
0000
,
0001
0000
0000
0000
,
0000
0000
0000
0000
,
1000
0000
0000
0000
,
0010
0000
0000
0000
,
1000
0000
0000
0000
,
0001
0000
0000
0000
,
1000
0000
0000
0000
,
0001
0000
0000
0000
,
1000
0000
0000
0000
,
0010
0000
0000
0000
,
1000
0000
0000
0000
,
0001
0000
0000
0000
,
1000
0000
0000
0000
,
0001
0000
0000
0000
,
0001
0000
0000
0000
,
1000
0000
0000
0000
,
1000
0000
0000
0000
,
0100
0000
0000
0000
,
1000
0000
0000
0000
,
0001
0000
0000
0000
,
0001
0000
0000
0000
,
1000
0000
0000
0000
,
1000
0000
0000
0000
,
0001
0000
0000
0000
,
1000
0000
0000
0000
,
0000
0000
0000
0000
,
0001
0000
0000
0000
,
0000
0000
0000
0000
,
1000
0000
0000
0000
,
0000
0000
0000
0000
,
0001
0000
0000
0000
,
0000
0000
0000
0000
,
2000
0000
0000
0000
,
3000
0000
0000
0000
,
1000
0000
0000
0000
,
0000
0000
0000
0000
,
0001
0000
0000
0000
,
0000
0000
0000
0000
,
0010
0000
0000
0000
,
0000
0000
0000
0000
,
0001
0000
0000
0000
,
0000
0000
0000
0000
,
1000
0000
0000
0000
,
0000
0000
0000
0000
,
0010
0000
0000
0000
,
0000
0000
0000
0000
,
1000
0000
0000
0000
,
0000
0000
0000
0000
,
0001
0000
0000
0000
,
0000
0000
0000
0000
,
1000
0000
0000
0000
,
0000
0000
0000
0000
,
0001
0000
0000
0000
,
0000
0000
0000
0000
,
1000
0000
0000
0000
,
0000
0000
0000
0000
,
0001
0000
0000
0000
,
0000
0000
0000
0000
,
1000
0000
0000
0000
,
0000
0000
0000
0000
,
0001
0000
0000
0000
,
1000
0000
0000
0000
,
0001
0000
0000
0000
,
0001
0000
0000
0000
,
1000
0000
0000
0000
,
1000
0000
0000
0000
,
0001
0000
0000
0000
,
1000
0000
0000
0000
,
0001
0000
0000
0000
,
1001
0000
0000
0000
,
0000
0000
0000
0000
,
0000
0000
0000
0000
,
0000
0000
0000
0000
,
0000
0000
0000
1001
;

//--------------- dance-single - Fred-104 ----------------
#NOTES:
     dance-single:
     Fred-104:
     Easy:
     4:
     :
0000
0000
0000
0000
,
0000
0000
0000
0000
,
0000
0000
0000
0000
,
0000
0000
0000
0000
,
0000
0000
0000
0000
,
2000
0000
3000
0000
,
0002
0000
0003
0000
,
2000
0000
3000
0000
,
0002
0000
1003
0000
,
1001
0000
0001
0000
,
0100
0000
0000
0000
0001
0000
0000
0001
,
0000
0000
1000
0000
,
0010
0000
0100
0000
,
0100
0000
0001
0000
,
1000
0000
0000
0000
0001
0000
0000
0001
,
0000
0000
0000
0000
1000
0000
0000
1001
,
0000
0000
0000
0001
,
2000
0000
3020
0000
,
0130
0000
0001
1000
,
0002
0000
0023
0000
,
0032
0000
1003
0100
,
2000
0000
3020
0000
,
2030
0000
3001
0100
,
0001
0000
0010
0000
,
1000
0000
0100
0000
,
0002
0000
2003
0000
,
3001
0100
0001
0000
,
0020
0000
0230
0000
,
1300
0000
0010
1000
,
0001
0000
1000
0000
,
0001
0000
0010
0100
,
0010
0000
0001
0000
,
2000
3000
0002
0003
,
1000
0000
0001
0000
,
0100
0100
0100
0000
,
0001
0000
0010
0000
,
0001
0001
0001
0000
,
1000
0000
0010
0000
,
0100
0100
0100
0000
,
0001
0000
0000
0001
0000
0000
1000
0000
,
0000
1000
0000
0000
0001
0000
0000
0000
,
2000
0000
3020
0000
,
1030
0000
0100
0100
,
0200
0000
0320
0000
,
0031
0000
0100
0100
,
0100
0000
0001
0000
,
0010
0000
0001
0001
,
0001
0000
0000
1001
,
0000
0000
0000
0000
,
2000
0000
0000
0000
,
3000
0001
1000
0002
,
0000
0000
0000
0000
,
1003
0000
0100
0000
,
0020
0000
0032
0000
,
1003
0000
0001
0001
,
0010
0000
0000
0010
0000
0000
0010
0000
,
0000
0000
0100
0000
,
2000
0000
0000
0000
,
3000
0001
0001
0020
,
0000
0000
0000
0000
,
0030
0000
0100
0100
,
0100
0000
0000
0100
0000
0000
0100
0000
,
0000
1000
0000
1000
,
1000
0000
0001
0000
,
1000
0000
0001
0001
,
2002
0000
0000
0000
,
0000
0000
3003
0000
,
0001
0000
1000
0000
,
0001
0000
1000
0000
,
0002
0000
0000
0000
,
0000
0000
0000
0003
,
0020
0000
0000
0000
,
0000
0000
0000
0030
,
0200
0000
0000
0000
,
0000
0000
0000
0300
,
2000
0000
0000
3000
,
1000
0000
0001
0000
,
1000
0000
0010
0000
,
0200
0000
0300
0000
,
0001
0000
1000
0000
,
0002
0000
0003
0000
,
1000
0000
0010
0000
,
0200
0000
0300
0000
,
0001
0000
0000
0000
1000
0000
0000
1001
,
0000
0000
0000
0000
1000
0000
0000
2002
,
0000
0000
0000
0000
,
0000
0000
0000
0000
,
0000
0000
0000
0000
,
0000
0000
0000
0000
0000
0000
0000
3003
;

//--------------- dance-single - Fred-104 ----------------
#NOTES:
     dance-single:
     Fred-104:
     Medium:
     9:
     :
0000
0000
0000
0000
,
0000
0000
0000
0000
,
0000
0000
0000
0000
,
0000
0000
0000
0000
,
0000
0000
0000
0000
,
1000
0000
0000
2000
0000
0000
3001
0000
,
0001
0000
0000
0001
0000
0000
0001
0200
,
0000
0000
0300
0100
0010
0000
0000
0020
,
0000
0030
1000
0000
0001
1000
1001
0000
,
1000
0000
0000
0010
0000
1000
0010
0100
,
0000
0001
0000
1000
0001
0000
0000
0011
,
0000
0000
0001
0100
0000
0010
0000
1000
,
0000
0100
0000
1000
0001
1000
0010
1000
,
0010
0000
0000
0110
0000
1000
0001
0010
,
0000
0001
0000
1000
0100
0000
0000
1010
,
0000
0000
1000
0001
0100
0010
0000
0110
,
0000
0000
0000
1001
,
2000
0000
0000
0000
3010
0000
0100
0001
,
0000
1000
0000
1000
0000
0100
0010
0002
,
0000
0000
0000
1000
0000
0000
0000
1003
,
0000
0000
0100
0000
1000
0010
1000
0010
,
0100
0000
0001
2000
0000
0000
0000
3100
,
0000
0010
0100
0000
1000
0010
0100
0000
,
1000
0000
0200
0000
0302
0000
0003
1000
,
0001
0000
0010
0000
0001
0100
0001
0000
,
0200
0000
0010
0000
0320
0000
1030
0001
,
0000
0020
0000
0000
0031
0100
0010
2000
,
0000
0000
0000
3001
0000
0100
0000
0020
,
0000
0130
0001
0100
0001
0000
1000
0000
,
1001
0000
0000
0001
0000
1000
0010
0100
,
0000
0100
0000
0001
0010
0000
0001
1000
,
0001
0000
1000
0001
0000
0000
0000
1000
,
0200
0302
0023
2030
,
3001
0100
0001
0010
,
0100
0000
1000
1000
0010
0000
1000
0000
,
0100
1000
0001
0001
,
0100
0000
0001
0001
0010
0000
0000
0000
,
0002
0000
2003
0000
,
3010
1000
0001
0200
,
0301
0000
0000
1000
0000
0000
0001
0000
,
0000
0100
0000
0000
0010
1000
0100
0000
,
1000
0000
0000
0001
0000
0001
0000
0200
,
0000
0000
0000
0310
,
0100
0000
0000
0001
0000
0001
0000
2000
,
0000
0000
3010
1000
,
0001
0000
1000
1000
0000
0010
0100
0000
,
0000
0001
0000
0000
0010
0000
0001
0000
,
1000
0000
0001
1000
0010
0000
1100
0000
,
0000
2000
3200
0320
,
0032
0100
0100
0103
,
0001
2000
3200
0320
,
0230
1000
1000
1300
,
0010
1000
0010
0000
1000
0001
0100
0000
,
0001
0000
0000
0010
0000
0100
0000
0100
,
0000
1000
0010
1000
,
0100
0000
0000
0010
0000
0010
0100
0000
,
0000
1000
0010
0200
,
0310
1000
0001
1000
,
0001
0000
0100
0000
1000
0100
1000
0000
,
0100
0001
1000
0001
,
0010
0100
0010
0000
0100
0000
1000
0010
,
0200
0000
0000
0301
0000
0002
0000
0013
,
0000
0001
0100
0000
0001
0000
0010
0100
,
2000
0000
3001
0002
0000
0203
0000
0320
,
0000
2030
0000
0000
3001
0000
1000
0000
,
1001
0000
0000
0110
0000
0000
1001
0000
,
0000
0110
0000
0000
1000
0000
0100
0000
,
1100
0000
0000
0011
0000
0000
1000
0010
,
0000
0100
0000
0100
0002
0000
2003
0000
,
3001
0000
0000
0001
0000
0000
0010
0000
,
0000
0010
0000
0100
1000
0000
0000
1000
,
0000
0000
1000
0000
0000
0010
0000
0000
,
0100
0000
0000
0010
0100
0000
0001
0000
,
0010
0000
0000
0001
0000
0010
0100
0000
,
0000
1000
0000
1000
0010
0000
0100
0000
,
0001
0000
1000
0100
0000
1000
1000
0000
,
0001
0010
0001
0000
0100
0000
0110
0000
,
1000
0000
0001
0100
0000
0001
0010
0000
,
0001
1000
0000
0001
0100
0000
0010
0100
,
0000
0000
0001
0000
0001
1000
0000
1000
,
0100
0000
0100
0010
0000
0000
0001
1000
,
0000
0000
0001
0000
0001
0100
0000
0100
,
0010
0000
1000
0000
0001
0000
0000
1000
,
0000
0010
0100
0000
0001
0000
0000
1001
,
0000
0000
0000
0000
0001
0000
0000
2002
,
0000
0000
0000
0000
,
0000
0000
0000
0000
,
0000
0000
0000
0000
,
0000
0000
0000
0000
0000
3003
0000
1001
;

//--------------- dance-single - Fred-104 ----------------
#NOTES:
     dance-single:
     Fred-104:
     Hard:
     13:
     :
0000
0000
0000
0000
,
0000
0000
0000
0000
,
0000
0000
0000
0000
,
0000
0000
0000
0000
,
0000
0000
0000
0000
,
1000
0010
1000
0200
0000
0000
2300
0000
,
3001
0100
0010
1000
0000
0001
1000
0200
,
0310
0001
0100
0010
0000
0100
0001
0020
,
0031
0000
0100
0000
0010
1000
0010
0000
0100
0000
0010
0000
1001
0000
0000
0000
,
1000
0100
1000
0010
0100
0001
1000
0000
,
0001
1000
0010
1000
0001
0010
0001
0101
,
0000
0001
0010
0100
1000
0010
0100
1000
,
0100
0010
0001
0010
0100
0001
1000
0001
,
1000
0010
1000
1100
0000
1000
0001
0100
,
0001
0010
0001
1000
0001
0010
0100
1100
,
0000
0000
1000
0000
0100
0000
0001
0000
0100
0000
1000
0001
0100
0000
0110
0000
,
0000
0000
0000
1001
,
2000
0000
3001
0000
0200
0000
0301
1000
,
0000
0001
0010
0001
0100
0010
0001
0020
,
0000
1030
0001
0101
0000
1001
0000
1100
,
0000
1000
0100
0010
0001
0010
1000
0010
,
0002
0000
0103
0200
0000
0310
1000
0002
,
0000
0103
1000
0100
0001
0010
0100
0001
,
0200
0000
1300
0001
1000
0020
0000
0130
,
0002
0000
0000
0000
0013
0000
0200
0000
0300
0000
0100
1000
0100
1000
0001
0000
,
2000
0000
0010
0000
0001
0000
3010
0200
,
0000
0302
0000
1003
0001
0010
1000
0020
,
0000
0031
1000
0100
1000
0010
0100
0010
,
0000
1000
0001
0100
0010
0100
0010
0100
,
0002
0000
1000
2003
0000
0100
0100
3200
,
0000
0000
0320
0000
0000
0000
0031
0000
1000
0000
0001
0000
0100
0000
0010
1000
,
0020
0000
0100
0230
0000
0310
1000
0001
,
2000
3200
0302
0013
,
1001
0000
1000
0010
1000
0001
1000
0100
,
0010
0001
0100
0010
0100
0001
1000
0000
,
1001
0000
0001
0100
0010
0100
0001
0100
,
0001
0010
0100
1000
0010
1000
0020
0000
,
0230
0010
0001
0310
,
2000
0000
3200
0000
1300
0001
0200
0000
,
0301
0000
0000
0000
1000
0010
1000
0000
0000
0000
0001
0010
0001
0000
1000
0000
,
0100
0010
0001
0100
0010
1000
0001
0010
,
0002
0010
0000
1000
0000
0100
0000
0013
,
0000
0100
1000
0001
1000
0010
0100
0001
,
0010
0001
2000
0001
0000
0010
0000
3100
,
0010
0001
1000
0001
0100
0100
0100
0000
,
0010
0000
1000
0100
0000
0010
0200
0000
,
1300
0000
0100
0000
0001
0000
0100
0000
1000
0000
0001
1000
0001
1000
0001
0000
,
0010
0000
0000
0010
0001
0000
1000
0000
0010
0000
0100
0000
0110
0000
0000
0000
,
0000
0002
2003
3002
,
1003
0000
0100
1000
0001
1000
0010
0001
,
0000
0010
0200
0000
0302
0000
2003
0000
,
3001
0000
0100
0001
0010
0001
1000
0200
,
0000
0310
0100
1000
0100
1000
0001
0100
,
0002
0000
1003
2000
0000
3020
0000
0230
,
0000
0320
2030
0000
3001
0100
1000
0100
,
0001
0000
0000
0000
1000
0100
1000
0000
0000
0000
0001
0100
0001
0000
0000
0000
,
1000
0010
0002
0000
0023
0000
2030
0000
,
3001
1000
0001
0010
0100
1000
0010
0100
,
1000
0100
0010
0001
0010
0100
0002
0000
,
1003
0010
1000
0001
0100
0010
0100
0001
,
0000
1000
0001
0100
0001
0100
0010
0010
,
0020
0000
0130
0200
0000
0302
0000
2003
,
0000
3100
1000
0000
0010
1000
0100
0010
,
0002
0000
0103
0200
0000
2300
0000
3200
,
0000
0302
0000
1003
0001
0100
0010
0000
,
1010
0000
0000
0101
0000
0000
1100
0000
,
0000
0011
0000
0000
0110
0000
1001
0000
,
1000
0100
0001
1000
0010
0001
1000
0100
,
0000
0011
0000
0001
0100
0000
0110
0000
,
1001
0000
0001
0200
0000
0301
0020
0000
,
0130
0000
2000
0000
0000
0000
3010
0000
1000
0000
0100
0000
0010
0001
0010
0000
,
0100
0000
1000
0000
0001
0000
1000
0001
2000
0000
0000
0000
3002
0000
0000
0000
,
0103
0001
0010
0001
0100
0001
1000
0020
,
0000
0130
0020
0000
1030
0001
1000
0100
,
0010
0000
0001
0000
0100
0000
0010
0000
1000
0000
0100
0000
1000
0001
2000
0000
,
0000
3001
0200
0000
0301
0001
0010
0010
,
0001
0100
1000
0100
0001
1000
1001
0000
,
2000
0000
3010
0200
0000
0310
1000
0002
,
0000
0000
0013
0000
0001
0000
0000
0000
0100
0001
0100
0000
0010
1000
0020
0000
,
0000
1030
0002
0000
0103
0020
0000
1030
,
0020
0000
0130
0002
0000
1003
0001
2001
,
0000
3001
0200
0000
0301
1000
0010
0100
,
0020
0000
0000
0000
1030
0000
0100
0000
0010
0000
0001
0000
1000
0001
2000
0000
,
0000
0000
3010
0000
0200
0000
0000
0000
0310
0000
1000
0000
0001
1000
0001
0000
,
0000
0000
0000
0000
1000
0100
1000
2002
,
0000
0000
0000
0000
,
0000
0000
0000
0000
,
0000
0000
0000
0000
,
0000
0000
0000
0000
3003
0000
0100
1001
;

//--------------- dance-single - Fred-104 ----------------
#NOTES:
     dance-single:
     Fred-104:
     Challenge:
     15:
     :
0000
0000
0000
0000
,
0000
0000
0000
0000
,
0000
0000
0000
0000
,
0000
0000
0000
0000
,
0000
0000
0000
0000
,
0001
0010
0100
2000
3010
0100
0002
1003
,
0100
0010
0001
0100
0010
1000
0001
0200
,
1300
0100
0020
1030
0100
0010
0001
1000
,
0010
0000
0100
0000
0001
1000
0001
0000
0011
0000
0001
0000
0011
0000
0000
0000
,
1001
0001
0100
1000
0001
0010
1000
0001
,
0010
1000
0010
0100
0010
0001
1000
1001
,
0000
0001
0100
1000
0001
0010
0100
0001
,
0010
0000
0100
0000
0001
0000
0100
0000
0010
0000
0001
1000
0010
1000
0001
0000
,
1000
0100
0010
1000
0001
0100
1000
0001
,
0100
1000
0100
0010
0100
0001
1000
1100
,
0000
0000
0100
0000
0010
0000
0001
0000
1000
0000
0010
0100
0010
0000
0110
0000
,
0000
0000
0000
1001
0000
0100
0110
0000
,
0002
0000
0100
0000
1000
0000
0013
0200
,
0000
1300
0100
0010
0011
0001
1000
1010
,
0000
0001
1000
0100
1000
0010
2000
0001
,
0000
0000
3100
0000
0010
0000
0001
0000
1000
0010
0100
0001
1000
0100
0010
0001
,
0010
0000
0001
1000
0010
0001
1000
0100
,
0010
1000
0100
0001
0100
1000
0001
0100
,
0110
0000
0010
1000
0101
1000
0100
0110
,
0000
0000
0011
0000
1000
0000
0001
0000
0100
0000
0010
1000
0100
0010
0001
0000
,
2000
0000
0100
0000
0001
0000
3010
0200
,
0000
0000
0310
0000
1000
0000
0100
0000
0110
0000
0010
0001
0010
0000
0011
0000
,
0000
0001
1000
0010
0100
0010
0001
0010
,
1000
0000
0001
0000
0010
0000
0100
0000
1000
0010
0100
0001
1000
0100
0010
0000
,
0011
0000
0001
0100
1000
0100
0002
1000
,
0000
0000
0000
0103
0000
0000
0010
0000
0000
1000
0000
0000
0001
0000
0000
0010
0000
0000
0100
0000
0000
1000
0001
1000
,
0001
0000
0100
0010
0001
0010
0100
0010
,
0110
0000
0000
0000
0000
0000
1001
0000
0000
1000
0010
1000
0010
0000
0000
0010
0000
0000
0100
0000
0000
0100
0000
0000
,
0001
0000
1000
0000
0100
0000
1000
0001
1000
0000
0001
0100
0001
0000
1000
0000
,
0001
0010
1000
0001
0100
1000
0001
0000
,
0010
0000
0100
0000
1000
0000
0001
0100
0001
0000
1000
0100
1000
0000
0001
0000
,
1000
0010
0100
1000
0001
0010
2000
0000
,
3002
0100
2003
0010
,
3002
0000
0000
0000
2003
0000
0000
0000
3100
0000
0010
0001
1000
0000
0010
0000
,
0110
0000
0000
0000
1000
0100
0001
0000
0000
0000
1000
0010
0001
0000
0000
0000
,
1000
0010
0001
0000
0000
0000
1000
0100
0001
0000
1000
0100
0010
0001
1000
0001
,
1000
0100
0010
0100
0001
0100
1000
0010
,
0200
0000
1000
0000
0010
0000
0301
1000
,
0001
0010
1000
0001
0100
0010
0001
0200
,
0010
0000
0001
0000
0310
1000
1001
0000
,
0110
0000
1000
0100
0010
1000
0001
0100
,
0010
0000
0100
0000
1000
0000
0010
0000
0100
0000
0001
1000
0100
1000
0001
0000
,
1001
0000
0000
1000
0100
0000
0010
0000
0011
0000
0011
0000
0022
0000
0000
0000
,
0033
0000
0002
0000
2003
3001
1001
0000
,
0110
0000
0000
0000
1000
0000
0001
0010
0100
0000
1000
0000
0010
0000
1000
0000
,
0001
0100
1000
0001
1000
0100
0001
0010
,
0100
0000
0000
0000
1000
0000
0001
0100
0010
0000
1000
0000
0100
0000
0010
0000
,
0001
1000
0010
0001
1000
0001
0010
1000
,
0100
0000
0010
0001
0000
1000
0010
0001
,
0000
0000
0010
0000
0100
0000
0000
0000
0101
0000
1000
0000
0001
1000
0001
0000
,
1001
0000
0000
0000
0001
0100
1000
0000
0000
0000
0001
0010
1000
0000
0000
0000
,
0001
0000
1000
0000
0020
0000
0000
0000
0130
0000
0001
1000
0100
1000
0001
0000
,
1001
0000
0000
0000
0001
0000
0100
0010
1000
0000
0100
0000
0010
0000
0001
0000
,
1000
0100
0001
1000
0001
0100
1000
0001
,
0100
0000
0000
0000
0010
0000
1000
0100
0010
0000
0001
0000
1000
0000
0010
0000
,
0100
0010
0001
1000
0001
0010
1000
0100
,
0110
0000
0010
0001
0000
1000
0100
0001
,
0000
1000
0010
0000
0001
1000
0010
0100
,
0101
0000
1000
0001
0100
1000
0100
0001
,
1000
0000
0001
0000
0100
0000
0000
0000
0010
1000
0010
0100
0001
1000
0100
0010
,
0001
0000
1000
0010
1000
0010
1000
0000
0001
0010
0001
0010
0001
0000
1000
0100
,
1000
0100
1000
0000
0001
0100
0001
0100
0001
0000
1000
0001
1000
0010
0100
0001
,
1000
0000
0001
0010
0001
0010
0001
0000
1000
0010
1000
0010
1000
0000
0001
0000
,
1000
0010
0100
0000
0001
0000
1000
0100
0010
0000
0000
0000
1001
0000
0000
0000
,
0110
0000
0001
0010
0000
0100
1000
0000
,
0001
0000
0100
0000
0000
0000
0010
0000
1000
0001
0010
0100
1000
0001
0100
0000
,
0010
1000
0010
0000
0100
0000
0001
1000
0001
0000
1000
0000
0000
0000
0100
0000
,
0010
0000
0001
0000
0000
0000
1000
0000
0010
0100
0001
0100
0010
1000
0001
0000
,
0000
0010
0100
0000
1000
0001
0000
0100
,
0010
0000
1000
0000
0000
0000
0001
0000
0010
0100
0010
0100
1000
0001
0100
0000
,
0000
0000
0000
0000
0000
0000
0000
0000
0001
0000
0000
0000
0000
0000
0000
0000
1000
0000
0000
0000
0000
0000
0000
0000
0000
0000
0000
0000
0000
0000
0000
0000
0001
0000
0000
0000
0000
0000
0000
0000
0020
0030
0000
0000
0000
0000
0000
0000
0020
0030
0000
0000
0000
0000
0000
0000
1000
0000
0000
0000
0000
0000
0000
0000
,
0001
0000
0010
0000
0100
0000
1000
0000
0001
0100
0001
0100
0010
1000
0010
1000
,
0002
0000
1003
0200
0000
0301
0100
2000
,
0000
0000
3010
0000
0200
0000
0000
0000
0301
1000
0001
0000
0010
0100
0020
0000
,
0000
0031
0200
0000
0310
0200
0000
1300
,
0200
0000
0310
0200
0000
0301
1000
1200
,
0000
0000
0310
0001
0020
0000
0000
0000
0031
0000
1000
0000
0010
0000
0100
0000
,
0001
0000
0001
0000
1000
0000
1000
0000
0100
0010
0001
1000
0001
0100
0020
0000
,
0000
0000
1030
0001
0010
0100
0010
0000
0100
0000
1000
0000
0001
1000
0001
0000
,
0000
0000
1000
0000
0010
1000
0010
1000
0010
0000
0100
0000
0100
0000
0220
0000
,
0000
0000
0000
0000
,
0000
0000
0000
0000
,
0000
0000
0000
0000
,
0000
0000
0000
0000
0330
0000
1001
1001
;

//--------------- dance-double - Fred-104 ----------------
#NOTES:
     dance-double:
     Fred-104:
     Easy:
     4:
     :
00000000
00000000
00000000
00000000
,
00000000
00000000
00000000
00000000
,
00000000
00000000
00000000
00000000
,
00000000
00000000
00000000
00000000
,
00000000
00000000
00000000
00000000
,
00000002
00000000
00000003
00000000
,
00002000
00000000
00003000
00000000
,
00000002
00000000
00000003
00000000
,
00000200
00000000
00000310
00000000
,
00000110
00000000
00010000
00000000
,
00001000
00000000
00000000
00000000
00010000
00000000
00000000
00010000
,
00000000
00000000
00001000
00000000
,
00010000
00000000
00100000
00000000
,
10000000
00000000
00100000
00000000
,
10000000
00000000
00000000
00000000
00010000
00000000
00000000
00100000
,
00000000
00000000
00000000
00000000
01000000
00000000
00000000
01100000
,
00000000
00000000
00000000
00001000
,
00200000
00000000
00302000
00000000
,
00013000
00000000
00001000
00100000
,
00002000
00000000
00023000
00000000
,
00030200
00000000
00001300
00000100
,
00020000
00000000
00030020
00000000
,
00002030
00000000
00003001
00001000
,
00000100
00000000
00000010
00000000
,
00000001
00000000
00000100
00000000
,
00002000
00000000
00023000
00000000
,
01030000
10000000
00010000
00000000
,
20000000
00000000
30200000
00000000
,
01300000
00000000
00010000
10000000
,
01000000
00000000
00100000
00000000
,
00001000
00000000
00010000
00001000
,
00010000
00000000
00000010
00000000
,
00020000
00030000
00002000
00003000
,
00010000
00000000
00001000
00000000
,
00010000
00100000
01000000
00000000
,
00001000
00000000
00010000
00000000
,
00000100
00000000
00010000
00000000
,
00001000
00000000
00010000
00000000
,
00000010
00000000
00010000
00000000
,
00010000
00000000
00000000
00010000
00000000
00000000
00001000
00000000
,
00000000
00001000
00000000
00000000
00010000
00000000
00000000
00000000
,
00002000
00000000
00003200
00000000
,
00000310
00000000
00001000
00001000
,
00000002
00000000
00000203
00000000
,
00001300
00000000
00010000
00010000
,
00010000
00000000
00100000
00000000
,
10000000
00000000
00010000
10000000
,
00010000
00000000
00000000
10010000
,
00000000
00000000
00000000
00000000
,
20000000
00000000
00000000
00000000
,
30000000
01000000
00100000
00002000
,
00000000
00000000
00000000
00000000
,
00013000
00000000
00010000
00000000
,
00002000
00000000
00023000
00000000
,
00030010
00000000
00001000
00001000
,
00000100
00000000
00000000
00000100
00000000
00000000
00000100
00000000
,
00000000
00000000
00000010
00000000
,
00000020
00000000
00000000
00000000
,
00000030
00000001
00000001
00002000
,
00000000
00000000
00000000
00000000
,
00003000
00000000
00000010
00000010
,
00000010
00000000
00000000
00000100
00000000
00000000
00000100
00000000
,
00000000
00001000
00000000
00010000
,
00001000
00000000
00010000
00000000
,
00001000
00000000
00010000
00010000
,
00022000
00000000
00000000
00000000
,
00000000
00000000
00033000
00000000
,
00001000
00000000
00100000
00000000
,
00010000
00000000
10000000
00000000
,
00020000
00000000
00000000
00000000
,
00000000
00000000
00000000
00030000
,
20000000
00000000
00000000
00000000
,
00000000
00000000
00000000
30000000
,
02000000
00000000
00000000
00000000
,
00000000
00000000
00000000
03000000
,
00020000
00000000
00000000
00030000
,
00001000
00000000
00000010
00000000
,
00000001
00000000
00001000
00000000
,
00000002
00000000
00000003
00000000
,
00000100
00000000
00000010
00000000
,
00000200
00000000
00000300
00000000
,
00001000
00000000
00010000
00000000
,
00002000
00000000
00003000
00000000
,
00010000
00000000
00000000
00000000
00001000
00000000
00000000
00011000
,
00000000
00000000
00000000
00000000
00010000
00000000
00000000
00022000
,
00000000
00000000
00000000
00000000
,
00000000
00000000
00000000
00000000
,
00000000
00000000
00000000
00000000
,
00000000
00000000
00000000
00000000
00000000
00000000
00000000
00033000
;

//--------------- dance-double - Fred-104 ----------------
#NOTES:
     dance-double:
     Fred-104:
     Medium:
     9:
     :
00000000
00000000
00000000
00000000
,
00000000
00000000
00000000
00000000
,
00000000
00000000
00000000
00000000
,
00000000
00000000
00000000
00000000
,
00000000
00000000
00000000
00000000
,
00010000
00000000
00000000
02000000
00000000
00000000
03010000
00000000
,
10000000
00000000
00000000
00010000
00000000
00000000
00010000
00200000
,
00000000
00000000
00300000
00100000
00001000
00000000
00000000
00020000
,
00000000
00030000
00001000
00000000
00010000
00001000
00011000
00000000
,
01000000
00000000
00000000
00010000
00000000
10000000
01000000
00100000
,
00000000
01000000
00000000
00010000
00001000
00000000
00000000
00011000
,
00000000
00000000
00001000
00010000
00000000
00010000
00000000
00000100
,
00000000
00000100
00000000
00001000
00000100
00001000
00000001
00000010
,
00000100
00000000
00000000
00001100
00000000
00001000
00000001
00001000
,
00000000
00000001
00000000
00000100
00000010
00000000
00000000
00001010
,
00000000
00000000
00001000
00000001
00000010
00000100
00000000
00001100
,
00000000
00000000
00000000
00001001
,
00000002
00000000
00000000
00000000
00000103
00000000
00001000
00010000
,
00000000
00001000
00000000
00010000
00000000
00100000
01000000
00020000
,
00000000
00000000
00000000
10000000
00000000
00000000
00000000
10030000
,
00000000
00000000
00010000
00000000
10000000
01000000
00010000
00001000
,
00010000
00000000
00001000
00002000
00000000
00000000
00000000
00013000
,
00000000
00001000
00010000
00000000
00001000
00000100
00000010
00000000
,
00001000
00000000
00000002
00000000
00000203
00000000
00000300
00000010
,
00000100
00000000
00000001
00000000
00000010
00000100
00000010
00000000
,
00000002
00000000
00000100
00000000
00000203
00000000
00000310
00001000
,
00000000
00000200
00000000
00000000
00010300
00001000
00010000
00200000
,
00000000
00000000
00000000
10300000
00000000
00010000
00000000
20000000
,
00000000
30100000
01000000
00100000
10000000
00000000
01000000
00000000
,
01100000
00000000
00000000
00001000
00000000
00010000
00001000
00010000
,
00000000
01000000
00000000
10000000
00010000
00000000
01000000
00100000
,
00010000
00000000
00001000
00010000
00000000
00000000
00000000
00001000
,
00000200
00000302
00000023
00002030
,
00013000
00100000
10000000
01000000
,
00010000
00001000
00010000
00001000
,
00000010
00000001
00000100
00001000
,
00010000
00000000
00000000
00011000
00000000
00000000
00001000
00000000
,
00200000
00000000
00320000
00000000
,
10030000
00100000
10000000
02000000
,
03100000
00000000
00000000
00010000
00000000
00000000
10000000
00000000
,
00000000
00010000
00000000
00000000
01000000
00100000
00010000
00000000
,
00001000
00000000
00000000
00010000
00000000
00010000
00000000
00002000
,
00000000
00000000
00000000
00013000
,
00001000
00000000
00000000
00010000
00000000
00010000
00000000
00000200
,
00000000
00000000
00001300
00000001
,
00001000
00000000
00000010
00000010
00000000
00000100
00000001
00000000
,
00000000
00000010
00000000
00000000
00001000
00000000
00100000
00000000
,
00010000
00000000
01000000
00001000
00010000
00000000
00011000
00000000
,
00000000
00000002
00002003
00003200
,
00002300
00000001
00000001
00003100
,
00000010
00000200
00002300
00023000
,
00032000
00010000
00010000
00013000
,
00001000
00100000
00001000
00000000
00010000
01000000
00010000
00000000
,
00001000
00000000
00000000
00010000
00000000
00001000
00000000
00100000
,
00000000
00001000
00010000
00001000
,
00000100
00000000
00000000
00000001
00000000
00000001
00001000
00000000
,
00000000
00000100
00010000
00002000
,
00013000
00100000
01000000
00100000
,
10000000
00000000
00010000
00000000
10000000
00100000
10000000
00000000
,
01000000
00100000
00001000
00010000
,
00001000
00010000
00100000
00000000
01000000
00000000
00010000
10000000
,
00020000
00000000
00030000
10000000
00000000
01000000
00000000
00200000
,
00000000
00301000
00010000
00000000
00000010
00000000
00010000
00001000
,
00020000
00000000
00031000
00002000
00000000
00003020
00000000
00000230
,
00000000
00020300
00000000
00000000
00031000
00000000
00010000
00000000
,
00011000
00000000
00000000
00010000
00000000
00000000
00011000
00000000
,
00000000
00001000
00000000
00000000
00010000
00000000
00001000
00000000
,
00101000
00000000
00000000
00010010
00000000
00000000
00010000
00000100
,
00000000
00010000
00000000
00001000
02000000
00000000
03200000
00000000
,
01300000
00000000
00000000
00010000
00000000
00000000
01000000
00000000
,
00000000
00100000
00000000
10000000
01000000
00000000
00000000
00100000
,
00000000
00000000
00001000
00000000
00000000
00010000
00000000
00000000
,
00000100
00000000
00000000
00000010
00000100
00000000
00001000
00000000
,
00000001
00000000
00000000
00000100
00000000
00000010
00001000
00000000
,
00000000
00000100
00000000
00010000
00001000
00000000
01000000
00000000
,
00010000
00000000
10000000
01000000
00000000
00100000
00001000
00000000
,
00010000
00001000
00000010
00000000
00000100
00000000
00001100
00000000
,
00001000
00000000
00000000
00000001
00000000
00000010
00000100
00000000
,
00000000
00010000
00000000
00001000
00010000
00000000
00000000
00011000
,
00000000
00000000
00001000
00000000
00000000
00100000
00000000
00010000
,
01000000
00000000
00000000
00100000
00000000
00000000
10000000
01000000
,
00000000
00000000
00100000
00000000
00100000
00001000
00000000
00001000
,
00010000
00000000
00001000
00000000
00010000
00000000
00000000
00000100
,
00000000
00000010
00000001
00000000
00000100
00000000
00000000
00001100
,
00000000
00000000
00000000
00000000
00010000
00000000
00000000
00022000
,
00000000
00000000
00000000
00000000
,
00000000
00000000
00000000
00000000
,
00000000
00000000
00000000
00000000
,
00000000
00000000
00000000
00000000
00000000
00033000
00000000
00011000
;

//--------------- dance-double - Fred-104 ----------------
#NOTES:
     dance-double:
     Fred-104:
     Hard:
     13:
     :
00000000
00000000
00000000
00000000
,
00000000
00000000
00000000
00000000
,
00000000
00000000
00000000
00000000
,
00000000
00000000
00000000
00000000
,
00000000
00000000
00000000
00000000
,
00001000
00010000
00001000
02000000
00000000
00000000
03020000
00000000
,
01030000
00100000
10000000
01000000
00000000
00100000
00001000
00020000
,
00130000
00010000
00001000
01000000
00000000
00001000
00100000
00002000
,
00003010
00000000
00000100
00000000
00001000
00000010
00001000
00000000
00000001
00000000
00001000
00000000
00001001
00000000
00000000
00000000
,
00000001
00000010
00000100
00010000
00000000
00001000
00000100
00000000
,
00000010
00000100
00000001
00001000
00000001
00000010
00000100
00000110
,
00000000
00000001
00000100
00001000
01000000
00010000
00100000
01000000
,
10000000
00100000
10000000
01000000
00010000
01000000
10000000
00000000
,
10000000
01000000
00010000
00011000
00000000
00010000
00001000
00000100
,
00000001
00001000
00000001
00000010
00000100
00000010
00000001
00001001
,
00000000
00000000
00000001
00000000
00000100
00000000
00001000
00000000
00010000
00000000
00001000
00010000
00001000
00000000
00011000
00000000
,
00000000
00000000
00000000
00011000
,
00020000
00000000
00030010
00000000
00002000
00000000
00103000
00010000
,
00000000
00000010
00010000
00001000
00100000
00001000
01000000
00200000
,
00000000
10300000
01000000
00110000
00000000
10010000
00000000
10100000
,
00000000
10000000
01000000
00100000
00010000
01000000
00100000
00010000
,
00002000
00000000
00013000
00020000
00000000
00030100
00001000
00000002
,
00000000
00001003
00000001
00000100
00000001
00000010
00001000
00000010
,
00000001
00000000
00001000
00000001
00000100
00002000
00000000
00023000
,
00000000
00000000
00130000
00000000
10000000
00000000
00020000
00000000
00030000
00000000
00010000
10000000
00010000
10000000
01000000
00000000
,
00200000
00000000
00010000
00000000
01000000
00000000
10300000
00100000
,
00000000
00020000
00000000
10030000
01000000
00010000
00001000
00020000
,
00000000
00130000
00010000
00001000
00010000
01000000
00010000
00001000
,
00000000
00010000
00001000
00000100
00001000
00010000
00001000
00010000
,
00002000
00000000
00010000
00023000
00000000
00031000
00001000
00002000
,
00000000
00000000
02003000
00000000
00000000
00000000
03010000
00000000
00100000
00000000
00001000
00000000
00010000
00000000
00001000
00010000
,
00002000
00000000
00010000
00023000
00000000
00031000
00010000
00000010
,
00002000
00003200
00000320
00000031
,
00001001
00000000
00000001
00001000
00000001
00000100
00000010
00000001
,
00000010
00000000
00001000
00000100
00000010
00001000
00010000
00000000
,
00011000
00000000
00001000
00010000
00100000
01000000
00010000
00001000
,
00010000
00000000
01000000
00001000
00000000
00010000
00001000
00000000
,
00020000
00000010
00032000
00100000
,
00023000
00000000
00032000
00000000
01003000
00001000
00020000
00000000
,
00030100
00000000
00000000
00000000
00010000
00001000
00010000
00000000
00000000
00000000
00001000
01000000
00001000
00000000
00010000
00000000
,
00001000
00010000
00100000
01000000
00010000
10000000
01000000
00100000
,
00001000
00010000
00000000
00100000
00000000
01000000
00000000
00010000
,
00000000
10000000
00100000
00010000
00001000
00000100
00000010
00001000
,
00010000
00100000
01000000
00010000
00000000
00001000
00000000
00000010
,
00000100
00000000
00010000
00010000
00001000
00001000
00010000
00000000
,
00001000
00000000
01000000
00100000
00000000
10000000
00020000
00000000
,
00130000
00000000
01000000
00000000
10000000
00000000
00010000
00000000
01000000
00000000
00100000
10000000
00100000
10000000
00010000
00000000
,
10000000
00000000
00000000
00100000
00010000
00000000
00001000
00000000
00000010
00000000
00000001
00000000
00001001
00000000
00000000
00000000
,
00000000
00000002
00002003
00003002
,
00000013
00000000
00000001
00000100
00000001
00000010
00001000
00010000
,
00000000
00001000
00000200
00000000
00000320
00000000
00002030
00000000
,
00003001
00000000
00000010
00000100
00001000
00000100
00010000
00002000
,
00000000
00103000
00001000
00010000
00001000
01000000
00010000
00100000
,
00002000
00000000
01003000
02000000
00000000
03200000
00000000
20300000
,
00000000
30020000
20030000
00000000
31000000
00100000
00001000
00010000
,
00001000
00000000
00000000
00000000
00010000
00000100
00010000
00000000
00000000
00000000
00000010
00001000
00000010
00000000
00000000
00000000
,
00000100
00000001
00000020
00000000
00000032
00000000
00002003
00000000
,
00003001
00000000
00000100
00000001
00000010
00000001
00001000
00000010
,
00000100
00000010
00001000
00010000
00100000
01000000
00100000
00000000
,
00010000
00000000
00001000
00000100
00000010
00000100
00000010
00000100
,
00000000
00001000
00010000
01000000
00100000
01000000
00010000
10000000
,
00020000
00000000
00130000
00002000
00000000
00003020
00000000
00002030
,
00000000
00013000
00001000
00000000
00010000
00000100
00010000
00000100
,
00002000
00000000
00013000
00200000
00000000
02300000
00000000
23000000
,
00000000
30200000
00000000
01300000
00100000
00010000
00001000
00000000
,
01001000
00000000
00000000
00010010
00000000
00000000
00101000
00000000
,
00000000
00010100
00000000
00000000
00011000
00000000
00011000
00000000
,
00010000
00001000
00000010
00000001
00000000
00000001
00000100
00001000
,
00000000
00011000
00000000
01000000
00100000
00000000
10010000
00000000
,
11000000
00000000
00010000
20000000
00000000
30010000
00200000
00000000
,
01300000
00000000
20000000
00000000
00000000
00000000
30010000
00000000
01000000
00000000
00100000
00000000
10000000
00100000
10000000
00000000
,
00010000
00000000
00100000
00000000
00001000
00000000
00010000
00001000
00020000
00000000
00000000
00000000
00032000
00000000
00000000
00000000
,
00103000
00001000
00010000
00001000
01000000
00001000
00010000
00002000
,
00000000
00013000
00000020
00000000
00001030
00000001
00000100
00000001
,
00001000
00000000
00000100
00000000
00000010
00000000
00000001
00000000
00000100
00000000
00000010
00000000
00001000
00000010
00002000
00000000
,
00000000
00003100
00020000
00000000
00031000
00100000
00010000
01000000
,
00100000
10000000
00010000
10000000
01000000
00100000
00110000
00000000
,
20000000
00000000
30100000
20000000
00000000
31000000
00100000
00002000
,
00000000
00000000
00013000
00000000
00001000
00000000
00000000
00000000
00010000
00001000
00010000
00000000
00000100
00010000
00000200
00000000
,
00000000
00010300
00002000
00000000
00003100
00000020
00000000
00001030
,
00000002
00000000
00000013
00000200
00000000
00001300
00000001
00000201
,
00000000
00000301
00000020
00000000
00000130
00000010
00000001
00000100
,
00001000
00000000
00000000
00000000
00010000
00000000
00100000
00000000
10000000
00000000
00010000
00000000
10000000
01000000
20000000
00000000
,
00000000
00000000
31000000
00000000
00200000
00000000
00000000
00000000
00301000
00000000
00010000
00000000
00100000
01000000
00100000
00000000
,
00000000
00000000
00000000
00000000
10000000
00100000
00010000
00022000
,
00000000
00000000
00000000
00000000
,
00000000
00000000
00000000
00000000
,
00000000
00000000
00000000
00000000
,
00000000
00000000
00000000
00000000
00033000
00000000
00001000
00010100
;

//--------------- dance-double - Fred-104 ----------------
#NOTES:
     dance-double:
     Fred-104:
     Challenge:
     16:
     :
00000000
00000000
00000000
00000000
,
00000000
00000000
00000000
00000000
,
00000000
00000000
00000000
00000000
,
00000000
00000000
00000000
00000000
,
00000000
00000000
00000000
00000000
,
00001000
00010000
01000000
00200000
00301000
00000010
00000200
00001300
,
00000010
00010000
00001000
00010000
00100000
01000000
00001000
00020000
,
01030000
00010000
00002000
01003000
00010000
00001000
00000010
00000100
,
00001000
00000000
00010000
00000000
00001000
00100000
00010000
00000000
00110000
00000000
00010000
00000000
01010000
00000000
00000000
00000000
,
00010000
00100000
01000000
00010000
00001000
00000010
00000100
00001000
,
00000010
00000100
00001000
00010000
00001000
01000000
00100000
01100000
,
00000000
00010000
00100000
01000000
00010000
00001000
00000100
00000010
,
00000100
00000000
00001000
00000000
00010000
00000000
00000010
00000000
00001000
00000000
00000100
00000010
00000100
00010000
00001000
00000000
,
00010000
00001000
00000010
00000100
00010000
01000000
00100000
00010000
,
01000000
00001000
00000100
00000010
00010000
00001000
00010000
00011000
,
00000000
00000000
00001000
00000000
00010000
00000000
00100000
00000000
01000000
00000000
00010000
00100000
01000000
00000000
01100000
00000000
,
00000000
00000000
00000000
00011000
00000000
00000100
00000110
00000000
,
00000002
00000000
00000100
00000000
00001000
00000000
00000013
00000200
,
00000000
00001300
00000001
00000100
00001000
00010000
00001000
00011000
,
00000000
00001000
00010000
00100000
01000000
00100000
10000000
00100000
,
10000000
00000000
01000000
00000000
00100000
00000000
00001000
00000000
00010000
00001000
00010000
00001000
00000100
00000010
00001000
00000000
,
00000100
00000000
00001000
00000010
00000100
00010000
01000000
00100000
,
00000000
00010000
00100000
01000000
00010000
00100000
01000000
00010000
,
00001000
00000000
00010000
00001000
00011000
00010000
00001000
01001000
,
00000000
00000000
01100000
00000000
01000000
00000000
00001000
00000000
00010000
00000000
00001000
00010000
00001000
00000100
00000010
00000000
,
00002000
00000000
00000100
00000000
00000001
00000000
00003010
00000200
,
00000000
00000000
00001300
00000000
00010000
00000000
00100000
00000000
01000000
00000000
00010000
00100000
01000000
00000000
11000000
00000000
,
00000000
00010000
10000000
00100000
00010000
00001000
00010000
01000000
,
00000000
00000000
00010000
00000000
00001000
00000000
00000100
00000000
00000001
00000010
00000001
00000010
00000100
00010000
00001000
00000000
,
00011000
00000000
00000010
00000100
00001000
00010000
00100000
01000000
,
00000000
00000000
00000000
00001000
00000000
00000000
00010000
00000000
00000000
01000000
00000000
00000000
00100000
00000000
00000000
00001000
00000000
00000000
00010000
00000000
00000000
00001000
00010000
00001000
,
00010000
00000000
00001000
00010000
01000000
00100000
00001000
00010000
,
00000010
00000000
00000000
00010000
00000000
00000000
00001000
00000000
00000000
00010000
00001000
00010000
00001000
00000000
00000000
00000000
00000000
00000000
00011000
00000000
00000000
00000000
00000000
00000000
,
00001000
00000000
00010000
00000000
01000000
00000000
10000000
00010000
01000000
00000000
00010000
01000000
00010000
00000000
00100000
00000000
,
01000000
00010000
00000100
00000010
00000001
00001000
00000010
00000000
,
00010000
00000000
00001000
00000000
00000100
00000000
00000010
00001000
00000010
00000000
00000100
00000001
00000010
00000000
00000100
00000000
,
00000010
00001000
00010000
00100000
10000000
01000000
00200000
00000000
,
00302000
00010000
02003000
00010000
,
03001000
00000000
00010000
00000000
00000010
00000000
00001000
00000000
00000100
00000000
00000100
00000010
00000100
00000000
00000010
00000000
,
00000011
00000000
00000000
00000000
00000001
00000010
00001000
00000000
00000000
00000000
00010000
01000000
10000000
00000000
00000000
00000000
,
10000000
00100000
00010000
00000000
00000000
00000000
00001000
00000100
00000001
00000000
00001000
00000100
00000010
00000001
00001000
00000000
,
00000001
00000100
00000010
00000100
00001000
00010000
00100000
10000000
,
02000000
00000000
00010000
00000000
00100000
00000000
13000000
00100000
,
00010000
00001000
00010000
01000000
00010000
00001000
00000100
00000020
,
00001000
00000000
00000100
00000000
00001030
00000100
00000011
00000000
,
00000110
00000000
00001000
00000010
00000100
00001000
00010000
00100000
,
01000000
00000000
10000000
00000000
01000000
00000000
00100000
00000000
10000000
00000000
01000000
00100000
00010000
00100000
00001000
00000000
,
00011000
00000000
00000000
00000010
00000100
00000000
00000001
00000000
00001100
00000000
00010000
00000000
00022000
00000000
00000000
00000000
,
00033000
00002000
00023000
00230000
,
10300000
00000000
00000000
00000000
01000000
00000000
00100000
00010000
10000000
00000000
00100000
00000000
00010000
00000000
00001000
00000000
,
00010000
00001000
00000100
00000010
00000001
00001000
00010000
00001000
,
01000000
00000000
00000000
00000000
00010000
00000000
10000000
01000000
00100000
00000000
00001000
00000000
00010000
00000000
00000010
00000000
,
00010000
00100000
01000000
00010000
00100000
01000000
00010000
00000100
,
00001000
00000000
00000010
00000100
00001000
00010000
01000000
00100000
,
00001000
00000000
01000000
00000000
00010000
00000000
00000000
00000000
00001000
00000000
00000010
00000000
00000100
00001000
00010000
00000000
,
00011000
00000000
00000000
00000000
00001000
00010000
00100000
00000000
00000000
00000000
10000000
01000000
00100000
00000000
00000000
00000000
,
00001000
00000000
00010000
00000000
00011000
00000000
00000000
00000000
00010000
00000000
00000100
00001000
00000001
00000100
00000010
00000000
,
00000110
00000000
00000000
00000000
00001000
00000000
00000100
00000010
00000100
00000000
00000001
00000000
00000100
00000000
00001000
00000000
,
00000010
00000100
00001000
00010000
00100000
01000000
00001000
00010000
,
00100000
00000000
00000000
00000000
01000000
00000000
10000000
01000000
00010000
00000000
00100000
00000000
01000000
00000000
00010000
00000000
,
00001000
00000010
00000100
00001000
00010000
00100000
00010000
01000000
,
01100000
00000000
00001000
00010000
00100000
01000000
00010000
00100000
,
00000000
00001000
00010000
00000000
00000100
00000010
00000100
00010000
,
00011000
00000000
00001000
00010000
00100000
01000000
10000000
00010000
,
00001000
00000000
00000100
00000000
00000001
00000000
00000000
00000000
00001000
00000100
00001000
00000100
00000010
00000001
00000010
00000001
,
00001000
00000000
00000010
00000100
00000010
00000100
00001000
00000000
00010000
00100000
00010000
00100000
01000000
00000000
00010000
10000000
,
00010000
10000000
01000000
00000000
00100000
00001000
00100000
00001000
00010000
00000000
00001000
00010000
00000010
00000000
00001000
00000000
,
00000001
00000000
00000100
00001000
00000100
00001000
00000100
00000000
00001000
00010000
00001000
00010000
00001000
00000000
00010000
00000000
,
01000000
10000000
01000000
00000000
00100000
00000000
00001000
00010000
00001000
00000000
00000000
00000000
00000110
00000000
00000000
00000000
,
00001001
00000000
00001000
00000010
00000000
00000100
00001000
00000000
,
00010000
00000000
00100000
00000000
01000000
00000000
00100000
00000000
00010000
00001000
00010000
00001000
01000000
00010000
01000000
00000000
,
00010000
00000000
00100000
00000000
01000000
00000000
00100000
00010000
00100000
00000000
00001000
00000000
00000010
00000000
00000100
00000000
,
00010000
00000000
00001000
00000000
00000100
00000000
00000010
00000000
00001000
00000100
00001000
00000100
00000010
00001000
00010000
00000000
,
00000000
00001000
00010000
01000000
00010000
00001000
01000000
00010000
,
00001000
00000000
00010000
00000000
01000000
00000000
00001000
00000000
00010000
00000100
00001000
00000100
00010000
00000100
00001000
00000000
,
00000000
00000010
00010000
00001000
00000010
00001000
00010000
00000010
,
00010000
00000000
00100000
00000000
01000000
00000000
00010000
00000000
00100000
01000000
00100000
01000000
00100000
00010000
00100000
00000000
,
00001000
00010000
00100000
01000000
10000000
01000000
00010000
10000000
,
01000000
00000000
00010000
00000000
00001000
00000000
00010000
00000000
00000100
00000010
00000100
00000000
00001000
00000001
00001000
00000000
,
00000000
00000010
00000100
00001000
00010000
00100000
01000000
00010000
,
00100000
00001000
00000010
00001000
00010000
00001000
01000000
01001000
,
00000000
00001000
00010000
01000000
00100000
00010000
01000000
00100000
,
00010000
00000000
00001000
00000000
00010000
00000000
00000100
00000000
00000010
00001000
00010000
00001000
00010000
00001000
00010000
00000000
,
00000000
00000000
00001000
00010000
00100000
01000000
00100000
00000000
10000000
00000000
01000000
00000000
00100000
00001000
00010000
00000000
,
00000000
00000000
00000100
00000000
00001000
00000001
00000100
00000010
00000100
00000000
00001000
00000000
00010000
00000000
00022000
00000000
,
00000000
00000000
00000000
00000000
,
00000000
00000000
00000000
00000000
,
00000000
00000000
00000000
00000000
,
00000000
00000000
00000000
00000000
00033000
00000000
00011000
01001000
;
