#TITLE:この子の七つのお祝いに;
#ARTIST:あさき;
#TITLETRANSLIT:Konoko no nanatsu no oiwaini;
#ARTISTTRANSLIT:Asaki;
#GENRE:ELEGY 2;
#BANNER:Konoko no nanatsu no oiwaini.png;
#BACKGROUND:Konoko no nanatsu no oiwaini-bg.png;
#CDTITLE:./CDTitles/GF 10thMIX & DM 9thMIX.png;
#MUSIC:Konoko no nanatsu no oiwaini.ogg;
#SAMPLESTART:70.807;
#SAMPLELENGTH:15;
#DISPLAYBPM:161;
#BPMS:0=161.325,4=161;
#TIMESIGNATURES:0=4=4,140=6=4,146=4=4,162=3=4,165=4=4,169=5=4,174=4=4,234=6=4,258=4=4;
#STAGE:14;

//--------------- dance-single - Fred-104 ----------------
#NOTES:
     dance-single:
     Fred-104:
     Beginner:
     3:
     :
0000
0000
0000
0000
,
0000
0000
0000
0000
,
0000
0000
0000
0000
,
0000
0000
0000
0000
,
1000
0000
0000
0000
,
0001
0000
1000
0000
,
0001
0000
0000
0000
,
0100
0000
0010
0000
,
0100
0000
0000
0000
,
0001
0000
0000
0000
,
1000
0000
0000
0000
,
0010
0000
0000
0000
,
1000
0000
0001
0000
,
1000
0000
0001
0000
,
0000
0000
0001
0000
,
1000
0000
0000
0000
,
0001
0000
0010
0000
,
0001
0000
1000
0000
,
0001
0000
1000
0000
,
2002
0000
3003
0000
,
0001
0000
1000
0000
,
0010
0000
1000
0000
,
0100
0000
0010
0000
,
0001
0000
1000
0000
,
1001
0000
0000
0000
,
0001
0000
0000
0000
,
1000
0000
0000
0000
,
0002
0000
0000
0003
,
1000
0000
1000
0000
,
0010
0000
0010
0000
,
0100
0000
0001
0000
,
2000
0000
0000
3000
,
0001
0000
0001
0000
,
1000
0000
0010
0000
,
1000
0000
0001
0000
,
1000
0000
0000
0001
,
0000
0000
1000
0000
,
0001
0000
1000
0000
,
0001
0000
0000
0000
,
0000
0001
0000
0000
0000
0000
0000
0000
0000
1000
0000
0000
0000
0000
0000
0000
,
0000
0001
0000
0000
0000
0000
0000
0000
0000
1000
0000
0000
0000
0000
0000
0000
,
0000
0000
0000
0000
0000
0001
0000
0000
0000
0001
0000
0000
0000
0001
0000
0000
,
0000
0000
0000
0000
0000
1000
0000
0000
0000
1000
0000
0000
0000
1000
0000
0000
,
0000
0000
0000
0000
0000
0000
0000
0000
0000
0001
0000
0000
0000
0001
0000
0000
,
0000
0001
0000
0000
0000
0000
0000
0000
0000
0100
0000
0000
0000
0100
0000
0000
,
0000
0100
0000
0000
0000
0000
0000
0000
0000
0010
0000
0000
0000
0010
0000
0000
,
0000
0010
0000
0000
0000
0000
0000
0000
0000
2000
0000
0000
0000
3000
0000
0000
,
0000
0002
0000
0000
0000
0003
0000
0000
0000
1000
0000
0000
0000
0000
0000
0000
,
0000
0010
0000
0000
0000
0000
0000
0000
0000
1000
0000
0000
0000
0000
0000
0000
,
0000
0100
0000
0000
0000
0100
0000
0000
0000
0100
0000
0000
0000
0000
0000
0000
,
0000
0010
0000
0000
0000
0000
0000
0000
0000
0001
0000
0000
0000
0000
0000
0000
,
0000
1000
0000
0000
0000
0000
0000
0000
0000
0002
0000
0000
0000
0000
0000
0000
,
0000
0003
0000
0000
0000
0000
0000
0000
0000
2000
0000
0000
0000
0000
0000
0000
,
0000
3000
0000
0000
0000
0000
0000
0000
0000
0020
0000
0000
0000
0000
0000
0000
,
0000
0030
0000
0000
0000
0000
0000
0000
0000
0200
0000
0000
0000
0000
0000
0000
,
0000
0300
0000
0000
0000
0000
0000
0000
0000
0001
0000
0000
0000
0000
0000
0000
,
0000
0010
0000
0000
0000
0000
0000
0000
0000
0100
0000
0000
0000
0000
0000
0000
,
0000
1000
0000
0000
0000
0000
0000
0000
0000
0001
0000
0000
0000
0000
0000
0000
,
0000
1000
0000
0000
0000
0000
0000
0000
0000
1001
0000
0000
0000
0000
0000
0000
,
0000
0000
0000
0000
0000
0000
0000
0000
0000
0001
0000
0000
0000
0000
0000
0000
,
0000
1000
0000
0000
0000
0000
0000
0000
0000
1001
0000
0000
0000
0000
0000
0000
,
0000
0000
0000
0000
0000
0000
0000
0000
0000
1000
0000
0000
0000
0000
0000
0000
,
0000
0001
0000
0000
0000
0000
0000
0000
0000
1000
0000
0000
0000
0000
0000
0000
,
0000
0001
0000
0000
0000
0000
0000
0000
0000
0001
0000
0000
0000
0000
0000
0000
,
0000
1000
0000
0000
0000
0000
0000
0000
0000
0001
0000
0000
0000
1000
0000
0000
,
0000
0001
0000
0000
0000
0000
0000
0000
0000
2002
0000
0000
0000
0000
0000
0000
,
0000
0000
0000
0000
,
3003
0000
0000
0000
;

//--------------- dance-single - Fred-104 ----------------
#NOTES:
     dance-single:
     Fred-104:
     Easy:
     7:
     :
0000
0000
0000
0000
,
0000
0000
0000
0000
,
0000
0000
0000
0000
,
0000
0000
0000
0000
,
1000
0000
0000
1000
0000
0000
0000
0000
,
0001
0100
0010
0100
,
0001
0000
0000
0010
0000
0000
0100
0000
,
0010
0010
0001
1000
,
0001
0000
0100
0010
,
1000
0000
0100
0010
,
0001
0000
1000
0000
,
0001
0000
0000
1000
0000
0000
0001
0000
,
0100
0000
0010
0000
,
1000
0000
0100
0000
,
0010
0000
0001
0001
,
1000
0000
0001
0000
0000
1001
0000
0000
,
0001
0100
0001
0010
,
0010
0100
1000
0001
,
0100
0010
0100
0000
0001
0000
0001
0000
,
1000
0010
1000
0000
0001
0100
0001
0000
,
1000
0010
1000
1000
,
0100
0010
0001
0100
,
0001
0001
0010
0100
,
1000
0010
1000
0000
0001
0100
0001
0000
,
1000
0000
0000
1100
0000
0000
0000
0000
,
0001
0000
0000
0101
0000
0000
0000
0000
,
1000
0000
0000
1001
0000
0000
0000
0000
,
0001
0000
0000
0100
0000
0000
0010
0000
,
1000
0000
0000
0100
0000
0010
0000
0000
,
0001
0000
0000
0010
0000
0001
0000
0000
,
0100
0000
0000
0010
0000
1000
0000
0000
,
0001
1000
2002
3003
,
1000
0010
1000
0000
0100
0000
0100
0000
,
1000
0000
0001
0000
0100
0010
0100
0000
,
0001
0010
0100
1000
,
0001
0100
0001
0000
0100
0010
0100
0000
,
0010
1000
0010
0000
1000
0000
1000
0000
,
0010
0100
0001
1000
,
0001
0000
0000
0000
0000
0000
0000
0000
0000
0001
0000
0000
0000
1000
0000
0000
,
0000
0010
0000
0000
0000
0100
0000
0000
0000
0001
0000
0000
1000
0000
0000
0001
,
0000
0200
0000
0000
0000
0300
0000
0000
0000
0001
0000
0000
0000
1000
0000
0000
,
0000
0002
0000
0000
0000
1003
0000
0000
0000
1000
0000
0000
0000
0100
0000
0000
,
0000
0100
0000
0000
0000
0010
0000
0000
0000
0010
0000
0000
0000
0001
0000
0000
,
0000
0001
0000
0000
0000
1000
0000
0000
0000
0001
0000
0000
0000
0001
0000
0000
,
0000
0100
0000
0000
0000
0100
0000
0000
0000
0010
0000
0000
0000
0010
0000
0000
,
0000
1000
0000
0000
0000
1000
0000
0000
0000
0001
0000
0100
0000
0001
0000
0000
,
0000
0100
0000
0010
0000
0100
0000
0000
0000
0010
0000
1000
0000
0010
0000
0000
,
0000
1000
0000
0001
0000
2000
0000
0000
0000
3001
0000
0000
0000
0100
0000
0000
,
0000
0001
0000
0000
0000
0100
0000
0000
0000
1000
0000
0000
0000
0010
0000
0000
,
0000
1000
0000
0000
0000
0010
0000
0000
0000
0001
0000
0000
0000
0100
0000
0000
,
0000
0010
0000
0000
0000
1000
0000
0000
0000
0001
0000
0000
0000
0000
0000
0001
,
0000
0000
0000
0000
0000
0100
0000
0000
0000
0010
0000
0000
0000
0000
0000
1010
,
0000
0000
0000
0000
0000
1000
0000
0000
0000
0001
0000
0000
0000
0000
0000
0101
,
0000
0000
0000
0000
0000
0100
0000
0000
0000
0010
0000
0000
0000
0000
0000
0110
,
0000
0000
0000
0000
0000
0100
0000
0000
0000
0001
0000
0000
0000
0000
0000
1001
,
0000
0000
0000
0000
0000
1000
0000
0000
0000
0001
0000
0000
0000
0100
0000
0000
,
0000
0010
0000
0000
0000
0100
0000
0000
0000
0001
0000
0000
0000
0100
0000
0000
,
0000
0010
0000
0000
0000
1000
0000
0000
0000
0001
0000
0100
0000
0010
0000
0000
,
0000
1000
0000
0010
0000
0100
0000
0000
0000
0001
0000
0000
0000
0001
0000
0000
,
0000
0010
0000
0000
0000
0100
0000
0000
0000
1000
0000
0000
0000
0010
0000
0000
,
0000
0100
0000
0000
0000
0010
0000
0000
0000
1000
0000
0000
0000
0100
0000
0000
,
0000
0010
0000
0000
0000
0001
0000
0000
0000
1000
0000
0000
0000
0001
0000
0000
,
0000
0010
0000
0000
0000
0100
0000
0000
0000
1000
0000
0000
0000
0001
0000
0000
,
0000
2000
0000
0000
0000
3020
0000
0000
0000
0032
0000
0000
0000
0203
0000
0000
,
0000
2300
0000
0000
0000
3020
0000
0000
0000
0031
0000
0000
0000
0100
0000
0000
,
0000
1000
0000
0000
0000
0000
0000
0000
2002
0000
0000
0000
0000
0000
0000
0000
,
0000
0000
0000
0000
,
3003
0000
0000
0000
;

//--------------- dance-single - Fred-104 ----------------
#NOTES:
     dance-single:
     Fred-104:
     Medium:
     12:
     :
0000
0000
0000
0000
,
0000
0000
0000
0000
,
0000
0000
0000
0000
,
0000
0000
0000
0000
,
0001
0000
0000
0010
0000
0000
0001
0000
0000
0000
0100
0000
0010
0000
1000
0000
,
0001
0010
0100
1000
0001
0100
0002
0000
,
0103
0000
0000
0010
0000
0000
2000
0000
0000
0000
3010
0000
0100
0000
0010
0000
,
1000
0100
0010
0100
1000
0001
0200
0000
,
0301
0010
0010
0100
0010
0010
0001
1000
,
0001
0100
0100
1000
0100
0100
0001
1000
,
0001
0010
0010
1000
0100
0100
0001
1000
,
0001
0000
0000
0100
0000
0000
0010
0000
0000
1000
0000
0000
0100
0000
0010
0000
,
0002
0100
1000
0013
,
1000
0000
0010
0000
0100
0000
0000
0000
0001
0000
0010
0000
0100
0010
0000
0001
,
0000
0000
1000
0000
0010
0000
0100
0000
0001
0000
0000
1000
0000
0000
0001
0000
,
0100
0000
0010
0000
1000
0100
0000
0010
0000
0000
0022
0000
0000
0000
0033
0000
,
0001
0010
0100
0010
0001
0100
0010
1000
,
0001
0100
0001
0100
0010
1000
0100
0010
,
0001
0100
1000
0100
0001
0100
1000
0100
,
0001
0000
0010
0000
0001
0000
0100
0000
0001
0000
1000
0001
2000
0000
0000
0000
,
3001
0100
0010
1000
0100
1000
0001
0200
,
0000
0301
0010
0200
0000
1300
0010
0200
,
0000
0301
0010
2000
0000
3001
0100
2000
,
0000
3001
0100
0010
1000
0100
0010
0001
,
1000
0000
0000
1100
0000
0100
0010
0001
,
0100
0000
0000
0011
0000
0001
0100
0010
,
1000
0000
0000
1010
0000
0010
1000
0001
,
1000
0100
0000
1000
0100
0000
0010
0001
0000
0010
0001
0000
1000
0000
0010
0000
,
0100
0000
0001
0002
0000
0103
0010
1000
,
0100
0000
0010
0020
0000
0130
1000
0001
,
0010
0000
0001
0002
0000
0103
0010
1000
,
0001
0010
0001
0000
1000
0000
0001
0100
0000
0000
0000
0000
0110
0000
0000
0000
,
0001
0100
1000
0100
0001
0100
1000
0100
,
0001
0000
0010
0000
1000
0000
0010
0000
0001
0000
1000
0000
0001
0100
0000
0010
,
0000
0000
1000
0000
0100
0010
0000
0001
0000
0000
0100
0000
0010
0000
0100
0000
,
0001
0000
0010
0000
0100
1000
0000
0100
1000
0000
0001
0000
0100
0000
0010
0000
,
1000
0000
0001
0000
0100
0010
0100
0000
0000
0000
0001
0000
0010
0000
0100
0000
,
1000
0001
0100
0010
1000
0100
0010
0001
,
0100
0000
0010
0000
0100
0010
0000
0010
0000
1000
0000
0000
0100
0000
0000
0010
,
0000
0001
0000
0000
0100
0000
0000
0010
0000
0001
0000
0000
0010
0000
0000
1000
,
0000
1001
0000
0000
0000
0001
0000
0100
0010
1000
0000
0100
0000
0010
0000
0001
,
0000
2001
0000
0000
0000
3001
0000
0100
0000
0001
0000
0100
0000
0010
0000
1000
,
0000
0010
0000
1000
0000
0100
0000
0010
0000
0100
0000
0010
0000
0001
0000
0010
,
0000
0001
0000
0010
0000
0001
0000
1000
0000
0001
0000
0100
0000
0010
0000
1000
,
0000
0001
0000
0100
0000
0010
0000
1000
0000
0100
0000
0010
0000
0001
0000
0100
,
0000
0010
0000
1000
0000
0001
0000
1000
0000
0010
0000
0100
0000
0001
0000
0010
,
0000
0100
0000
1000
0000
0010
0000
0100
0000
0001
0000
1000
0000
0100
0000
0010
,
0000
0001
0000
0100
0010
0200
0000
0000
0000
0301
0000
0010
0000
0100
0000
0010
,
0000
0001
0000
0100
0000
0010
0000
1000
0000
0001
0000
0000
0000
0100
0000
1000
,
0000
0000
0000
0100
0000
0001
0000
0010
0000
0000
0000
0100
0000
1000
0000
0010
,
0000
0100
0000
0010
0000
1000
0000
0100
0000
0010
0000
0001
0000
0001
0000
1000
,
0000
0001
0000
0001
0000
0100
0000
0010
0000
1000
0000
0000
0000
0000
0000
1001
,
0000
0000
0000
0001
0000
0100
0000
0010
0000
0100
0000
0000
0000
0000
0000
1010
,
0000
0000
0000
0100
0000
0001
0000
1000
0000
0001
0000
0100
0000
1000
0000
0100
,
0000
0000
0000
0010
0000
1000
0000
0100
0000
0010
0000
0001
0000
1000
0000
0010
,
0000
0100
0000
0001
0000
1000
0000
0100
0000
0001
0000
0100
0000
1000
0000
0100
,
0000
0000
0000
0001
0000
0010
0000
0100
0000
0000
0000
1000
0000
0010
0000
0100
,
0000
0000
0000
0001
0000
0100
0000
0010
0000
1000
0000
0100
0000
0010
0000
0001
,
0000
0100
0000
0010
0000
1000
0000
0010
0000
0110
0000
0000
0000
1000
0000
0000
,
0000
0100
0000
0000
0000
0010
0000
0000
0000
0011
0000
0000
0000
0001
0000
0000
,
0000
1000
0000
0000
0000
0010
0000
0000
0000
0110
0000
0000
0000
0100
0000
0000
,
0000
0001
0000
0000
0000
1000
0000
0000
0000
1100
0000
0000
0000
0010
0000
0000
,
0000
0101
0000
0000
0000
0010
0000
0000
0000
1000
0000
0000
0000
0001
0000
0000
,
0000
2000
0000
3200
0000
0320
0000
0032
0000
2003
0000
3020
0000
0230
0000
0302
,
0000
0000
0000
0023
0000
0000
0000
0000
0000
0230
0000
0000
0000
0000
0000
0320
0000
0000
0000
0000
0000
0032
0000
0000
0000
0000
0000
1003
0000
0000
0000
0000
0000
0000
0000
0000
0000
0000
0000
0001
0000
0000
0000
0100
0000
0000
0000
0001
,
0000
1000
0000
0000
0000
0000
0000
0000
2002
0000
0000
0000
0000
0000
0000
0000
,
0000
0000
0000
0000
,
3003
0000
0000
0000
;

//--------------- dance-single - Fred-104 ----------------
#NOTES:
     dance-single:
     Fred-104:
     Hard:
     17:
     :
0000
0000
0000
0000
,
0000
0000
0000
0000
,
0000
0000
0000
0000
,
0000
0000
0000
0000
,
1000
0000
1000
0010
0000
0010
0200
0000
0000
0000
0301
0000
0010
0000
0100
0010
,
0001
0000
0100
0010
1000
0000
0010
0000
1000
0010
0100
0001
2000
0000
0000
0000
,
3001
0000
0010
0100
0000
0010
0002
0000
0000
0000
1003
0000
0010
0000
1000
0001
,
0010
0000
0001
1000
0100
1000
0001
1000
0010
0000
0010
0100
0002
0000
0000
0000
,
1003
0000
0000
0000
0000
0000
0100
0000
0000
0010
0000
0000
0001
0000
0000
0000
0000
0000
0100
0000
0000
0000
0000
0000
0001
0000
0000
0000
0000
0000
1000
0000
0001
0000
0100
0000
0010
0000
0000
0000
0000
0000
1000
0000
0000
0000
0000
0000
,
0001
0000
0010
0100
0001
0100
1000
0000
0001
0100
0010
0001
0020
0000
0000
0000
,
1030
0001
0100
0010
0100
0000
0001
0000
1000
0100
0010
0000
0001
0000
1000
0000
,
1010
0000
0000
0101
0000
0000
1100
0000
0000
0100
0010
0001
1000
0010
0100
0001
,
1000
0000
0100
0010
0100
0000
0010
0000
0001
0010
0100
0010
0001
0000
1000
0000
,
0001
0000
0100
0001
0100
0000
0010
0000
1000
0100
1000
0010
1000
0100
0000
0110
,
0000
0000
0000
0010
0001
0000
0100
0000
0110
0000
0010
1000
0000
0010
0100
0000
,
0001
0100
0010
1000
0001
0010
0100
1000
0000
0000
2200
0000
0000
0000
3300
0000
,
1000
0010
1000
0100
0010
0001
1000
0100
,
0001
0100
1000
0001
0100
0001
0010
0100
,
1000
0100
0010
0001
0100
0010
0100
0001
,
1000
0010
0100
1000
0000
0200
0000
0000
0301
1000
0100
0010
0100
1000
0010
1000
,
0100
0000
0000
0000
0000
0000
1000
0000
0010
0000
0100
0000
0001
0000
0000
0000
0000
0000
0010
0000
0000
0000
0000
0000
0001
0000
0000
0010
0000
0000
0001
0000
0000
0000
0000
0000
1000
0000
0000
0010
0000
0000
1000
0000
0000
0000
0000
0000
,
0001
0000
0100
0000
0010
0000
0100
0000
0001
0010
2000
0000
3020
0000
0032
0000
,
1003
0100
0002
0000
0203
0000
2300
0000
3001
0100
2000
0000
3200
0000
0302
0000
,
1003
0010
0002
0000
0023
0000
2030
0000
3001
0100
0001
0100
0010
1000
0001
0100
,
0010
0000
0000
1100
0000
1000
0100
0010
,
0011
0000
0000
0101
0000
0001
0100
0001
,
0011
0000
0000
0000
0000
0000
1010
0000
0000
0000
0001
0000
0100
0000
0010
1000
,
0001
0100
0000
0100
1000
0000
0001
0010
0000
0010
1000
0000
0001
0100
0010
1000
,
0002
0103
0010
0002
0013
0200
0302
2003
,
3002
0013
1000
0020
0031
0200
0320
2030
,
3002
0103
1000
0002
0013
2000
3002
0203
,
0301
0010
0100
0000
0001
0000
0100
1000
0000
0000
0000
0000
1001
0000
0000
0000
,
1000
0010
0100
0010
1000
0001
0010
0100
1000
0100
0010
0001
0100
0010
1000
0000
,
0001
0010
0100
0010
0001
0100
0001
0010
0001
1000
0010
0100
0001
0010
0000
0110
,
0000
0000
0100
0000
1000
0010
0000
0100
0001
0010
0001
0010
0100
0010
0100
0010
,
0001
0000
0100
0000
0010
1000
0000
0001
1000
0100
0010
0001
0010
0100
1000
0000
,
0001
0100
0010
0100
0001
0010
0100
0000
0000
0000
1000
0010
0100
0000
0010
0000
,
1000
0100
0010
0001
0010
0000
0001
0000
0100
0001
0010
0000
0001
0100
0010
0000
,
1000
0000
0000
0000
0010
0000
0000
0000
1000
0000
0000
0000
0010
0000
0000
0000
0100
0000
0000
0000
0001
0000
0000
0000
0000
0000
0000
0000
2000
3000
0000
0000
0000
0000
0000
0000
0001
0000
0000
0000
0100
0000
0000
0000
0000
0000
0000
0000
0010
0000
0000
0000
1000
0000
0000
0000
0000
0000
0000
0000
0100
0000
0000
0000
,
0000
0010
0001
0000
1000
0001
0000
0100
0000
0010
0000
0000
1000
0000
0000
0001
,
0000
0101
0000
0000
0000
0110
0000
0010
0100
0001
0010
0100
1000
0010
0100
0001
,
0010
0200
0000
0000
0000
1300
0100
0010
0001
1000
0100
0010
0001
1000
0100
0010
,
0001
1000
0100
0010
0001
1000
0001
0010
0100
1000
0001
0010
0100
1000
0001
0010
,
0100
1000
0001
0010
0100
1000
0100
0010
0001
1000
0001
0100
0010
1000
0001
0100
,
0010
1000
0001
0100
0010
1000
0001
0100
0010
1000
0010
0100
0001
1000
0010
0100
,
0001
0100
0001
0010
0100
0010
0001
1000
0010
1000
0000
0010
0100
0001
0000
0010
,
0000
0100
0000
1000
0010
0100
0000
0010
0000
1000
0100
0001
0000
1000
0010
0001
,
0000
1000
0001
0100
0010
2000
0000
0000
0000
3001
0000
0010
0000
0100
0000
1000
,
0001
0100
0000
0010
0000
1000
0000
0100
0010
0001
0000
0100
0000
0010
0000
0001
,
0010
1000
0000
0001
0000
0100
0010
1000
0010
0100
0010
1000
0010
0100
0000
0001
,
0000
1000
0100
0010
0001
1000
0000
0001
0000
1000
0100
0001
0100
0010
0000
0001
,
0100
1000
0100
0010
0000
1000
0100
0010
0001
1000
0000
0010
0000
0100
0000
0210
,
0000
0000
0000
0301
0100
0010
0001
0010
1000
0001
0100
0001
0100
0010
0000
1020
,
0000
0000
0000
1030
0100
0001
0000
0100
0000
1000
0100
0010
0000
1000
0010
0100
,
1000
0001
0100
0010
1000
0001
0000
0100
0000
0001
1000
0100
0001
0100
0010
0001
,
1000
0010
0000
0100
0000
0001
0000
1000
0000
0001
0000
0010
1000
0010
0000
0001
,
0000
1000
0000
0010
0001
0010
0000
1000
0000
0001
0000
0100
1000
0100
0000
0001
,
0000
1000
0000
0100
0001
0100
0000
1000
0000
0001
0000
0100
0010
1000
0000
0001
,
0000
1000
0100
0010
0001
0010
0100
1000
0000
0001
0000
0100
0000
0010
0000
0001
,
0000
0010
0000
1000
0000
0001
0000
0010
0000
0001
0000
0010
0000
0100
0000
0001
,
0000
0100
0000
1000
0000
0001
0000
0010
0000
0001
0000
0100
0000
0010
0000
1000
,
0000
0100
0000
0010
0000
1000
0000
0010
0000
0100
0000
1000
0000
0010
0000
0100
,
0000
0001
0000
1000
0000
0100
0000
0010
0000
0001
0000
0010
0000
0100
0000
1000
,
0000
0002
0000
0203
0000
2300
0000
3020
0000
0032
0000
0203
0000
2300
0000
3020
,
0000
0000
0000
0032
0000
0000
0000
0000
0000
0203
0000
0000
0000
0000
0000
2300
0000
0000
0000
0000
0000
3020
0000
0000
0000
0000
0000
0031
0000
0000
0000
0000
0000
0000
0000
0000
0000
0000
0000
0101
0000
0000
0000
0100
0000
0000
0000
0010
,
0000
1010
0000
0000
0000
0000
0000
0000
2002
0000
0000
0000
0000
0000
0000
0000
,
0000
0000
0000
0000
,
3003
0000
0000
0000
;

//--------------- dance-double - Fred-104 ----------------
#NOTES:
     dance-double:
     Fred-104:
     Easy:
     8:
     :
00000000
00000000
00000000
00000000
,
00000000
00000000
00000000
00000000
,
00000000
00000000
00000000
00000000
,
00000000
00000000
00000000
00000000
,
00001000
00000000
00000000
00001000
00000000
00000000
00000000
00000000
,
00001000
00100000
00001000
00100000
,
00010000
00000000
00000000
01000000
00000000
00000000
00100000
00000000
,
10000000
00100000
10000000
00010000
,
10000000
00000000
01000000
00100000
,
00001000
00000000
00010000
00000100
,
00001000
00000000
00000010
00000000
,
00000100
00000000
00000000
00000001
00000000
00000000
00000100
00000000
,
00000010
00000000
00001000
00000000
,
00000001
00000000
00000100
00000000
,
00001000
00000000
00010000
01000000
,
10000000
00000000
00100000
00000000
00000000
01100000
00000000
00000000
,
01000000
01000000
00010000
00100000
,
01000000
10000000
00010000
01000000
,
00001000
00010000
00001000
00000000
01000000
00000000
00001000
00000000
,
00010000
00000010
00010000
00000000
00001000
00100000
00001000
00000000
,
00010000
00000010
00001000
00000100
,
00010000
00001000
00100000
00010000
,
01000000
00001000
00010000
00001000
,
00000100
00000010
00000100
00000000
00000001
00001000
00000001
00000000
,
00000100
00000000
00000000
00000110
00000000
00000000
00010000
00000000
,
00001000
00000000
00000000
01100000
00000000
00000000
10000000
00000000
,
01000000
00000000
00000000
01100000
00000000
00000000
00001000
00000000
,
00010000
00000000
00000000
00001000
00000000
00000000
00010000
00000000
00000000
00001000
00000000
00000000
00010000
00000000
00000000
00000000
,
00000100
00000000
00000000
00001000
00000000
00000001
00000000
00000000
,
00000100
00000000
00000000
00000010
00000000
00010000
00000000
00000000
,
00001000
00000000
00000000
00100000
00000000
01000000
00000000
00000000
,
10000000
00010000
20020000
30030000
,
10000000
01000000
00100000
00000000
01000000
00000000
10000000
00000000
,
00010000
00000000
01000000
00000000
00001000
00010000
00001000
00000000
,
00100000
00001000
00010000
00000010
,
00001000
00000100
00001000
00000000
00000100
00010000
00000100
00000000
,
00010000
00001000
00010000
00000000
00001000
00000000
01000000
00000000
,
00001000
00010000
00000010
00001000
,
00000100
00000000
00000000
00000000
00000000
00000000
00000000
00000000
00000000
00001000
00000000
00000000
00000000
00000010
00000000
00000000
,
00000000
00000001
00000000
00000000
00000000
00000100
00000000
00000000
00000000
00001000
00000000
00000000
00001000
00000000
00000000
00001000
,
00000000
00020000
00000000
00000000
00000000
00030000
00000000
00000000
00000000
00001000
00000000
00000000
00000000
00010000
00000000
00000000
,
00000000
00002000
00000000
00000000
00000000
00013000
00000000
00000000
00000000
00010000
00000000
00000000
00000000
01000000
00000000
00000000
,
00000000
01000000
00000000
00000000
00000000
10000000
00000000
00000000
00000000
10000000
00000000
00000000
00000000
00100000
00000000
00000000
,
00000000
00100000
00000000
00000000
00000000
00010000
00000000
00000000
00000000
00001000
00000000
00000000
00000000
00001000
00000000
00000000
,
00000000
00000010
00000000
00000000
00000000
00000010
00000000
00000000
00000000
00000001
00000000
00000000
00000000
00000001
00000000
00000000
,
00000000
00000100
00000000
00000000
00000000
00000100
00000000
00000000
00000000
00001000
00000000
00010000
00000000
00001000
00000000
00000000
,
00000000
00100000
00000000
00010000
00000000
00100000
00000000
00000000
00000000
00010000
00000000
01000000
00000000
00010000
00000000
01000000
,
00000000
00001000
00000000
00010000
00000000
00002000
00000000
00000000
00000000
01003000
00000000
00000000
00000000
00001000
00000000
00000000
,
00000000
00010000
00000000
00000000
00000000
00001000
00000000
00000000
00000000
00000100
00000000
00000000
00000000
00000010
00000000
00000000
,
00000000
00000001
00000000
00000000
00000000
00000100
00000000
00000000
00000000
00001000
00000000
00000000
00000000
00010000
00000000
00000000
,
00000000
00100000
00000000
00000000
00000000
10000000
00000000
00000000
00000000
00010000
00000000
00000000
00000000
00000000
00000000
01000000
,
00000000
00000000
00000000
00000000
00000000
00100000
00000000
00000000
00000000
10000000
00000000
00000000
00000000
00000000
00000000
01100000
,
00000000
00000000
00000000
00000000
00000000
00010000
00000000
00000000
00000000
00001000
00000000
00000000
00000000
00000000
00000000
00011000
,
00000000
00000000
00000000
00000000
00000000
00010000
00000000
00000000
00000000
00000010
00000000
00000000
00000000
00000000
00000000
00001010
,
00000000
00000000
00000000
00000000
00000000
00001000
00000000
00000000
00000000
00000001
00000000
00000000
00000000
00000000
00000000
00000101
,
00000000
00000000
00000000
00000000
00000000
00000100
00000000
00000000
00000000
00000010
00000000
00000000
00000000
00010000
00000000
00000000
,
00000000
00001000
00000000
00000000
00000000
00010000
00000000
00000000
00000000
00000100
00000000
00000000
00000000
00010000
00000000
00000000
,
00000000
00001000
00000000
00000000
00000000
00010000
00000000
00000000
00000000
01000000
00000000
00100000
00000000
10000000
00000000
00000000
,
00000000
00010000
00000000
00100000
00000000
01000000
00000000
00000000
00000000
10000000
00000000
00000000
00000000
10000000
00000000
00000000
,
00000000
01000000
00000000
00000000
00000000
01000000
00000000
00000000
00000000
00100000
00000000
00000000
00000000
00100000
00000000
00000000
,
00000000
00001000
00000000
00000000
00000000
00001000
00000000
00000000
00000000
00010000
00000000
00000000
00000000
00010000
00000000
00000000
,
00000000
00000100
00000000
00000000
00000000
00000100
00000000
00000000
00000000
00000010
00000000
00000000
00000000
00000010
00000000
00000000
,
00000000
00000001
00000000
00000000
00000000
00000001
00000000
00000000
00000000
00001000
00000000
00000000
00000000
00001000
00000000
00000000
,
00000000
00000002
00000000
00000000
00000000
00000023
00000000
00000000
00000000
00002030
00000000
00000000
00000000
00023000
00000000
00000000
,
00000000
02030000
00000000
00000000
00000000
23000000
00000000
00000000
00000000
30100000
00000000
00000000
00000000
00010000
00000000
00000000
,
00000000
00001000
00000000
00000000
00000000
00000000
00000000
00000000
00022000
00000000
00000000
00000000
00000000
00000000
00000000
00000000
,
00000000
00000000
00000000
00000000
,
00033000
00000000
00000000
00000000
;

//--------------- dance-double - Fred-104 ----------------
#NOTES:
     dance-double:
     Fred-104:
     Medium:
     13:
     :
00000000
00000000
00000000
00000000
,
00000000
00000000
00000000
00000000
,
00000000
00000000
00000000
00000000
,
00000000
00000000
00000000
00000000
,
10000000
00000000
00000000
00100000
00000000
00000000
01000000
00000000
00000000
00000000
00010000
00000000
00100000
00000000
01000000
00000000
,
00100000
00010000
10000000
01000000
00100000
00001000
00020000
00000000
,
00030100
00000000
00000000
00010000
00000000
00000000
00000200
00000000
00000000
00000000
00010300
00000000
00000010
00000000
00001000
00000000
,
00000100
00010000
00001000
00100000
01000000
00100000
00020000
00000000
,
00031000
00010000
00100000
00001000
00010000
00000010
00010000
00001000
,
00010000
00000100
00001000
00000100
00010000
00001000
01000000
00010000
,
00100000
01000000
10000000
00100000
01000000
00010000
10000000
01000000
,
10000000
00000000
00000000
00100000
00000000
00000000
00010000
00000000
00000000
00001000
00000000
00000000
00000010
00000000
00000001
00000000
,
00002000
00000010
00000100
00003010
,
00000100
00000000
00000001
00000000
00001000
00000000
00000000
00000000
00000001
00000000
00000100
00000000
00000010
00001000
00000000
00000100
,
00000000
00000000
00010000
00000000
00001000
00000000
00000100
00000000
00000001
00000000
00000000
00000010
00000000
00000000
00001000
00000000
,
00010000
00000000
00001000
00000000
00000100
00000001
00000000
00000010
00000000
00000000
00000220
00000000
00000000
00000000
00000330
00000000
,
00001000
00000010
00010000
00001000
00100000
00010000
10000000
01000000
,
00010000
01000000
10000000
00100000
01000000
10000000
01000000
00010000
,
10000000
01000000
00100000
00010000
00001000
00000100
00000010
00000001
,
00000100
00000000
00000010
00000000
00001000
00000000
00000001
00000000
00000010
00000100
00000010
00000100
00000020
00000000
00000000
00000000
,
00001030
00000010
00000100
00000001
00001000
00000010
00010000
00002000
,
00000000
00103000
00001000
00020000
00000000
00030100
00010000
00002000
,
00000000
01003000
00001000
00020000
00000000
00030010
00010000
00002000
,
00000000
00103000
00001000
00010000
00000100
00001000
00000100
00000010
,
00000001
00000000
00000000
00001001
00000000
00000001
00000010
00001000
,
00010000
00000000
00000000
00011000
00000000
00010000
00100000
10000000
,
00010000
00000000
00000000
10010000
00000000
10000000
01000000
00100000
,
00010000
01000000
00000000
00100000
10000000
00000000
01000000
00100000
00000000
00010000
01000000
00000000
00100000
00000000
00010000
00000000
,
00100000
00000000
10000000
20000000
00000000
31000000
00100000
00001000
,
00010000
00000000
00000010
00000020
00000000
00010030
00001000
00100000
,
00001000
00000000
01000000
02000000
00000000
03001000
00010000
00001000
,
00000100
00000010
00000100
00000000
00000010
00000000
00000001
00000100
00000000
00000000
00000000
00000000
00011000
00000000
00000000
00000000
,
00001000
00010000
01000000
10000000
01000000
00010000
00001000
00010000
,
01000000
00000000
00010000
00000000
00001000
00000000
00000100
00000000
00001000
00000000
00010000
00000000
01000000
00100000
00000000
01000000
,
00000000
00000000
00100000
00000000
10000000
00100000
00000000
01000000
00000000
00000000
00010000
00000000
01000000
00000000
00001000
00000000
,
00010000
00000000
00000100
00000000
00001000
00000010
00000000
00000010
00000100
00000000
00000001
00000000
00000010
00000000
00000100
00000000
,
00001000
00000000
00000010
00000000
00000100
00000001
00000100
00000000
00000000
00000000
00000001
00000000
00000010
00000000
00001000
00000000
,
00010000
00001000
00000010
00001000
00010000
00100000
00010000
00001000
,
00010000
00000000
00100000
00000000
10000000
00100000
00000000
01000000
00000000
00010000
00000000
00000000
10000000
00000000
00000000
01000000
,
00000000
00010000
00000000
00000000
00001000
00000000
00000000
00000010
00000000
00000001
00000000
00000000
00000100
00000000
00000000
00001000
,
00000000
00011000
00000000
00000000
00000000
00010000
00000000
01000000
00100000
01000000
00000000
00001000
00000000
00010000
00000000
00000010
,
00000000
00000120
00000000
00000000
00000030
00001000
00000000
00000010
00000000
00001000
00000000
00000010
00000000
00000100
00000000
00000001
,
00000000
00000100
00000000
00000001
00000000
00000010
00000000
00000100
00000000
00000010
00000000
00000100
00000000
00001000
00000000
00010000
,
00000000
00001000
00000000
00010000
00000000
00100000
00000000
01000000
00000000
10000000
00000000
01000000
00000000
10000000
00000000
01000000
,
00000000
00010000
00000000
01000000
00000000
00010000
00000000
00001000
00000000
00010000
00000000
00001000
00000000
00000100
00000000
00001000
,
00000000
00000100
00000000
00000001
00000000
00000100
00000000
00000001
00000000
00000010
00000000
00001000
00000000
00000010
00000000
00001000
,
00000000
00010000
00000000
00001000
00000000
00010000
00000000
00100000
00000000
10000000
00010000
10000000
00000000
00100000
01000000
00100000
,
00000000
10000000
00100000
10000000
00100000
02000000
00000000
00000000
00000000
03001000
00000000
00010000
00000000
00001000
00000000
01000000
,
00000000
00010000
00000000
01000000
00000000
00001000
00000000
00010000
00000000
00000100
00000000
00000000
00000000
00001000
00000000
00000010
,
00000000
00000000
00000000
00000100
00000000
00000010
00000000
00001000
00000000
00000000
00000000
00000100
00000000
00010000
00000000
00001000
,
00000000
00010000
00000000
00000010
00000000
00001000
00000000
00000010
00000000
00010000
00000000
00001000
00000000
00100000
00000000
00001000
,
00000000
00010000
00000000
00000010
00000000
00001000
00000000
00000001
00000000
00000100
00000000
00000000
00000000
00000000
00000000
00000110
,
00000000
00000000
00000000
00001000
00000000
00000010
00000000
00000100
00000000
00000001
00000000
00000000
00000000
00000000
00000000
00000101
,
00000000
00000000
00000000
00000100
00000000
00001000
00000000
00010000
00000000
01000000
00000000
00100000
00000000
10000000
00000000
01000000
,
00000000
00000000
00000000
00100000
00000000
00010000
00000000
01000000
00000000
00100000
00000000
10000000
00000000
00010000
00000000
00100000
,
00000000
01000000
00000000
10000000
00000000
00010000
00000000
01000000
00000000
10000000
00000000
01000000
00000000
00010000
00000000
00001000
,
00000000
00000000
00000000
00010000
00000000
00001000
00000000
00000100
00000000
00000000
00000000
00001000
00000000
00010000
00000000
01000000
,
00000000
00000000
00000000
00010000
00000000
00001000
00000000
00000010
00000000
00001000
00000000
00010000
00000000
00100000
00000000
00010000
,
00000000
00001000
00000000
00000010
00000000
00000001
00000000
00000100
00000000
00000110
00000000
00000000
00000000
00001000
00000000
00000000
,
00000000
00010000
00000000
00000000
00000000
00100000
00000000
00000000
00000000
10000000
00000000
00000000
00000000
01000000
00000000
00000000
,
00000000
00011000
00000000
00000000
00000000
00001000
00000000
00000000
00000000
00000100
00000000
00000000
00000000
00000001
00000000
00000000
,
00000000
00000010
00000000
00000000
00000000
00001000
00000000
00000000
00000000
00011000
00000000
00000000
00000000
00100000
00000000
00000000
,
00000000
10000000
00000000
00000000
00000000
01000000
00000000
00000000
00000000
00010000
00000000
00000000
00000000
10010000
00000000
00000000
,
00000000
20000000
00000000
32000000
00000000
23000000
00000000
32000000
00000000
03020000
00000000
02030000
00000000
03020000
00000000
00032000
,
00000000
00000000
00000000
00003020
00000000
00000000
00000000
00000000
00000000
00002030
00000000
00000000
00000000
00000000
00000000
00003020
00000000
00000000
00000000
00000000
00000000
00000032
00000000
00000000
00000000
00000000
00000000
00001003
00000000
00000000
00000000
00000000
00000000
00000000
00000000
00000000
00000000
00000000
00000000
00000001
00000000
00000000
00000000
00000100
00000000
00000000
00000000
00000010
,
00000000
00001000
00000000
00000000
00000000
00000000
00000000
00000000
00002002
00000000
00000000
00000000
00000000
00000000
00000000
00000000
,
00000000
00000000
00000000
00000000
,
00003003
00000000
00000000
00000000
;

//--------------- dance-double - Fred-104 ----------------
#NOTES:
     dance-double:
     Fred-104:
     Hard:
     17:
     :
00000000
00000000
00000000
00000000
,
00000000
00000000
00000000
00000000
,
00000000
00000000
00000000
00000000
,
00000000
00000000
00000000
00000000
,
00000001
00000000
00000000
00000010
00000000
00000000
00000200
00000000
00000000
00000000
00000310
00000000
00000001
00000000
00001000
00000000
,
00000001
00000000
00000100
00000010
00000100
00000000
00000001
00000000
00001000
00000010
00001000
00000000
00000200
00000000
00000000
00000000
,
00010300
00000000
00000000
00000100
00000000
00000000
00020000
00000000
00000000
00000000
00031000
00000000
00100000
00000000
01000000
00000000
,
10000000
00000000
00010000
01000000
00100000
00000000
10000000
00000000
01000000
00100000
01000000
00100000
00020000
00000000
00000000
00000000
,
01030000
00000000
00001000
00010000
00001000
00000000
00000100
00000000
00000010
00000100
00000010
00000000
00001000
00000000
00010000
00000000
,
00100000
00000000
01000000
00100000
01000000
00010000
00100000
00000000
00001000
00010000
00000010
00001000
00000200
00000000
00000000
00000000
,
00010300
00000100
00001000
00000010
00010000
00000000
00001000
00000000
00100000
00010000
01000000
00000000
00001000
00000000
00010000
00000000
,
00011000
00000000
00000000
00010100
00000000
00000000
00011000
00000000
00000000
00010000
00000100
00001000
00000100
00010000
00001000
00010000
,
01000000
00000000
00100000
10000000
00100000
00000000
10000000
00000000
01000000
00100000
01000000
00100000
01000000
00000000
00100000
00000000
,
00001000
00000000
00010000
00000100
00010000
00000000
00000100
00000000
00001000
00000010
00001000
00000010
00000100
00000001
00000000
00000011
,
00000000
00000000
00000000
00000001
00000100
00000000
00000010
00000000
00001010
00000000
00000010
00010000
00000000
00001000
00010000
00000000
,
00001000
00100000
00010000
00100000
00001000
00010000
00001000
00100000
00000000
00000000
20020000
00000000
00000000
00000000
30030000
00000000
,
10000000
00100000
10000000
01000000
00100000
00010000
01000000
00001000
,
00010000
00000100
00001000
00000100
00010000
00001000
00010000
00000010
,
00001000
00000010
00000100
00000001
00001000
00000010
00010000
00001000
,
00010000
00001000
00010000
00000010
00000000
00002000
00000000
00000000
00003100
00010000
00001000
00010000
00001000
00100000
00010000
00000000
,
01000000
00000000
00100000
10000000
01000000
00000000
00100000
00000000
00001000
00000000
00010000
00000000
00001000
00010000
00000010
00000000
,
00000100
00000000
00000010
00000000
00000100
00000000
00000001
00000000
00001000
00000010
00000002
00000000
00000023
00000000
00002030
00000000
,
00013000
00100000
20000000
00000000
30200000
00000000
00320000
00000000
00031000
00000100
00000002
00000000
00000203
00000000
00002300
00000000
,
00013000
01000000
20000000
00000000
32000000
00000000
03020000
00000000
10030000
01000000
10000000
01000000
00100000
00010000
00100000
00000000
,
00110000
00000000
00000000
01001000
00000000
00001000
00010000
00000100
,
00001100
00000000
00000000
00000110
00000000
00000010
00000001
00001000
,
00001100
00000000
00000000
00000000
00000000
00000000
00011000
00000000
00000000
00000000
00001000
00000000
00100000
00000000
00010000
01000000
,
00100000
10000000
00000000
00100000
10000000
00000000
00010000
01000000
00000000
00010000
01000000
00000000
00100000
10000000
01000000
00100000
,
00020000
00130000
10000000
00020000
01030000
20000000
30020000
02030000
,
03002000
00013000
00100000
00002000
00013000
00000020
00002030
00003200
,
00002300
00003010
00000100
00002000
00003100
00000020
00002030
00003002
,
00001003
00000010
00000100
00000000
00001000
00000000
00000100
00000001
00000000
00000000
00000000
00000000
00001001
00000000
00000000
00000000
,
00000001
00000100
00000001
00000100
00000010
00001000
00000010
00001000
00000100
00010000
00000100
00010000
00001000
00010000
00001000
00000000
,
00100000
00010000
00100000
00010000
10000000
00010000
10000000
00010000
10000000
01000000
10000000
01000000
00100000
01000000
00000000
11000000
,
00000000
00000000
10000000
00000000
01000000
00100000
00000000
00100000
00001000
00100000
00001000
00100000
00001000
00010000
00000010
00000000
,
00001000
00000000
00000100
00000000
00000001
00000100
00000000
00001000
00000001
00000100
00000001
00000100
00000010
00001000
00000001
00000000
,
00000100
00000010
00001000
00000100
00010000
00001000
01000000
00000000
00000000
00000000
00010000
00100000
10000000
00000000
00100000
00000000
,
00010000
01000000
00100000
10000000
00010000
00000000
01000000
00000000
00100000
10000000
01000000
00000000
00100000
00001000
00010000
00000000
,
00000100
00000000
00000000
00000000
00001000
00000000
00000000
00000000
00000100
00000000
00000000
00000000
00001000
00000000
00000000
00000000
00000001
00000000
00000000
00000000
00000100
00000000
00000000
00000000
00000000
00000000
00000000
00000000
00000020
00000030
00000000
00000000
00000000
00000000
00000000
00000000
00001000
00000000
00000000
00000000
00000010
00000000
00000000
00000000
00000000
00000000
00000000
00000000
00000100
00000000
00000000
00000000
00001000
00000000
00000000
00000000
00000000
00000000
00000000
00000000
00000100
00000000
00000000
00000000
,
00000000
00000010
00001000
00000000
00000001
00000010
00000000
00000100
00000000
00010000
00000000
00000000
00001000
00000000
00000000
01000000
,
00000000
01100000
00000000
00000000
00000000
00010000
00000000
01000000
00100000
10000000
01000000
00100000
00010000
01000000
00001000
00010000
,
00000100
00002000
00000000
00000000
00000000
00003001
00000100
00000010
00001000
00000001
00000100
00000010
00001000
00000001
00000100
00000010
,
00001000
00000100
00010000
00001000
00010000
00000010
00010000
00001000
00010000
00000010
00010000
00001000
00010000
00000100
00010000
00001000
,
00010000
00000100
00010000
00001000
00010000
00001000
00100000
00010000
10000000
00010000
00100000
01000000
10000000
00010000
00100000
01000000
,
10000000
00010000
00100000
01000000
10000000
00010000
00100000
01000000
10000000
00010000
01000000
00100000
10000000
01000000
00100000
00010000
,
00100000
00001000
00010000
00000100
00001000
00000100
00000010
00000001
00001000
00000001
00000000
00000100
00000010
00000100
00000000
00000010
,
00000000
00001000
00000000
00000100
00000010
00000100
00000000
00000010
00000000
00000001
00000010
00001000
00000000
00010000
00100000
10000000
,
00000000
00010000
10000000
00010000
10000000
00020000
00000000
00000000
00000000
01030000
00000000
00100000
00000000
10000000
00000000
01000000
,
00100000
00010000
00000000
01000000
00000000
00001000
00000000
00010000
00000100
00001000
00000000
00000100
00000000
00000010
00000000
00001000
,
00000010
00000001
00000000
00001000
00000000
00000001
00000000
00000100
00000010
00001000
00000010
00000100
00000010
00001000
00000000
00000001
,
00000000
00000010
00000100
00000010
00000100
00000010
00000000
00000001
00000000
00000100
00000001
00000100
00000001
00000100
00000000
00000010
,
00001000
00000010
00001000
00000010
00000000
00010000
00001000
00010000
00001000
00010000
00000000
00001000
00000000
00100000
00000000
00120000
,
00000000
00000000
00000000
10030000
00100000
01000000
10000000
01000000
00010000
10000000
00010000
01000000
00100000
10000000
00000000
12000000
,
00000000
00000000
00000000
13000000
00100000
01000000
00000000
00100000
00000000
10000000
00100000
01000000
00000000
00001000
00100000
00001000
,
00100000
00001000
00010000
00000100
00010000
00001000
00000000
00010000
00000000
00000010
00010000
00001000
00100000
00010000
00100000
00001000
,
00010000
00000010
00000000
00001000
00000000
00000100
00000000
00000010
00000000
00000001
00000000
00000100
00001000
00000100
00000000
00000001
,
00000000
00000010
00000000
00000100
00001000
00000100
00000000
00000010
00000000
00010000
00000000
00001000
00100000
00001000
00000000
00100000
,
00000000
00010000
00000000
01000000
00100000
01000000
00000000
00010000
00000000
10000000
00000000
01000000
00100000
01000000
00000000
00100000
,
00000000
00001000
00010000
00001000
00100000
00001000
00010000
00001000
00000000
00010000
00000000
00001000
00000000
00000100
00000000
00000001
,
00000000
00001000
00000000
00000100
00000000
00000010
00000000
00000001
00000000
00000100
00000000
00001000
00000000
00010000
00000000
00100000
,
00000000
10000000
00000000
00010000
00000000
01000000
00000000
00100000
00000000
10000000
00000000
01000000
00000000
00010000
00000000
00001000
,
00000000
00010000
00000000
00100000
00000000
10000000
00000000
00010000
00000000
01000000
00000000
00100000
00000000
10000000
00000000
01000000
,
00000000
00100000
00000000
00001000
00000000
00010000
00000000
00000100
00000000
00000010
00000000
00000001
00000000
00001000
00000000
00000001
,
00000000
00002000
00000000
00003020
00000000
00000032
00000000
00000203
00000000
00002300
00000000
00023000
00000000
00230000
00000000
20300000
,
00000000
00000000
00000000
32000000
00000000
00000000
00000000
00000000
00000000
03020000
00000000
00000000
00000000
00000000
00000000
00032000
00000000
00000000
00000000
00000000
00000000
00003020
00000000
00000000
00000000
00000000
00000000
00000031
00000000
00000000
00000000
00000000
00000000
00000000
00000000
00000000
00000000
00000000
00000000
00000100
00000000
00000000
00000000
00001000
00000000
00000000
00000000
00010000
,
00000000
00100000
00000000
00000000
00000000
00000000
00000000
00000000
20020000
00000000
00000000
00000000
00000000
00000000
00000000
00000000
,
00000000
00000000
00000000
00000000
,
30030000
00000000
00000000
00000000
;
