#TITLE:この子の七つのお祝いに;
#ARTIST:あさき;
#TITLETRANSLIT:Kono ko no nanatsu no oiwai ni;
#ARTISTTRANSLIT:Asaki;
#GENRE:ELEGY 2;
#BANNER:Kono ko no nanatsu no oiwai ni.png;
#BACKGROUND:Kono ko no nanatsu no oiwai ni-bg.png;
#CDTITLE:./CDTitles/GF 10thMIX & dm 9thMIX.png;
#MUSIC:Kono ko no nanatsu no oiwai ni.ogg;
#SAMPLESTART:70.807;
#SAMPLELENGTH:15;
#BPMS:0=161;
#TIMESIGNATURES:0=4=4,140=6=4,146=4=4,162=3=4,165=4=4,169=5=4,174=4=4,234=6=4,258=4=4;
#BGSTAGE:30;

//--------------- dance-single - Fred-104 ----------------
#NOTES:
     dance-single:
     Fred-104:
     Beginner:
     3:
     :
0000
0000
0000
0000
,
0000
0000
0000
0000
,
0000
0000
0000
0000
,
0000
0000
0000
0000
,
1000
0000
0000
0000
,
0001
0000
1000
0000
,
0001
0000
0000
0000
,
0010
0000
0001
0000
,
0010
0000
0000
0000
,
0001
0000
0000
0000
,
1000
0000
0000
0000
,
0010
0000
0000
0000
,
1000
0000
0001
0000
,
1000
0000
0001
0000
,
0000
0000
0001
0000
,
1000
0000
0000
0000
,
0001
0000
1000
0000
,
0100
0000
0010
0000
,
0001
0000
1000
0000
,
2002
0000
3003
0000
,
0001
0000
1000
0000
,
0001
0000
1000
0000
,
0010
0000
0100
0000
,
0001
0000
1000
0000
,
1001
0000
0000
0000
,
0001
0000
0000
0000
,
1000
0000
0000
0000
,
0002
0000
0000
0003
,
1000
0000
1000
0000
,
0100
0000
0100
0000
,
0010
0000
0001
0000
,
2000
0000
0000
3000
,
0001
0000
0001
0000
,
1000
0000
0010
0000
,
1000
0000
0010
0000
,
0100
0000
0000
0001
,
0000
0000
1000
0000
,
0001
0000
1000
0000
,
0001
0000
0000
0000
,
0000
0001
0000
0000
0000
0000
0000
0000
0000
1000
0000
0000
0000
0000
0000
0000
,
0000
0001
0000
0000
0000
0000
0000
0000
0000
2000
0000
0000
0000
0000
0000
0000
,
0000
3000
0000
0000
0000
0001
0000
0000
0000
0001
0000
0000
0000
0001
0000
0000
,
0000
0000
0000
0000
0000
1000
0000
0000
0000
1000
0000
0000
0000
1000
0000
0000
,
0000
0000
0000
0000
0000
0000
0000
0000
0000
0001
0000
0000
0000
0001
0000
0000
,
0000
0001
0000
0000
0000
0000
0000
0000
0000
0010
0000
0000
0000
0010
0000
0000
,
0000
0010
0000
0000
0000
0000
0000
0000
0000
0100
0000
0000
0000
0100
0000
0000
,
0000
0100
0000
0000
0000
0000
0000
0000
0000
2000
0000
0000
0000
3000
0000
0000
,
0000
0002
0000
0000
0000
0003
0000
0000
0000
1000
0000
0000
0000
0000
0000
0000
,
0000
0001
0000
0000
0000
0000
0000
0000
0000
1000
0000
0000
0000
0000
0000
0000
,
0000
0100
0000
0000
0000
0100
0000
0000
0000
0100
0000
0000
0000
0000
0000
0000
,
0000
0010
0000
0000
0000
0000
0000
0000
0000
0001
0000
0000
0000
0000
0000
0000
,
0000
1000
0000
0000
0000
0000
0000
0000
0000
0002
0000
0000
0000
0000
0000
0000
,
0000
0003
0000
0000
0000
0000
0000
0000
0000
2000
0000
0000
0000
0000
0000
0000
,
0000
3000
0000
0000
0000
0000
0000
0000
0000
0020
0000
0000
0000
0000
0000
0000
,
0000
0030
0000
0000
0000
0000
0000
0000
0000
0200
0000
0000
0000
0000
0000
0000
,
0000
0300
0000
0000
0000
0000
0000
0000
0000
0001
0000
0000
0000
0000
0000
0000
,
0000
1000
0000
0000
0000
0000
0000
0000
0000
0001
0000
0000
0000
0000
0000
0000
,
0000
0100
0000
0000
0000
0000
0000
0000
0000
0001
0000
0000
0000
0000
0000
0000
,
0000
1000
0000
0000
0000
0000
0000
0000
0000
1001
0000
0000
0000
0000
0000
0000
,
0000
0000
0000
0000
0000
0000
0000
0000
0000
0001
0000
0000
0000
0000
0000
0000
,
0000
1000
0000
0000
0000
0000
0000
0000
0000
1001
0000
0000
0000
0000
0000
0000
,
0000
0000
0000
0000
0000
0000
0000
0000
0000
1000
0000
0000
0000
0000
0000
0000
,
0000
0001
0000
0000
0000
0000
0000
0000
0000
1000
0000
0000
0000
0000
0000
0000
,
0000
0001
0000
0000
0000
0000
0000
0000
0000
0001
0000
0000
0000
0000
0000
0000
,
0000
1000
0000
0000
0000
0000
0000
0000
0000
0001
0000
0000
0000
1000
0000
0000
,
0000
2002
0000
0000
0000
0000
0000
0000
0000
0000
0000
0000
0000
0000
0000
0000
,
0000
0000
0000
0000
,
3003
0000
0000
0000
;

//--------------- dance-single - Fred-104 ----------------
#NOTES:
     dance-single:
     Fred-104:
     Easy:
     7:
     :
0000
0000
0000
0000
,
0000
0000
0000
0000
,
0000
0000
0000
0000
,
0000
0000
0000
0000
,
1000
0000
0000
1000
0000
0000
0000
0000
,
0001
0100
0010
0100
,
0001
0000
0000
0010
0000
0000
0100
0000
,
0010
0010
0001
1000
,
0001
0000
1000
0001
,
1000
0000
0001
0100
,
0001
0000
1000
0000
,
0001
0000
0000
0001
0000
0000
0001
0000
,
1000
0000
1000
1000
,
0100
0000
0000
0000
0000
0000
0000
0000
0010
0000
0000
0000
0001
0000
0000
0001
,
0000
0000
0000
0000
1000
0000
0000
0000
0001
0000
0000
0001
0000
0000
0001
0000
,
1000
0000
0000
0000
0001
0000
0000
1000
0000
0000
1001
0000
0000
0000
0000
0000
,
0001
1000
0001
0010
,
0010
0100
1000
0001
,
0100
0010
0100
0000
0001
0000
0001
0000
,
1000
0100
1000
0000
0001
0010
0001
0000
,
1000
0001
0001
0010
,
0010
1000
1000
0100
,
0001
0001
1000
0100
,
0010
0001
0010
0000
0001
1000
0001
0000
,
1000
0000
0000
1010
0000
0000
0000
0000
,
0001
0000
0000
0101
0000
0000
0000
0000
,
1000
0000
0000
1001
0000
0000
0000
0000
,
0001
0000
0000
0001
0000
0000
1000
0000
0000
1000
0000
0000
0001
0000
0000
0000
,
1000
0000
0000
0100
0000
0100
0000
0000
,
0010
0000
0000
0001
0000
0001
0000
0000
,
0100
0000
0000
0010
0000
0010
0000
0000
,
0100
0010
0100
0000
2002
0000
3003
0000
,
1000
0001
1000
0000
0100
0000
0100
0000
,
1000
0000
0001
0000
0100
0010
0100
0000
,
0001
0010
0100
1000
,
0001
0100
0001
0000
0100
0010
0100
0000
,
0010
1000
0010
0000
1000
0000
1000
0000
,
0001
0010
0100
1000
,
0001
0000
0000
0000
0000
0000
0000
0000
0000
0001
0000
0000
0000
1000
0000
0000
,
0000
0010
0000
0000
0000
0100
0000
0000
0000
0001
0000
0000
1000
0000
0000
0001
,
0000
0200
0000
0000
0000
0300
0000
0000
0000
0001
0000
0000
0000
1000
0000
0000
,
0000
0002
0000
0000
0000
1003
0000
0000
0000
1000
0000
0000
0000
0100
0000
0000
,
0000
0100
0000
0000
0000
0010
0000
0000
0000
0010
0000
0000
0000
0001
0000
0000
,
0000
0001
0000
0000
0000
1000
0000
0000
0000
0001
0000
0000
0000
0001
0000
0000
,
0000
0100
0000
0000
0000
0100
0000
0000
0000
0010
0000
0000
0000
0010
0000
0000
,
0000
1000
0000
0000
0000
1000
0000
0000
0000
0001
0000
0100
0000
0001
0000
0000
,
0000
0100
0000
0010
0000
0100
0000
0000
0000
0010
0000
1000
0000
0010
0000
0000
,
0000
1000
0000
0001
0000
2000
0000
0000
0000
3001
0000
0000
0000
0100
0000
0000
,
0000
0001
0000
0000
0000
0100
0000
0000
0000
1000
0000
0000
0000
0001
0000
0000
,
0000
1000
0000
0000
0000
0001
0000
0000
0000
1000
0000
0000
0000
0010
0000
0000
,
0000
1000
0000
0000
0000
0010
0000
0000
0000
0001
0000
0000
0000
0000
0000
0001
,
0000
0000
0000
0000
0000
0100
0000
0000
0000
0010
0000
0000
0000
0000
0000
1010
,
0000
0000
0000
0000
0000
1000
0000
0000
0000
0001
0000
0000
0000
0000
0000
0101
,
0000
0000
0000
0000
0000
0100
0000
0000
0000
0010
0000
0000
0000
0000
0000
0110
,
0000
0000
0000
0000
0000
0100
0000
0000
0000
0001
0000
0000
0000
0000
0000
1001
,
0000
0000
0000
0000
0000
1000
0000
0000
0000
0001
0000
0000
0000
0100
0000
0000
,
0000
0010
0000
0000
0000
0100
0000
0000
0000
0001
0000
0000
0000
0100
0000
0000
,
0000
0010
0000
0000
0000
1000
0000
0000
0000
0001
0000
1000
0000
0001
0000
0000
,
0000
1000
0000
0001
0000
1000
0000
0000
0000
0001
0000
0000
0000
0001
0000
0000
,
0000
0010
0000
0000
0000
0100
0000
0000
0000
1000
0000
0000
0000
0001
0000
0000
,
0000
0100
0000
0000
0000
0001
0000
0000
0000
1000
0000
0000
0000
0001
0000
0000
,
0000
0010
0000
0000
0000
0001
0000
0000
0000
1000
0000
0000
0000
0001
0000
0000
,
0000
0010
0000
0000
0000
0100
0000
0000
0000
1000
0000
0000
0000
0001
0000
0000
,
0000
2000
0000
0000
0000
3020
0000
0000
0000
2030
0000
0000
0000
3002
0000
0000
,
0000
0203
0000
0000
0000
0320
0000
0000
0000
0130
0000
0000
0000
0001
0000
0000
,
0000
1000
0000
0000
0000
0000
0000
0000
2002
0000
0000
0000
0000
0000
0000
0000
,
0000
0000
0000
0000
,
3003
0000
0000
0000
;

//--------------- dance-single - Fred-104 ----------------
#NOTES:
     dance-single:
     Fred-104:
     Medium:
     12:
     :
0000
0000
0000
0000
,
0000
0000
0000
0000
,
0000
0000
0000
0000
,
0000
0000
0000
0000
,
0001
0000
0000
0010
0000
0000
0002
0000
0000
0000
0103
0000
0010
0000
1000
0000
,
0001
0010
0100
1000
0001
0100
0002
0000
,
0103
0000
0000
0010
0000
0000
2000
0000
0000
0000
3010
0000
0100
0000
0010
0000
,
1000
0100
0010
0100
1000
0001
0200
0000
,
0301
0100
0100
1000
0100
0100
0001
1000
,
0001
0010
0010
1000
0010
0010
0001
1000
,
0001
0001
0010
1000
1000
0010
0100
1000
,
0001
0000
0000
0100
0000
0000
0010
0000
0000
1000
0000
0000
0100
0000
0010
0000
,
0002
0100
1000
0010
,
0013
0000
0100
0000
1000
0000
0000
0000
0001
0000
0010
0000
0100
0010
0000
0001
,
0000
0000
1000
0000
0010
0000
0100
0000
0001
0000
0000
1000
0000
0000
0001
0000
,
0100
0000
0010
0000
1000
0100
0000
0010
0000
0000
0022
0000
0000
0000
0033
0000
,
0001
0010
0100
0010
0001
0100
0010
1000
,
0010
0100
0010
1000
0001
0010
0100
1000
,
0001
0100
0001
0100
1000
0100
1000
0100
,
0001
0000
1000
0000
0100
0000
0010
0000
0001
0000
1000
0001
2000
0000
0000
0000
,
3001
0100
0010
1000
0001
0010
0100
0002
,
0000
0103
0010
0002
0000
1003
0010
0200
,
0000
1300
0100
0020
0000
1030
0100
0020
,
0000
0031
0100
0010
1000
0001
0010
0100
,
1000
0000
0000
1100
0000
0100
0010
0001
,
0100
0000
0000
0011
0000
0001
0100
0010
,
1000
0000
0000
1010
0000
0010
1000
0001
,
1000
0100
0000
1000
0100
0000
0010
0001
0000
0010
0001
0000
1000
0000
0010
0000
,
0100
0000
0001
0002
0000
0103
0001
1000
,
0100
0000
0001
0002
0000
0103
0010
0100
,
1000
0000
0001
0002
0000
0103
0010
1000
,
0001
0010
0001
0000
1000
0000
0001
0100
0000
0000
0000
0000
0110
0000
0000
0000
,
0001
0100
0001
0100
1000
0100
1000
0100
,
0001
0000
0010
0000
1000
0000
0010
0000
0001
0000
1000
0000
0001
0100
0000
0010
,
0000
0000
1000
0000
0100
0010
0000
0001
0000
0000
0100
0000
0010
0000
1000
0000
,
0001
0000
0010
0000
0100
1000
0000
0100
1000
0000
0001
0000
0100
0000
0010
0000
,
1000
0000
0001
0000
1000
0001
1000
0000
0000
0000
0001
0000
0010
0000
0100
0000
,
1000
0001
0100
0010
1000
0100
0010
0001
,
1000
0000
0010
0000
0100
0000
0000
0010
0000
1000
0000
0000
0100
0000
0000
0010
,
0000
0001
0000
0000
1000
0000
0000
0001
0000
0100
0000
0000
0100
0000
0000
0010
,
0000
1001
0000
0000
0000
0001
0000
1000
0000
1000
0000
0100
0000
0010
0000
0001
,
0000
2001
0000
0000
0000
3001
0000
0100
0000
0001
0000
0100
0000
0001
0000
1000
,
0000
0001
0000
1000
0000
0100
0000
0010
0000
0100
0000
0010
0000
0001
0000
0010
,
0000
0001
0000
0010
0000
0001
0000
1000
0000
0001
0000
0100
0000
0010
0000
1000
,
0000
0001
0000
0100
0000
0010
0000
1000
0000
0001
0000
0010
0000
0001
0000
1000
,
0000
0010
0000
1000
0000
0001
0000
1000
0000
0010
0000
1000
0000
0010
0000
0100
,
0000
0001
0000
1000
0000
0001
0000
0010
0000
0001
0000
1000
0000
0100
0000
0010
,
0000
0001
0000
1000
0000
0001
0000
2000
0000
3001
0000
0010
0000
0100
0000
0010
,
0000
0001
0000
0100
0000
0010
0000
1000
0000
0001
0000
0000
0000
0100
0000
1000
,
0000
0000
0000
0100
0000
0010
0000
0100
0000
0000
0000
0001
0000
1000
0000
0010
,
0000
0001
0000
0010
0000
0100
0000
0010
0000
1000
0000
0001
0000
0001
0000
1000
,
0000
0001
0000
0001
0000
0100
0000
0010
0000
1000
0000
0000
0000
0000
0000
1001
,
0000
0000
0000
0001
0000
0100
0000
0010
0000
0100
0000
0000
0000
0000
0000
1010
,
0000
0000
0000
0100
0000
0001
0000
1000
0000
0001
0000
0100
0000
0010
0000
0100
,
0000
0000
0000
1000
0000
0100
0000
0010
0000
1000
0000
0001
0000
1000
0000
0010
,
0000
0100
0000
0001
0000
1000
0000
0100
0000
1000
0000
0001
0000
0100
0000
1000
,
0000
0000
0000
1000
0000
0100
0000
0001
0000
0000
0000
0001
0000
0010
0000
1000
,
0000
0000
0000
1000
0000
0010
0000
0001
0000
1000
0000
0100
0000
0010
0000
0001
,
0000
0100
0000
0010
0000
1000
0000
0001
0000
1001
0000
0000
0000
1000
0000
0000
,
0000
0100
0000
0000
0000
0010
0000
0000
0000
0011
0000
0000
0000
0001
0000
0000
,
0000
1000
0000
0000
0000
0010
0000
0000
0000
0110
0000
0000
0000
0100
0000
0000
,
0000
0001
0000
0000
0000
1000
0000
0000
0000
1100
0000
0000
0000
0010
0000
0000
,
0000
0101
0000
0000
0000
0010
0000
0000
0000
1000
0000
0000
0000
0001
0000
0000
,
0000
2000
0000
3200
0000
0320
0000
0032
0000
2003
0000
3020
0000
0230
0000
0302
,
0000
0000
0000
0023
0000
0000
0000
0000
0000
0230
0000
0000
0000
0000
0000
0320
0000
0000
0000
0000
0000
0032
0000
0000
0000
0000
0000
1003
0000
0000
0000
0000
0000
0000
0000
0000
0000
0000
0000
0001
0000
0000
0000
0100
0000
0000
0000
0001
,
0000
1000
0000
0000
0000
0000
0000
0000
2002
0000
0000
0000
0000
0000
0000
0000
,
0000
0000
0000
0000
,
3003
0000
0000
0000
;

//--------------- dance-single - Fred-104 ----------------
#NOTES:
     dance-single:
     Fred-104:
     Hard:
     15:
     :
0000
0000
0000
0000
,
0000
0000
0000
0000
,
0000
0000
0000
0000
,
0000
0000
0000
0000
,
1100
0000
0000
0011
0000
0000
1010
0000
0000
0000
0001
0000
0100
0010
1000
0000
,
0001
0000
1000
0100
1000
0000
0001
0000
0010
0100
0010
0100
0010
0000
0000
0000
,
0011
0000
0000
1010
0000
0000
0101
0000
0000
1100
0000
0000
0001
0000
1000
0000
,
0100
0010
0100
0010
0001
1000
0001
1000
0010
0100
0010
1000
0002
0000
0000
0000
,
1003
0000
0001
0100
0001
0000
0100
0000
0010
1000
0010
1000
0010
0000
1000
0000
,
0001
0000
1000
0100
1000
0000
0001
0000
0010
0100
0010
0000
0001
1000
0010
0000
,
0100
0000
0001
0100
0001
1000
0100
0000
0010
0001
0010
0000
0001
1000
0100
0000
,
0110
0000
0000
0011
0000
0000
1001
0000
0000
1000
0001
0000
0100
0000
0010
1000
,
0001
0000
0010
0000
0100
0000
1000
0000
0001
0000
1000
0010
1000
0000
0001
0100
,
0001
0000
1000
0001
1000
0000
0100
0000
0010
0001
0010
0000
0001
0100
0000
0110
,
0000
0000
0000
1000
0000
0001
1000
0000
0100
0000
0010
0001
0000
0001
1000
0000
,
0000
0001
1000
0001
0100
0010
0000
0100
0000
0000
2002
0000
0000
0000
3003
0000
,
0001
0000
1000
0000
0001
0010
0000
0001
0010
0000
0100
0000
1000
0000
0001
0000
,
0100
0000
0010
0000
0100
0001
0000
0100
0001
0000
1000
0000
0100
0000
0010
0000
,
0001
0000
1000
0010
1000
0000
0001
0000
0010
0000
0100
0000
1000
0001
1000
0000
,
0001
0100
0010
1000
0000
1000
0000
0100
0010
0000
0010
0000
0001
1000
0001
0000
,
1000
0000
0010
0000
1000
0000
0001
0010
0001
0000
1000
0000
0100
0000
0010
0000
,
0001
0000
1000
0000
0010
0000
0100
0001
0100
0000
0010
0000
1000
0000
0002
0000
,
0000
1003
0100
0002
0000
1003
0010
0002
,
0000
0000
1003
0000
0100
0000
0010
0001
0010
0001
0010
0001
0010
0000
0100
0000
,
1001
0000
0000
0101
0000
1010
1000
0100
,
0110
0000
0000
0011
0000
1100
1000
0001
,
0101
0000
0000
1010
0000
1001
1000
0001
,
1000
0100
0000
1000
0010
0000
1000
0010
0000
1000
0100
0000
1000
0000
0001
0000
,
2000
0100
3100
0020
0001
0032
1000
1003
,
0002
0100
0103
2000
0100
3200
0001
0301
,
0020
0100
0130
0002
0100
0203
1000
1300
,
0010
0100
0010
0000
0100
0000
0001
1000
0000
0000
0000
0000
1001
0000
0000
0000
,
0001
1000
0001
0000
0010
0000
0100
0000
1000
0001
1000
0000
0010
0000
0100
0000
,
0001
1000
0100
0000
0010
0000
0001
0000
1000
0010
0100
0000
0001
1000
0000
1001
,
0000
0000
1000
0000
0100
0010
0000
0011
0000
0000
0001
0100
0010
0000
1000
0000
,
0001
0000
0010
0000
0100
1000
0000
1000
0001
0010
0001
0000
1000
0010
1000
0000
,
0100
0010
0100
0000
0010
0001
0010
0000
0000
0000
0001
1000
0020
0000
1000
0031
,
0020
0000
0001
1030
0020
0000
1000
0031
0010
0000
0100
0000
1000
0000
0001
0000
,
0100
0010
0100
0010
0000
2002
0000
3003
0000
1000
0000
0000
0100
0000
0000
0001
,
0000
1000
0000
0000
0001
0000
0000
0100
0000
1100
0000
0000
0011
0000
0000
1010
,
0000
0101
0000
0000
0000
0001
0000
0100
0000
2000
0000
3002
0000
0023
0000
2030
,
0000
3002
0000
0000
0000
1003
0100
1000
0100
1000
0100
1000
0100
0010
0001
0010
,
0001
0010
0001
0010
0001
1000
0010
1000
0010
1000
0010
1000
0010
0100
0001
0100
,
0001
1000
0000
0100
0000
1000
0001
1000
0000
0001
1000
0001
1000
0001
1000
0001
,
1000
0010
0100
0010
0100
0010
0100
0010
0100
0001
0010
0001
0010
0001
0010
0001
,
0010
0100
1000
0100
1000
0100
0000
1000
0000
0001
0000
0100
0000
0010
0000
0001
,
0000
1000
0000
0100
0000
0010
0000
1000
0000
0001
0000
0001
0000
0010
0000
0010
,
0000
0100
0000
0100
0000
1000
0000
1000
0000
0001
0000
0100
0000
0010
0000
1000
,
0010
0000
0010
0100
0000
0001
0000
1000
0000
0100
0000
0010
0000
0001
0000
1000
,
0001
0000
0001
0010
0000
0100
0000
1000
0010
0200
0000
0001
0310
0200
0000
1300
,
0001
0000
0001
0100
0000
0010
0000
1000
0000
0001
1000
0001
0000
0010
0000
0110
,
0000
0000
0000
0100
1000
0100
1000
0100
0000
0010
0001
1000
0000
0010
0000
0110
,
0000
0000
0000
0001
1000
0001
0000
0010
0000
0100
1000
0100
1000
0001
0000
1001
,
0000
0000
0000
1000
0000
0001
0000
1000
0000
0100
0000
0001
0000
0100
0000
0010
,
0001
0000
0001
1000
0000
0001
0000
0010
0000
0100
1000
0020
0000
0130
0001
0020
,
0000
0130
0010
0002
0000
0103
0010
2000
0000
3001
0000
0010
0000
0100
0000
1000
,
0000
0010
0100
0010
0000
1000
0000
0100
0000
0010
0000
0001
0000
0100
0000
0010
,
0000
1000
0100
1000
0000
0000
0000
0001
0000
1000
0000
0100
0000
0001
0000
1000
,
0000
0010
0000
0100
0000
1000
0000
0001
0000
1000
0000
0100
0000
1000
0000
0100
,
0000
0010
0000
0001
0000
0010
0000
0001
0000
1000
0000
0001
0000
1000
0000
0001
,
0000
0100
0000
0001
0000
0100
0000
0001
0000
1000
0000
0010
0000
1000
0000
0010
,
0000
0100
0000
0010
0000
0100
0000
0010
0000
1000
0000
0001
0000
0010
0000
0100
,
0000
0010
0000
0001
0000
1000
0000
0001
0000
1000
0000
0010
0000
0100
0000
0001
,
0000
2000
0000
3200
0000
0302
0000
2003
0000
3020
0000
0032
0000
2003
0000
3020
,
0000
0000
0000
0032
0000
0000
0000
0000
0000
2003
0000
0000
0000
0000
0000
3200
0000
0000
0000
0000
0000
0302
0000
0000
0000
0000
0000
0013
0000
0000
0000
0000
0000
0000
0000
0000
0000
0000
0000
0001
0000
0000
0000
1000
0000
0000
0000
0010
,
0000
0110
0000
0000
0000
0000
0000
0000
2002
0000
0000
0000
0000
0000
0000
0000
,
0000
0000
0000
0000
,
3003
0000
0000
0000
;

//--------------- dance-single - Fred-104 ----------------
#NOTES:
     dance-single:
     Fred-104:
     Challenge:
     17:
     :
0000
0000
0000
0000
,
0000
0000
0000
0000
,
0000
0000
0000
0000
,
0000
0000
0000
0000
,
1001
0000
0000
1010
0000
0000
0101
0000
0000
0000
0001
1000
0001
1000
0100
0010
,
0001
0000
1000
0010
1000
0010
0100
0010
0100
0001
0100
0001
1000
0000
0100
0000
,
0110
0000
0000
1010
0000
0000
0011
0000
0000
0001
1000
0000
1001
0000
1000
0001
,
0000
0010
0001
1000
0100
1000
0001
1000
0010
0100
0010
0100
0002
0000
0000
0000
,
1003
0000
0001
0100
0001
0000
0100
0000
0010
1000
0100
0010
0001
1000
0010
0000
,
1000
0000
0100
0010
0001
0010
0100
1000
0010
0100
0001
0100
0010
1000
0002
0000
,
1003
0001
1000
0001
0010
0100
1000
0000
0001
0100
0010
0000
1000
0001
1000
0000
,
1001
0000
0000
1010
0000
0000
0101
0000
0000
0001
1000
0100
1000
0010
0100
0001
,
1000
0000
0100
0010
0100
0000
1000
0000
0001
0010
0001
0010
0100
0000
1000
0000
,
0001
0000
0100
0001
0100
0000
0001
0000
1000
0010
1000
0001
1000
0010
0000
0110
,
0000
0000
0100
0001
0000
0001
0010
0000
0110
0000
0100
1000
0000
0010
0100
0000
,
0001
0100
0010
1000
0001
0010
0100
1000
0000
0000
2002
0000
0000
0000
3003
0000
,
1000
0000
0100
0000
0010
0000
1000
0001
1000
0001
0100
0000
0010
0000
0001
0000
,
1000
0000
0001
0000
0100
0000
1000
0001
1000
0001
0010
0000
0100
0000
0010
0000
,
1000
0000
0001
0000
0010
0000
0100
0001
0100
0001
1000
0000
0010
0000
0001
0000
,
1000
0010
1000
0010
0000
0100
0000
0100
0001
1000
0001
0010
0100
1000
0001
1000
,
0010
0000
1000
0001
1000
0001
0000
0010
0100
0010
0001
0000
1000
0010
0100
0010
,
1000
0000
0001
0010
0100
0000
1000
0001
0100
0010
1000
0001
0010
0000
0100
0010
,
0100
0010
0100
1000
0100
1000
0100
0010
0100
1000
0001
0100
0010
1000
0001
0000
,
1001
0000
1000
0001
0010
0100
0010
0001
1000
0010
0100
0001
0010
0100
1000
0001
,
1001
0000
1000
1100
0000
1000
0100
0010
,
0011
0000
0001
0101
0000
0001
0100
0010
,
1010
0000
0000
0000
1000
0000
1001
0000
0000
0000
1000
0000
0110
0000
0001
1000
,
0001
0100
0000
1000
0100
0000
0001
0010
0000
1000
0010
0000
0001
0100
0010
1000
,
0002
0103
0010
0002
1003
0200
0302
2003
,
3002
0013
0100
0002
1003
0020
0032
2003
,
3020
0130
1000
0002
0013
2000
3002
0203
,
0301
1000
0100
0000
0001
0000
1000
0010
0000
0000
0000
0000
0011
0000
0000
0000
,
1000
0010
0100
0010
1000
0001
0010
0100
1000
0001
1000
0010
0100
0001
1000
0000
,
0001
0010
0100
0010
0001
1000
0010
0100
0001
0010
0100
0001
0100
0010
0000
0011
,
0000
0000
0001
0000
1000
0010
0000
1000
0001
0010
0001
0010
0100
0010
0100
0010
,
0001
1000
0001
0100
0010
1000
0000
1000
0100
1000
0001
0100
0010
1000
0100
0000
,
0100
0010
0001
0010
0100
1000
0001
0000
0000
0000
1000
0010
0100
0000
0001
1000
,
0100
0010
0001
0010
0100
0000
1000
0001
1000
0001
0010
0000
0100
1000
0001
0000
,
1000
0000
0000
0000
0010
0000
0000
0000
0100
0000
0000
0000
0001
0000
0000
0000
0100
0000
0000
0000
0001
0000
0000
0000
0000
0000
0000
0000
2000
3000
0000
0000
0000
0000
0000
0000
0001
0000
0000
0000
0010
0000
0000
0000
0000
0000
0000
0000
1000
0000
0000
0000
0010
0000
0000
0000
0000
0000
0000
0000
0100
0000
0000
0000
,
0000
1000
0010
0000
0100
1000
0000
0100
0000
0101
0000
0000
0011
0000
0000
0110
,
0000
1100
0000
0000
0000
1001
0000
0001
0010
0100
1000
0100
0010
0001
1000
0010
,
0100
0002
0000
0000
0000
1003
0100
0010
0001
1000
0100
0010
0001
1000
0100
0010
,
0001
1000
0100
0010
0001
1000
0001
0100
0010
1000
0001
0100
0010
1000
0001
0100
,
0010
1000
0001
0100
0001
1000
0010
1000
0001
0010
0100
1000
0100
0010
0001
1000
,
0001
1000
0100
0010
0001
0010
0100
1000
0001
0100
0010
1000
0010
0100
0001
1000
,
0010
1000
0001
0100
0001
1000
0001
0100
0010
1000
0000
0100
0001
0100
0000
1000
,
0000
0001
0000
0100
1000
0100
0000
0001
0000
1000
0100
0001
0000
1000
0010
0001
,
0000
1000
0001
0100
0010
1000
0000
0001
1000
0001
0000
0010
0000
0100
0000
1000
,
0001
0100
0000
0010
0000
1000
0000
0100
0010
0001
0000
0100
0000
0010
0000
0001
,
0010
0100
0000
0001
0000
1000
0000
0100
0010
0001
0100
0010
1000
0001
0000
0010
,
0100
0010
0001
0100
0010
1000
0000
0001
1000
0100
0010
0001
1000
0010
0100
0101
,
0000
0000
0000
1000
0001
1000
0100
0010
0001
1000
0000
0010
0000
0100
0000
0210
,
0000
0000
0000
0301
0100
0010
0100
1000
0100
0010
0100
0001
0100
0010
0000
1020
,
0000
0000
0000
0031
1000
0100
0000
0001
0000
0100
0010
0100
0000
1000
0001
0010
,
0100
1000
0001
0100
0001
1000
0000
0001
0000
0100
0010
0100
0010
0100
1000
0100
,
0010
1000
0001
0010
0100
0001
0100
0010
0001
1000
0000
0010
0001
0010
0000
1000
,
0000
0001
0000
0010
1000
0010
0000
0001
0000
1000
0000
0100
0001
0100
0000
1000
,
0000
0001
0000
0100
1000
0100
0000
0001
0000
1000
0000
0100
0010
0001
0000
1001
,
0000
1000
0100
0010
0001
0100
0010
1000
0000
0001
0000
0010
0000
1000
0000
0001
,
0000
0100
0000
0010
0000
1000
0000
0001
0000
0100
0000
1000
0000
0001
0000
1000
,
0000
0001
0000
0100
0000
0010
0000
0001
0000
1000
0000
0100
0000
0010
0000
0001
,
0000
1000
0000
0100
0000
0010
0000
1000
0000
0001
0000
0010
0000
1000
0000
0001
,
0000
0100
0000
0001
0000
1000
0000
0010
0000
0100
0000
0001
0000
0100
0000
1000
,
0000
0002
0000
0203
0000
2300
0000
3020
0000
0032
0000
0203
0000
2300
0000
3020
,
0000
0000
0000
0032
0000
0000
0000
0000
0000
0203
0000
0000
0000
0000
0000
2300
0000
0000
0000
0000
0000
3020
0000
0000
0000
0000
0000
0032
0000
0000
0000
0000
0000
0003
0000
0000
0000
0000
0000
0101
0000
0000
0000
0100
0000
0000
0000
0010
,
0000
0000
0000
0000
0000
0000
0000
0000
0000
0000
0000
0000
1010
0000
0000
0000
0000
0000
0000
0000
0000
0000
0000
0000
0000
0000
0000
0000
0000
0000
0000
0000
0000
0000
0000
0000
0000
0000
0000
0000
0000
0000
0000
0000
0000
0000
0000
0000
0000
0000
0000
0000
0000
0000
0000
0000
0000
0000
0000
0000
0000
0002
0000
0000
0000
0000
0000
0000
0000
0000
0000
0000
0000
0000
0000
0000
0000
0000
0000
0000
0000
0000
0000
0000
0000
0000
0000
0000
0000
0000
0000
0000
0000
0000
0000
0000
0023
0000
0000
0000
0000
0000
0000
0000
0000
0000
0000
0000
0000
0000
0000
0000
0000
0000
0000
0000
0000
0000
0000
0000
0000
0000
0000
0000
0000
0000
0000
0000
0000
0000
0000
0000
0000
0000
0000
0000
0000
0000
0000
0000
0000
0000
0000
0000
0000
0000
0000
0000
0000
0000
0000
0000
0000
0000
0000
0000
0200
0000
0000
0000
0000
0000
0000
0000
0000
0000
0000
0000
0000
0000
0000
0000
0000
0000
0000
0000
0000
0000
0000
0000
0000
0000
0000
0000
0000
0000
0000
0000
0000
0000
0000
0000
,
0300
0000
0000
0000
0000
0000
0000
0000
0000
0000
0000
0000
0000
0000
0000
0000
0000
0000
0000
0000
0000
0000
0000
0000
0200
0000
0000
0000
0000
0000
0000
0000
0000
0000
0000
0000
0000
0000
0000
0000
0000
0000
0000
0000
0000
0000
0000
0000
0000
0000
0000
0000
0000
0000
0000
0000
0000
0000
0000
0000
0300
0000
0000
0000
0000
0000
0000
0000
0000
0000
0000
0000
0000
0000
0000
0000
0000
0000
0000
0000
0000
0000
0000
0000
0000
0000
0000
0000
0000
0000
0000
0000
0000
0000
0000
0000
0000
0000
0000
0000
0000
0000
0000
0000
0000
0000
0000
0000
0000
0000
0000
0000
0200
0000
0000
0000
0000
0000
0000
0000
0000
0000
0000
0000
0000
0000
0000
0000
0000
0000
0000
0000
0000
0000
0000
0000
0000
0000
0000
0000
0000
0000
0000
0000
0000
0000
0000
0000
0300
0000
0000
0000
0000
0000
0000
0000
0000
0000
0000
0000
0000
0000
0000
0000
0000
0000
0000
0000
0000
0000
0000
0200
0000
0000
0000
0000
0000
0000
0000
0000
0000
0000
0000
0000
0000
0000
0000
0000
0000
0000
0000
0000
,
0330
0000
0000
0000
;

//--------------- dance-double - Fred-104 ----------------
#NOTES:
     dance-double:
     Fred-104:
     Easy:
     7:
     :
00000000
00000000
00000000
00000000
,
00000000
00000000
00000000
00000000
,
00000000
00000000
00000000
00000000
,
00000000
00000000
00000000
00000000
,
00001000
00000000
00000000
00010000
00000000
00000000
00000000
00000000
,
00001000
00010000
00001000
01000000
,
00010000
00000000
00000000
01000000
00000000
00000000
00100000
00000000
,
10000000
00010000
10000000
01000000
,
00100000
00000000
00100000
00000000
00001000
00010000
00001000
00000000
,
00010000
00000000
00010000
00000000
00000010
00001000
00000010
00000000
,
00000100
00000000
00000100
00000000
00000001
00001000
00000001
00000000
,
00000100
00000000
00000000
00000100
00000000
00000000
00000100
00000000
,
00000010
00000000
00010000
00000000
,
00001000
00000000
00000000
00000000
00000100
00000000
00000000
00000000
00000010
00000000
00000000
00000000
00010000
00000000
00000000
00001000
,
00000000
00000000
00000000
00000000
00000000
00000000
00000000
00000000
00010000
00000000
00000000
00010000
00000000
00000000
00010000
00000000
,
00000100
00000000
00000000
00000000
00001000
00000000
00000000
00000001
00000000
00000000
00001001
00000000
00000000
00000000
00000000
00000000
,
00000001
00000001
00000100
00000100
,
00001000
00001000
00010000
00010000
,
00001000
00001000
00100000
00100000
,
00010000
01000000
00010000
00000000
10000000
00100000
10000000
00000000
,
01000000
00100000
00010000
00100000
,
00001000
00010000
00000010
00001000
,
00000001
00000010
00000100
00001000
,
00000010
00000000
00000100
00000000
00001000
00010000
00001000
00000000
,
00011000
00000000
00000000
00010000
00000000
00000000
00001000
00000000
,
01000000
00000000
00000000
00010000
00000000
00000000
10000000
00000000
,
01000000
00000000
00000000
00100000
00000000
00000000
00001000
00000000
,
00010000
00000000
00000000
00010000
00000000
00000000
00001000
00000000
00000000
00001000
00000000
00000000
00010000
00000000
00000000
00000000
,
00000100
00000000
00000000
00000010
00000000
00000010
00000000
00000000
,
00000001
00000000
00000000
00001000
00000000
00001000
00000000
00000000
,
00000010
00000000
00000000
00000100
00000000
00000100
00000000
00000000
,
00001000
00010000
00001000
00000000
00022000
00000000
00033000
00000000
,
00001000
00010000
00001000
00000000
00100000
00000000
01000000
00000000
,
10000000
00000000
00100000
00000000
00010000
00000000
00001000
00010000
,
00001000
00010000
00000100
00000010
,
00000001
00001000
00000001
00000000
00001000
00000010
00001000
00000000
,
00000100
00010000
00000100
00000000
00010000
00000000
00010000
00000000
,
00001000
00000100
00000001
00001000
,
00000100
00000000
00000000
00000000
00000000
00000000
00000000
00000000
00000000
00010000
00000000
00000000
00000000
00001000
00000000
00000000
,
00000000
00100000
00000000
00000000
00000000
00001000
00000000
00000000
00000000
00100000
00000000
00000000
00010000
00000000
00000000
10000000
,
00000000
00020000
00000000
00000000
00000000
00030000
00000000
00000000
00000000
10000000
00000000
00000000
00000000
00100000
00000000
00000000
,
00000000
00020000
00000000
00000000
00000000
00031000
00000000
00000000
00000000
00010000
00000000
00000000
00000000
00001000
00000000
00000000
,
00000000
00010000
00000000
00000000
00000000
00000100
00000000
00000000
00000000
00010000
00000000
00000000
00000000
00000100
00000000
00000000
,
00000000
00000010
00000000
00000000
00000000
00000001
00000000
00000000
00000000
00001000
00000000
00000000
00000000
00000010
00000000
00000000
,
00000000
00000100
00000000
00000000
00000000
00001000
00000000
00000000
00000000
00010000
00000000
00000000
00000000
00100000
00000000
00000000
,
00000000
10000000
00000000
00000000
00000000
00010000
00000000
00000000
00000000
10000000
00000000
01000000
00000000
10000000
00000000
00000000
,
00000000
00010000
00000000
00000000
00000000
01000000
00000000
00000000
00000000
00001000
00000000
00010000
00000000
00001000
00000000
00000000
,
00000000
00010000
00000000
00001000
00000000
00010000
00000000
00000000
00000000
00000100
00000000
00000000
00000000
00000100
00000000
00000000
,
00000000
00000010
00000000
00000000
00000000
00000001
00000000
00000000
00000000
00001000
00000000
00000000
00000000
00000001
00000000
00000000
,
00000000
00000100
00000000
00000000
00000000
00001000
00000000
00000000
00000000
00010000
00000000
00000000
00000000
00100000
00000000
00000000
,
00000000
00010000
00000000
00000000
00000000
00001000
00000000
00000000
00000000
00010000
00000000
00000000
00000000
00000000
00000000
00001000
,
00000000
00000000
00000000
00000000
00000000
00010000
00000000
00000000
00000000
00011000
00000000
00000000
00000000
00000000
00000000
00001000
,
00000000
00000000
00000000
00000000
00000000
01000000
00000000
00000000
00000000
01100000
00000000
00000000
00000000
00000000
00000000
00100000
,
00000000
00000000
00000000
00000000
00000000
10000000
00000000
00000000
00000000
01000000
00000000
00000000
00000000
00100000
00000000
00000000
,
00000000
00001000
00000000
00000000
00000000
00010000
00000000
00000000
00000000
00000100
00000000
00000010
00000000
00000100
00000000
00000000
,
00000000
00000010
00000000
00000001
00000000
00000010
00000000
00000000
00000000
00000001
00000000
00000000
00000000
00000100
00000000
00000000
,
00000000
00001000
00000000
00000000
00000000
00010000
00000000
00000000
00000000
00001000
00000000
00000000
00000000
00000010
00000000
00000000
,
00000000
00001000
00000000
00010000
00000000
00001000
00000000
00000000
00000000
00100000
00000000
00000000
00000000
00010000
00000000
00000000
,
00000000
10000000
00000000
00100000
00000000
10000000
00000000
00000000
00000000
00010000
00000000
00000000
00000000
01000000
00000000
00000000
,
00000000
00100000
00000000
00000000
00000000
10000000
00000000
00000000
00000000
00010000
00000000
00000000
00000000
01000000
00000000
00000000
,
00000000
00100000
00000000
00000000
00000000
10000000
00000000
00000000
00000000
01000000
00000000
00000000
00000000
00010000
00000000
00000000
,
00000000
00001000
00000000
00000000
00000000
00000010
00000000
00000000
00000000
00000001
00000000
00000000
00000000
00001000
00000000
00000000
,
00000000
00000010
00000000
00000000
00000000
00000100
00000000
00000000
00000000
00001000
00000000
00000000
00000000
00010000
00000000
00000000
,
00000000
00001000
00000000
00000000
00000000
00010000
00000000
00000000
00000000
00100000
00000000
00000000
00000000
10000000
00000000
00000000
,
00000000
01000000
00000000
00000000
00000000
00010000
00000000
00000000
00000000
00001000
00000000
00000000
00000000
00010000
00000000
00000000
,
00000000
00001000
00000000
00000000
00000000
00000000
00000000
00000000
00022000
00000000
00000000
00000000
00000000
00000000
00000000
00000000
,
00000000
00000000
00000000
00000000
,
00033000
00000000
00000000
00000000
;

//--------------- dance-double - Fred-104 ----------------
#NOTES:
     dance-double:
     Fred-104:
     Medium:
     12:
     :
00000000
00000000
00000000
00000000
,
00000000
00000000
00000000
00000000
,
00000000
00000000
00000000
00000000
,
00000000
00000000
00000000
00000000
,
00001000
00000000
00000000
00001000
00000000
00000000
00001000
00000000
00000000
00000000
00010000
00000000
00000100
00000000
00010000
00000000
,
00001000
00010000
00000100
00001000
00000001
00000100
00000020
00000000
,
00001030
00000000
00000000
00001000
00000000
00000000
00002000
00000000
00000000
00000000
00003001
00000000
00000100
00000000
00001000
00000000
,
00010000
00001000
00010000
00001000
00100000
01000000
20000000
00000000
,
30010000
01000000
10000000
00010000
00100000
10000000
02000000
00000000
,
03100000
00001000
00010000
00001000
00000100
00000001
00000020
00000000
,
00000130
00001000
00000001
00000100
00001000
00010000
00001000
00000000
,
00010000
00000000
00000000
00001010
00000000
00000000
00010000
00000000
00000000
00001100
00000000
00000000
00010000
00000000
00001000
00000000
,
00200000
00010000
10000000
01000000
,
00320000
00000000
00000000
00000000
00100000
00000000
00000000
00000000
00001000
00000000
00000000
00000000
00130000
00010000
00000000
00100000
,
00000000
00000000
00001000
00000000
00010000
00000000
00000010
00000000
00001000
00000000
00000000
00000100
00000000
00000000
00000010
00000000
,
00000001
00000000
00000001
00000000
00000100
00000000
00000000
00001000
00000000
00000000
00022000
00000000
00000000
00000000
00033000
00000000
,
00010000
00001000
00010000
00001000
00000100
00001000
00000100
00001000
,
00010000
00001000
00010000
00001000
01000000
00001000
01000000
00001000
,
00010000
00000100
00000010
00000001
00001000
00000001
00000100
00000010
,
00000100
00001000
00010000
00000000
01000000
00100000
00010000
00000000
,
01000000
00100000
10000000
00010000
10000000
01000000
00100000
00002000
,
00000000
00013000
00000100
00002000
00000000
00003100
00010000
00002000
,
00000000
00013000
00000010
00002000
00000000
00003010
00010000
00002000
,
00000000
00013000
00001000
00000100
00000001
00001000
00000100
00000010
,
00000011
00000000
00000000
00001001
00000000
00000001
00000100
00001000
,
00010000
00000000
00000000
00011000
00000000
00001000
01000000
00010000
,
10000000
00000000
00000000
01100000
00000000
00000000
00010000
10000000
,
01000000
00100000
00000000
00100000
00010000
00000000
00010000
00100000
00000000
00100000
00001000
00000000
00010000
00000000
00000010
00000000
,
00020000
00000000
00000000
00001000
00000000
00031000
00010000
00001000
,
02000000
00000000
00000000
00100000
00000000
03100000
10000000
01000000
,
00200000
00000000
00000000
00001000
00000000
00301000
00010000
00000100
,
00000010
00000001
00001000
00000001
00000100
00000000
00001001
00000000
,
00000001
00000100
00000001
00000100
00001000
00010000
00001000
00010000
,
00001000
00000000
00000010
00000000
00001000
00000000
00000010
00000000
00001000
00000000
00010000
00000000
00001000
00000000
00000000
00011000
,
00000000
00000000
00001000
00000000
01000000
00000000
00000000
01100000
00000000
00000000
00100000
00000000
00010000
00000000
00100000
00000000
,
01000000
00000000
00100000
00000000
10000000
01000000
00000000
01000000
00100000
00000000
00001000
00000000
00010000
00000000
00000100
00000000
,
00001000
00000000
00000010
00000000
00010000
00001000
00010000
00000000
00000000
00000000
00001000
00000000
00010000
00000000
00000010
00000000
,
00001000
00000100
00010000
00000010
00000100
00001000
00010000
00001000
,
01000000
00000000
00100000
00000000
10000000
01000000
00000000
01000000
00000000
00100000
00000000
00000000
00001000
00000000
00000000
00010000
,
00000000
00000100
00000000
00000000
00000010
00000000
00000000
00000001
00000000
00001000
00000000
00000000
00000010
00000000
00000000
00010000
,
00000000
00011000
00000000
00000000
00000000
00001000
00000000
00010000
00000000
00100000
00000000
01000000
00000000
00100000
00000000
00010000
,
00000000
00001000
00000000
00000000
00000000
00010000
00000000
00001000
00000000
00010000
00000000
00001000
00000000
00010000
00000000
00000100
,
00000000
00010000
00000000
00000100
00000000
00010000
00000000
00001000
00000000
00010000
00000000
00001000
00000000
01000000
00000000
00010000
,
00000000
10000000
00000000
00010000
00000000
00100000
00000000
00000000
00000000
01000000
00000000
10000000
00000000
00010000
00000000
10000000
,
00000000
00100000
00000000
10000000
00000000
00010000
00000000
10000000
00000000
01000000
00000000
00100000
00000000
00001000
00000000
00010000
,
00000000
00000100
00000000
00000010
00000000
00000100
00000000
00000000
00000000
00001000
00000000
00000001
00000000
00000100
00000000
00000000
,
00000000
00001000
00000000
00010000
00000000
00001000
00000000
00000000
00000000
00010000
00000000
00100000
00000000
10000000
00000000
00000000
,
00000000
00010000
00000000
00100000
00000000
02000000
00000000
00000000
00000000
13000000
00000000
00010000
00000000
01000000
00000000
00100000
,
00000000
10000000
00000000
01000000
00000000
00100000
00000000
00001000
00000000
00010000
00000000
00000000
00000000
00000010
00000000
00001000
,
00000000
00000000
00000000
00001000
00000000
00000100
00000000
00000010
00000000
00000000
00000000
00000010
00000000
00000001
00000000
00001000
,
00000000
00000001
00000000
00000100
00000000
00001000
00000000
00010000
00000000
00001000
00000000
00010000
00000000
00001000
00000000
00101000
,
00000000
00000000
00000000
00100000
00000000
00010000
00000000
00000000
00000000
10010000
00000000
00000000
00000000
00010000
00000000
01000000
,
00000000
00000000
00000000
01000000
00000000
00100000
00000000
10000000
00000000
01000000
00000000
00000000
00000000
00100000
00000000
00001000
,
00000000
00000000
00000000
00001000
00000000
00010000
00000000
00001000
00000000
00000000
00000000
00001000
00000000
01000000
00000000
00001000
,
00000000
00010000
00000000
00001000
00000000
00000100
00000000
00000010
00000000
00001000
00000000
00000100
00000000
00000010
00000000
00000000
,
00000000
00000001
00000000
00000100
00000000
00000010
00000000
00000000
00000000
00010000
00000000
00001000
00000000
00100000
00000000
00010000
,
00000000
00000000
00000000
10000000
00000000
00010000
00000000
01000000
00000000
00000000
00000000
00100000
00000000
10000000
00000000
00010000
,
00000000
00100000
00000000
01000000
00000000
00000000
00000000
00010000
00000000
00001000
00000000
00000000
00000000
00010000
00000000
00000100
,
00000000
00000000
00000000
00010000
00000000
00001000
00000000
00000000
00000000
00010000
00000000
00000100
00000000
00001000
00000000
00000000
,
00000000
00001000
00000000
00000010
00000000
00000100
00000000
00000000
00000000
00000100
00000000
00000001
00000000
00000010
00000000
00000000
,
00000000
00000010
00000000
00000100
00000000
00001000
00000000
00000000
00000000
00001000
00000000
00000100
00000000
00010000
00000000
00000000
,
00000000
00010000
00000000
00001000
00000000
00100000
00000000
00000000
00000000
00100000
00000000
00010000
00000000
10000000
00000000
00000000
,
00000000
10000000
00000000
00010000
00000000
01000000
00000000
00000000
00000000
01000000
00000000
00100000
00000000
10000000
00000000
00000000
,
00000000
20000000
00000000
32000000
00000000
03200000
00000000
00320000
00000000
00230000
00000000
00302000
00000000
00023000
00000000
00030200
,
00000000
00002300
00000000
00003200
00000000
00000320
00000000
00000032
00000000
00001003
00000000
00000000
00000000
00000010
00000000
00000000
,
00000000
00011000
00000000
00000000
00000000
00000000
00000000
00000000
00022000
00000000
00000000
00000000
00000000
00000000
00000000
00000000
,
00000000
00000000
00000000
00000000
,
00033000
00000000
00000000
00000000
;

//--------------- dance-double - Fred-104 ----------------
#NOTES:
     dance-double:
     Fred-104:
     Hard:
     15:
     :
00000000
00000000
00000000
00000000
,
00000000
00000000
00000000
00000000
,
00000000
00000000
00000000
00000000
,
00000000
00000000
00000000
00000000
,
00011000
00000000
00000000
00001000
00000000
00000000
00101000
00000000
00000000
00000000
00100000
00000000
01000000
10000000
01000000
00000000
,
10000000
00000000
00010000
00000000
01000000
00000000
00100000
00000000
00010000
00001000
00010000
00001000
00010000
00000000
00000100
00000000
,
00000110
00000000
00000000
00000010
00000000
00000000
00000011
00000000
00000000
00001000
00000001
00000000
00001000
00000000
00000001
00000000
,
00000100
00000000
00000010
00000000
00000100
00000000
00001000
00000000
00010000
00001000
00010000
00001000
00010000
00000000
00001000
00000000
,
00010000
00000000
00000010
00001000
00000010
00000000
00010000
00000000
00001000
00000000
00100000
00010000
00100000
00000000
00001000
00000000
,
00010000
00000000
00001000
00000000
00000100
00000000
00000001
00000000
00000010
00000100
00000010
00000100
00001000
00000000
00000001
00000000
,
00000100
00000000
00000010
00001000
00000001
00000000
00000010
00000000
00000100
00001000
00000100
00000000
00010000
00001000
00010000
00000000
,
00011000
00000000
00000000
00110000
00000000
00000000
10100000
00000000
00000000
10000000
00010000
00000000
10000000
00000000
01000000
00100000
,
00010000
00000000
10000000
00000000
00100000
00000000
00001000
00000000
00000010
00000000
00000100
00000000
00000001
00000000
00001000
00000001
,
00000100
00000000
00000010
00000000
00001000
00000000
00000001
00000000
00000010
00000100
00000010
00000000
00001000
00010000
00000000
00011000
,
00000000
00000000
00000000
00001000
00000000
01000000
00010000
00000000
01000000
00000000
00100000
10000000
00000000
10000000
00100000
00000000
,
00000000
01000000
00010000
10000000
01000000
00100000
00000000
00001000
00000000
00000000
00022000
00000000
00000000
00000000
00033000
00000000
,
00010000
00000000
00000100
00000000
00000010
00000001
00000000
00000010
00000001
00000000
00001000
00000000
00000010
00000000
00000100
00000000
,
00001000
00000000
00010000
00000000
00001000
01000000
00000000
00010000
00100000
00000000
01000000
00000000
10000000
00000000
00010000
00000000
,
01000000
00000000
00100000
10000000
00100000
00000000
00010000
00000000
00001000
00000000
00001000
00000000
00010000
00000000
00010000
00000000
,
00000100
00001000
00000010
00000100
00000000
00000100
00000000
00000001
00001000
00000000
00001000
00000000
00000100
00000010
00000001
00000000
,
00001000
00000000
00000010
00000000
00000001
00000000
00001000
00000100
00001000
00000000
00000100
00000000
00000001
00000000
00000010
00000000
,
00000100
00000000
00010000
00000000
00001000
00000000
00010000
00001000
01000000
00000000
00100000
00000000
10000000
00000000
00020000
00000000
,
00000000
10030000
01000000
00020000
00000000
00031000
00000010
00000002
,
00000000
00000000
00000103
00000000
00001000
00000000
00010000
00001000
00010000
00000100
00001000
00000100
00000010
00000001
00000100
00000000
,
00000110
00000000
00000000
00001001
00000000
00000001
00000010
00000100
,
00010100
00000000
00000000
00011000
00000000
00001000
01000000
00010000
,
00110000
00000000
00000000
10100000
00000000
00100000
00010000
10000000
,
00100000
01000000
00000000
00010000
00100000
00000000
00010000
01000000
00000000
00100000
01000000
00000000
00001000
00000000
00010000
00000000
,
00002000
00100000
00103000
00020000
10000000
20030000
01000000
31000000
,
00020000
00001000
00031000
00000200
00000010
00000320
00001000
00001030
,
00000002
00000010
00000013
00000200
00010000
00020300
00001000
00031000
,
00010000
00000100
00010000
00000000
00001000
00000000
01000000
00100000
00000000
00000000
00000000
00000000
10010000
00000000
00000000
00000000
,
10000000
00100000
01000000
00000000
00010000
00000000
10000000
00000000
01000000
00100000
00010000
00000000
00100000
00000000
00001000
00000000
,
00000010
00000100
00001000
00000000
00000001
00000000
00000100
00000000
00000010
00000000
00000100
00000000
00001000
00010000
00000000
00011000
,
00000000
00000000
00010000
00000000
00001000
00100000
00000000
10010000
00000000
00000000
10000000
01000000
00100000
00000000
00010000
00000000
,
00100000
00000000
00001000
00000000
00010000
00000100
00000000
00000100
00000010
00000100
00000010
00000000
00000001
00001000
00000001
00000000
,
00000100
00000010
00000100
00000000
00000010
00010000
00001000
00000000
00000000
00000000
00010000
00000100
00002000
00000000
00000100
00013000
,
00002000
00000000
00010000
00003100
00002000
00000000
00000100
00013000
00001000
00000000
00010000
00000000
00100000
00000000
10000000
00000000
,
00010000
00100000
00010000
00100000
00000000
00202000
00000000
00303000
00000000
00001000
00000000
00000000
00010000
00000000
00000000
00000100
,
00000000
00000010
00000000
00000000
00000001
00000000
00000000
00000100
00000000
00000110
00000000
00000000
00000011
00000000
00000000
00001010
,
00000000
00001001
00000000
00000000
00000000
00000002
00000000
00000203
00000000
00002300
00000000
00023000
00000000
00230000
00000000
20300000
,
00000000
30020000
00000000
00000000
00000000
10030000
01000000
10000000
01000000
10000000
01000000
10000000
01000000
00100000
00010000
00100000
,
00010000
00100000
00010000
00100000
00001000
00010000
00001000
00010000
00001000
00010000
00001000
00010000
00001000
00010000
00000010
00001000
,
00000010
00001000
00000000
00000001
00000000
00000010
00000100
00000010
00000000
00000001
00001000
00000001
00001000
00000001
00001000
00000001
,
00001000
00000010
00000100
00000010
00000100
00000010
00000100
00000010
00000100
00001000
00010000
00001000
00010000
00001000
00010000
00001000
,
00010000
00001000
01000000
00001000
01000000
00001000
00000000
00010000
00000000
00001000
00000000
00010000
00000000
00100000
00000000
01000000
,
00000000
00010000
00000000
10000000
00000000
01000000
00000000
00100000
00000000
00010000
00000000
01000000
00000000
00100000
00000000
00010000
,
00000000
00001000
00000000
00000100
00000000
00000010
00000000
00000100
00000000
00000001
00000000
00001000
00000000
00000001
00000000
00000100
,
00000010
00000000
00000010
00000100
00000000
00000001
00000000
00001000
00000000
00000100
00000000
00000010
00000000
00001000
00000000
00010000
,
00001000
00000000
00001000
00010000
00000000
00001000
00000000
01000000
00010000
00100000
00000000
01000000
10000000
00010000
00000000
10000000
,
01000000
00000000
01000000
00100000
00000000
00010000
00000000
01000000
00000000
00100000
10000000
00100000
00000000
01000000
00000000
01010000
,
00000000
00000000
00000000
00010000
10000000
00010000
10000000
01000000
00000000
00100000
00001000
00010000
00000000
00001000
00000000
00011000
,
00000000
00000000
00000000
00010000
00000100
00001000
00000000
00000001
00000000
00000010
00000100
00000010
00000000
00000100
00000000
00001100
,
00000000
00000000
00000000
00001000
00000000
00000001
00000000
00000100
00000000
00001000
00000000
00010000
00000000
00001000
00000000
01000000
,
00001000
00000000
00001000
00010000
00000000
00001000
00000000
00000100
00000000
00000010
00001000
00000200
00000000
00000310
00000001
00000200
,
00000000
00000310
00001000
00000200
00000000
00000310
00000001
00000200
00000000
00000310
00000000
00001000
00000000
00000001
00000000
00000010
,
00000000
00001000
00000000
00010000
00000000
00001000
00000000
00000100
00000000
00001000
00000000
00010000
00000000
00100000
00000000
10000000
,
00000000
00010000
00000000
01000000
00000000
00100000
00000000
10000000
00000000
00010000
00000000
00100000
00000000
10000000
00000000
00010000
,
00000000
01000000
00000000
00100000
00000000
00001000
00000000
00010000
00000000
00001000
00000000
00100000
00000000
00010000
00000000
00100000
,
00000000
00010000
00000000
10000000
00000000
00100000
00000000
01000000
00000000
00010000
00000000
10000000
00000000
01000000
00000000
00100000
,
00000000
00001000
00000000
00010000
00000000
00001000
00000000
00010000
00000000
00000100
00000000
00000010
00000000
00000100
00000000
00000010
,
00000000
00000001
00000000
00001000
00000000
00000010
00000000
00000100
00000000
00000001
00000000
00001000
00000000
00000100
00000000
00000010
,
00000000
00000001
00000000
00001000
00000000
00000010
00000000
00010000
00000000
00001000
00000000
00100000
00000000
01000000
00000000
10000000
,
00000000
00020000
00000000
20030000
00000000
32000000
00000000
03020000
00000000
00032000
00000000
00003020
00000000
00000032
00000000
00000203
,
00000000
00000000
00000000
00002300
00000000
00000000
00000000
00000000
00000000
00023000
00000000
00000000
00000000
00000000
00000000
00230000
00000000
00000000
00000000
00000000
00000000
20300000
00000000
00000000
00000000
00000000
00000000
30010000
00000000
00000000
00000000
00000000
00000000
00000000
00000000
00000000
00000000
00000000
00000000
10000000
00000000
00000000
00000000
01000000
00000000
00000000
00000000
00100000
,
00000000
00101000
00000000
00000000
00000000
00000000
00000000
00000000
00022000
00000000
00000000
00000000
00000000
00000000
00000000
00000000
,
00000000
00000000
00000000
00000000
,
00033000
00000000
00000000
00000000
;

//--------------- dance-double - Fred-104 ----------------
#NOTES:
     dance-double:
     Fred-104:
     Challenge:
     17:
     :
00000000
00000000
00000000
00000000
,
00000000
00000000
00000000
00000000
,
00000000
00000000
00000000
00000000
,
00000000
00000000
00000000
00000000
,
00011000
00000000
00010000
00000100
00000000
00000100
00000010
00000000
00000000
00000000
00000001
00001000
00000010
00000100
00000001
00001000
,
00000100
00000000
00000010
00000001
00000010
00000000
00000100
00001000
00000100
00010000
00001000
00010000
00001000
00000000
00010000
00000000
,
00110000
00000000
00100000
10000000
00000000
10000000
01000000
00000000
00000000
00100000
00001000
00000000
00010000
00000000
00000100
00001000
,
00000000
00001000
00000100
00000010
00000100
00001000
00000100
00010000
00001000
01000000
00010000
01000000
00020000
00000000
00000000
00000000
,
10030000
00000000
00010000
00100000
00010000
00000000
10000000
00000000
01000000
00100000
00010000
00100000
00001000
00010000
00001000
00000000
,
00010000
00000000
00000010
00001000
00000001
00000100
00000010
00001000
00000010
00001000
00000100
00000010
00000001
00001000
00000002
00000000
,
00000103
00000010
00000100
00001000
00010000
00001000
00010000
00000000
00001000
00100000
00010000
00000000
10000000
00100000
01000000
00000000
,
01010000
00000000
00000000
10100000
00000000
00000000
00110000
00000000
00000000
10000000
01000000
00100000
00010000
01000000
00100000
00010000
,
00001000
00000000
00010000
00001000
00010000
00000000
00000100
00000000
00000010
00000001
00000010
00000001
00001000
00000000
00000001
00000000
,
00001000
00000000
00000010
00000100
00000010
00000000
00000100
00000000
00001000
00010000
00001000
00010000
00001000
00100000
00000000
00110000
,
00000000
00000000
00010000
10000000
00000000
10000000
01000000
00000000
01100000
00000000
00100000
00001000
00000000
00001000
00010000
00000000
,
00001000
01000000
00010000
00100000
01000000
10000000
00100000
01000000
00000000
00000000
20020000
00000000
00000000
00000000
30030000
00000000
,
00010000
00000000
10000000
00000000
01000000
00000000
00010000
00001000
00010000
00001000
00010000
00000000
00000100
00000000
00000001
00000000
,
00000100
00000000
00000010
00000000
00000001
00000000
00000010
00000100
00000010
00000100
00000010
00000000
00001000
00000000
00010000
00000000
,
00100000
00000000
01000000
00000000
00010000
00000000
00100000
01000000
00100000
01000000
00010000
00000000
01000000
00000000
10000000
00000000
,
00010000
01000000
00100000
01000000
00000000
00010000
00000000
00010000
10000000
01000000
00100000
00010000
00100000
00001000
00100000
00001000
,
00010000
00000000
00000010
00001000
00000010
00001000
00000000
00000100
00000010
00000001
00001000
00000000
00000010
00010000
00001000
00000000
,
00100000
00000000
00001000
00010000
00001000
00000000
00010000
00100000
01000000
00010000
01000000
00010000
10000000
00000000
01000000
00100000
,
00001000
00010000
00000100
00001000
00000100
00000010
00000001
00000000
00001000
00000001
00000100
00000010
00001000
00000010
00010000
00000000
,
00011000
00000000
00001000
00100000
00010000
01000000
00100000
01000000
00010000
10000000
00100000
10000000
00010000
00100000
01000000
00000000
,
01100000
00000000
00100000
00101000
00000000
00001000
00010000
00000100
,
00000110
00000000
00000010
00000011
00000000
00000001
00000100
00001000
,
00011000
00000000
00000000
00000000
00010000
00000000
00010010
00000000
00000000
00000000
00010000
00000000
00010100
00000000
00010000
00001000
,
00010000
00001000
00000000
00000010
00001000
00000000
00010000
00001000
00000000
00000100
00001000
00000000
00010000
00001000
00010000
00001000
,
00020000
00031000
00100000
02000000
03010000
20000000
30100000
00020000
,
02030000
03100000
00010000
00002000
00003100
00000002
00000013
00000200
,
00002300
00003010
00000001
00002000
00003100
00000020
00010030
00002000
,
00103000
00010000
10000000
00000000
01000000
00000000
00010000
00001000
00000000
00000000
00000000
00000000
00001001
00000000
00000000
00000000
,
00000001
00000010
00000001
00000000
00001000
00000100
00001000
00000000
00000001
00000010
00000100
00010000
00001000
00100000
00010000
00000000
,
10000000
00100000
10000000
00000000
00010000
01000000
00010000
00000000
10000000
00100000
01000000
10000000
01000000
00100000
00000000
10100000
,
00000000
00000000
00010000
00000000
10000000
01000000
00000000
00100000
00001000
00010000
00001000
00010000
00000010
00000100
00000010
00000100
,
00001000
00000100
00000010
00000100
00000010
00000100
00000000
00000100
00000001
00001000
00000100
00010000
00001000
01000000
00001000
00000000
,
00010000
00000010
00010000
00001000
00100000
00001000
00100000
00000000
00000000
00000000
01000000
10000000
00100000
00000000
01000000
00010000
,
00100000
00010000
10000000
00010000
01000000
00000000
00010000
10000000
01000000
00100000
00010000
00000000
01000000
00100000
00010000
00000000
,
00001000
00000000
00000000
00000000
00010000
00000000
00000000
00000000
00001000
00000000
00000000
00000000
00010000
00000000
00000000
00000000
00000010
00000000
00000000
00000000
00010000
00000000
00000000
00000000
00000000
00000000
00000000
00000000
00002000
00003000
00000000
00000000
00000000
00000000
00000000
00000000
00010000
00000000
00000000
00000000
00000000
00000000
00000000
00000000
00000000
00000000
00000000
00000000
00000100
00000000
00000000
00000000
00000000
00000000
00000000
00000000
00000000
00000000
00000000
00000000
00000001
00000000
00000000
00000000
,
00000000
00001000
00000000
00000000
00000010
00000000
00000000
00000100
00000000
00001100
00000000
00000000
00010100
00000000
00000000
00011000
,
00000000
00101000
00000000
00000000
00000000
10010000
00000000
10000000
00010000
00100000
00001000
00010000
00001000
00010000
00000100
00000010
,
00000001
00002000
00000000
00000000
00000000
00003001
00000100
00000001
00000100
00000010
00001000
00000010
00001000
00000010
00010000
00000010
,
00010000
00001000
00010000
00001000
00010000
00001000
00100000
00001000
00100000
00010000
10000000
00010000
10000000
01000000
00100000
01000000
,
00100000
00001000
00010000
00001000
00010000
00000100
00000000
00000010
00000000
00000001
00001000
00000010
00001000
00000001
00000100
00000010
,
00001000
00000010
00010000
00001000
00100000
00010000
10000000
00100000
01000000
00010000
10000000
01000000
00100000
00010000
00100000
00001000
,
00010000
00000100
00000010
00000001
00000100
00000010
00001000
00000001
00000000
00001000
00000000
00000001
00000000
00000010
00000000
00000100
,
00000000
00001000
00000000
00010000
00000000
00100000
00000000
01000000
00000000
10000000
00000000
00100000
00000000
00010000
00000000
00001000
,
00000000
00000100
00000010
00000100
00000001
00001000
00000000
00000100
00000000
00000010
00000000
00000001
00000000
00000010
00000000
00000100
,
00010000
00000000
00010000
00001000
00000000
00010000
00000000
00100000
01000000
00100000
00000000
10000000
00000000
00010000
00000000
10000000
,
01000000
00000000
01000000
00100000
00000000
00001000
00000000
00010000
00000100
00001000
00000100
00010000
00000100
00001000
00000000
00000100
,
00000010
00000001
00001000
00000010
00000100
00000010
00001000
00000001
00000000
00000010
00000100
00000010
00000100
00010000
00001000
00011000
,
00000000
00000000
00000000
00001000
00100000
00010000
00100000
01000000
00100000
00010000
10000000
00100000
00000000
01000000
00000000
01020000
,
00000000
00000000
00000000
10030000
01000000
00100000
01000000
00010000
01000000
00100000
01000000
10000000
00010000
01000000
00000000
01002000
,
00000000
00000000
00000000
00013000
00000000
00000100
00000010
00000001
00000000
00001000
00000001
00001000
00000000
00000100
00001000
00000001
,
00000100
00000010
00000100
00000001
00001000
00000100
00000000
00000010
00000000
00000001
00001000
00000010
00000000
00000100
00001000
00010000
,
00000000
00001000
00100000
01000000
00100000
00010000
00100000
00001000
00010000
00001000
00000000
00100000
01000000
00100000
00000000
00001000
,
00000000
00010000
00000000
00000010
00000100
00000010
00000000
00010000
00000000
00001000
00000000
01000000
00100000
01000000
00000000
00001000
,
00000000
00010000
00000000
00000100
00000010
00000100
00000000
00010000
00000000
00001000
00000000
00000010
00000001
00000010
00000000
00000001
,
00001000
00000010
00001000
00000001
00000010
00000100
00010000
00001000
00000000
00010000
00000000
00001000
00000000
00000100
00000000
00000010
,
00000000
00000001
00000000
00000010
00000000
00000100
00000000
00001000
00000000
00000001
00000000
00000010
00000000
00000100
00000000
00000001
,
00000000
00001000
00000000
00000100
00000000
00000010
00000000
00001000
00000000
00010000
00000000
01000000
00000000
00100000
00000000
10000000
,
00000000
00010000
00000000
01000000
00000000
00100000
00000000
00010000
00000000
10000000
00000000
01000000
00000000
00100000
00000000
01000000
,
00000000
00010000
00000000
00001000
00000000
00000010
00000000
00000100
00000000
00001000
00000000
00000010
00000000
00000100
00000000
00000001
,
00000000
00002000
00000000
00003002
00000000
00000023
00000000
00002030
00000000
00023000
00000000
02030000
00000000
23000000
00000000
30200000
,
00000000
00000000
00000000
00320000
00000000
00000000
00000000
00000000
00000000
00032000
00000000
00000000
00000000
00000000
00000000
00003200
00000000
00000000
00000000
00000000
00000000
00000302
00000000
00000000
00000000
00000000
00000000
00000023
00000000
00000000
00000000
00000000
00000000
00000030
00000000
00000000
00000000
00000000
00000000
00001001
00000000
00000000
00000000
00000001
00000000
00000000
00000000
00000100
,
00000000
00000000
00000000
00000000
00000000
00000000
00000000
00000000
00000000
00000000
00000000
00000000
00000110
00000000
00000000
00000000
00000000
00000000
00000000
00000000
00000000
00000000
00000000
00000000
00000000
00000000
00000000
00000000
00000000
00000000
00000000
00000000
00000000
00000000
00000000
00000000
00000000
00000000
00000000
00000000
00000000
00000000
00000000
00000000
00000000
00000000
00000000
00000000
00000000
00000000
00000000
00000000
00000000
00000000
00000000
00000000
00000000
00000000
00000000
00000000
00000000
00000020
00000000
00000000
00000000
00000000
00000000
00000000
00000000
00000000
00000000
00000000
00000000
00000000
00000000
00000000
00000000
00000000
00000000
00000000
00000000
00000000
00000000
00000000
00000000
00000000
00000000
00000000
00000000
00000000
00000000
00000000
00000000
00000000
00000000
00000000
00020030
00000000
00000000
00000000
00000000
00000000
00000000
00000000
00000000
00000000
00000000
00000000
00000000
00000000
00000000
00000000
00000000
00000000
00000000
00000000
00000000
00000000
00000000
00000000
00000000
00000000
00000000
00000000
00000000
00000000
00000000
00000000
00000000
00000000
00000000
00000000
00000000
00000000
00000000
00000000
00000000
00000000
00000000
00000000
00000000
00000000
00000000
00000000
00000000
00000000
00000000
00000000
00000000
00000000
00000000
00000000
00000000
00000000
00000000
00000000
00002000
00000000
00000000
00000000
00000000
00000000
00000000
00000000
00000000
00000000
00000000
00000000
00000000
00000000
00000000
00000000
00000000
00000000
00000000
00000000
00000000
00000000
00000000
00000000
00000000
00000000
00000000
00000000
00000000
00000000
00000000
00000000
00000000
00000000
00000000
00000000
,
00003000
00000000
00000000
00000000
00000000
00000000
00000000
00000000
00000000
00000000
00000000
00000000
00000000
00000000
00000000
00000000
00000000
00000000
00000000
00000000
00000000
00000000
00000000
00000000
00002000
00000000
00000000
00000000
00000000
00000000
00000000
00000000
00000000
00000000
00000000
00000000
00000000
00000000
00000000
00000000
00000000
00000000
00000000
00000000
00000000
00000000
00000000
00000000
00000000
00000000
00000000
00000000
00000000
00000000
00000000
00000000
00000000
00000000
00000000
00000000
00003000
00000000
00000000
00000000
00000000
00000000
00000000
00000000
00000000
00000000
00000000
00000000
00000000
00000000
00000000
00000000
00000000
00000000
00000000
00000000
00000000
00000000
00000000
00000000
00000000
00000000
00000000
00000000
00000000
00000000
00000000
00000000
00000000
00000000
00000000
00000000
00000000
00000000
00000000
00000000
00000000
00000000
00000000
00000000
00000000
00000000
00000000
00000000
00000000
00000000
00000000
00000000
00002000
00000000
00000000
00000000
00000000
00000000
00000000
00000000
00000000
00000000
00000000
00000000
00000000
00000000
00000000
00000000
00000000
00000000
00000000
00000000
00000000
00000000
00000000
00000000
00000000
00000000
00000000
00000000
00000000
00000000
00000000
00000000
00000000
00000000
00000000
00003000
00000000
00000000
00000000
00000000
00000000
00000000
00000000
00000000
00000000
00000000
00000000
00000000
00000000
00000000
00000000
00000000
00000000
00000000
00000000
00000000
00000000
00000000
00000000
00002000
00000000
00000000
00000000
00000000
00000000
00000000
00000000
00000000
00000000
00000000
00000000
00000000
00000000
00000000
00000000
00000000
00000000
00000000
00000000
00000000
,
00033000
00000000
00000000
00000000
;
