#TITLE:この青空の下で;
#ARTIST:TAG meets “eimy”;
#TITLETRANSLIT:Kono aozora no shita de;
#BANNER:Kono aozora no shita de.png;
#BACKGROUND:Kono aozora no shita de-bg.png;
#CDTITLE:./CDTitles/RB limelight.png;
#MUSIC:Kono aozora no shita de.ogg;
#SAMPLESTART:36.781;
#SAMPLELENGTH:15;
#DISPLAYBPM:165;
#BPMS:0=164.8,4=165;
#STAGE:16;

//--------------- dance-single - Fred-104 ----------------
#NOTES:
     dance-single:
     Fred-104:
     Beginner:
     2:
     :
0000
0000
0000
0000
,
0000
0000
0000
0000
,
0000
0000
0000
0000
,
0000
0000
0000
0000
,
0000
0000
0000
0000
,
1000
0000
0000
0000
,
0000
0000
0000
0000
,
0001
0000
0000
0000
,
0000
0000
0000
0000
,
1000
0000
0000
0000
,
0010
0000
0000
0000
,
1000
0000
0000
0000
,
0001
0000
0001
0000
,
0001
0000
0000
0000
,
1000
0000
0000
0000
,
0010
0000
0000
0000
,
1000
0000
1000
0000
,
1000
0000
0000
0000
,
0001
0000
0100
0000
,
0001
0000
0000
0000
,
1000
0000
0010
0000
,
1000
0000
0000
0000
,
0100
0000
0010
0000
,
0100
0000
0000
0000
,
1000
0000
0001
0000
,
1001
0000
0000
0000
,
1000
0000
0000
0000
,
0010
0000
0000
0000
,
1000
0000
0000
0000
,
0001
0000
0000
0000
,
1000
0000
0001
0000
,
1000
0000
0000
0000
,
0001
0000
1000
0000
,
1001
0000
0000
0000
,
2000
0000
3000
0000
,
0002
0000
0003
0000
,
2000
0000
3000
0000
,
0002
0000
0003
0000
,
1000
0000
1000
0000
,
0001
0000
0001
0000
,
1000
0000
0001
0000
,
1001
0000
0000
0000
,
2000
0000
0000
0000
,
0000
0000
3000
0000
,
0002
0000
0000
0000
,
0000
0000
0003
0000
,
2000
0000
3000
0000
,
0002
0000
0003
0000
,
1000
0000
0001
0000
,
1000
0000
0001
0000
,
1001
0000
0000
0000
,
1001
0000
0000
0000
,
0000
0000
0000
0000
,
0000
0000
0000
0000
,
0000
0000
0000
0000
,
2000
0000
3000
0000
,
0002
0000
0003
0000
,
2000
0000
0000
0000
,
3000
0000
0000
0000
,
0002
0000
0003
0000
,
2000
0000
3000
0000
,
0002
0000
0003
0000
,
2000
0000
3000
0000
,
0002
0000
0003
0000
,
1000
1000
1000
0000
,
0001
0001
0001
0000
,
1001
0000
0000
0000
,
1000
0000
0010
0000
,
1000
0000
0000
0000
,
0001
0000
0010
0000
,
0001
0000
0000
0000
,
1000
0000
0100
0000
,
1000
0000
0000
0000
,
0001
0000
0100
0000
,
0001
0000
0000
0000
,
1001
0000
0000
0000
;

//--------------- dance-single - Fred-104 ----------------
#NOTES:
     dance-single:
     Fred-104:
     Easy:
     7:
     :
0000
0000
0000
0000
,
0000
0000
0000
0000
,
0000
0000
0000
0000
,
0000
0000
0000
0000
,
0000
0000
0000
0000
,
1000
0100
1000
0010
,
0200
0000
0320
0000
,
0130
0001
0010
0001
,
1000
0000
0000
0001
0000
0000
1000
0000
,
1001
0000
0001
0000
,
1000
0100
0010
0000
,
0001
0000
0100
0000
,
1000
0000
0010
0000
,
0001
0000
1000
0000
,
0010
1000
0100
0000
,
1000
0000
0010
0000
,
0001
0000
0100
1000
,
1001
0000
0001
0000
,
1000
0010
0100
0001
,
1000
0000
0100
0000
,
0010
0001
0100
0010
,
0100
0000
0001
0000
,
0010
0001
1000
0001
,
0100
0010
1000
0100
,
1000
0010
0001
0100
,
1001
0000
0000
0000
,
0002
0013
0200
1300
,
0002
0103
0020
1030
,
0002
0103
2000
3100
,
0001
1000
1001
0000
,
1000
0100
0001
0000
,
1000
0010
0001
0000
,
1000
0010
0200
0000
,
0301
0010
0100
0010
,
0001
0100
0010
0100
,
0001
0010
0100
1000
,
0010
1000
0100
0010
,
0001
1000
1001
0000
,
0001
0100
1000
0100
,
0001
0010
1000
0010
,
0001
1000
0010
0100
,
0001
0000
0000
1001
0000
0000
0000
0000
,
2000
0000
3200
0000
,
0320
0000
0032
0203
,
0302
0000
0023
0000
,
0230
0000
0320
0032
,
1003
0000
0000
0100
0000
0000
0010
0000
,
0001
0000
0000
0100
0000
0000
0010
0000
,
1000
1000
0001
0001
,
1000
0010
0100
0001
,
1001
0000
0000
0000
,
0110
0000
0000
0000
,
0000
0000
0000
0000
,
1001
0000
0000
0000
,
1000
0010
0100
0000
,
0002
0000
0013
0100
,
2000
0000
3010
0100
,
0001
0000
0000
2002
0000
0000
3003
0000
,
1000
0010
0100
0001
,
1000
0100
0001
0000
,
1000
0010
0001
0000
,
1000
0010
0100
0010
,
1000
0001
0010
0000
,
0001
0010
0100
0010
,
0001
1000
0010
1000
,
0001
0000
0000
1001
0000
0000
0000
0000
,
1000
0001
1001
0000
,
0001
0010
0100
0010
,
0001
0000
0000
1000
0000
0000
0001
0000
,
0100
0010
0100
0001
,
1000
0000
0000
0100
0000
0000
0010
0000
,
0001
0000
0100
0000
0010
0100
0010
0000
,
1000
0000
0000
0010
0000
0000
0001
0000
,
0100
1000
0001
1000
,
1010
0000
0000
0101
0000
0000
1100
0000
,
0011
0000
0000
0000
;

//--------------- dance-single - Fred-104 ----------------
#NOTES:
     dance-single:
     Fred-104:
     Medium:
     10:
     :
0000
0000
0000
0000
,
0000
0000
0000
0000
,
0000
0000
0000
0000
,
0000
0000
0000
0000
,
0000
0000
0000
0000
,
1000
0010
0100
0000
0010
0000
1000
0000
,
0100
0000
0000
0010
0000
0000
0001
0000
0000
1000
0000
0000
0001
0000
0000
0000
,
0100
0010
0100
0000
0001
0000
1000
0000
,
0001
0000
0000
1000
0000
0000
1001
0000
0000
0000
0000
0000
0001
0000
0000
0000
,
1000
0010
0100
0001
,
0010
0000
0001
0010
0001
0000
1000
0000
,
0001
0000
0100
0010
0000
1000
0010
0000
,
2000
3100
0002
0013
,
1000
0010
1000
0100
,
0010
0000
0001
0010
0001
0000
0100
0000
,
0002
0013
2000
3100
,
0001
1000
0010
0000
0100
0000
0010
0000
,
1001
0000
1000
0000
0100
1000
0000
0010
,
0000
1000
0100
0000
0010
0000
0010
0000
,
0001
0100
0001
0000
0010
0000
0001
0100
,
0000
0010
0100
0001
0100
0000
0010
0000
,
1000
0000
0100
1000
0100
0000
1000
0001
,
0000
0100
0010
0100
0001
0000
1000
0000
,
0002
0023
0230
2300
,
3001
0100
0010
0000
1000
0100
0010
0000
,
0001
2002
0000
0000
0000
0000
3003
0000
,
1000
0000
0000
1000
0000
0000
0100
0000
0010
0000
0000
0010
0000
0000
0001
0000
,
0100
0000
0000
0010
0000
0000
0100
0000
0001
0000
0000
0000
1000
0000
0100
0000
,
1000
0000
0000
0001
0000
0000
0010
0000
0001
0000
0000
0100
0000
0000
0010
0000
,
0100
0000
0000
0001
0000
0000
0010
0000
0100
0000
0000
0000
1000
0000
0000
0000
,
0001
0000
0000
0100
0000
0000
0010
0000
1000
0000
0000
0000
0100
0000
0000
0000
,
0010
0000
0001
1000
0000
0100
1000
0001
,
0100
0000
0010
0200
0000
0000
0000
0000
,
0301
0100
0001
0000
1000
0010
1000
0000
,
0001
0000
0000
0010
0000
0000
0001
0000
0010
0000
0100
0000
0010
0000
0000
0000
,
0001
0000
0000
1000
0000
0000
0010
0000
1000
0000
0100
0000
0010
0000
0000
0000
,
0001
0000
0000
0100
0000
0000
0010
0000
0100
0000
0000
1000
0000
0000
0100
0000
,
0010
0000
0000
0100
0000
0000
0001
0000
0000
0000
1000
0000
0001
0000
0000
0000
,
1000
0100
0010
0100
1000
0000
0010
0000
,
0100
0001
0010
0001
0100
0000
0001
0000
,
0010
0100
1000
0000
0001
1000
0010
0000
,
1000
0000
0000
0001
0000
0000
2002
0000
0000
0000
0000
0000
3003
0000
0000
0000
,
0200
1000
0010
1000
,
0001
0000
1000
0000
0310
0000
0100
0001
,
0020
0001
1000
0001
,
0100
0000
0001
0000
1030
0000
0010
1000
,
0001
0000
0000
0010
0000
0000
0100
0000
0000
1000
0000
0000
0001
0000
1000
0000
,
0100
0000
0000
0010
0000
0000
0100
0000
0000
1000
0000
0000
0010
0000
0100
0000
,
0002
0023
0230
2300
,
3001
0010
0001
0010
0100
1000
0100
1000
,
0001
1001
0000
0000
0000
0000
0000
0000
,
1100
0000
0000
0000
,
0000
0000
0000
0000
,
0011
0011
0000
0000
0000
0000
0000
1010
,
0000
0101
0000
0110
0000
0001
1000
0001
,
0200
0000
0000
0010
0000
0000
0320
0000
0000
0000
2030
0000
0000
0000
3200
0000
,
0320
0000
0000
0001
0000
0000
0032
0000
0000
0000
0203
0000
0000
0000
2300
0000
,
3020
0000
0000
0001
0000
0000
0032
0000
0000
0000
0000
0000
0003
0000
0000
0000
,
0002
0023
2030
3200
,
0301
0000
0000
0010
0000
0000
0100
0000
0010
0000
0001
0000
1000
0000
0010
0000
,
0100
0000
0000
0001
0000
0000
0010
0000
0100
0000
1000
0000
0001
0000
0000
0000
,
1000
0000
0000
0100
0000
0000
0010
0000
0100
0000
0000
0001
0000
0000
0100
0000
,
0010
0000
0000
0100
0000
0000
1000
0000
0000
0000
0001
0000
1000
0000
0010
0000
,
1000
0100
0010
0001
0010
0100
1000
0000
,
0001
0100
0010
1000
0010
0100
0001
0000
,
1000
0000
0000
0100
0000
0000
0110
0000
0000
0000
0010
0000
0001
0000
1000
0000
,
0001
0000
0000
0011
0000
0000
2002
0000
0000
0000
0000
0000
3003
0000
0000
0000
,
1000
0000
0010
0000
0100
0000
0001
0000
0010
0000
0000
0001
0000
0000
1000
0000
,
0001
0000
0000
0010
0000
0000
0010
0000
0000
1000
0000
0000
0100
0000
0100
0000
,
0001
1000
0100
0010
0001
0100
0010
1000
,
0100
0000
1000
0010
0000
0100
0010
0000
0000
1000
0000
0000
0100
0000
0010
0000
,
0001
0000
1000
0000
0100
0000
1000
0000
0010
0000
0000
0100
0000
0000
0001
0000
,
1000
0000
0000
0100
0000
0000
0100
0000
0000
0001
0000
0000
0010
0000
0010
0000
,
1000
0100
0010
0100
1000
0010
0100
0001
,
0101
0000
0000
0011
0000
0000
0110
0000
0000
0000
1000
0000
0100
0000
1000
0000
,
1001
0000
0000
0000
;

//--------------- dance-single - Fred-104 ----------------
#NOTES:
     dance-single:
     Fred-104:
     Hard:
     13:
     :
0000
0000
0000
0000
,
0000
0000
0000
0000
,
0000
0000
0000
0000
,
0000
0000
0000
0000
,
0000
0000
0000
0000
,
1000
0000
0100
0000
0010
0001
0000
0010
0001
0000
0100
0010
0000
0100
0001
0000
,
0200
0000
0000
0302
0000
0000
0023
0000
0000
0230
0000
0000
1300
0000
0010
0000
,
0100
0000
0001
0000
0010
0100
0000
1000
0100
0000
1000
0010
0000
0100
0001
0000
,
1000
0100
0000
1100
0000
0000
0110
0000
0000
0000
0010
0000
0001
0000
1000
0001
,
1000
0100
0010
0001
0100
0020
0000
0130
,
0001
0010
0100
0020
0000
0031
0100
1000
,
0200
0000
0301
0010
0000
0100
2000
0000
,
3001
0010
0000
0100
0000
1000
0010
0100
,
0001
0010
1000
0010
0001
0200
0000
0301
,
0100
1000
0100
0002
0000
1003
0100
0010
,
0001
0000
1000
0100
0000
0010
0100
1000
,
0010
0100
0001
0010
0011
0000
1001
0000
,
1100
0000
0110
0000
0010
0001
1000
0002
,
0000
0013
0100
0010
0011
0000
1010
0000
,
0010
0001
1000
0001
0200
0000
0301
0010
,
0000
0100
0010
0001
1001
0000
0110
0000
,
1001
0000
1000
0100
0010
0100
1000
0020
,
0000
0130
0010
1000
0010
0100
0002
0000
,
1003
0001
0100
0010
1000
0010
0100
0001
,
0010
0000
0100
1000
0100
0000
0010
0000
0001
1000
0001
0000
1000
0010
1000
0010
,
0100
0220
0000
0000
0000
0000
0330
0000
,
0001
0000
0010
0001
0000
0010
0001
0000
1000
0000
0010
1000
0000
0010
0100
0000
,
0001
0000
0010
0100
0000
1000
0010
0000
0200
0000
0000
0000
0301
0000
0010
0000
,
0001
0000
1000
0010
0000
1000
0100
0000
0010
0000
0001
0100
0000
0010
0100
0000
,
0001
0000
0100
0010
0000
1000
0001
0000
1000
0000
0100
0000
0010
0000
0000
0000
,
0002
0000
0000
0100
0000
0000
0103
0000
0110
0000
0000
0000
1010
0000
0000
0000
,
1000
0100
0010
0002
0000
1003
0100
0010
,
0001
0010
0100
2000
0000
0000
0000
0000
,
3001
0000
0100
0000
0010
0000
1000
0000
0001
1000
0001
1000
0001
0000
0000
0000
,
1000
0000
0000
0100
0000
0000
0020
0000
0000
0000
1030
0000
0010
0000
0001
0000
,
1000
0000
0000
0010
0000
0000
0200
0000
0000
0000
1300
0000
0100
0000
0001
0000
,
1000
0000
0000
1100
0000
0000
0010
0000
0001
0000
0000
0101
0000
0000
0010
0000
,
1000
0000
0000
1010
0000
0000
0200
0000
0000
0000
0301
0000
0010
0000
0100
0000
,
1000
0000
0100
0000
0010
0000
0100
0000
1000
0000
0001
0010
0001
0000
0000
0000
,
0100
0000
0010
0000
0100
0000
0001
0000
0010
0000
0100
1000
0100
0000
0000
0000
,
1000
0000
0000
0010
0000
0000
0100
0000
0001
0010
0001
0010
0001
0000
0000
0000
,
1100
0000
0000
0101
0000
0000
2002
0000
0000
0000
0000
0000
3003
0000
0000
0000
,
2000
0000
0000
3002
0000
0000
2003
0000
0000
3200
0000
0000
0320
0000
0000
0230
,
0000
0000
2300
0000
0000
3002
0000
0000
0203
0000
0000
0320
0000
0000
0230
0000
,
0302
0000
0000
0023
0000
0000
0230
0000
0000
2300
0000
0000
3020
0000
0000
0230
,
0000
0000
0302
0000
0000
2003
0000
0000
3200
0000
0000
0320
0000
0000
0032
0000
,
1003
0100
0000
1000
0100
0000
0010
0001
0000
0010
0001
0000
1000
0000
0010
0000
,
0100
0001
0000
0100
0001
0000
0010
0100
0000
0010
0100
0000
1000
0000
0001
0000
,
2000
3020
0032
0203
,
1300
0000
0010
0000
0100
0000
0001
0000
1000
0000
0100
0000
1000
0001
1000
0001
,
1000
1001
0000
0000
0000
0000
0000
0000
,
1100
0000
0000
0000
,
0000
0000
0000
0000
,
0101
1001
0000
0000
0000
0000
0000
1010
,
0000
0011
0000
1001
0000
0001
1000
0010
,
1000
0000
0000
0100
0000
0000
0020
0000
0000
0000
0100
0000
0000
0000
0031
0000
,
1000
0000
0000
0001
0000
0000
0200
0000
0000
0000
0010
0000
0000
0000
0301
0000
,
0100
0000
0000
0010
0000
0000
2002
0000
0000
0000
0000
0000
3003
0000
0000
0000
,
1000
0000
0100
0000
0010
0000
0001
0000
0100
0010
0100
0010
0200
0000
0000
0000
,
0301
0000
0000
0010
0000
0000
0100
0000
0010
0000
0001
0000
1000
0000
0010
0000
,
0100
0000
0000
0001
0000
0000
0010
0000
0001
0000
1000
0000
0010
0000
1000
0000
,
0100
0000
0000
0011
0000
0000
0001
0000
0100
0000
0000
1010
0000
0000
1000
0000
,
0001
0000
0000
0101
0000
0000
0020
0000
0000
0000
1030
0000
0100
0000
0010
0000
,
0001
0000
0010
0000
0100
0000
1000
0000
0001
0000
0100
0010
0100
0000
0000
0000
,
0010
0000
1000
0000
0100
0000
1000
0000
0010
0000
0100
0001
0100
0000
0010
0000
,
0100
0000
0000
0010
0000
0000
1000
0000
0001
1000
0001
1000
0001
0000
0000
0000
,
1100
0000
0000
0011
0000
0000
2002
0000
0000
0000
0000
0000
3003
0000
0000
0000
,
0001
0000
0010
0000
0001
0100
0000
0010
0100
0000
0001
0100
0000
0010
0100
0000
,
0002
0000
0000
0023
0000
0000
0230
0000
0000
2300
0000
0000
3010
0000
0100
0000
,
0010
0000
1000
0000
0100
1000
0000
0010
1000
0000
0100
1000
0000
0001
0100
0000
,
0020
0000
0000
2030
0000
0000
3200
0000
0000
0320
0000
0000
0031
0000
0100
0000
,
0001
0000
1000
0000
0100
1000
0000
0001
1000
0000
0100
1000
0000
0001
0010
0000
,
0002
0000
0000
2003
0000
0000
3020
0000
0000
0230
0000
0000
0301
0000
1000
0000
,
0100
0000
0010
0000
0001
0010
0000
0100
1000
0000
0001
0100
0000
0010
1000
0000
,
0001
0100
0000
0101
0000
0000
0110
0000
0000
0000
0010
0000
1000
0000
0001
1000
,
0001
0000
0000
0000
;

//--------------- dance-single - Fred-104 ----------------
#NOTES:
     dance-single:
     Fred-104:
     Challenge:
     16:
     :
0000
0000
0000
0000
,
0000
0000
0000
0000
,
0000
0000
0000
0000
,
0000
0000
0000
0000
,
0000
0000
0000
1010
,
0001
0100
0001
0000
1000
0010
0000
0010
0100
0000
0100
0001
0000
0001
1000
0010
,
2000
0000
0000
3200
0000
0000
0320
0000
0000
2030
0000
0000
3010
0000
0100
0000
,
1000
0010
0100
0000
0001
0010
0000
0010
0100
0000
0100
1000
0000
1000
0001
0100
,
0001
0010
0000
0110
0000
0000
1100
0000
0000
0000
1000
0000
0100
0000
0010
0001
,
0100
0010
0001
0010
1000
0002
0000
0103
,
1000
0100
0010
2000
0000
3100
0010
0001
,
1000
0001
0100
0020
0000
1030
1010
0000
,
0001
0000
0100
0010
0100
0000
0001
0000
1000
0000
0100
0010
0100
0000
1000
0000
,
0001
0100
0010
0001
0010
2000
0000
3001
,
1000
0100
0001
0200
0000
0310
0001
1000
,
0001
0010
0100
0001
1000
0010
0100
1000
,
0001
1000
0001
0100
0010
1000
1001
0000
,
1100
0000
0000
0000
0110
0000
0000
0000
0001
0000
0100
0010
0100
0000
0001
0000
,
1000
0000
0100
0010
0100
0000
0010
0000
0011
0000
0000
0000
1010
0000
0000
0000
,
0001
0000
0100
0010
0100
0000
0001
0000
1000
0000
0000
0000
0001
0000
1000
0100
,
1000
0000
0010
1000
0010
0000
0100
0000
0001
0100
0010
0100
0001
0000
1000
0000
,
1001
0000
0000
0000
0001
0000
0100
0010
0100
0000
0001
0000
1000
0000
0020
0000
,
0000
0000
0031
0000
0010
0000
0100
0000
0002
0000
1003
0001
2000
0000
0000
0000
,
3001
0100
0010
0100
0001
1000
0010
1000
,
0001
0010
0001
0010
0100
1000
0100
1000
0001
0010
0001
0010
0100
1000
0001
0010
,
0100
2200
0000
0000
0000
0000
3300
0000
,
1000
0000
0010
0100
0000
0010
1000
0000
0001
0000
0010
0100
0000
0010
0001
0000
,
1000
0000
0001
0100
0000
0001
1000
0000
0001
0000
0100
0000
0100
0000
0100
0000
,
0001
0000
1000
0100
0000
0010
0001
0000
1000
0000
0001
0100
0000
0010
1000
0000
,
0001
0000
1000
0001
0000
0100
0010
0000
1000
0000
0100
0000
0100
0000
0100
0000
,
1000
0100
0000
0010
0001
0000
0100
0000
0001
0000
0000
0000
0110
0000
0000
0000
,
0001
0000
0010
0100
0001
0000
0200
0000
0000
0000
1300
0001
0010
0000
0001
0000
,
1000
0000
0100
0010
0001
0000
2000
0000
0000
0000
0000
0000
0000
0000
0000
0000
,
3001
1000
0001
1000
0100
0010
0100
0010
0001
1000
0001
1000
0100
0010
0001
1000
,
0001
0000
1000
0100
0000
0100
0010
0000
0001
0000
1000
0000
0010
0000
0100
0000
,
0001
0000
0010
0100
0000
0100
1000
0000
0001
0000
0100
0000
0010
0000
1000
0000
,
1001
0000
1000
0100
0000
0100
0001
0000
1001
0000
0001
0100
0000
0100
1000
0000
,
1001
0000
1000
0100
0000
0100
0001
0000
1001
0000
0001
0000
0100
0000
0010
0000
,
1000
0100
0010
0100
1000
0100
0010
0100
1000
0000
0010
0000
0100
0000
0001
0000
,
0010
0001
0100
0001
0010
0001
0100
0001
0010
0000
0001
0000
0100
0000
0010
0000
,
1000
0000
0010
0100
0010
0000
1000
0100
1000
0001
0100
0001
1000
0100
1000
0000
,
1100
0000
0000
0101
0000
0000
2002
0000
0000
0000
0000
0000
3003
0000
0000
0000
,
0002
0000
0000
0023
0000
0000
0230
0000
0000
2300
0000
0000
3020
0000
0000
0230
,
0000
0000
0302
0000
0000
2003
0000
0000
3002
0000
0000
0023
0000
0000
0230
0320
,
0032
0000
0000
0203
0000
0000
2300
0000
0000
3200
0000
0000
0302
0000
0000
0023
,
0000
0000
2030
0000
0000
3020
0000
0000
0032
0000
0000
2003
0000
0000
3001
0100
,
0001
0010
0000
0100
1000
0000
0001
0100
0000
0010
1000
0000
0001
0010
0100
0010
,
0001
0100
0000
0010
1000
0000
0001
1000
0000
0100
0010
0000
0001
0100
0010
0100
,
0001
1000
0001
1000
0100
1000
0100
1000
0001
0010
0001
0010
0100
0010
0100
0010
,
0001
1000
0100
0010
0001
0100
0010
1000
0010
0100
0001
0010
0100
1000
0010
1000
,
0001
1001
0000
0000
0000
0000
0000
0000
,
1001
0000
0000
0000
,
0000
0000
0000
0000
,
0110
1001
0000
0000
0000
0000
0000
1010
,
0000
0000
0000
0011
0000
0000
0000
0000
0000
0101
0000
0000
0000
0000
0000
1100
0000
0000
0001
0000
0000
1000
0100
1000
,
0020
0000
0000
1000
0000
0000
1000
0000
0000
0000
0001
0000
0000
0000
1030
0000
,
0200
0000
0000
1000
0000
0000
1000
0000
0000
0000
0010
0000
0000
0000
1300
0000
,
1100
0000
0000
0011
0000
0000
2002
0000
0000
0000
0000
0000
3003
0000
0000
0000
,
1000
0010
1000
0010
0100
0001
0100
0001
1000
0010
0100
0001
2000
0000
0000
0000
,
3001
0000
0010
0100
0000
0010
0001
0000
1000
0000
0010
0100
0001
0000
1000
0000
,
0001
0000
0010
0100
0000
1000
0010
0000
0100
0000
0001
1000
0100
0000
0010
0000
,
0011
0000
0001
0100
0000
0100
0010
0000
1010
0000
1000
0100
0000
0100
0010
0000
,
0011
0000
0001
0100
0000
0010
1000
0000
0001
0000
0010
0100
1000
0000
1000
0000
,
0001
0010
0100
0010
0001
0010
0100
0010
0001
0000
0010
0000
0001
0000
1000
0000
,
0010
0100
0001
0100
0010
0100
0001
0100
0010
0000
1000
0000
0001
0000
1000
0000
,
0001
0000
0000
1000
0000
0000
0100
0000
1000
0100
0010
0001
1000
0000
0001
0000
,
1001
0000
0000
1010
0000
0000
0101
0000
0001
0000
0100
0010
0200
0000
0000
0000
,
0301
0100
0010
0000
1000
0100
0000
0010
0001
0000
0100
0010
0000
1000
0010
0100
,
0002
0000
0000
0203
0000
0000
2300
0000
0000
3020
0000
0000
0031
0000
0010
0000
,
0001
0100
0010
0000
1000
0100
0000
0010
0001
0000
1000
0010
0000
0100
0001
1000
,
0001
0000
1000
0010
0000
0010
0100
0000
0001
0010
0000
0010
0100
0000
1000
0001
,
1000
0100
0010
0000
0001
0010
0000
0100
1000
0000
0001
0100
0000
0010
1000
0001
,
1000
0100
0000
0001
0100
0000
1000
0010
0000
0001
0010
0000
1000
0000
0001
0000
,
1000
0010
1000
0010
0100
0001
0100
0001
0010
0100
0010
0100
1000
0001
0010
0100
,
1000
0010
0000
0110
0000
0000
0101
0000
0000
0000
1001
0000
1000
0000
0010
0100
,
0001
0000
0000
0000
;

//--------------- dance-double - Fred-104 ----------------
#NOTES:
     dance-double:
     Fred-104:
     Easy:
     6:
     :
00000000
00000000
00000000
00000000
,
00000000
00000000
00000000
00000000
,
00000000
00000000
00000000
00000000
,
00000000
00000000
00000000
00000000
,
00000000
00000000
00000000
00000000
,
10000000
01000000
10000000
00000000
,
00200000
00000000
02300000
00000000
,
03000000
00100000
00001000
00010000
,
00001000
00000000
00000000
00010000
00000000
00000000
00001000
00000000
,
00011000
00000000
00010000
00000000
,
00000100
00000000
00001000
00000000
,
00000001
00000000
00000100
00000000
,
00000010
00000000
00001000
00000000
,
00000001
00000000
00000010
00000000
,
00001000
00000000
00010000
00000000
,
00100000
00000000
10000000
00000000
,
01000000
00000000
00010000
00001000
,
00011000
00000000
00001000
00000000
,
00010000
00000100
00001000
00000000
,
00000010
00000000
00000100
00000000
,
00000001
00000010
00000100
00000000
,
00000010
00000000
00000001
00000000
,
00001000
00000010
00010000
00000000
,
00001000
00100000
00010000
00000000
,
10000000
00100000
01000000
00000000
,
10010000
00000000
00000000
00000000
,
20000000
30000000
00020000
00030000
,
02000000
03100000
02000000
03001000
,
00020000
00030000
00002000
00003000
,
00010000
00001000
00011000
00000000
,
00010000
00001000
00000010
00000000
,
00001000
00010000
00100000
00000000
,
00010000
00001000
00020000
00000000
,
00031000
00001000
00010000
00010000
,
00001000
00000000
00010000
00000100
,
00000010
00000000
00000001
00001000
,
00000001
00000000
00001000
00000000
,
00000010
00010000
00011000
00000000
,
00001000
00010000
01000000
00010000
,
00001000
00000100
00001000
00010000
,
01000000
10000000
01000000
00010000
,
10000000
00000000
00000000
10010000
00000000
00000000
00000000
00000000
,
20000000
00000000
30200000
00000000
,
20300000
00000000
30200000
02300000
,
03020000
00000000
02030000
00000000
,
03002000
00000000
00023000
00032000
,
00013000
00000000
00000000
00000100
00000000
00000000
00001000
00000000
,
00000001
00000000
00000000
00000100
00000000
00000000
00000010
00000000
,
00001000
00010000
00001000
00010000
,
00100000
10000000
00010000
10000000
,
10010000
00000000
00000000
00000000
,
00011000
00000000
00000000
00000000
,
00000000
00000000
00000000
00000000
,
00001001
00000000
00000000
00000000
,
00000001
00001000
00000001
00000000
,
00000200
00000000
00000310
00001000
,
00000200
00000000
00010300
00001000
,
00010000
00000000
00000000
00022000
00000000
00000000
00033000
00000000
,
00001000
00000000
00010000
00100000
,
10000000
00000000
00010000
01000000
,
10000000
00000000
00010000
00000000
,
10000000
01000000
00100000
00000000
,
00001000
00010000
00001000
00000000
,
00010000
00000010
00001000
00000000
,
00000010
00000100
00000001
00001000
,
00000001
00000000
00000000
00001001
00000000
00000000
00000000
00000000
,
00000100
00010000
00011000
00000000
,
00001000
00010000
00100000
00010000
,
00001000
00000000
00000000
00100000
00000000
00000000
00010000
00000000
,
10000000
01000000
00010000
01000000
,
10000000
00000000
00000000
00100000
00000000
00000000
01000000
00000000
,
00010000
00000000
00100000
00000000
00001000
00010000
00001000
00000000
,
00100000
00000000
00000000
00001000
00000000
00000000
00010000
00000000
,
00000100
00001000
00000001
00000100
,
00001001
00000000
00000000
00000110
00000000
00000000
00000100
00000000
,
00001001
00000000
00000000
00000000
;

//--------------- dance-double - Fred-104 ----------------
#NOTES:
     dance-double:
     Fred-104:
     Medium:
     11:
     :
00000000
00000000
00000000
00000000
,
00000000
00000000
00000000
00000000
,
00000000
00000000
00000000
00000000
,
00000000
00000000
00000000
00000000
,
00000000
00000000
00000000
00000000
,
00010000
00001000
00000010
00000000
00001000
00000000
00010000
00000000
,
00001000
00000000
00000000
00000100
00000000
00000000
00001000
00000000
00000000
00010000
00000000
00000000
01000000
00000000
00000000
00000000
,
00010000
00001000
00010000
00000000
00100000
00000000
00010000
00000000
,
00001000
00000000
00000000
00010000
00000000
00000000
00011000
00000000
00000000
00000000
00000000
00000000
00000010
00000000
00000000
00000000
,
00001000
00000001
00000100
00000010
,
00001000
00000000
00000001
00000100
00000001
00000000
00000010
00000000
,
00000100
00000000
00010000
00001000
00000000
00010000
00001000
00000000
,
00020000
01030000
00002000
00003100
,
00010000
00001000
00010000
01000000
,
00100000
00000000
01000000
00010000
01000000
00000000
00100000
00000000
,
20000000
30100000
00020000
01030000
,
10000000
00100000
01000000
00000000
00100000
00000000
10000000
00000000
,
10010000
00000000
00010000
00000000
10000000
01000000
00000000
00100000
,
00000000
00001000
00010000
00000000
00001000
00000000
00001000
00000000
,
00010000
00000100
00010000
00000000
00001000
00000000
00010000
00000010
,
00000000
00001000
00000001
00000100
00000001
00000000
00001000
00000000
,
00000100
00000000
00000010
00000001
00000010
00000000
00000001
00000100
,
00000000
00000010
00001000
00000010
00000100
00000000
00000001
00000000
,
00002000
00003020
00000032
00000203
,
00001300
00010000
00000100
00000000
00000010
00000001
00001000
00000000
,
00000001
00002002
00000000
00000000
00000000
00000000
00003003
00000000
,
00010000
00000000
00000000
00001000
00000000
00000000
00010000
00000000
00001000
00000000
00000000
00100000
00000000
00000000
00010000
00000000
,
10000000
00000000
00000000
00100000
00000000
00000000
01000000
00000000
00010000
00000000
00000000
00000000
10000000
00000000
01000000
00000000
,
00100000
00000000
00000000
01000000
00000000
00000000
00001000
00000000
00010000
00000000
00000000
00000100
00000000
00000000
00010000
00000000
,
00001000
00000000
00000000
00010000
00000000
00000000
00000010
00000000
00001000
00000000
00000000
00000000
00000100
00000000
00000000
00000000
,
00010000
00000000
00000000
00001000
00000000
00000000
00100000
00000000
00010000
00000000
00000000
00000000
01000000
00000000
00000000
00000000
,
00100000
00000000
10000000
01000000
00000000
00010000
01000000
10000000
,
00100000
00000000
01000000
00002000
00000000
00000000
00000000
00000000
,
00013000
00001000
00000010
00000000
00000100
00000001
00001000
00000000
,
00000001
00000000
00000000
00000010
00000000
00000000
00001000
00000000
00010000
00000000
01000000
00000000
10000000
00000000
00000000
00000000
,
10000000
00000000
00000000
00100000
00000000
00000000
00010000
00000000
00001000
00000000
00000100
00000000
00000001
00000000
00000000
00000000
,
00000010
00000000
00000000
00001000
00000000
00000000
00100000
00000000
01000000
00000000
00000000
00010000
00000000
00000000
00000100
00000000
,
00000010
00000000
00000000
00010000
00000000
00000000
00100000
00000000
00000000
00000000
01000000
00000000
00001000
00000000
00000000
00000000
,
00010000
00001000
01000000
00010000
00100000
00000000
01000000
00000000
,
10000000
00100000
00010000
00100000
01000000
00000000
00010000
00000000
,
10000000
01000000
00010000
00000000
00001000
00000010
00000001
00000000
,
00000100
00000000
00000000
00000010
00000000
00000000
00002002
00000000
00000000
00000000
00000000
00000000
00003003
00000000
00000000
00000000
,
00002000
00000000
00000000
00003200
00000000
00000000
00000302
00000000
00000000
00000203
00000000
00000000
00020300
00000000
00000000
00032000
,
00000000
00000000
02003000
00000000
00000000
23000000
00000000
00000000
32000000
00000000
00000000
03002000
00000000
00000000
00023000
00000000
,
00030020
00000000
00000000
00000032
00000000
00000000
00000023
00000000
00000000
00020030
00000000
00000000
00032000
00000000
00000000
00203000
,
00000000
00000000
20300000
00000000
00000000
30200000
00000000
00000000
00302000
00000000
00000000
00023000
00000000
00000000
00030200
00000000
,
00001300
00000000
00000000
00000100
00000000
00000000
00000010
00000000
00000000
00000001
00000000
00000000
00000100
00000000
00001000
00000000
,
00010000
00000000
00000000
00100000
00000000
00000000
10000000
00000000
00000000
00010000
00000000
00000000
01000000
00000000
00100000
00000000
,
02000000
03020000
20030000
30200000
,
01300000
00010000
00100000
00001000
00010000
00000010
00001000
00000100
,
00010000
00011000
00000000
00000000
00000000
00000000
00000000
00000000
,
00001001
00000000
00000000
00000000
,
00000000
00000000
00000000
00000000
,
00010100
00010100
00000000
00000000
00000000
00000000
00000000
01001000
,
00000000
00010100
00000000
00011000
00000000
00001000
00010000
00100000
,
02000000
00000000
00000000
00100000
00000000
00000000
03200000
00000000
00000000
00000000
00320000
00000000
00000000
00000000
02030000
00000000
,
03200000
00000000
00000000
10000000
00000000
00000000
20300000
00000000
00000000
00000000
32000000
00000000
00000000
00000000
03200000
00000000
,
00302000
00000000
00000000
00010000
00000000
00000000
00023000
00000000
00000000
00000000
00000000
00000000
00030000
00000000
00000000
00000000
,
00002000
00023000
00030200
00020300
,
00030100
00000000
00000000
00010000
00000000
00000000
01000000
00000000
00010000
00000000
00100000
00000000
01000000
00000000
00000000
00000000
,
00100000
00000000
00000000
00001000
00000000
00000000
00000010
00000000
00001000
00000000
00000100
00000000
00010000
00000000
00000000
00000000
,
00001000
00000000
00000000
00010000
00000000
00000000
00100000
00000000
10000000
00000000
00000000
01000000
00000000
00000000
00100000
00000000
,
00001000
00000000
00000000
00010000
00000000
00000000
00100000
00000000
00000000
00000000
10000000
00000000
00010000
00000000
10000000
00000000
,
01000000
00100000
00001000
00010000
00001000
00000010
00000001
00000000
,
00000010
00001000
00010000
00001000
00000100
00001000
00010000
00000000
,
01000000
00000000
00000000
10000000
00000000
00000000
11000000
00000000
00000000
00000000
00100000
00000000
01000000
00000000
00010000
00000000
,
01000000
00000000
00000000
01100000
00000000
00000000
20020000
00000000
00000000
00000000
00000000
00000000
30030000
00000000
00000000
00000000
,
10000000
00000000
00100000
00000000
00010000
00000000
00001000
00000000
00010000
00000000
00000000
00100000
00000000
00000000
00010000
00000000
,
00001000
00000000
00000000
00000100
00000000
00000000
00001000
00000000
00000000
00010000
00000000
00000000
01000000
00000000
00010000
00000000
,
00001000
00000010
00001000
00010000
00001000
00000010
00000001
00000010
,
00001000
00000000
00000000
00010000
00000000
00000000
00001000
00000000
00000000
00000100
00000000
00000000
00001000
00000000
00010000
00000000
,
01000000
00000000
00010000
00000000
00001000
00000000
00010000
00000000
00100000
00000000
00000000
00010000
00000000
00000000
00001000
00000000
,
00010000
00000000
00000000
01000000
00000000
00000000
10000000
00000000
00000000
01000000
00000000
00000000
00010000
00000000
00001000
00000000
,
00010000
00100000
00010000
00001000
00000010
00000001
00000010
00001000
,
00011000
00000000
00000000
00101000
00000000
00000000
00011000
00000000
00000000
00000000
00010000
00000000
01000000
00000000
10000000
00000000
,
10010000
00000000
00000000
00000000
;

//--------------- dance-double - Fred-104 ----------------
#NOTES:
     dance-double:
     Fred-104:
     Hard:
     14:
     :
00000000
00000000
00000000
00000000
,
00000000
00000000
00000000
00000000
,
00000000
00000000
00000000
00000000
,
00000000
00000000
00000000
00000000
,
00000000
00000000
00000000
00000000
,
00010000
00000100
00001000
00000100
00010000
00000100
00001000
00000100
,
00000010
00000000
00000000
00001000
00000000
00000000
00010000
00000000
00000000
00001000
00000000
00000000
00100000
00000000
00010000
00000000
,
01000000
00001000
00010000
00001000
00100000
00001000
00010000
00001000
,
01000000
00000000
00000000
00100000
00000000
00000000
01100000
00000000
00000000
00000000
00010000
00000000
10000000
00000000
00010000
01000000
,
00010000
00100000
01000000
00100000
00010000
00002000
00000000
00013000
,
00001000
00000100
00000010
00000200
00000000
00001300
00010000
00001000
,
00000200
00000000
00000301
00000100
00000000
00001000
00020000
00000000
,
00130000
10000000
00010000
10000000
01000000
00010000
00001000
00000000
,
00010000
00001000
00000010
00001000
00010000
00002000
00000000
00003100
,
00000001
00000100
00001000
00020000
00000000
00031000
00010000
01000000
,
00020000
00000000
00031000
00000100
00001000
00010000
00001000
00000010
,
00000001
00000100
00001000
00010000
00100000
10000000
10010000
00000000
,
10100000
00000000
01010000
00000000
10000000
01000000
00100000
00001000
,
00000000
00010000
00100000
00000000
10010000
00000000
01100000
00000000
,
01000000
00001000
00010000
00001000
00000010
00000000
00000001
00001000
,
00000000
00000100
00000010
00000100
00001000
00000000
00001001
00000000
,
00000110
00000000
00001001
00000000
00000001
00000100
00000010
00000100
,
00000000
00000001
00000010
00001000
00010000
01000000
10000000
00000000
,
00010000
01000000
00100000
01000000
00010000
10000000
01000000
00100000
,
00001000
00000000
00001000
00000000
00010000
00000000
00010000
00000000
00000100
00000000
00000100
00000000
00001000
00000010
00010000
00001000
,
00010000
00022000
00000000
00000000
00000000
00000000
00033000
00000000
,
00001000
00000000
00010000
00001000
00000000
00100000
00010000
00000000
10000000
00000000
00100000
01000000
00000000
00100000
10000000
00000000
,
01000000
00000000
00100000
00001000
00000000
00010000
00001000
00000000
00011000
00000000
00000000
00000000
00010000
00000000
00000100
00000000
,
00001000
00000000
00000001
00000100
00000000
00000010
00001000
00000000
00000100
00000000
00000010
00000001
00000000
00001000
00000010
00000000
,
00010000
00000000
00000010
00001000
00000000
00000100
00010000
00000000
00001000
00000000
00100000
00000000
00010000
00000000
00000000
00000000
,
02000000
00000000
00000000
00100000
00000000
00000000
13000000
00000000
11000000
00000000
00000000
00000000
01100000
00000000
00000000
00000000
,
00100000
00001000
00000010
00002000
00000000
00013000
00000100
00001000
,
00000001
00000100
00010000
00000200
00000000
00000000
00000000
00000000
,
00000301
00000010
00000100
00010000
00001000
00000100
00000001
00001000
,
00000001
00000000
00000000
00000100
00000000
00000000
00000010
00000000
00001000
00000000
00000100
00000000
00000010
00000000
00000001
00000000
,
00000100
00000000
00000000
00001000
00000000
00000000
00010000
00000000
00100000
00000000
10000000
00000000
00010000
00000000
10000000
00000000
,
00010000
00000000
00000000
01010000
00000000
00000000
00100000
00000000
10000000
00000000
00000000
11000000
00000000
00000000
00100000
00000000
,
00001000
00000000
00000000
00011000
00000000
00000000
00010000
00000000
00000000
00000000
00000100
00000000
00001000
00000000
00000010
00000000
,
00000100
00000000
00000001
00000000
00000010
00000000
00000001
00000000
00001000
00000000
00000010
00000100
00000010
00000000
00000000
00000000
,
00010000
00000000
00000100
00000000
00001000
00000000
00000100
00000000
00010000
00000000
00001000
01000000
00001000
00000000
00100000
00000000
,
00110000
00000000
00000000
10100000
00000000
00000000
00110000
00000000
00010000
00000000
01000000
00100000
01000000
00000000
00010000
00000000
,
11000000
00000000
00000000
00110000
00000000
00000000
02200000
00000000
00000000
00000000
00000000
00000000
03300000
00000000
00000000
00000000
,
00020000
00000000
00000000
00230000
00000000
00000000
02300000
00000000
00000000
03200000
00000000
00000000
00320000
00000000
00000000
00032000
,
00000000
00000000
00003020
00000000
00000000
00000230
00000000
00000000
00000320
00000000
00000000
00002030
00000000
00000000
00023000
00000000
,
00032000
00000000
00000000
00023000
00000000
00000000
00230000
00000000
00000000
02300000
00000000
00000000
03200000
00000000
00000000
00320000
,
00000000
00000000
00032000
00000000
00000000
00003020
00000000
00000000
00000230
00000000
00000000
00000320
00000000
00000000
00002030
00000000
,
00003100
00001000
00000000
00000100
00001000
00000000
00000001
00000100
00000000
00000001
00000100
00000000
00000010
00000000
00001000
00000000
,
00000001
00000010
00000000
00000001
00000010
00000000
00000100
00001000
00000000
00000100
00001000
00000000
00000100
00000000
00010000
00000000
,
00001000
00100000
00010000
10000000
00100000
01000000
00010000
10000000
,
11000000
00000000
00000000
00000000
01010000
00000000
00000000
00000000
00001000
00000000
00010000
00000000
00000010
00001000
00000010
00001000
,
00000001
00001001
00000000
00000000
00000000
00000000
00000000
00000000
,
00011000
00000000
00000000
00000000
,
00000000
00000000
00000000
00000000
,
00110000
00110000
00000000
00000000
00000000
00000000
00000000
11000000
,
00000000
00000000
01010000
00000000
00000000
00000000
11000000
00000000
00000000
00000000
10000000
00000000
00100000
00000000
01000000
00010000
,
02000000
00000000
00000000
03002000
00000000
00000000
00023000
00000000
00000000
00000000
00030100
00000000
00000000
00000000
00001000
00000000
,
00000002
00000000
00000000
00000023
00000000
00000000
00000230
00000000
00000000
00000000
00000310
00000000
00000000
00000000
00000001
00000000
,
00001000
00000000
00000000
00000010
00000000
00000000
00000220
00000000
00000000
00000000
00000000
00000000
00000330
00000000
00000000
00000000
,
00000001
00000010
00000001
00000010
00000100
00001000
00000100
00001000
00000001
00001000
00000001
00001000
00000002
00000000
00000000
00000000
,
00001003
00000000
00000000
00000010
00000000
00000000
00000001
00000000
00000010
00000000
00000100
00000000
00000001
00000000
00001000
00000000
,
00000010
00000000
00000000
00010000
00000000
00000000
00001000
00000000
00010000
00000000
00000100
00000000
00010000
00000000
00001000
00000000
,
00100000
00000000
00000000
00010000
00000000
00000000
01000000
00000000
10000000
00000000
00000000
01000000
00000000
00000000
00010000
00000000
,
10000000
00000000
00000000
01000000
00000000
00000000
00100000
00000000
00001000
00000000
00010000
00001000
00010000
00000000
00000000
00000000
,
00000100
00000000
00001000
00000000
00000001
00000000
00000100
00000000
00000010
00000000
00001000
00000100
00001000
00000000
00000000
00000000
,
00000100
00000000
00000010
00000000
00000001
00000000
00000100
00000000
00001000
00000000
00010000
00001000
00010000
00000000
00100000
00000000
,
10000000
00000000
00000000
11000000
00000000
00000000
01100000
00000000
00100000
00000000
00001000
00000000
00010000
00000000
00001000
00000000
,
00001010
00000000
00000000
00000001
00000000
00000000
00001000
00000000
00002200
00000000
00000000
00000000
00003300
00000000
00000000
00000000
,
00000001
00000010
00001000
00010000
00001000
00000010
00001000
00010000
,
01000000
00000000
00000000
10000000
00000000
00000000
01000000
00000000
00000000
00010000
00000000
00000000
00100000
00000000
01000000
00000000
,
10000000
01000000
00010000
00001000
00010000
00100000
00010000
00001000
,
00000010
00000000
00000000
00000001
00000000
00000000
00001000
00000000
00000000
00000001
00000000
00000000
00000100
00000000
00000010
00000000
,
00001000
00000000
00000100
00000000
00001000
00000010
00000000
00000100
00000010
00000000
00001000
00000001
00000000
00000010
00000001
00000000
,
00000100
00000000
00000000
00000010
00000000
00000000
00001000
00000000
00000000
00000100
00000000
00000000
00010000
00000000
00001000
00000000
,
00100000
00000000
00010000
00000000
10000000
00100000
00000000
01000000
00010000
00000000
10000000
01000000
00000000
00100000
00001000
00000000
,
00010000
00001000
00000000
00011000
00000000
00000000
00001010
00000000
00000000
00000000
00010000
00000000
00000100
00000000
00010000
00001000
,
00010000
00000000
00000000
00000000
;

//--------------- dance-double - Fred-104 ----------------
#NOTES:
     dance-double:
     Fred-104:
     Challenge:
     16:
     :
00000000
00000000
00000000
00000000
,
00000000
00000000
00000000
00000000
,
00000000
00000000
00000000
00000000
,
00000000
00000000
00000000
00000000
,
00000000
00000000
00000000
00011000
,
00010000
01000000
00100000
00000000
10000000
00100000
00000000
01000000
00100000
00000000
10000000
00100000
00000000
01000000
00000000
00100000
,
20000000
00000000
00000000
32000000
00000000
00000000
03200000
00000000
00000000
00302000
00000000
00000000
00013000
00000000
00000100
00000000
,
00001000
00000010
00001000
00000000
00000001
00000010
00000000
00000001
00001000
00000000
00000010
00000100
00000000
00000001
00000100
00000001
,
00001000
00000100
00000000
00000010
00000000
00000000
00000110
00000000
00000000
00000000
00000001
00000000
00000100
00000000
00000010
00001000
,
00000001
00000100
00001000
00010000
00100000
20000000
00000000
31000000
,
00010000
00001000
00010000
00200000
00000000
10300000
01000000
00010000
,
00001000
00000010
00000001
00000100
00000000
00001000
00010000
00000000
,
00002000
00000010
00023000
00100000
,
00031000
00010000
00000010
00001000
00000100
00020000
00000000
00031000
,
00010000
00100000
10000000
02000000
00000000
03010000
00001000
00000010
,
00000001
00000100
00001000
00020000
00000000
00130000
10000000
00010000
,
10000000
01000000
00100000
00001000
00011000
00000000
00000110
00000000
,
00000100
00000000
00000000
00000000
00001001
00000000
00000000
00000000
00001000
00000000
00000001
00000100
00000001
00000000
00000010
00000000
,
00000100
00000000
00010000
00001000
00010000
00000000
00001000
00000000
00101000
00000000
00000000
00000000
00010010
00000000
00000000
00000000
,
00001000
00000000
00010000
00100000
00010000
00000000
00100000
00000000
10000000
00000000
00000000
00000000
00010000
00000000
10000000
00000000
,
01000000
00000000
00100000
00010000
00100000
00000000
00001000
00000000
00010000
00001000
00010000
00001000
00010000
00000000
00000100
00000000
,
00001100
00000000
00000000
00000000
00000001
00000000
00000100
00000010
00000100
00000000
00000001
00000000
00000010
00000000
00002000
00000000
,
00000000
00003010
00000001
00000100
00002000
00000000
00023000
00000000
,
00130000
10000000
00010000
10000000
01000000
00100000
00010000
01000000
,
00001000
00100000
00001000
00000000
00010000
00000100
00010000
00000000
00000100
00001000
00000100
00001000
00000001
00000100
00000010
00001000
,
00000001
00002002
00000000
00000000
00000000
00000000
00003003
00000000
,
00001001
00000000
00000001
00000010
00000000
00000010
00001000
00000000
00011000
00000000
00010000
01000000
00000000
01000000
10000000
00000000
,
10010000
00000000
10000000
00100000
00000000
00100000
00010000
00000000
00001000
00000000
00000100
00000000
00000001
00000000
00001000
00000000
,
00001001
00000000
00000001
00000100
00000000
00000100
00001000
00000000
00011000
00000000
00010000
00100000
00000000
00100000
10000000
00000000
,
10010000
00000000
10000000
01000000
00000000
01000000
00010000
00000000
00001000
00000000
00000010
00000000
00000001
00000000
00001000
00000000
,
00000001
00000010
00000000
00000100
00010000
00000000
00001000
00000000
00011000
00000000
00000000
00000000
00101000
00000000
00000000
00000000
,
00001000
00000000
00100000
00010000
10000000
00000000
00200000
00000000
00000000
00000000
01300000
00010000
00100000
00000000
01000000
00000000
,
00100000
00000000
00001000
00010000
00000100
00000000
00000020
00000000
00000000
00000000
00000000
00000000
00000000
00000000
00000000
00000000
,
00000031
00000010
00000001
00000010
00000100
00001000
00000100
00001000
00000001
00000010
00000100
00001000
00000100
00010000
00001000
00010000
,
00002000
00000000
00000000
00010000
00000000
00000000
00013000
00000000
00001000
00000000
00100000
00010000
10000000
00000000
00100000
00000000
,
02000000
00000000
00000000
00100000
00000000
00000000
03100000
00000000
10000000
00000000
01000000
00100000
00010000
00000000
01000000
00000000
,
01010000
00000000
00000000
00100000
00000000
00000000
00001000
00000000
00001010
00000000
00000000
00000001
00000000
00000000
00001000
00000000
,
00001100
00000000
00000000
00010000
00000000
00000000
00001000
00000000
01000000
00000000
00100000
10000000
00100000
00000000
10000000
00000000
,
00010000
00100000
01000000
00100000
00010000
00100000
01000000
00100000
00010000
00000000
00001000
00000000
00000100
00000000
00000010
00000000
,
00000100
00001000
00000010
00001000
00000100
00001000
00000010
00001000
00000100
00000000
00010000
00000000
00001000
00000000
00100000
00000000
,
00010000
00000000
01000000
00100000
00000000
10000000
00100000
00000000
01000000
00010000
10000000
00010000
01000000
00000000
00100000
00000000
,
10100000
00000000
00000000
01010000
00000000
00000000
00022000
00000000
00000000
00000000
00000000
00000000
00033000
00000000
00000000
00000000
,
00002000
00000000
00000000
00003200
00000000
00000000
00000320
00000000
00000000
00000032
00000000
00000000
00000203
00000000
00000000
00002300
,
00000000
00000000
00003200
00000000
00000000
00000302
00000000
00000000
00000023
00000000
00000000
00000230
00000000
00000000
00010300
00001000
,
00020000
00000000
00000000
00032000
00000000
00000000
00203000
00000000
00000000
02300000
00000000
00000000
23000000
00000000
00000000
30020000
,
00000000
00000000
02030000
00000000
00000000
23000000
00000000
00000000
32000000
00000000
00000000
03200000
00000000
00000000
10300000
01000000
,
00100000
00010000
00000000
00010000
01000000
00000000
01000000
00100000
00000000
00100000
10000000
00000000
01000000
00100000
00001000
00010000
,
00001000
00010000
00000000
00010000
00000100
00000000
00000100
00001000
00000000
00001000
00000010
00000000
00000010
00000100
00000001
00000100
,
00000001
00000010
00000001
00000000
00001000
00000010
00001000
00000000
00000100
00010000
00000100
00000000
00010000
00001000
00010000
00000000
,
00001000
00100000
00001000
00100000
00010000
01000000
00010000
01000000
00100000
10000000
00100000
10000000
01000000
00100000
00010000
00100000
,
00001000
00011000
00000000
00000000
00000000
00000000
00000000
00000000
,
00001001
00000000
00000000
00000000
,
00000000
00000000
00000000
00000000
,
00011000
00011000
00000000
00000000
00000000
00000000
00000000
10010000
,
00000000
00000000
00000000
01100000
00000000
00000000
00000000
00000000
00000000
10010000
00000000
00000000
00000000
00000000
00000000
00010000
00000000
00000000
01000000
00000000
00000000
00100000
10000000
00100000
,
20000000
00000000
00000000
32000000
00000000
00000000
03020000
00000000
00000000
00000000
00032000
00000000
00000000
00000000
00003020
00000000
,
00000032
00000000
00000000
00000203
00000000
00000000
00002300
00000000
00000000
00000000
00023000
00000000
00000000
00000000
00230000
00000000
,
10300000
00000000
00000000
01000000
00000000
00000000
02200000
00000000
00000000
00000000
00000000
00000000
03300000
00000000
00000000
00000000
,
01000000
00100000
01000000
00100000
00010000
00001000
00010000
00001000
00000100
00000010
00000100
00000010
00000200
00000000
00000000
00000000
,
00001300
00000000
00000010
00000100
00000000
00000010
00001000
00000000
00000001
00000000
00000100
00001000
00000100
00000000
00000010
00000000
,
00001000
00000000
00000100
00000010
00000000
00000001
00001000
00000000
00000010
00000000
00010000
00001000
00010000
00000000
00001000
00000000
,
00101000
00000000
00001000
00010000
00000000
00010000
00100000
00000000
10100000
00000000
10000000
01000000
00000000
01000000
00010000
00000000
,
00011000
00000000
00001000
00000010
00000000
00000010
00000001
00000000
00001000
00000000
00000001
00000100
00000010
00000000
00001000
00000000
,
00000010
00000100
00000001
00000100
00000010
00000100
00000001
00000100
00000010
00000000
00001000
00000000
00010000
00000000
00000000
00000000
,
01000000
00100000
10000000
00100000
01000000
00100000
10000000
00100000
01000000
00000000
00010000
00000000
10000000
00000000
00000000
00000000
,
00010000
00000000
00000000
00100000
00000000
00000000
01000000
00000000
00001000
00010000
00001000
00010000
00001000
00000000
00000010
00000000
,
00000110
00000000
00000000
00000101
00000000
00000000
00000110
00000000
00000010
00000000
00001000
00000001
00002000
00000000
00000000
00000000
,
00003001
00000100
00000010
00000000
00001000
00000100
00000000
00000100
00010000
00000000
00010000
00001000
00000000
00001000
00100000
00010000
,
10000000
01000000
00000000
00100000
01000000
00000000
10000000
00100000
00000000
01000000
00100000
00000000
10000000
00000000
01000000
00000000
,
00100000
00001000
00100000
00000000
00001000
00010000
00000000
00010000
00000100
00000000
00000100
00001000
00000000
00001000
00000010
00000100
,
00000001
00000000
00001000
00000100
00000000
00000010
00000001
00000000
00001000
00000100
00000000
00000010
00000001
00000000
00000100
00001000
,
00010000
00001000
00010000
00000000
00100000
10000000
00000000
00010000
10000000
00000000
00100000
01000000
00000000
00100000
10000000
01000000
,
00100000
00010000
00000000
00100000
01000000
00000000
00010000
00001000
00000000
00010000
00000100
00000000
00001000
00000000
00000010
00000000
,
00001000
00000010
00001000
00000010
00000100
00000001
00000100
00000001
00000010
00000100
00000010
00000100
00001000
00010000
00001000
00010000
,
00100000
01000000
00000000
11000000
00000000
00000000
01100000
00000000
00000000
00000000
00010000
00000000
01000000
00000000
00001000
00010000
,
00001000
00000000
00000000
00000000
;
