
//----- song ID: knri -----//
#TITLE:Knight Rider;
#ARTIST:USAO;
#GENRE:SUPER ULTIMATE HYPER CORE;
#BANNER:Knight Rider.png;
#BACKGROUND:Knight Rider-bg.png;
#CDTITLE:./CDTitles/WACCA.png;
#MUSIC:Knight Rider.ogg;
#SAMPLESTART:90;
#SAMPLELENGTH:15;
#BPMS:0=200;
#BGSTAGE:29;

//--------------- dance-single - Fred-104 ----------------
#NOTES:
     dance-single:
     Fred-104:
     Beginner:
     4:
     :
0000
0000
0000
0000
,
0000
0000
0000
0000
,
0000
0000
0000
0000
,
1000
0000
0000
0000
,
0001
0000
0000
0000
,
1000
0000
0000
0000
,
0001
0000
0000
0000
,
0100
0000
0100
0000
,
0010
0000
0010
0000
,
0100
0100
0100
0100
,
0100
0000
0000
0000
,
0001
0000
0000
0000
,
1000
0000
0000
0000
,
0001
0000
0000
0000
,
1000
0000
0010
0000
,
0100
0000
0000
0000
,
0001
0000
0000
0000
,
1000
0000
0001
0000
,
1000
1000
1000
1000
,
2000
3000
0002
0003
,
2000
0000
0000
3000
,
0001
0000
0100
0000
,
0010
0000
0100
0000
,
0020
0030
0200
0300
,
0020
0000
0000
0030
,
1000
0000
0001
0000
,
1000
0000
0000
0000
,
1000
0000
0001
0000
,
0100
0000
0100
0000
,
0001
0000
1000
0000
,
0001
0000
0010
0000
,
0001
0000
0000
0000
,
1000
0000
0001
0000
,
0100
0000
0000
0000
,
0001
0000
1000
0000
,
0001
0001
0000
0000
,
1000
0000
0010
0000
,
1000
0000
0001
0000
,
1000
0000
0001
0000
,
1000
0000
0000
0000
,
0001
0000
0000
0000
,
0100
0000
0010
0000
,
0100
0000
0100
0000
,
0010
0000
0010
0000
,
1000
0000
0000
0000
,
0001
0000
0100
0000
,
0001
0000
0000
0000
,
1000
0000
1000
0000
,
0010
0000
0000
0000
,
0100
0000
0001
0000
,
1000
0000
0000
0000
,
0001
0001
0000
0000
,
0001
0000
0100
0000
,
0001
0000
0000
0000
,
0100
0000
0010
0000
,
0000
1000
0000
1000
,
0000
0001
0000
0001
,
0000
1000
0000
1000
,
2002
0000
0000
3003
,
1000
0000
0000
0000
,
0010
0000
0000
0000
,
0001
0000
0000
0000
,
0100
0000
0000
0000
,
1000
0000
0000
0000
,
0001
0000
0000
0000
,
0100
0000
0000
0000
,
0010
0000
0000
0000
,
1000
0000
0000
0000
,
0001
0000
0001
0000
,
0100
0000
0000
0000
,
0010
0000
1000
0000
,
0010
0000
1000
0000
,
0001
0000
1000
0000
,
0001
0000
0100
0000
,
2002
0000
3003
0000
,
0001
0000
0000
0001
,
0001
0000
0000
0100
,
0100
0000
0000
0010
,
0010
0000
0000
1000
,
1000
0000
0001
0000
,
1000
0000
0010
0000
,
0100
0000
0001
0000
,
1000
0000
0001
0001
,
0001
0000
1000
0000
,
0001
0000
0000
0000
,
0100
0000
0010
0000
,
0100
0000
0000
0000
,
0001
0000
0010
0000
,
0100
0000
0000
0000
,
1000
0000
0010
0000
,
1000
0000
0001
0000
,
1000
1000
0000
0000
,
0001
0000
0000
0000
,
0100
0000
0010
0000
,
0200
0000
0000
0300
,
0000
0001
0000
1000
,
0000
0001
0000
0100
,
0100
0000
0010
0000
,
1000
0000
0000
0000
,
0001
0001
0000
0000
,
1000
0000
0010
0000
,
0100
0000
0001
0000
,
1000
1000
1000
1000
,
1000
0000
0001
0000
,
1000
0000
0001
0000
,
0100
0000
0001
0000
,
1000
0000
0000
0000
,
2002
3003
0000
0000
0000
0000
0000
0000
;

//--------------- dance-single - Fred-104 ----------------
#NOTES:
     dance-single:
     Fred-104:
     Easy:
     9:
     :
0000
0000
0000
0000
,
0000
0000
0000
0000
,
0000
0000
0000
0000
,
1000
0000
0010
0000
,
0100
0000
0001
0000
,
1000
0000
1000
0000
,
0001
0000
0100
0100
,
0001
0000
0001
0000
,
1000
0000
0010
0000
,
0100
0000
0100
0000
0010
0100
0010
0100
,
0020
0000
0000
0030
,
1001
1000
0010
0000
,
0100
0001
0100
0000
,
0001
0010
0001
0001
,
1000
0010
0100
0001
,
1000
1000
0010
0000
,
1000
0100
0010
0000
,
1001
0000
0110
0000
,
0001
0000
1000
0000
0001
1000
0001
0000
,
2000
3100
0002
0103
,
2000
0000
3001
0001
,
0100
0010
0100
0001
,
1000
0000
0010
0000
1000
0001
1000
0000
,
0002
0013
2000
3010
,
0002
0000
0103
0010
,
1000
1000
0001
0001
,
1000
0001
0100
0110
,
0010
0000
1000
0000
,
0001
0100
0100
0010
,
1000
0000
0001
0000
,
1000
0010
0100
0001
,
1000
0000
0010
0000
,
1000
0100
0010
0001
,
1000
0000
0001
0000
,
0100
0000
0100
0000
0010
0000
0100
0010
,
0100
0110
0010
0001
,
1000
1000
0010
0100
,
0001
1000
0001
0100
,
0002
0003
2000
3000
,
0001
0100
0001
0100
,
0010
1000
0001
1000
,
0001
0100
0001
0000
1000
0100
1000
0000
,
0001
0000
1000
0000
0001
0000
0100
0010
,
0100
0010
0010
1000
,
0001
1000
0001
0201
,
0000
0000
0301
0100
,
0010
0000
1000
0000
0001
0010
0001
0000
,
0100
0100
0010
1000
,
0001
1000
0100
0010
,
0001
0020
0230
2300
,
3001
0000
0000
0100
0000
0000
0001
1000
,
0001
0000
1001
0000
1000
0010
0100
0000
,
0001
0001
1000
0010
,
0100
0000
0001
0000
,
1000
0100
1000
0001
,
1000
1100
0000
0110
,
0000
0011
0000
1001
,
0000
0101
0000
1010
,
2000
0000
0000
0002
0000
0000
3003
0000
,
1000
0000
0000
0000
,
0010
0000
0000
0000
,
0100
0000
0000
0000
,
0001
0000
0010
0000
,
0100
0000
0000
0000
,
1000
0000
0000
0000
,
0010
0000
0000
0000
,
0100
0100
0001
1000
,
0001
0000
0000
0010
0000
0000
0001
0000
,
1000
0000
0000
0100
0000
0000
0010
0000
,
0001
0000
0000
1000
0000
0000
0001
0000
,
0100
0000
0000
0010
0000
0000
0100
0000
,
0001
0000
0100
0000
,
1000
0000
0100
0000
,
0001
0000
0100
0000
0001
1000
0001
1000
,
0002
0000
0003
0000
,
1000
0000
0000
0010
0000
0000
0100
0000
,
0001
0000
0000
0001
0000
0000
0010
0000
,
0100
0000
0000
1000
0000
0000
0001
0000
,
0100
0100
0010
0100
,
0001
1000
0001
0000
1000
0000
0010
0000
,
0100
0000
0000
0001
0000
0000
1000
0000
,
1001
0000
1000
0000
,
0100
0000
0010
0000
0001
0000
1000
0001
,
1000
0010
0100
0001
,
1000
1000
0001
0100
,
0020
0000
1030
1000
,
0001
0001
0100
0001
,
1000
0010
0100
0010
,
1000
0010
0100
0001
,
1001
0000
1000
0000
,
0001
0000
0100
0000
0010
0000
1000
0001
,
1000
1001
0001
0100
,
0010
0010
1000
0001
,
0100
0001
0010
0100
,
2000
0000
0000
3001
,
1000
1100
0000
0101
,
0000
1010
0000
0011
,
1001
0000
0110
0000
,
1000
0000
0001
0000
1000
0100
1000
0100
,
1000
1001
0001
0100
,
0001
0000
0000
0010
0000
0000
0001
0000
,
1000
0000
0000
0010
0000
0000
0100
0000
,
0001
0001
1000
0010
,
0100
0000
0000
0001
0000
0000
1000
0000
,
0010
0000
0000
0100
0000
0000
0001
0000
,
1000
1000
0010
0100
,
0001
1000
0001
1001
,
0100
0100
0000
0000
0000
0000
0000
0000
;

//--------------- dance-single - Fred-104 ----------------
#NOTES:
     dance-single:
     Fred-104:
     Medium:
     14:
     :
0000
0000
0000
0000
,
0000
0000
0000
0000
,
0000
0000
0000
0000
,
1000
0010
0100
0001
,
1000
0100
0010
0001
,
0100
0001
1000
0010
,
0100
0001
0010
0100
,
2100
3010
0102
0013
,
1200
0310
0201
0310
,
1100
0000
0011
0000
0100
0010
0100
0100
,
0020
0000
0000
0030
,
1000
0010
1000
0010
1000
0100
1000
0000
,
0001
0100
0001
0010
0001
0100
0001
0000
,
0100
0010
1000
0010
0100
0010
1000
0000
,
2100
0000
3020
0000
0230
0000
0301
1000
,
0001
0010
0001
0100
0001
0100
0001
0000
,
1000
0100
1000
0010
1000
0001
0100
0000
,
0110
0000
1001
0000
,
0001
0100
0010
1000
0001
0001
0002
0000
,
2003
3010
0002
0103
,
1000
0100
0010
0000
0001
1000
0010
0000
,
0110
0000
0010
0000
1000
0001
1000
0000
,
0001
0100
0010
0100
0001
1000
0010
0000
,
2000
0100
3100
0000
0020
0000
0130
0000
,
1000
0001
0100
0000
0001
1000
0100
0000
,
0010
0001
1000
0001
1000
0010
0100
0001
,
1000
0100
0010
0001
1000
0000
1010
0000
,
0110
0000
0000
0100
0001
1000
0001
0100
,
0001
0000
0010
0100
1000
0010
0100
0000
,
0020
0000
0230
0000
0302
0000
1003
0001
,
0010
0000
0001
1000
0010
0000
1000
0100
,
0010
0001
1000
0001
0000
0001
0100
0001
,
1000
0100
0010
0100
1000
0001
0001
0000
,
1000
0001
0100
0001
1000
0010
0100
0001
,
0100
0000
0100
0000
0100
0000
0001
0001
,
1000
0000
1001
0000
0001
0010
0001
1000
,
0001
0100
0010
1000
0100
0010
0001
0000
,
0101
0000
0100
0010
1000
0010
1000
0001
,
0100
0000
0001
1000
0100
0000
1000
0001
,
0100
0001
1000
0100
0000
0001
0100
1000
,
0010
0100
0001
0010
0001
1000
0010
0010
,
0100
0001
0100
0010
0001
0010
0100
0001
,
2000
0000
3100
0010
0002
0000
1003
0010
,
0110
0100
0101
0001
,
1000
0010
0100
0010
1000
0010
0100
0000
,
0101
0000
0001
0000
1001
0000
1000
0010
,
0100
0001
0010
0001
1000
0001
1000
0000
,
0001
0001
1001
0000
1010
0000
0010
0000
,
0100
0001
1000
0001
0100
0010
1000
0010
,
0200
0302
2003
3002
,
1003
0000
0010
0200
0000
0301
1000
0001
,
1000
0000
1001
0000
0001
0010
0100
1000
,
0001
0102
1003
2100
,
3001
0000
0100
0010
0000
0010
1000
0010
,
0100
0010
0001
0010
0100
0010
1000
0000
,
1000
1100
0001
0101
,
1000
1010
0001
0011
,
1000
0010
0100
0000
0001
0010
0100
0000
,
2000
0000
0000
0002
0000
0000
3003
0000
,
0001
0000
0000
0100
0000
0000
0001
0000
,
1000
0000
0000
0010
0000
0000
0100
0000
,
0001
0000
0000
1000
0000
0000
0100
0000
,
0010
0000
0000
0001
0000
0000
1000
0000
,
0001
0000
0000
0100
0000
0000
0010
0000
,
1000
0000
0000
0100
0000
0000
0010
0000
,
0001
0100
0010
0001
,
0010
1000
0001
0010
,
0110
0000
0000
0100
0000
0001
1000
0000
,
1100
0000
0000
0010
0000
0100
0001
0000
,
0101
0000
0000
0100
0000
0010
1000
0000
,
1001
0000
0000
0001
0000
0100
0010
0000
,
1000
0100
1000
0010
0000
0010
0100
0010
,
0100
0001
0100
0001
0000
0010
0001
1000
,
0001
0100
0001
0100
0010
1000
0010
1000
,
0002
0000
0003
0000
,
1000
0010
0100
0010
0000
1000
0100
0010
,
0001
1000
0001
0100
0000
0001
0010
0001
,
1000
0100
0010
0001
0000
0100
1000
0100
,
0001
0100
0010
1000
0001
1000
1001
0000
,
0001
0010
0001
0010
0000
0010
1000
0010
,
1000
0010
1000
0010
0001
0010
0001
1000
,
1001
0000
0010
0010
1000
0001
0010
0100
,
1100
0000
0101
0000
0110
0000
0001
1000
,
1001
0000
0001
0100
0020
0000
1030
0100
,
0010
0001
1000
0001
0100
0001
1000
0000
,
1010
0000
0010
0000
0100
0000
0001
0100
,
0010
0100
1000
0100
0010
1000
0001
1000
,
0100
0000
1100
0000
0100
0010
0001
1000
,
0001
0000
0100
0000
0100
0000
0010
1000
,
0001
0000
0000
0010
0100
0100
0000
0100
,
1000
0000
0001
0000
0100
0000
0010
0100
,
0010
0000
0110
0000
0010
1000
0100
0010
,
0001
0100
0010
1000
0001
0010
0100
0000
,
1000
0100
1000
0010
0000
0010
0100
0001
,
0002
1000
1000
1000
1003
0001
1000
0000
,
0001
0011
1000
1010
,
0001
0101
1000
1100
,
0010
0000
0100
0000
,
0001
0000
1000
0000
0001
1000
0100
0100
,
0010
0000
0110
0000
1000
0010
1000
0001
,
0100
0010
1000
0010
0000
1000
0100
0000
,
0010
0001
1000
0001
0000
0100
0010
1000
,
2100
3010
0102
0013
,
1000
0001
0100
0001
0000
1000
0100
1000
,
0001
0010
0001
1000
0000
0001
0010
0001
,
0100
0010
1000
0001
0010
0100
0100
1000
,
0010
0100
0001
1000
0001
0000
1001
0000
,
0100
0100
0000
0000
0000
0000
0000
0000
;

//--------------- dance-single - Fred-104 ----------------
#NOTES:
     dance-single:
     Fred-104:
     Hard:
     17:
     :
0000
0000
0000
0000
,
0000
0000
0000
0000
,
0000
0000
0000
0000
,
1000
0010
1000
0010
1000
0010
0100
0001
,
0010
0001
0010
0001
0010
0001
1000
0100
,
0010
0100
0010
0100
0010
0100
1000
0001
,
1000
0001
0100
0010
1000
0001
0011
0000
,
1001
0000
1000
0100
1100
0000
0001
0100
,
0101
0000
1000
0010
1010
0000
0001
0010
,
0011
0000
0001
0000
0100
0000
0010
0000
1000
0000
1000
0000
0001
1000
0001
1000
,
0002
0000
0000
0003
,
1000
0010
0100
0010
1000
0100
1000
0001
,
0100
0001
0010
0100
1000
0001
0100
0010
,
0100
0001
0100
1000
0100
0010
0100
0001
,
1001
0000
0000
0000
0110
0000
0000
0000
1100
0000
0100
0000
0010
0001
1000
0010
,
0100
0000
0110
0100
0001
1000
0001
0010
,
0001
0100
0001
0100
0001
0010
0100
1000
,
1001
0001
0100
0000
0010
0000
0100
0100
,
0001
0000
1000
0000
0001
0000
1000
0000
0001
1000
0001
1000
0001
0000
0000
0000
,
2000
0010
3010
0100
0002
0010
0013
0100
,
1100
0000
1000
0000
0001
0000
0100
0000
0010
0000
1000
0000
0010
0000
0100
0010
,
0100
0000
0110
0010
1000
0001
1000
0100
,
0010
0000
0001
0010
0001
0000
1000
0010
1000
0000
0001
0000
0010
0100
0010
0100
,
0010
0010
0110
0000
1001
0001
0100
0001
,
1000
0100
0010
0001
1000
0010
0100
0001
,
1000
0100
0010
0000
0001
0010
0100
0000
1000
0001
0100
0001
1000
0010
0100
0001
,
0100
0010
0100
0010
0100
0000
0110
0000
,
2001
0000
0000
0000
3001
0000
0100
0000
0010
0000
0010
0000
0010
0000
1000
0001
,
0100
0000
0100
0010
0110
0100
0001
1000
,
0002
0000
0000
0000
0023
0000
0000
0000
0230
0000
0000
0000
2300
0000
3001
1000
,
0100
0000
0000
0000
0100
0000
0010
0001
1000
0010
0100
0000
0001
1000
0100
0010
,
0001
1000
0100
0020
0000
1030
0010
0001
,
0100
0010
1000
0001
0010
1000
0010
0001
,
1000
0010
0100
0001
1000
0100
0010
0001
,
1000
0100
1000
0000
0100
0010
0100
0000
2000
0000
3020
0000
0230
0000
0301
0000
,
2002
3003
0000
0000
0000
0000
0000
0000
0000
0000
0000
0000
0000
0000
0000
0000
1100
0000
0000
0000
0000
0000
0000
0000
0100
0000
0000
0000
0000
0000
0000
0000
0010
0000
0000
0000
0000
0000
0000
0000
0001
0000
0000
0000
0000
0000
0000
0000
1000
0000
0000
0000
0000
0000
0000
0000
0001
0000
0000
0000
0000
0000
0000
0000
,
0200
0000
0310
0000
0200
0000
1300
0000
0200
0000
0301
0000
0100
0010
0100
0010
,
0100
0000
0001
0000
1000
0000
0100
0000
0010
0000
0001
0000
0100
0010
0100
0001
,
1000
0000
0000
0000
1000
0100
0010
0001
0010
0100
1000
0000
0001
1000
0100
1000
,
0010
0100
0010
1000
0100
0010
0001
1000
,
0010
0100
0001
1000
0100
0001
0100
1000
,
0001
0100
0001
0100
0010
1000
0010
1000
0001
0010
0100
1000
0001
0100
0010
1000
,
0002
0000
1003
0100
0002
0000
0103
1000
,
1001
0000
1000
0100
0110
0000
0010
0001
,
1000
0000
0001
0000
1000
0100
0010
0001
0010
0000
0001
0000
1000
0001
0100
0010
,
1000
0001
0100
1000
0001
0010
0100
0001
,
0011
0000
0001
0000
0101
0000
0000
0000
1010
0000
1000
0000
0100
0000
1000
0001
,
1000
0001
1001
0000
0001
0010
0100
1000
,
0001
0000
0100
0000
0001
0100
0010
1000
0010
0000
1000
0000
0001
0010
0100
1000
,
0001
0100
0010
1000
0001
1000
0100
0010
,
0001
0100
0010
0002
0000
0013
1000
0001
,
2002
3003
0000
0000
0000
0000
0000
0000
0000
0000
0000
0000
0000
0000
0000
0000
0101
0000
0000
0000
0000
0000
0000
0000
0100
0000
0000
0000
0000
0000
0000
0000
0010
0000
0000
0000
0000
0000
0000
0000
1000
0000
0000
0000
0000
0000
0000
0000
0001
0000
0000
0000
0000
0000
0000
0000
0010
0000
0000
0000
0000
0000
0000
0000
,
0001
0010
0100
0010
0001
1000
0010
0100
,
0001
0010
1000
0001
0100
0010
0001
1000
,
1010
1000
1100
0000
0011
0001
0101
0000
,
0001
0010
0011
0000
1000
0010
1010
0000
,
0001
0000
0100
0000
0101
0000
0000
0000
1000
0000
0001
0000
1001
0000
0001
0100
,
0010
0000
0000
0000
1000
0000
0100
0000
1000
0001
1000
0010
0100
0001
1000
0000
,
0002
0000
0000
2000
0000
0000
3003
0000
,
1000
0000
0000
0010
0000
0000
0100
0000
,
0001
0000
0000
0010
0000
0000
0100
0000
,
1000
0000
0000
0001
0000
0000
0100
0000
,
0010
0000
0000
0100
0000
0000
0010
0000
,
1000
0000
0000
0010
0000
0000
0100
0000
,
0001
0000
0000
0010
0000
0000
0100
0000
,
1000
0010
0001
0010
,
0100
1000
0100
0001
,
1001
0001
0000
0100
0000
0010
1000
0100
,
0110
0010
0000
0001
0000
0100
0010
1000
,
1010
0010
0000
0100
0000
0010
1000
0001
,
0101
0100
0000
0010
0000
1000
0100
0010
,
0011
0000
0000
0000
0001
0000
1000
0000
1010
0000
0010
0000
0100
0001
1000
0001
,
0010
0000
0000
0000
0001
0100
0010
1000
0001
0000
0000
0000
1000
0100
0010
0001
,
1000
0000
0001
0100
0001
0000
1000
0100
1000
0001
0100
0001
1000
0100
0010
0001
,
1000
0000
0000
0000
0000
0000
0000
0000
0001
1000
0001
0100
0010
1000
0001
0100
,
0001
1000
0100
0210
0000
0310
0001
1000
,
0001
0000
0100
0000
0010
0000
2010
0000
0000
0000
3001
0000
1000
0010
0100
0001
,
1000
0100
0010
0012
0000
0103
0010
1000
,
0001
0000
0010
0000
0100
0000
1000
0010
0100
0000
0001
1000
0100
0000
0000
0000
,
1100
1000
0001
0101
0000
1001
0001
1000
,
0002
0203
2300
3200
0302
0203
0320
1030
,
1001
0000
0000
0000
1000
0000
0100
0000
0010
0000
0001
0000
0100
0000
0001
1000
,
0100
0000
0010
0001
1000
0000
0001
0100
0010
1000
0001
0010
0001
0000
0001
0000
,
1000
0010
0100
0201
0000
0301
0010
0100
,
1000
0000
0100
0000
0010
0000
0001
0000
1000
0000
0010
0000
0100
0001
1000
0001
,
0100
0000
0001
0000
0100
0000
0210
0000
0000
0000
0310
0000
1000
0100
0010
0001
,
1000
0000
0001
0100
0001
0000
1000
0000
0001
0000
0001
0000
0010
0000
0100
0000
,
1100
0000
1001
1000
0001
1000
0100
0010
,
0110
0000
0010
0000
0011
0000
0000
0000
0101
0000
0001
0000
1000
0000
0001
1000
,
0100
0000
1000
0000
0000
0000
0010
0000
1000
0000
0001
0000
0000
0000
0010
0100
,
1000
0000
0000
0000
0001
0000
0000
0000
0100
0010
1000
0010
0100
0000
0000
0000
,
0022
0033
0000
0000
0000
0000
0000
0000
0000
0000
0000
0000
0000
0000
0000
0000
1001
0000
0000
0000
0000
0000
0000
0000
1000
0000
0000
0000
0000
0000
0000
0000
0010
0000
0000
0000
0000
0000
0000
0000
0100
0000
0000
0000
0000
0000
0000
0000
0001
0000
0000
0000
0000
0000
0000
0000
1000
0000
0000
0000
0000
0000
0000
0000
,
0001
0000
0100
0010
0100
0000
0001
0000
1000
0000
0100
0000
0010
0001
1000
0010
,
0100
0001
1000
0100
0010
0100
0001
0100
,
2000
0000
0001
0000
0001
0000
3001
0000
0100
0000
0010
0000
0110
0000
0100
0010
,
1000
0100
0110
0000
0001
0100
0110
0000
,
1010
1000
0100
0000
0011
0001
0100
0000
,
1001
0000
0110
0000
,
1010
0000
0000
0000
0101
0000
0000
0000
0001
0000
1000
0000
0001
1000
0100
0010
,
0002
0003
0000
0000
0000
0000
0000
0000
0000
0000
0000
0000
0000
0000
0000
0000
1001
0000
0000
0000
0000
0000
0000
0000
1000
0000
0000
0000
0000
0000
0000
0000
0010
0000
0000
0000
0000
0000
0000
0000
0100
0000
0000
0000
0000
0000
0000
0000
0001
0000
0000
0000
0000
0000
0000
0000
1000
0000
0000
0000
0000
0000
0000
0000
,
0100
0000
0010
0000
0001
0000
2000
0000
0000
0000
3010
0000
0100
0010
1000
0001
,
0010
0100
0001
0200
0000
1300
0001
1000
,
0001
0010
1000
0001
0100
1000
1001
0000
,
1000
0010
0100
0102
0000
0103
0010
1000
,
0100
0000
0010
0000
0001
0000
1000
0000
0001
0100
0001
0000
0010
0000
0100
0000
,
1000
0010
0100
0000
0001
0000
1000
0000
0001
0100
0001
1000
0100
1000
0010
0100
,
0001
0010
0100
1000
0001
0001
1001
0000
,
1100
0010
0000
0000
0000
0000
0000
0000
;

//--------------- dance-double - Fred-104 ----------------
#NOTES:
     dance-double:
     Fred-104:
     Easy:
     9:
     :
00000000
00000000
00000000
00000000
,
00000000
00000000
00000000
00000000
,
00000000
00000000
00000000
00000000
,
00100000
00000000
00100000
00000000
,
10000000
00000000
10000000
00000000
,
01000000
00000000
00010000
00000000
,
00001000
00000000
00000100
00000001
,
00001000
00000000
00000001
00000000
,
00000100
00000000
00001000
00000000
,
00010000
00000000
00001000
00000000
00010000
00001000
00010000
00001000
,
00020000
00000000
00000000
00030000
,
00011000
00001000
00100000
00000000
,
00010000
10000000
00100000
00000000
,
01000000
01000000
00100000
10000000
,
01000000
00100000
00001000
00010000
,
00001000
00001000
00010000
00000000
,
00000010
00001000
00000001
00000000
,
00001001
00000000
00000110
00000000
,
00000001
00000000
00000100
00000000
00001000
00010000
00001000
00000000
,
00020000
00030000
02000000
03000000
,
00200000
00310000
00010000
10000000
,
00010000
00100000
01000000
00100000
,
00001000
00000000
00010000
00000000
00001000
00010000
00001000
00000000
,
00020000
00030000
00000020
00000030
,
00020000
00030010
00001000
00000100
,
00010000
00000000
00000010
00000000
,
00001000
00001000
00000001
00001001
,
00001000
00000000
00000001
00000000
,
00001000
00000001
00000100
00001000
,
00010000
00000000
01000000
00000000
,
00100000
00010000
10000000
00100000
,
01000000
00000000
00010000
00000000
,
10000000
01000000
00010000
00001000
,
00010000
00000000
00000010
00000000
,
00010000
00000000
00001000
00000000
00010000
00000000
00001000
00010000
,
00001000
00011000
00001000
01000000
,
00010000
01000000
01000000
00100000
,
10000000
01000000
00100000
00001000
,
00020000
00030000
00000020
00000030
,
00010000
00001000
00000100
00000001
,
00001000
00000100
00000010
00000001
,
00001000
00000010
00001000
00000000
00000100
00001000
00000100
00000000
,
00010000
00000000
00001000
00000000
00010000
00000000
00001000
00010000
,
00001000
00100000
00100000
00010000
,
10000000
00100000
01000000
01020000
,
00000000
00000000
00130000
00010000
,
10000000
00000000
01000000
00000000
00100000
00001000
00010000
00000000
,
00001000
00001000
00010000
00000100
,
00001000
00000010
00000100
00000001
,
00001000
00000002
00000023
00002030
,
00013000
00000000
00000000
00001000
00000000
00000000
00010000
00100000
,
01000000
00000000
01100000
00000000
01000000
00100000
10000000
00000000
,
00010000
10000000
01000000
00100000
,
00010000
00000000
01000000
00000000
,
00001000
00010000
00000100
00001000
,
00000010
00001010
00000000
00000011
,
00000000
00000101
00000000
00001100
,
00000000
00011000
00000000
01010000
,
20000000
00000000
00000000
00020000
00000000
00000000
30030000
00000000
,
10000000
00000000
00000000
00000000
,
00100000
00000000
00000000
00000000
,
01000000
00000000
00000000
00000000
,
00001000
00000000
00010000
00000000
,
00001000
00000000
00000000
00010000
00000000
00000000
00000010
00000000
,
00001000
00000000
00000000
00000100
00000000
00000000
00010000
00000000
,
00001000
00000000
00100000
00000000
,
00010000
01000000
00100000
10000000
,
00010000
00000000
00000000
10000000
00000000
00000000
01000000
00000000
,
00100000
00000000
00000000
00001000
00000000
00000000
00010000
00000000
,
00001000
00000000
00000000
00000100
00000000
00000000
00000010
00000000
,
00001000
00000000
00000000
00000100
00000000
00000000
00000010
00000000
,
00000001
00000000
00001000
00000000
,
00000010
00000000
00010000
00000000
,
00001000
00000000
00001000
00000000
00010000
00001000
00010000
00001000
,
00020000
00000000
00030000
00000000
,
00001000
00000000
00000000
00010000
00000000
00000000
01000000
00000000
,
10000000
00000000
00000000
00100000
00000000
00000000
01000000
00000000
,
00100000
00000000
00000000
10000000
00000000
00000000
01000000
00000000
,
00100000
00100000
00001000
00010000
,
00001000
00010000
00001000
00000000
00010000
00000000
00000100
00000000
,
00000010
00000000
00000000
00000001
00000000
00000000
00001000
00000000
,
00001010
00000000
00000010
00000100
,
00000001
00000000
00000001
00000000
00001000
00000100
00001000
00000000
,
00000010
00010000
00001000
00100000
,
01000000
00010000
00001000
00000100
,
00000010
00000000
00010000
00001000
,
00100000
01000000
10000000
00010000
,
10000000
00100000
01000000
00100000
,
10000000
01000000
00010000
00001000
,
00011000
00000000
00010000
00000000
,
00000010
00000000
00001000
00000000
00000001
00000000
00000100
00000010
,
00000100
00001001
00000001
00000100
,
00001000
00010000
00001000
01000000
,
00001000
00010000
00000010
00010000
,
00002000
00000000
00000000
01003000
,
00100000
01100000
00000000
00011000
,
00000000
00000110
00000000
00001001
,
00000001
00000000
00001000
00000000
,
00000010
00000000
00000100
00000000
00000001
00000100
00000001
00000100
,
00000001
00001001
00000001
00000010
,
00000100
00000000
00000000
00000010
00000000
00000000
00000001
00000000
,
00000100
00000000
00000000
00001000
00000000
00000000
00010000
00000000
,
00001000
00001000
00010000
00010000
,
00001000
00000000
00000000
01000000
00000000
00000000
00010000
00000000
,
00100000
00000000
00000000
00001000
00000000
00000000
00010000
00000000
,
00000100
00001000
00000010
00010000
,
00010000
00001000
00100000
10010000
,
01000000
01000000
00000000
00000000
00000000
00000000
00000000
00000000
;

//--------------- dance-double - Fred-104 ----------------
#NOTES:
     dance-double:
     Fred-104:
     Medium:
     14:
     :
00000000
00000000
00000000
00000000
,
00000000
00000000
00000000
00000000
,
00000000
00000000
00000000
00000000
,
00010000
00010000
10000000
10000000
,
01000000
01000000
00010000
00010000
,
00001000
00001000
00000100
00000100
,
00000001
00000001
00001000
00000001
,
00000102
00000013
00001200
00010300
,
02001000
03010000
01200000
10300000
,
00010000
00000000
10000000
00000000
01000000
00100000
00001000
00010000
,
00002000
00000000
00000000
00003000
,
00010000
00001000
00010000
00000010
00010000
00000010
00001000
00000000
,
00000010
00000100
00000010
00000100
00000010
00001000
00000001
00000000
,
00000100
00000001
00000010
00000100
00001000
00000100
00010000
00000000
,
01002000
00013000
00020100
00031000
,
00100000
00010000
00100000
01000000
10000000
00100000
01000000
00000000
,
00010000
10000000
01000000
10000000
01000000
00100000
00001000
00000000
,
00011000
00000000
00010010
00000000
,
00001000
00000010
00000100
00000001
00001000
00001000
00002000
00000000
,
00003020
00000130
00000020
00001030
,
00000001
00000100
00000010
00000000
00001000
00000100
00010000
00000000
,
00011000
00000000
00001000
00000000
01000000
00001000
01000000
00000000
,
00001000
00010000
00000100
00001000
00000010
00010000
00001000
00000000
,
00020000
00001000
00031000
00000000
02000000
00000000
03001000
00000000
,
00100000
00010000
01000000
00000000
00010000
10000000
01000000
00000000
,
10000000
01000000
10000000
01000000
00010000
00001000
00010000
00001000
,
00000010
00000001
00001000
00000001
00000100
00000000
00000100
00000000
,
00001001
00000000
00000000
00000001
00000100
00000010
00000100
00000010
,
00001000
00000000
00000001
00000100
00001000
00010000
00001000
00000000
,
00020000
00000000
00032000
00000000
02003000
00000000
03010000
10000000
,
00100000
00000000
10000000
01000000
00100000
00000000
00010000
10000000
,
01000000
10000000
01000000
00010000
00000000
00010000
00001000
00010000
,
00001000
00000100
00001000
00000100
00000001
00000000
00000001
00001000
,
00000001
00000010
00000001
00000010
00001000
00000010
00001000
00010000
,
00001000
00000000
00010000
00000000
00100000
00000000
10000000
00010000
,
10000000
00000000
10010000
00000000
00010000
01000000
00100000
01000000
,
00010000
01000000
10000000
01000000
00010000
01000000
00001000
00000000
,
00011000
00000000
00001000
00000000
00000100
00000010
00001000
00000001
,
00000010
00000000
00000001
00000100
00001000
00000000
00000001
00000010
,
00001000
00000001
00000010
00000100
00000000
00000010
00000001
00001000
,
00000010
00010000
00001000
00100000
00000000
00100000
00010000
10000000
,
00100000
01000000
00010000
00100000
01000000
00100000
00010000
01000000
,
00002000
00000000
00013000
00000010
00002000
00000000
00003010
00010000
,
00011000
00000000
00001000
00010000
00001000
00000000
00010000
00000100
,
00001000
00000100
00000010
00000001
00001000
00000000
00000010
00000000
,
00000100
00000000
00000001
00001000
00000000
00000000
00000001
00001000
,
00000100
00000010
00000100
00010000
00001000
00010000
00001000
00000000
,
01000000
01000000
01100000
00000000
10010000
00000000
00010000
00000000
,
10000000
01000000
00100000
01000000
00010000
00001000
00000010
00000100
,
00002000
00003002
00000203
00002300
,
00013000
00000000
00001000
00020000
00000000
00031000
00100000
00001000
,
00010000
00000000
00011000
00000000
00010000
00001000
00000010
00000001
,
00001000
00002010
00003001
00000012
,
00001003
00000001
00000100
00000001
00000000
00000001
00000010
00000100
,
00010000
00001000
00000010
00000000
00001000
00010000
00100000
00000000
,
10000000
10100000
01000000
01010000
,
00001000
00011000
00000100
00000110
,
00000001
00000100
00001000
00000000
00010000
01000000
10000000
00000000
,
00020000
00000000
00000000
20000000
00000000
00000000
30030000
00000000
,
00100000
00000000
00000000
10000000
00000000
00000000
01000000
00000000
,
00100000
00000000
00000000
00001000
00000000
00000000
00010000
00000000
,
00001000
00000000
00000000
00000010
00000000
00000000
00000100
00000000
,
00001000
00000000
00000000
00000001
00000000
00000000
00001000
00000000
,
00000001
00000000
00000000
00000100
00000000
00000000
00001000
00000000
,
00010000
00000000
00000000
01000000
00000000
00000000
10000000
00000000
,
00010000
01000000
00100000
10000000
,
01000000
00100000
00001000
00010000
,
00011000
00000000
00000000
00001000
00000000
00000100
00000010
00000000
,
00001001
00000000
00000000
00000001
00000000
00000100
00000010
00000000
,
00001010
00000000
00000000
00000100
00000000
00010000
00001000
00000000
,
01001000
00000000
00000000
00100000
00000000
00010000
10000000
00000000
,
11000000
00100000
01010000
00100000
,
00101000
00001000
00010010
00010000
,
00001000
00000100
00000010
00001000
00000100
00000010
00000001
00001000
,
00000200
00000000
00000300
00000000
,
00010000
00001000
00100000
00001000
00000000
00100000
00010000
10000000
,
01000000
00010000
00001000
00010000
00000000
00000100
00000010
00000001
,
00001000
00000001
00000100
00000010
00000000
00000100
00001000
00010000
,
00100000
01000000
00010000
10000000
01000000
00100000
00110000
00000000
,
00100000
00001000
00010000
00001000
00000000
00000100
00000010
00001000
,
00000001
00000100
00000001
00000010
00000000
00000100
00001000
00000001
,
00000100
00000000
00000010
00010000
00001000
00100000
00010000
10000000
,
10010000
00000000
01100000
00000000
10010000
00000000
10000000
01000000
,
00100000
00000000
00100000
00001000
00020000
00000000
00030010
00010000
,
00001000
00010000
01000000
00100000
00010000
00001000
00000100
00000000
,
00000010
00000001
00001000
00000001
00000000
00000010
00000100
00001000
,
00000010
00000100
00001000
00010000
00100000
01000000
00001000
00010000
,
00001000
00000000
00011000
00000000
00001000
01000000
00010000
01000000
,
00001000
00000000
00100000
00000000
00010000
00000000
10000000
01000000
,
00100000
00000000
00000000
00001000
00010000
00001000
00000000
00010000
,
00000010
00000000
00010000
00000000
00001000
00000000
00010000
00001000
,
00010000
00000000
00011000
00000000
00001000
00010000
01000000
10000000
,
00010000
01000000
00100000
10000000
00000000
10000000
01000000
00100000
,
01000000
00100000
00001000
00010000
00000000
00000100
00000010
00000001
,
00002000
00000000
00000000
00000000
00003001
00000100
00000010
00000000
,
00001000
00001100
00000001
00000101
,
00000010
00010010
00001000
00101000
,
00010000
00000000
01000000
00000000
,
00000100
00000000
00010000
00000000
00001000
00010000
00001000
00001000
,
00010000
00000000
00011000
00000000
00100000
00010000
10000000
00010000
,
01000000
00100000
01000000
00010000
00000000
10000000
01000000
00100000
,
00001000
00010000
00100000
10000000
00000000
01000000
00100000
00001000
,
00012000
01003000
00021000
00030100
,
00010000
00001000
00000010
00000001
00000000
00001000
00000001
00000100
,
00000010
00001000
00000001
00000010
00000100
00000100
00001000
00000010
,
00000100
00000001
00001000
00000100
00000010
00010000
00001000
00100000
,
00010000
00100000
01000000
10000000
00010000
01000000
01100000
00000000
,
00001000
00010000
00000000
00000000
00000000
00000000
00000000
00000000
;

//--------------- dance-double - Fred-104 ----------------
#NOTES:
     dance-double:
     Fred-104:
     Hard:
     17:
     :
00000000
00000000
00000000
00000000
,
00000000
00000000
00000000
00000000
,
00000000
00000000
00000000
00000000
,
00000001
00000100
00000010
00000100
00000001
00001000
00000100
00000000
,
00010000
00001000
00010000
00000100
00010000
00001000
01000000
00000000
,
00010000
01000000
00100000
01000000
10000000
01000000
00100000
00000000
,
10000000
01000000
00010000
00001000
00000010
00000100
00001000
00000000
,
00001001
00000000
00000001
00000100
00000110
00000000
00000010
00001000
,
00001100
00000000
00000100
00010000
00011000
00000000
00001000
00100000
,
00010000
00000000
10000000
00000000
00100000
00000000
01000000
00000000
00010000
00000000
10000000
00000000
00010000
10000000
00010000
10000000
,
00020000
00000000
00000000
00030000
,
10000000
01000000
00100000
01000000
10000000
01000000
00100000
00001000
,
00010000
00000010
00010000
00001000
00000010
00000100
00001000
00000001
,
00000100
00000010
00000100
00001000
00000100
00000010
00001000
00000001
,
00001001
00000000
00000000
00000000
00000110
00000000
00000000
00000000
00000001
00000000
00001000
00000000
00000010
00000100
00000010
00000100
,
00000001
00000000
00001001
00001000
00000010
00000100
00000010
00001000
,
00000001
00000010
00001000
00010000
01000000
00100000
00010000
10000000
,
11000000
00000000
00100000
00000000
01010000
00000000
00100000
10000000
,
01000000
00000000
00100000
00000000
00010000
00000000
00100000
00000000
00001000
00010000
00001000
00010000
00001000
00000000
00000000
00000000
,
00000020
00000130
00002000
00003001
,
00001001
00000000
00001000
00000000
00000010
00000000
00000100
00000000
00000001
00000000
00000010
00000000
00000100
00000000
00010000
00001000
,
00010000
00000000
00101000
00001000
00100000
00010000
10000000
00010000
,
01000000
00000000
00010000
00000000
10000000
00000000
01000000
00000000
00100000
00000000
00001000
00000000
00010000
00001000
00010000
00001000
,
00010000
00010000
00011000
00000000
00010010
00000010
00001000
00000001
,
00000010
00000100
00001000
00000001
00000100
00000010
00000100
00000001
,
00001000
00000100
00001000
00000000
00000001
00000100
00000001
00000000
00001000
00000100
00001000
00000000
00000100
00010000
00001000
00010000
,
00100000
01000000
00010000
10000000
00010000
00000000
10010000
00000000
,
02100000
00000000
00000000
00000000
03010000
00000000
10000000
00000000
01000000
00000000
01000000
00000000
00100000
00000000
00001000
00010000
,
00001000
00000000
00010000
00001000
00011000
00010000
00001000
00000010
,
00000002
00000000
00000000
00000000
00002003
00000000
00000000
00000000
00003020
00000000
00000000
00000000
00000230
00000000
00000301
00001000
,
00000100
00000000
00000000
00000000
00001000
00000000
00000001
00000100
00000010
00001000
00000100
00000000
00010000
00001000
01000000
00001000
,
00010000
00001000
00100000
00020000
00000000
10030000
00100000
01000000
,
00100000
00010000
00001000
00000100
00000010
00001000
00000001
00001000
,
00000100
00000010
00001000
00010000
00001000
00100000
01000000
10000000
,
00010000
01000000
00100000
10000000
00020000
20030000
31000000
01000000
,
02200000
03300000
00000000
00000000
00000000
00000000
00000000
00000000
00000000
00000000
00000000
00000000
00000000
00000000
00000000
00000000
00011000
00000000
00000000
00000000
00000000
00000000
00000000
00000000
00010000
00000000
00000000
00000000
00000000
00000000
00000000
00000000
00000010
00000000
00000000
00000000
00000000
00000000
00000000
00000000
00001000
00000000
00000000
00000000
00000000
00000000
00000000
00000000
00000100
00000000
00000000
00000000
00000000
00000000
00000000
00000000
00010000
00000000
00000000
00000000
00000000
00000000
00000000
00000000
,
00002000
00000000
00003010
00000000
00002000
00000000
00013000
00000000
00002000
00000000
00103000
00000000
00001000
00010000
00001000
00010000
,
00001000
00000000
00010000
00000000
00000100
00000000
00000010
00000000
00000100
00000000
00001000
00000000
00000010
00000100
00000010
00000100
,
00000001
00000000
00000000
00000000
00001000
00000010
00001000
00000010
00010000
00001000
00010000
00000000
00001000
00100000
00010000
00100000
,
00001000
00100000
00010000
10000000
00010000
01000000
00100000
00010000
,
00001000
00000100
00000010
00001000
00000001
00000010
00000001
00001000
,
00000010
00010000
00000010
00010000
00001000
00100000
00001000
00100000
00010000
10000000
00010000
10000000
01000000
00100000
01000000
00100000
,
00020000
00000000
10030000
00100000
00020000
00000000
00031000
00010000
,
00011000
00000000
00001000
00100000
00020000
00000000
10030000
00100000
,
01000000
00000000
00010000
00000000
10000000
01000000
10000000
01000000
00100000
00000000
00010000
00000000
10000000
00100000
01000000
00100000
,
01000000
00100000
00010000
00001000
00000100
00000010
00010000
00001000
,
00011000
00000000
00010000
00000000
00010010
00000000
00000000
00000000
00011000
00000000
00001000
00000000
00100000
00000000
00001000
00010000
,
00001000
00001000
00011000
00000000
00010000
00001000
00000100
00000001
,
00001000
00000000
00000100
00000000
00000010
00000001
00000010
00000100
00001000
00000000
00000001
00000000
00001000
00000010
00010000
00001000
,
00010000
00001000
00010000
00000100
00001000
00000100
00010000
00001000
,
00010000
01000000
00100000
00020000
00000000
10030000
00100000
01000000
,
02200000
03300000
00000000
00000000
00000000
00000000
00000000
00000000
00000000
00000000
00000000
00000000
00000000
00000000
00000000
00000000
10010000
00000000
00000000
00000000
00000000
00000000
00000000
00000000
10000000
00000000
00000000
00000000
00000000
00000000
00000000
00000000
01000000
00000000
00000000
00000000
00000000
00000000
00000000
00000000
00010000
00000000
00000000
00000000
00000000
00000000
00000000
00000000
00001000
00000000
00000000
00000000
00000000
00000000
00000000
00000000
00010000
00000000
00000000
00000000
00000000
00000000
00000000
00000000
,
00100000
01000000
00001000
00010000
00000100
00010000
00001000
00000100
,
00000001
00000010
00000100
00001000
00000010
00010000
00001000
00010000
,
00011000
00010000
00010010
00000000
00011000
00001000
00101000
00000000
,
00110000
10100000
11000000
01010000
,
00011000
00001010
00000011
00001001
,
00000001
00000000
00000100
00000000
00000010
00000000
00001000
00000000
00000001
00000010
00000100
00001000
00000100
00010000
00001000
00010000
,
00002000
00000000
00000000
00020000
00000000
00000000
00033000
00000000
,
00001000
00000000
00000000
00010000
00000000
00000000
01000000
00000000
,
10000000
00000000
00000000
00100000
00000000
00000000
00010000
00000000
,
00001000
00000000
00000000
00000010
00000000
00000000
00000001
00000000
,
00000100
00000000
00000000
00001000
00000000
00000000
00010000
00000000
,
00100000
00000000
00000000
10000000
00000000
00000000
00010000
00000000
,
10000000
00000000
00000000
00100000
00000000
00000000
01000000
00000000
,
00010000
00100000
01000000
00010000
,
00001000
00000010
00000100
00001000
,
00001001
00001000
00000000
00000001
00000000
00000100
00000010
00001000
,
00000010
00000010
00000000
00000100
00000000
00000001
00000100
00001000
,
00010000
00010000
00000000
00001000
00000000
00100000
00010000
10000000
,
01000000
01000000
00000000
00100000
00000000
00010000
10000000
00010000
,
10010000
00000000
00000000
00000000
10000000
00000000
00010000
00000000
01000000
00000000
01000000
00000000
00001000
00010000
00001000
00010000
,
00001000
00000000
00000000
00000000
00010000
00000010
00001000
00000010
00010000
00000000
00000000
00000000
00000010
00001000
00000001
00001000
,
00000100
00000000
00000010
00000000
00000001
00000000
00001000
00000000
00000001
00000010
00000001
00000010
00000100
00001000
00000100
00010000
,
00001000
00000000
00000000
00000000
00000000
00000000
00000000
00000000
00010000
00001000
00010000
00000010
00001000
00000010
00010000
00001000
,
00010000
00001000
00100000
00210000
00000000
00310000
10000000
00100000
,
01000000
00000000
00010000
00000000
10000000
00000000
21000000
00000000
00000000
00000000
31000000
00000000
00100000
00010000
00100000
00010000
,
00100000
00001000
00010000
00012000
00000000
00013000
00001000
00000100
,
00000001
00000000
00001000
00000000
00000100
00000000
00000010
00000001
00001000
00000000
00000001
00000000
00000100
00000000
00000000
00000000
,
00000011
00000001
00001000
00001100
00000000
00000001
00000010
00000100
,
00002000
00003020
00000230
00002300
00023000
00230000
02300000
03010000
,
10010000
00000000
00000000
00000000
00010000
00000000
10000000
00000000
01000000
00000000
10000000
00000000
00100000
00000000
01000000
00100000
,
01000000
00000000
00010000
10000000
00010000
00000000
00100000
00001000
00010000
00001000
00010000
00000010
00010000
00000000
00001000
00000000
,
00010000
00000000
00011000
00001000
00000200
00000000
00000310
00001000
,
00000001
00000000
00001000
00000000
00000100
00000000
00000010
00000000
00000001
00000000
00000100
00000000
00000001
00000100
00000010
00000100
,
00000001
00000000
00001000
00000000
00000100
00000000
00002100
00000000
00000000
00000000
00003100
00000000
00010000
00001000
01000000
00001000
,
00010000
00000000
00001000
00010000
00001000
00000000
00010000
00000000
00100000
00000000
01000000
00000000
00010000
00000000
10000000
00000000
,
10010000
00000000
11000000
01000000
10000000
00010000
01000000
00010000
,
00110000
00000000
00010000
00000000
10010000
00000000
00000000
00000000
10100000
00000000
00100000
00000000
01000000
00000000
00010000
10000000
,
00010000
00000000
01000000
00000000
00000000
00000000
00001000
00000000
00010000
00000000
00000100
00000000
00000000
00000000
00001000
00000100
,
00000010
00000000
00000000
00000000
00000001
00000000
00000000
00000000
00001000
00000010
00000100
00000001
00001000
00000000
00000000
00000000
,
00002002
00003003
00000000
00000000
00000000
00000000
00000000
00000000
00000000
00000000
00000000
00000000
00000000
00000000
00000000
00000000
00000101
00000000
00000000
00000000
00000000
00000000
00000000
00000000
00000100
00000000
00000000
00000000
00000000
00000000
00000000
00000000
00000010
00000000
00000000
00000000
00000000
00000000
00000000
00000000
00001000
00000000
00000000
00000000
00000000
00000000
00000000
00000000
00000010
00000000
00000000
00000000
00000000
00000000
00000000
00000000
00000100
00000000
00000000
00000000
00000000
00000000
00000000
00000000
,
00000001
00000000
00001000
00000100
00001000
00000000
00000100
00000000
00010000
00000000
00001000
00000000
01000000
00010000
01000000
00010000
,
10000000
00010000
00100000
00010000
00100000
01000000
00010000
00001000
,
00020000
00000000
00000000
00000000
00000000
00000000
00000000
00000000
00031000
00000000
00010000
00000000
00001000
00000000
00000100
00000010
,
00001000
00000010
00000110
00000000
00000001
00000100
00000110
00000000
,
00000010
00010000
00011000
00000000
00100000
00001000
00011000
00000000
,
01001000
00000000
00010100
00000000
,
00101000
00000000
00000000
00000000
10010000
00000000
00000000
00000000
00010000
00000000
00100000
00000000
01000000
10000000
00010000
01000000
,
00200000
00300000
00000000
00000000
00000000
00000000
00000000
00000000
00000000
00000000
00000000
00000000
00000000
00000000
00000000
00000000
01100000
00000000
00000000
00000000
00000000
00000000
00000000
00000000
00100000
00000000
00000000
00000000
00000000
00000000
00000000
00000000
10000000
00000000
00000000
00000000
00000000
00000000
00000000
00000000
00100000
00000000
00000000
00000000
00000000
00000000
00000000
00000000
01000000
00000000
00000000
00000000
00000000
00000000
00000000
00000000
00010000
00000000
00000000
00000000
00000000
00000000
00000000
00000000
,
00100000
00000000
01000000
00000000
00010000
00000000
00002000
00000000
00000000
00000000
01003000
00000000
00001000
00010000
00001000
00010000
,
00001000
00000100
00000010
00002000
00000000
00003001
00000010
00000100
,
00002000
00003002
00000103
00001001
,
00000001
00001000
00000010
00000200
00000000
00000301
00000010
00000100
,
00010000
00000000
00001000
00000000
00010000
00000000
00100000
00000000
01000000
00010000
01000000
00000000
00100000
00000000
00100000
00000000
,
10000000
00000000
00010000
00000000
00100000
00000000
01000000
00000000
10000000
00100000
01000000
00010000
00100000
00001000
00010000
00001000
,
00010000
00001000
00010000
00000100
00000010
00000010
00000110
00000000
,
00001001
00000100
00000000
00000000
00000000
00000000
00000000
00000000
;
