#TITLE:Knell;
#ARTIST:Project B-;
#BANNER:Knell.png;
#BACKGROUND:Knell-bg.png;
#CDTITLE:./CDTitles/RB colette -Summer-.png;
#MUSIC:Knell.ogg;
#SAMPLESTART:77.843;
#SAMPLELENGTH:15;
#DISPLAYBPM:68.334:205;
#BPMS:0=136.667,32=205,159=410,162=205,204=68.333,220=205;
#STOPS:159=0.049,159.333333=0.049,159.666667=0.048,160=0.049,160.333333=0.049,160.666667=0.049,161=0.048,161.333333=0.049,161.666667=0.049;
#TIMESIGNATURES:0=4=4,32=6=4,80=3=4,92=6=4,116=5=4,126=6=4,204=4=4,220=6=4,298=4=4;
#STAGE:14;

//--------------- dance-single - Fred-104 ----------------
#NOTES:
     dance-single:
     Fred-104:
     Beginner:
     6:
     :
0000
0000
0000
0000
,
0000
0000
0000
0000
,
0000
0000
0000
0000
,
0000
0000
0000
0000
,
0000
0000
0000
0000
,
0000
0000
0000
0000
,
0000
0000
0000
0000
,
0000
0000
0000
0000
,
1000
0000
0010
0000
,
1000
0000
0100
0000
,
0010
0000
0001
1000
,
0001
0000
0100
0000
,
0001
0000
0010
0000
,
0100
0000
1000
0010
,
0100
0000
0001
0000
,
1000
1000
1000
0000
,
0010
0000
1000
0100
,
0010
0000
0001
0000
,
1000
0000
1000
0000
1000
0000
0000
0001
,
0000
0000
0100
0000
0000
0010
0000
0000
,
1000
0000
0000
0001
,
0000
0000
1000
0000
,
0000
0001
0000
0000
,
1000
0000
0010
0000
,
1000
0100
0010
0000
,
0001
0000
1000
0001
,
0100
0000
0001
0000
,
0010
0000
0100
0000
1000
0000
0000
0100
,
0000
0000
0010
0000
0000
0001
0000
0000
,
1000
0000
0000
0010
0000
0000
1000
0000
,
0000
0000
0001
0000
0000
0100
0000
0000
,
0010
0000
1000
0000
,
0000
0010
0000
0000
,
0001
0000
0000
0100
,
0000
0000
1000
0000
,
0010
0000
1000
0100
,
0010
0010
0001
1000
,
0001
0001
0100
0000
,
0001
0000
0100
0100
,
0010
1000
0001
2000
,
0000
0000
3001
0000
,
0010
0000
0001
0010
,
0100
1000
0010
0010
,
1000
0001
1000
0000
,
0100
0000
1000
0100
,
1000
0000
0000
0100
0000
0000
0010
0000
,
0000
0001
0000
0000
0100
0000
0000
0010
,
0000
0000
1000
0000
0000
0001
0000
0000
,
1000
0000
0000
0010
,
0000
0000
0001
0000
,
0000
0100
0000
0000
,
1000
0010
1000
0100
,
0010
0001
0100
0001
,
1000
1000
0100
0100
,
0010
0000
0000
0010
0000
0000
0001
0000
0000
2002
0000
3003
,
1000
0010
1000
1000
,
0000
0000
0001
0100
,
0010
0100
0000
0000
,
0001
0010
0100
1000
,
0000
0000
1000
0010
,
0100
0001
0000
0000
,
1000
0000
0010
1000
,
0100
0100
0010
0000
,
0001
0100
0001
0001
,
0010
0000
0000
0100
,
0000
0000
1000
0000
,
0000
0001
0000
0000
,
1000
1000
0001
2002
,
3003
0000
1000
0000
,
0010
0000
1000
0000
,
0100
0010
0010
0001
,
0001
1000
0001
0000
,
0100
0000
0010
0000
,
1000
0001
0001
1000
,
0001
0000
1000
0000
0001
0000
0000
1001
;

//--------------- dance-single - Fred-104 ----------------
#NOTES:
     dance-single:
     Fred-104:
     Easy:
     9:
     :
0000
0000
0000
0000
,
0000
0000
0000
0000
,
0000
0000
0000
0000
,
0000
0000
0000
0000
,
0000
0000
0000
0000
,
0000
0000
0000
0000
,
0000
0000
0000
0000
,
0000
0000
0000
0000
,
0001
1000
0001
0001
,
0100
0100
0010
0100
,
0001
1000
0001
0000
,
1000
0100
0010
0001
,
0100
0100
0010
0100
,
0001
1000
0001
0000
,
1000
0000
0000
0010
0000
0000
1000
0000
,
0100
0000
0010
0000
0001
0000
0000
0100
,
0000
0010
0100
0100
,
0001
0000
0000
0010
0000
0000
0100
0000
,
1000
0000
0001
0000
1000
0000
0000
1010
,
0000
0000
0001
0000
0000
0101
0000
0000
,
1000
0100
0010
0001
,
0100
0010
1000
0010
,
0100
0001
0010
0100
,
1000
0000
0000
1100
0000
0000
0100
0000
,
0010
0000
0001
0000
1000
0000
0000
1001
,
0000
0001
0100
0010
,
0100
0000
0000
0110
0000
0000
0010
0000
,
1000
0000
0001
0000
0010
0000
0000
0011
,
0000
0000
0100
0000
0000
1100
0000
0000
,
1000
0000
0000
1010
0000
0000
1001
0000
,
0000
0000
0001
0000
0000
0101
0000
0000
,
1001
0000
1000
0100
,
0010
0100
0010
0001
,
0100
0010
1000
0001
,
0010
0000
0100
0000
1000
0000
0000
0010
,
0000
1000
0100
0010
,
0001
1000
0001
0100
,
0010
0100
0010
0000
1000
0000
0000
0010
,
0000
1000
0100
0100
,
1000
0001
0100
0002
,
0000
0000
0000
0000
1003
0000
0000
0001
,
0000
0100
0010
0010
,
0100
0001
0010
0100
,
1000
0010
0100
0000
0010
0000
0000
1000
,
0000
0100
0010
0010
,
0001
0000
0000
0101
0000
0000
1000
0000
,
0000
1010
0000
0000
0001
0000
0000
0011
,
0000
0000
1000
0000
0000
1010
0000
0000
,
2001
0000
0000
0000
3100
0010
0002
0000
,
0000
0000
0103
0010
2000
0000
0000
0000
,
3010
0100
0002
0000
0000
0000
1003
0000
,
0001
0010
0001
0100
0100
0010
0100
0010
1000
0010
0010
1000
,
0100
0010
0001
1000
1000
0010
0100
0001
1000
0001
0010
0100
,
1000
0001
0100
0010
0100
0001
0010
0100
1000
0010
1000
0100
,
1000
0010
0100
0001
0010
0100
1000
0001
1000
0010
0210
0000
,
0301
0010
0010
0001
,
0100
0100
0010
1000
,
1000
0100
1000
1000
,
0010
1000
0100
0010
,
0001
0100
0001
1000
,
0001
0100
0010
1000
,
0001
0000
0100
0000
0010
0100
0010
0000
,
1000
0000
0100
0010
0100
0000
0010
0000
,
0001
0100
0001
0000
0010
0000
0100
1000
,
0100
0010
0001
1000
,
0010
0100
0001
0001
,
1000
0010
0100
0010
,
1000
0000
0100
0000
0010
0001
0020
0000
,
0030
0000
0001
0010
,
0100
0100
1000
0010
,
1000
0100
0100
1000
,
0001
0100
0001
0000
0100
0000
0010
0000
,
0010
1000
0001
0010
,
0100
1000
0001
1000
,
0001
0100
0001
0100
0001
0000
0000
1001
;

//--------------- dance-single - Fred-104 ----------------
#NOTES:
     dance-single:
     Fred-104:
     Medium:
     14:
     :
0000
0000
0000
0000
,
0000
0000
0000
0000
,
0000
0000
0000
0000
,
0000
0000
0000
0000
,
0000
0000
0000
0000
,
0000
0000
0000
0000
,
0000
0000
0000
0000
,
0000
0000
0000
0000
,
0001
0010
0001
0100
0000
0010
1000
0000
,
0100
1000
0000
0100
0010
0000
0001
0010
,
0000
1000
0010
0000
0001
0100
0010
1000
,
0001
0010
0100
1000
0000
0010
1000
0000
,
0100
1000
0000
0100
0010
0000
0100
0001
,
0000
0100
0010
0000
0100
1000
0001
0100
,
0010
0000
1000
0100
0000
0100
0010
0001
,
1000
0001
0100
0010
0100
0000
0001
0100
,
0000
0100
0010
1000
1100
0000
0011
0000
,
1000
0000
0001
0100
0000
0001
0010
0100
,
0010
0001
1000
0100
1100
0000
0000
0101
,
0000
0000
1010
0000
0000
0011
0000
0000
,
1000
0000
0010
1000
0001
1000
0100
0000
,
0010
0001
1000
0001
0100
0000
0001
0100
,
1000
0100
0001
0000
1000
0100
0001
0100
,
1000
0000
0010
1000
0000
0100
1000
0010
,
0100
0001
0010
0100
0010
0000
0001
0100
,
0000
0100
0010
0100
0101
0000
1001
0000
,
1000
0000
0010
1000
0000
0100
1000
0001
,
1000
0100
0010
0001
0101
0000
0000
0011
,
0000
0000
1100
0000
0000
1010
0000
0000
,
1100
0000
0000
1001
0000
0000
0101
0000
,
0001
0000
0011
0000
0000
1001
0000
0000
,
1010
0000
1000
0000
0001
0100
0000
1000
,
0100
0000
0001
0010
0000
1000
0010
0000
,
0001
0100
0010
1000
0001
0000
1100
0000
,
0011
0000
1001
0000
1000
0100
1000
0010
,
0000
1000
0100
0010
0001
0100
0010
0100
,
0001
0010
0100
1000
0001
0100
0001
0100
,
0010
1000
0001
0010
0100
0000
1000
0100
,
0000
0001
0100
1000
0010
0100
0010
1000
,
0001
0000
0000
0010
0000
0000
0100
0000
0000
1000
0000
0000
0001
0000
0000
0100
0000
0000
0001
0000
0100
0000
0001
0000
,
0100
0000
0010
0000
0100
0000
0010
0000
1000
0000
0010
0000
1000
0000
0000
0100
0000
0000
0010
0000
0000
0100
0000
0000
,
0000
1000
0010
0100
0001
0010
1000
0010
,
0001
0100
0001
0100
0010
1000
0100
0010
,
0001
1000
0010
0100
0010
1000
0100
0010
,
0000
0100
1000
0001
0010
1000
0010
0001
,
1000
0100
0010
1000
0010
0001
1000
0010
,
0100
1000
0100
0001
1000
0001
0100
0001
,
1000
0010
1000
0001
0010
0001
1000
0100
,
2000
0000
0010
0000
3001
0100
2000
0000
,
0100
0000
3001
0010
0200
0000
1000
0000
,
0310
0100
0002
0000
0000
0000
1003
0001
,
0100
0000
0001
0010
0001
0000
0100
0000
0010
0000
1000
0000
0100
0000
1000
0001
1000
0000
0010
0000
0100
0000
0001
0000
,
1000
0000
0001
0100
0001
0100
0010
0000
1000
0100
1000
0100
0010
0000
0001
1000
0001
1000
0010
0000
0100
0000
0001
0010
,
0100
0000
1000
0010
0100
0001
1000
0000
0100
0000
0010
0001
1000
0000
0001
0100
0010
1000
0010
0000
0100
0000
0001
0010
,
0100
0000
1000
0010
1000
0100
0010
0000
0001
0100
0001
0010
0100
1000
0010
1000
0001
0100
0010
0000
2000
0000
0000
0000
,
3001
0000
1000
0100
0001
0100
1000
0000
,
0001
0000
0100
0010
1000
0000
0001
0010
,
1000
0010
0001
0000
1000
0000
0010
0100
,
0001
0000
1000
0100
0010
1000
0010
0000
,
0100
1000
0010
0100
0001
0000
0100
0010
,
0001
0010
0100
0000
0001
0000
1000
0001
,
0100
0000
0001
0010
0100
0010
0001
1000
,
0100
0001
0100
0010
1000
0000
1000
0010
,
0100
0010
1000
0001
0100
1000
0100
0010
,
1000
0000
1000
0100
0010
0001
1000
0000
,
0001
0100
0010
1000
0001
0010
0100
1000
,
0010
0100
0101
0000
0110
0000
1010
0000
,
0001
0100
1000
0001
0010
1000
0002
0000
,
2000
0000
3003
0000
1000
0100
0100
0010
,
0100
0100
1000
0010
0010
0100
0010
0010
,
1000
0100
0100
0001
0100
0100
1000
0010
,
0100
0001
0010
0100
0010
0001
0001
0100
,
0001
0001
0010
0100
0100
1000
0100
0100
,
0010
0001
0001
1000
0001
0001
0100
0010
,
1000
0000
0001
0000
1000
0001
1000
0001
1000
0000
0000
0000
0000
0000
1001
0000
;

//--------------- dance-single - Fred-104 ----------------
#NOTES:
     dance-single:
     Fred-104:
     Hard:
     17:
     :
0000
0000
0000
0000
,
0000
0000
0000
0000
,
0000
0000
0000
0000
,
0000
0000
0000
0000
,
0000
0000
0000
0000
,
0000
0000
0000
0000
,
0000
0000
0000
0000
,
0000
0000
0000
0000
,
1000
0000
0100
0000
0010
0001
0010
0000
0100
0000
0010
0001
0010
0000
0100
0000
,
1000
0010
1000
0000
0100
0000
1000
0010
1000
0000
0100
0000
1000
0100
1000
0000
,
0010
0000
1000
0100
1000
0000
0010
0000
0100
0000
0001
0000
0010
0001
0010
0001
,
0010
0000
0100
0000
1000
0001
1000
0000
0100
0000
1000
0001
1000
0000
0010
0000
,
1000
0001
1000
0000
0010
0000
0100
0001
0100
0000
0010
0000
0100
0001
0100
0000
,
0010
0000
1000
0100
1000
0000
0010
0000
1000
0100
1000
0000
0001
0100
0001
0100
,
0010
0000
1000
1100
0000
0001
0100
1000
,
0100
0010
1000
0100
0010
0001
1000
1001
,
0000
0000
0010
0000
1000
0010
0100
0000
0101
0000
0000
0000
1010
0000
0000
0000
,
1000
0010
0100
0110
0000
0001
0100
0010
,
1000
0010
0100
0001
0022
0000
0033
2020
,
0000
3030
0202
0000
0303
2200
0000
3300
,
0001
0010
0100
1000
0001
0001
0100
0010
,
1000
0010
0100
0100
0001
0010
0100
0010
,
0001
0001
1000
0100
0001
1000
0010
0001
,
1000
0000
0100
0000
0010
0000
0011
0000
0000
0000
0001
0000
0100
0000
0010
0100
,
0010
1000
0010
0100
0001
1000
0100
1100
,
0000
0000
1000
0000
0100
0010
0001
0000
0011
0000
0000
0000
1001
0000
0000
0000
,
1000
0000
0010
0000
0100
0000
0101
0000
0000
0000
0001
0010
0100
0000
1000
0000
,
0001
0000
0010
0000
1000
0010
0001
0000
1001
0000
0000
0000
1000
0000
1100
0000
,
0000
0001
0101
0000
1000
1010
0000
0001
,
0011
0000
1000
0110
0000
0001
0110
0000
,
1000
0001
1000
0000
1100
0010
0000
0101
,
0010
0000
1000
0001
1000
0100
0010
1000
,
0010
0001
1000
0010
0100
1000
0100
0001
,
1000
0100
0010
1000
0010
0100
1100
0000
,
0101
0000
0000
0000
1000
0001
0100
0010
1000
0000
0100
0000
0010
0000
0110
0000
,
0000
0000
0010
0000
0001
0100
0010
0000
1000
0000
0000
0100
0010
0000
0001
0000
,
1000
0000
0100
0000
0010
0000
0001
1000
0010
0000
0100
0000
0001
1000
0010
0000
,
0100
0000
0000
0010
0100
0000
0010
0000
1000
0000
0010
0000
1000
0000
1100
0000
,
0000
0000
0001
0000
0100
0010
1000
0000
0010
0000
0000
0100
0010
0000
1000
0000
,
0001
0000
0000
0000
0000
0000
0000
0000
0000
0000
0000
0000
0000
0000
0000
0000
0000
0000
0000
0000
0000
0000
0000
0000
0010
0000
0000
0000
0000
0000
0000
0000
0000
0000
0000
0000
0000
0000
0000
0000
0000
0000
0000
0000
0000
0000
0000
0000
1000
0000
0000
0000
0000
0000
0000
0000
0000
0000
0000
0000
0000
0000
0000
0000
0000
0000
0000
0000
0000
0000
0000
0000
0001
0000
0000
0000
0000
0000
0000
0000
0000
0000
0000
0000
0000
0000
0000
0000
0000
0000
0000
0000
0000
0000
0000
0000
0100
0000
0000
0000
0000
0000
0000
0000
0000
0000
0000
0000
0000
0000
0000
0000
0000
0000
0000
0000
0000
0000
0000
0000
1000
0000
0000
0000
0000
0000
0000
0000
0000
0000
0000
0000
0000
0000
0000
0000
0000
0000
0000
0000
0000
0000
0000
0000
0002
0000
0000
0003
0000
0000
0000
0000
0000
0000
0000
0000
0000
0000
0000
0000
0020
0000
0000
0030
0000
0000
0000
0000
0000
0000
0000
0000
0000
0000
0000
0000
0200
0000
0000
0300
0000
0000
0000
0000
0000
0000
0000
0000
0000
0000
0000
0000
,
2000
0000
0000
3000
0000
0000
0000
0000
0000
0000
0000
0000
0000
0000
0000
0000
0200
0000
0000
0300
0000
0000
0000
0000
0000
0000
0000
0000
0000
0000
0000
0000
0020
0000
0000
0030
0000
0000
0000
0000
0000
0000
0000
0000
0000
0000
0000
0000
0002
0000
0000
0003
0000
0000
0000
0000
0000
0000
0000
0000
0000
0000
0000
0000
2000
0000
0000
3000
0000
0000
0000
0000
0000
0000
0000
0000
0000
0000
0000
0000
0002
0000
0000
0003
0000
0000
0000
0000
0000
0000
0000
0000
0000
0000
0000
0000
0100
0000
0000
0000
0000
0000
0000
0000
0000
0000
0000
0000
0000
0000
0000
0000
0000
0000
0000
0000
0000
0000
0000
0000
0010
0000
0000
0000
0000
0000
0000
0000
0000
0000
0000
0000
0000
0000
0000
0000
0000
0000
0000
0000
0000
0000
0000
0000
1000
0000
0000
0000
0000
0000
0000
0000
0000
0000
0000
0000
0000
0000
0000
0000
0000
0000
0000
0000
0000
0000
0000
0000
1010
0000
0000
0000
0000
0000
0000
0000
0000
0000
0000
0000
0000
0000
0000
0000
0000
0000
0000
0000
0000
0000
0000
0000
,
0000
0000
1000
0100
0010
0001
1000
0000
0001
0000
0000
0100
0000
0000
0010
0000
,
0100
0000
0010
1000
0100
0000
0010
0000
0100
1000
0010
0000
0100
0000
0010
1000
,
0100
0000
0010
0000
0001
1000
0010
0100
0001
0000
0010
0000
0100
0000
0110
0000
,
0000
0000
0100
1000
0001
0100
0001
0000
1000
0000
0010
0100
0010
0000
1000
0000
,
0001
0100
0100
1000
0100
0100
0001
0010
,
0010
1000
0010
0010
0001
0100
1000
0001
,
0010
1000
0001
0100
1000
0001
0010
1000
,
0002
0000
0000
0100
0000
0000
0100
0000
0103
0000
0010
0000
2000
0000
0000
0100
,
0000
0000
0100
0000
3100
0000
0010
0000
0002
0000
0000
0010
0000
0000
0010
0000
,
0013
0100
2000
0000
0000
0000
3001
1000
,
0001
0000
0010
0001
0100
0010
1000
0000
0001
0000
0010
0100
0010
0000
0001
0100
0010
1000
0001
0000
0100
0000
1000
0100
,
0001
0000
0100
0010
0001
0010
1000
0000
0001
0000
0100
0010
1000
0000
0010
0100
1000
0100
0001
1000
0100
0010
0001
1000
,
0001
0000
1000
0100
0001
1000
0010
0001
1000
0000
0001
0100
0010
0000
1000
0010
0001
1000
0100
0001
1000
0000
0001
0010
,
0100
0000
0000
0000
1000
0000
0100
0000
0001
0000
0100
0000
1000
0000
0000
0000
0001
0000
0100
0000
1000
0000
0100
0000
0001
0000
1000
0000
0100
0000
0010
0000
0001
0000
1000
0000
0001
0000
0000
0000
1000
0001
1000
0001
0100
0010
0100
0010
,
1000
0010
1000
0100
0001
0100
1000
0000
,
0100
0000
0010
0001
0100
0001
0010
0001
,
0010
0000
1000
0000
0010
0000
0000
0000
0001
0000
0000
0000
1000
0100
0010
0001
,
1000
0001
1000
0010
0001
0010
1000
0000
,
0001
0000
0100
0001
1000
0001
0010
1000
,
0010
0000
0001
0000
1000
0000
0001
0100
0010
0000
0100
0000
0010
0000
1000
0000
,
0001
0000
0000
0000
0010
0000
0100
0000
1000
0100
0010
0001
1000
0000
0001
0100
,
0010
0000
0100
0000
0010
0100
0001
0000
1000
0000
0000
0000
0001
0000
0100
0001
,
0010
0000
0001
0000
1000
0010
1000
0100
1000
0010
0100
0001
1000
0100
0010
0000
,
0001
0000
1000
0100
0001
0100
0010
0000
,
0001
0100
1000
0100
0010
1000
0100
0010
,
0001
0000
1000
0000
0001
0000
0100
0010
1000
0000
0100
0010
0002
0000
0000
0000
,
1003
0100
0001
1000
0010
0001
2000
0000
,
0002
0000
0000
0000
3003
0000
0000
0000
1000
0000
0100
0010
0001
0000
1000
0000
,
0100
0010
0001
0000
1000
0000
0001
0010
0100
0000
1000
0000
0001
0010
0100
0000
,
1000
0000
0010
1000
0100
0000
0010
0000
0100
1000
0010
0000
1000
0000
0100
0010
,
0001
0000
1000
0000
0001
0010
0100
1000
0001
0000
0100
0010
1000
0000
0001
0000
,
0100
0010
1000
0000
0001
0000
0010
0100
1000
0000
0001
0000
0010
0100
1000
0000
,
0001
0000
1000
0001
0010
0000
0001
0000
1000
0001
0100
0000
0001
0000
1000
0001
,
0100
0010
1000
0001
0010
0100
0010
0001
1000
0000
0000
0000
0000
0000
1001
0000
;

//--------------- dance-double - Fred-104 ----------------
#NOTES:
     dance-double:
     Fred-104:
     Easy:
     9:
     :
00000000
00000000
00000000
00000000
,
00000000
00000000
00000000
00000000
,
00000000
00000000
00000000
00000000
,
00000000
00000000
00000000
00000000
,
00000000
00000000
00000000
00000000
,
00000000
00000000
00000000
00000000
,
00000000
00000000
00000000
00000000
,
00000000
00000000
00000000
00000000
,
00001000
00010000
00001000
00001000
,
00100000
00100000
00010000
01000000
,
00100000
10000000
00010000
00000000
,
10000000
00010000
01000000
00100000
,
10000000
01000000
00010000
00001000
,
00000100
00000001
00001000
00000000
,
00000001
00000000
00000000
00000100
00000000
00000000
00000010
00000000
,
00000100
00000000
00000001
00000000
00000010
00000000
00000000
00000100
,
00000000
00010000
00001000
00001000
,
01000000
00000000
00000000
00001000
00000000
00000000
00010000
00000000
,
00000100
00000000
00001000
00000000
00000010
00000000
00000000
00001100
,
00000000
00000000
00000010
00000000
00000000
00000101
00000000
00000000
,
00000001
00000100
00001000
00010000
,
01000000
10000000
00010000
01000000
,
00100000
00010000
00100000
10000000
,
00010000
00000000
00000000
01010000
00000000
00000000
01000000
00000000
,
00100000
00000000
10000000
00000000
01000000
00000000
00000000
01100000
,
00000000
00001000
00010000
00000100
,
00001000
00000000
00000000
00001100
00000000
00000000
00000010
00000000
,
00000001
00000000
00001000
00000000
00000001
00000000
00000000
00000011
,
00000000
00000000
00001000
00000000
00000000
00001100
00000000
00000000
,
00000100
00000000
00000000
00010100
00000000
00000000
00011000
00000000
,
00000000
00000000
00010000
00000000
00000000
01100000
00000000
00000000
,
10010000
00000000
10000000
01000000
,
00100000
00001000
00010000
00100000
,
10000000
00100000
01000000
00001000
,
00010000
00000000
01000000
00000000
10000000
00000000
00000000
00100000
,
00000000
01000000
00100000
01000000
,
00001000
00010000
00001000
00100000
,
00001000
00010000
00001000
00000000
01000000
00000000
00000000
00001000
,
00000000
00010000
00000100
00001000
,
00000100
00000010
00000001
00000200
,
00000000
00000000
00000000
00000000
00000310
00000000
00000000
00001000
,
00000000
00000001
00000100
00000010
,
00001000
00000100
00010000
00000100
,
00010000
00001000
00010000
00000000
00001000
00000000
00000000
01000000
,
00000000
00010000
00100000
01000000
,
10000000
00000000
00000000
11000000
00000000
00000000
00100000
00000000
,
00000000
00110000
00000000
00000000
00001000
00000000
00000000
00001010
,
00000000
00000000
00000001
00000000
00000000
00000101
00000000
00000000
,
00001002
00000000
00000000
00000000
00000103
00000010
00020000
00000000
,
00000000
00000000
00031000
00100000
00020000
00000000
00000000
00000000
,
01030000
00100000
20000000
00000000
00000000
00000000
30010000
00000000
,
10000000
01000000
00100000
00010000
01000000
00100000
10000000
01000000
00010000
00001000
00010000
00100000
,
10000000
00100000
00010000
00001000
00010000
01000000
10000000
00010000
01000000
00100000
01000000
00001000
,
00010000
00000100
00001000
00000100
00000010
00000100
00001000
00000100
00000001
00001000
00000010
00000001
,
00001000
00000001
00000100
00000010
00001000
00000100
00010000
00001000
00010000
00001000
00012000
00000000
,
00013000
00100000
00100000
00001000
,
00100000
00100000
00001000
00010000
,
00010000
00000010
00010000
00010000
,
00001000
00010000
00100000
10000000
,
00010000
01000000
00100000
10000000
,
01000000
00010000
00001000
00000100
,
00000001
00000000
00000100
00000000
00000010
00000100
00000010
00000000
,
00001000
00000000
00000100
00000010
00000100
00000000
00000010
00000000
,
00000001
00000100
00000010
00000000
00001000
00000000
00000001
00000010
,
00000100
00010000
00001000
01000000
,
00001000
00010000
00001000
00000010
,
00000100
00000001
00000010
00000100
,
00010000
00000000
00001000
00000000
00010000
00001000
00020000
00000000
,
00030000
00000000
00010000
01000000
,
00100000
00100000
10000000
01000000
,
00100000
00001000
00010000
00001000
,
01000000
00010000
01000000
00000000
00001000
00000000
00010000
00000000
,
00010000
00000100
00000010
00000001
,
00001000
00000001
00000100
00000010
,
00010000
00001000
00010000
00001000
00010000
00000000
00000000
00011000
;

//--------------- dance-double - Fred-104 ----------------
#NOTES:
     dance-double:
     Fred-104:
     Medium:
     14:
     :
00000000
00000000
00000000
00000000
,
00000000
00000000
00000000
00000000
,
00000000
00000000
00000000
00000000
,
00000000
00000000
00000000
00000000
,
00000000
00000000
00000000
00000000
,
00000000
00000000
00000000
00000000
,
00000000
00000000
00000000
00000000
,
00000000
00000000
00000000
00000000
,
00010000
01000000
00100000
10000000
00000000
01000000
00100000
00000000
,
00001000
00010000
00000000
00100000
01000000
00000000
00010000
00001000
,
00000000
00000010
00000100
00000000
00010000
00001000
00100000
01000000
,
00010000
10000000
01000000
00100000
00000000
00001000
00010000
00000000
,
00000100
00000010
00000000
00000001
00001000
00000000
00000100
00000010
,
00000000
00000001
00000100
00000000
00001000
00000100
00000001
00000010
,
00000100
00000000
00010000
00001000
00000000
00001000
00100000
00010000
,
01000000
00010000
10000000
00010000
01000000
00000000
00100000
10000000
,
00000000
10000000
01000000
00100000
00110000
00000000
01001000
00000000
,
00001000
00000000
00010000
00001000
00000000
00001000
00100000
00001000
,
00010000
00000100
00001000
00000100
00000110
00000000
00000000
00000011
,
00000000
00000000
00001010
00000000
00000000
00011000
00000000
00000000
,
00001000
00000000
00100000
00010000
10000000
00100000
01000000
00000000
,
00100000
10000000
01000000
00100000
00001000
00000000
00010000
00000100
,
00001000
00000100
00000010
00000000
00000001
00000100
00001000
00000100
,
00000010
00000000
00001000
00000100
00000000
00000010
00000001
00000100
,
00000010
00001000
00000001
00000010
00000100
00000000
00010000
00001000
,
00000000
00100000
01000000
10000000
10100000
00000000
01010000
00000000
,
00010000
00000000
01000000
00100000
00000000
10000000
01000000
00100000
,
01000000
10000000
00100000
01000000
01010000
00000000
00000000
00101000
,
00000000
00000000
00010010
00000000
00000000
01001000
00000000
00000000
,
01100000
00000000
00000000
11000000
00000000
00000000
01010000
00000000
,
00100000
00000000
00011000
00000000
00000000
00010100
00000000
00000000
,
00001010
00000000
00000001
00000000
00001000
00000100
00000000
00000100
,
00000001
00000000
00000001
00000010
00000000
00000010
00001000
00000000
,
00010000
01000000
00000000
01000000
10000000
00000000
10100000
00000000
,
00110000
00000000
00011000
00000000
00001000
00010000
00000010
00001000
,
00000000
00000010
00000100
00000001
00000010
00000100
00000010
00000001
,
00000100
00000001
00000100
00001000
00000100
00000001
00000010
00000100
,
00010000
00001000
00100000
01000000
10000000
00000000
00010000
01000000
,
00000000
10000000
01000000
00010000
10000000
01000000
00100000
00010000
,
01000000
00000000
00000000
00100000
00000000
00000000
00010000
00000000
00000000
00001000
00000000
00000000
00100000
00000000
00000000
00001000
00000000
00000000
00010000
00000000
00001000
00000000
00010000
00000000
,
00000100
00000000
00010000
00000000
00000100
00000000
00001000
00000000
00000100
00000000
00010000
00000000
00001000
00000000
00000000
01000000
00000000
00000000
00010000
00000000
00000000
01000000
00000000
00000000
,
00000000
00100000
10000000
00100000
01000000
00010000
10000000
00100000
,
00010000
00001000
00010000
00100000
10000000
00010000
01000000
00100000
,
10000000
01000000
00010000
00001000
00010000
01000000
10000000
00010000
,
00000000
01000000
00100000
00001000
00010000
00000100
00000010
00000001
,
00001000
00000100
00000000
00000010
00000001
00000000
00000100
00001000
,
00000000
00010000
00100000
00000000
10000000
01000000
00000000
00010000
,
00001000
00000000
00000010
00000001
00000000
00000100
00001000
00000000
,
00020000
00000000
01000000
00000000
00031000
00010000
00002000
00000000
,
00000100
00000000
00013000
00001000
00020000
00000000
00100000
00000000
,
00031000
00010000
00002000
00000000
00000000
00000000
00003010
00010000
,
00001000
00000000
00100000
00010000
10000000
00000000
00100000
00000000
01000000
00000000
00010000
00000000
10000000
00000000
01000000
00100000
00001000
00000000
00010000
00000000
00100000
00000000
10000000
00000000
,
00010000
00000000
01000000
00100000
01000000
00001000
00010000
00000000
00000100
00001000
00000100
00000010
00000001
00000000
00000100
00000010
00001000
00000010
00000100
00000000
00000001
00000000
00000010
00000100
,
00001000
00000000
00000010
00000100
00001000
00000100
00000001
00000000
00000100
00000000
00000010
00001000
00000001
00000000
00000100
00000010
00000001
00000010
00001000
00000000
00000001
00000000
00000100
00000010
,
00010000
00000000
00001000
00100000
00010000
10000000
00010000
00000000
01000000
00100000
10000000
00100000
01000000
00010000
10000000
01000000
00100000
00001000
00010000
00000000
00002000
00000000
00000000
00000000
,
00013000
00000000
00000010
00001000
00000100
00010000
00000010
00000000
,
00010000
00000000
00001000
01000000
00010000
00000000
00100000
00001000
,
00010000
00000010
00001000
00000000
00000100
00000000
00010000
00001000
,
01000000
00000000
00010000
00100000
01000000
00100000
00010000
00000000
,
00001000
00000100
00000010
00000100
00001000
00000000
00010000
01000000
,
00100000
01000000
00010000
00000000
00001000
00000010
00000100
00000010
,
00001000
00000000
00010000
00100000
01000000
10000000
00010000
01000000
,
00100000
10000000
01000000
00010000
00001000
00000000
00000100
00000001
,
00001000
00000001
00000010
00000100
00000010
00000001
00000100
00001000
,
00000100
00000000
00000010
00001000
00000100
00000010
00000001
00000000
,
00000100
00000010
00000100
00000001
00001000
00000100
00010000
00001000
,
01000000
00100000
10100000
00000000
01010000
00000000
10010000
00000000
,
10000000
01000000
00010000
00001000
00000010
00000001
00002000
00000000
,
00000002
00000000
00003003
00000000
00000001
00000100
00000100
00001000
,
00000100
00000100
00000001
00000010
00000010
00001000
00000010
00000010
,
00000001
00000100
00001000
00010000
00100000
10000000
00010000
01000000
,
00100000
10000000
00010000
00100000
00010000
01000000
01000000
10000000
,
01000000
01000000
00010000
00100000
00100000
10000000
00100000
00100000
,
00001000
00010000
00000010
00001000
00000100
00000010
00000001
00000100
,
00001000
00000000
00010000
00000000
00001000
00010000
00001000
00010000
00001000
00000000
00000000
00000000
00000000
00000000
00011000
00000000
;

//--------------- dance-double - Fred-104 ----------------
#NOTES:
     dance-double:
     Fred-104:
     Hard:
     17:
     :
00000000
00000000
00000000
00000000
,
00000000
00000000
00000000
00000000
,
00000000
00000000
00000000
00000000
,
00000000
00000000
00000000
00000000
,
00000000
00000000
00000000
00000000
,
00000000
00000000
00000000
00000000
,
00000000
00000000
00000000
00000000
,
00000000
00000000
00000000
00000000
,
00001001
00000000
00000000
00000000
00000001
00000100
00000010
00000000
00000000
00000000
00001000
00000100
00010000
00000000
00000000
00000000
,
00001000
01000000
00010000
00000000
00000000
00000000
00100000
00001000
00010000
00000000
00000000
00000000
00000010
00001000
00000100
00000000
,
00000000
00000000
00010000
00001000
01000000
00000000
00000000
00000000
00001000
00010000
00001000
00000000
00000100
00000010
00000001
00001000
,
00000001
00000000
00000000
00000000
00000001
00000100
00001000
00000000
00000000
00000000
00010000
01000000
10000000
00000000
00000000
00000000
,
00010000
10000000
00100000
00000000
00000000
00000000
01000000
00010000
10000000
00000000
00000000
00000000
10000000
00100000
00010000
00000000
,
00000000
00000000
00001000
00000010
00000001
00000000
00000000
00000000
00001000
00000100
00000010
00000001
00001000
00000100
00000010
00000001
,
00001000
00000000
00000001
00000101
00000000
00000100
00000010
00001000
,
00000100
00001000
00000100
00000010
00000001
00000000
00000100
00001100
,
00000000
00001000
00010000
01000000
01100000
00000000
10010000
00000000
,
10000000
00000000
00010000
01010000
00000000
10000000
01000000
00100000
,
00001000
00010000
00001000
00000010
00000110
00001000
00000000
00000110
,
00000001
00000000
00001100
00000010
00000000
00000101
00000010
00000000
,
00001000
00000100
00000001
00000100
00001000
00010000
00001000
00010000
,
01000000
10000000
01000000
00010000
00001000
00010000
00001000
00000010
,
00000001
00000010
00001000
00010000
00100000
10000000
00100000
00010000
,
00001000
00000000
00000010
00000000
00000001
00000000
00001001
00000000
00000000
00000000
00001000
00000000
00000010
00000000
00000100
00000001
,
00000100
00000010
00001000
00000001
00000010
00000100
00001000
00001100
,
00000000
00000000
00000100
00000000
00010000
00001000
00010000
00000000
00011000
00000000
00000000
00000000
01100000
00000000
00000000
00000000
,
00010000
00000000
10000000
00000000
00100000
00000000
10100000
00000000
00000000
00000000
10000000
00100000
01000000
00000000
10000000
00000000
,
01000000
00010000
10000000
01000000
11000000
00000000
00000000
01010000
,
00000000
00000000
00001010
00000000
00000000
00000011
00000000
00000000
,
00001001
00000000
00000000
00011000
00000000
00000000
10010000
00000000
,
00010000
00000000
10010000
00000000
00000000
00011000
00000000
00000000
,
00001001
00000000
00000001
00000000
00000001
00000100
00001000
00000100
,
00000001
00000100
00001000
00010000
01000000
10000000
01000000
00010000
,
00001000
00000010
00000001
00000010
00001000
00010000
00110000
00000000
,
10100000
00000000
00000000
00000000
00010000
01000000
00100000
10000000
00010000
00000000
10000000
00000000
01000000
00000000
01100000
00000000
,
00000000
00000000
00100000
00000000
00010000
10000000
01000000
00000000
00100000
00000000
00000000
00001000
00010000
00000000
00000100
00000000
,
00001000
00000000
00000100
00000000
00000010
00000000
00000001
00000100
00000010
00000000
00000001
00000000
00000010
00001000
00000001
00000000
,
00001000
00000000
00000000
00000010
00000100
00000000
00001000
00000000
00000100
00000000
00000010
00000000
00001000
00000000
00001001
00000000
,
00000000
00000000
00000001
00000000
00000010
00000100
00000001
00000000
00000100
00000000
00000000
00001000
00000001
00000000
00001000
00000000
,
00000010
00000000
00000000
00000100
00000000
00000000
00000001
00000000
00000000
00000100
00000000
00000000
00001000
00000000
00000000
00010000
00000000
00000000
00001000
00000000
00010000
00000000
00001000
00000000
,
00010000
00000000
01000000
00000000
00010000
00000000
00001000
00000000
00000100
00000000
00001000
00000000
00010000
00000000
00000000
00001000
00000000
00000000
00000100
00000000
00000000
00000110
00000000
00000000
,
00000000
00000000
00000001
00000100
00000010
00001000
00000001
00000000
00000100
00000000
00000000
00000010
00000000
00000000
00001000
00000000
,
00000001
00000000
00001000
00000001
00000010
00000000
00000001
00000000
00000010
00000001
00000100
00000000
00000001
00000000
00001000
00000001
,
00000010
00000000
00000001
00000000
00001000
00000100
00000010
00000001
00001000
00000000
00000010
00000000
00010000
00000000
00011000
00000000
,
00000000
00000000
00001000
00100000
00010000
10000000
00010000
00000000
01000000
00000000
00100000
10000000
00010000
00000000
01000000
00000000
,
00010000
00100000
10000000
00010000
01000000
10000000
10000000
01000000
,
00010000
10000000
00100000
00010000
00001000
00000010
00000001
00001000
,
00000100
00000001
00000001
00000100
00001000
00000001
00000010
00001000
,
00001000
00000000
00000000
00000100
00000000
00000000
00000010
00000000
00000001
00000000
00000100
00000000
00001000
00000000
00000000
00010000
,
00000000
00000000
00001000
00000000
00000010
00000000
00000001
00000000
00000100
00000000
00000000
00001000
00000000
00000000
00010000
00000000
,
01000000
10000000
00100000
00000000
00000000
00000000
00010000
00010000
,
10000000
00000000
00010000
00100000
01000000
10000000
00100000
00000000
01000000
00000000
00010000
10000000
01000000
00000000
00010000
00001000
00000100
00000001
00001000
00000000
00000010
00000000
00000100
00000001
,
00000010
00000000
00000001
00000100
00000010
00000001
00000010
00000000
00001000
00000000
00000001
00000010
00000100
00000000
00000001
00000100
00001000
00010000
01000000
10000000
00010000
01000000
00100000
10000000
,
00010000
00000000
10000000
01000000
00010000
00001000
00010000
00100000
10000000
00000000
00010000
10000000
00010000
00000000
01000000
00010000
00001000
00000100
00000010
00000001
00001000
00000000
00000001
00000010
,
00000100
00000000
00000000
00000000
00001000
00000000
00000100
00000000
00000001
00000000
00000100
00000000
00001000
00000000
00000000
00000000
00010000
00000000
01000000
00000000
10000000
00000000
01000000
00000000
00010000
00000000
00001000
00000000
00010000
00000000
01000000
00000000
10000000
00000000
00010000
00000000
01000000
00000000
00000000
00000000
00100000
10000000
00100000
10000000
00010000
01000000
00010000
01000000
,
00100000
10000000
00010000
01000000
10000000
01000000
00010000
00000000
,
00001000
00000000
00000100
00000010
00000001
00000100
00001000
00010000
,
00001000
00000000
00000001
00000000
00001000
00000000
00000000
00000000
00000001
00000000
00000000
00000000
00000100
00000010
00001000
00000001
,
00000010
00000001
00001000
00000100
00000001
00000100
00001000
00000000
,
00000100
00000000
00000001
00000000
00000100
00001000
00000001
00000010
,
00000100
00000000
00010000
00000000
00001000
00000000
00100000
00010000
00100000
00000000
00010000
00000000
10000000
00000000
00100000
00000000
,
01000000
00000000
00000000
00000000
00010000
00000000
01000000
00000000
00100000
10000000
00010000
01000000
00100000
00000000
10000000
01000000
,
00100000
00000000
00001000
00000000
00010000
00100000
01000000
00000000
10000000
00000000
00000000
00000000
00010000
00000000
01000000
00001000
,
00010000
00000000
00000100
00000000
00001000
00000001
00000010
00000100
00001000
00000100
00010000
00001000
00100000
00010000
10000000
00000000
,
01000000
00000000
10000000
01000000
00010000
00001000
00000010
00000000
,
00000001
00000100
00001000
00010000
00100000
10000000
00010000
01000000
,
00100000
00000000
10000000
00000000
01000000
00000000
00100000
00010000
01000000
00000000
00001000
00010000
00000100
00010000
00001000
00000000
,
00010000
00001000
00000010
00000001
00000100
00001000
00010000
00000000
,
00002000
00000000
00000000
00000000
00013000
00001000
01000000
00000000
00001000
00000000
00100000
00010000
10000000
00000000
00100000
00000000
,
10000000
01000000
00100000
00000000
00010000
00000000
00100000
01000000
10000000
00000000
00010000
00000000
01000000
00100000
10000000
00000000
,
01000000
00000000
00100000
00001000
00010000
00000000
00001000
00000000
01000000
00001000
00010000
00000000
00000100
00000000
00001000
00000100
,
00000010
00000000
00000001
00000000
00000010
00000100
00000001
00000100
00001000
00000000
00000001
00000100
00000010
00000000
00000001
00000000
,
00000010
00001000
00000001
00000000
00000100
00000000
00000010
00001000
00000100
00000000
00010000
00000000
00001000
00010000
00100000
00000000
,
10000000
00000000
00010000
00100000
01000000
00000000
00010000
00000000
01000000
10000000
00010000
00000000
01000000
00000000
00100000
10000000
,
01000000
00100000
00010000
01000000
00001000
00010000
00000010
00001000
00000100
00000000
00000000
00000000
00000011
00000000
00001001
00000000
;
