#TITLE:輝石のDESTINATION feat. 花たん;
#ARTIST:SOUND HOLIC Vs. BEMANI Sound Team "T.Kakuta";
#TITLETRANSLIT:Kiseki no DESTINATION feat. HaNaTan;
#ARTISTTRANSLIT:SOUND HOLIC Vs. T.Kakuta;
#BANNER:Kiseki no DESTINATION feat. HaNaTan.png;
#BACKGROUND:Kiseki no DESTINATION feat. HaNaTan-bg.png;
#CDTITLE:./CDTitles/GITADORA GALAXY WAVE.png;
#MUSIC:Kiseki no DESTINATION feat. HaNaTan.ogg;
#SAMPLESTART:45.001;
#SAMPLELENGTH:15;
#BPMS:0=184;
#BGSTAGE:28;

//--------------- dance-single - Fred-104 ----------------
#NOTES:
     dance-single:
     Fred-104:
     Beginner:
     3:
     :
0000
0000
0000
0000
,
0000
0000
0000
0000
,
0000
0000
0000
0000
,
1000
0000
0000
0000
,
0000
0000
0000
0000
,
0001
0000
0000
0000
,
0000
0000
0000
0000
,
1000
0000
0000
0000
,
0010
0000
0000
0000
,
1000
0000
0000
0000
,
1001
0000
0000
0000
,
0001
0000
0000
0000
,
1000
0000
0000
0000
,
0100
0000
0000
0000
,
0010
0000
0000
0000
,
0001
0000
0000
0000
,
1000
0000
0000
0000
,
0001
0000
0000
0000
,
1000
0000
0000
0000
,
0001
0000
0000
0000
,
0100
0000
0000
0000
,
0001
0000
0000
0000
,
1000
0000
0000
0000
,
0001
0000
0000
0000
,
0010
0000
0000
0000
,
0100
0000
0000
0000
,
1000
0000
0000
0000
,
0002
0000
0000
0000
,
0003
0000
0000
0000
,
2000
0000
0000
0000
,
3000
0000
0000
0000
,
0001
0000
0001
0000
,
0001
0000
0000
0000
,
1000
0000
1000
0000
,
1001
0000
0000
0000
,
0001
0000
1000
0000
,
0001
0000
0000
0000
,
1000
0000
0010
0000
,
0100
0000
0000
0000
,
0001
0000
1000
0000
,
0001
0000
0000
0000
,
0100
0000
0010
0000
,
0100
0000
0001
0001
,
0001
0000
0000
0000
,
1000
0000
0000
0000
,
0002
0000
0000
0000
,
0003
0000
0000
0000
,
2000
0000
0000
0000
,
3000
0000
0000
0000
,
0001
0000
0001
0000
,
0001
0000
0001
0000
,
1001
0000
0000
0000
,
1000
0000
0000
0000
,
0001
0000
0000
0000
,
0100
0000
0000
0000
,
0001
0000
0001
0000
,
0001
0000
0000
0000
,
1000
0000
1000
0000
,
1000
0000
0000
0000
,
2000
0000
0000
0000
,
3000
0000
0000
0000
,
0002
0000
0000
0000
,
0003
0000
0000
0000
,
1000
0000
0000
0000
,
0001
0000
0000
0000
,
1000
0000
0000
0000
,
0001
0000
0000
0000
,
0000
0000
0000
0000
,
1001
0000
0000
0000
,
0000
0000
0000
0000
,
0000
0000
0000
0000
,
0000
0000
0000
0000
,
0001
0000
1000
0000
,
0200
0000
0300
0000
,
1000
0000
0001
0000
,
0020
0000
0030
0000
,
0001
0000
1000
0000
,
0002
0000
0003
0000
,
1000
1000
1000
0000
,
0001
0001
0001
0000
,
1000
1000
1000
0000
,
0001
0001
0001
0000
,
1000
0000
0001
0000
,
0100
0000
0010
0000
,
2000
0000
0000
0000
,
3000
0000
0000
0000
,
0002
0000
0000
0000
,
0003
0000
0000
0000
,
1000
0000
1000
0000
,
0001
0000
0001
0000
,
1000
0000
0001
0000
,
1000
1000
1000
2000
,
3000
0000
0000
0000
;

//--------------- dance-single - Fred-104 ----------------
#NOTES:
     dance-single:
     Fred-104:
     Easy:
     8:
     :
0000
0000
0000
0000
,
0000
0000
0000
0000
,
0000
0000
0000
0000
,
1000
0000
0001
0000
1000
0000
0000
1000
,
0010
1000
0001
0000
,
0100
0000
0010
0000
0100
0000
0000
0100
,
0001
1000
0001
0000
,
0010
0000
0100
0000
0010
0000
0000
0010
,
0001
1000
0001
0000
,
0100
0010
0100
0001
,
1000
0001
2002
3003
,
1000
0000
0000
0000
0010
0000
0000
1000
,
0000
1000
0000
0000
0001
0000
0100
0000
,
0010
0000
0000
0000
0100
0000
0000
0001
,
0000
0001
0000
0000
0000
0010
0000
0100
,
0000
0010
0001
0000
1000
0000
0000
0010
,
0000
0000
1000
0000
0001
0000
0000
0100
,
0000
0000
0001
0000
1000
0000
0000
0100
,
0000
0010
0001
1000
,
1001
0000
0000
0000
1000
0000
0000
0010
,
0000
1000
0000
0001
0000
0000
1000
0000
,
0100
0000
0000
0000
0010
0000
0000
0100
,
0000
1000
0000
0010
0000
0100
0000
0001
,
0000
0000
0010
0000
0100
0000
0000
1000
,
0000
0000
0001
0000
1000
0000
0000
0010
,
0000
0000
0100
0000
0010
0000
0000
0100
,
0000
0000
0001
0000
1000
0001
1000
0000
,
0002
0000
1003
0100
,
1000
0001
0100
0000
0010
1000
0010
0000
,
0100
0000
0000
0001
0000
1000
0000
0001
,
0000
0010
0100
1000
,
1001
0000
0001
1000
,
0001
0010
0100
1000
,
0001
0100
0001
0000
1000
0010
1000
0001
,
0000
0000
1001
0000
0000
0000
0000
1001
,
0000
0000
0001
0000
0100
0000
0000
0010
,
0000
0000
1000
0000
0010
0000
0000
0100
,
0000
0000
0010
0000
1000
0000
0000
0100
,
0000
1000
0000
0001
0000
1000
0000
1001
,
0000
0000
0001
0000
0100
0000
0000
0001
,
0000
0000
0010
0000
0100
0000
0000
0010
,
0000
0000
0100
0000
1000
0000
0000
0001
,
0000
1000
0000
1000
0000
0001
0000
1001
,
0000
0000
1000
0000
0010
0000
0000
0100
,
0000
0000
0010
0000
1000
0000
0000
0001
,
0000
0000
0010
0000
0100
0000
0000
1000
,
0000
0000
0001
0000
0100
0000
0000
0001
,
0000
0000
0010
0000
0001
0000
0000
1000
,
0000
0000
0001
0000
1000
0000
0000
0100
,
0000
0100
0000
1000
0000
1000
0000
0001
,
0000
0001
0000
1000
0000
0100
0010
0000
,
1001
0001
0100
0010
,
0100
0100
0100
0000
0001
0000
1000
0000
,
0002
2003
3020
0130
,
0010
1000
0010
0000
0100
0000
0001
0000
,
1000
1000
1000
0000
0001
0000
0100
0000
,
0010
0010
0010
0000
0100
0000
0001
0000
,
1000
0100
0010
0001
,
0100
0010
0220
0330
,
2000
3200
2300
3002
,
2003
3020
2030
3002
,
0203
0320
0230
0302
,
1003
0000
0000
0010
0000
0000
1000
0000
,
1001
0000
0001
1000
,
0010
0000
0100
0010
,
1000
0000
0001
0000
0010
0000
0000
0100
,
0000
0000
1000
0000
0001
0000
0001
1000
,
0000
1001
0000
0000
0000
0000
0000
0110
,
0000
0000
0000
0000
0000
0000
0000
1001
,
0000
0000
0000
1000
0000
0001
0000
1000
,
0000
0000
0000
0000
0000
0000
0000
1000
,
0000
0010
0000
0100
0000
0001
0000
1001
,
0000
0000
0001
0000
0100
0000
0000
0010
,
0000
0000
0100
0000
0001
0000
0000
1000
,
0000
0000
0100
0000
0010
0000
0000
0001
,
0000
0000
1000
0000
0001
1000
0000
1001
,
0000
0000
1000
0000
0010
0000
0000
0100
,
0000
0000
0010
0000
1000
0000
0000
0001
,
0000
0000
0010
0000
0100
0000
0000
0010
,
0000
0000
0001
0000
1000
0001
0000
1001
,
0000
0000
1000
0000
0100
0000
0000
0110
,
0000
0000
0010
0000
0001
0000
0000
0011
,
0000
0001
0000
1000
0000
0001
0000
1000
,
0000
0001
0000
0100
0000
0010
0100
0000
,
0002
0103
2000
3100
,
0002
0103
2000
3100
,
0002
0013
2000
3010
,
0002
0013
2000
3010
,
0002
0000
1003
0000
0010
0100
0010
0000
,
1000
0000
0100
0000
0010
0001
0010
0000
,
0001
0100
0001
0000
1000
0010
1000
0000
,
0001
1000
0001
0000
1000
0100
0010
0002
,
0003
0000
0000
0000
;

//--------------- dance-single - Fred-104 ----------------
#NOTES:
     dance-single:
     Fred-104:
     Medium:
     12:
     :
0000
0000
0000
0000
,
0000
0000
0000
0000
,
0000
0000
0000
0000
,
1000
0100
1000
0000
0001
0002
0000
1003
,
0001
0000
0100
0010
1000
0010
0200
0000
,
0301
1000
0001
0000
0010
0020
0000
0130
,
0020
0000
0032
0000
0103
0010
2000
0000
,
3001
1000
0001
0000
1000
2000
0000
3010
,
0100
0000
0010
1000
0001
1000
0200
0000
,
0310
0001
0010
0000
0001
1000
0001
0000
,
1000
0000
0000
0000
1000
0000
0001
0000
0000
0000
0001
0000
0100
0000
0000
0010
0000
0000
0110
0000
0000
0000
0000
0000
,
1001
0000
0001
1000
0001
0010
0000
0100
,
0000
0100
1000
0001
1000
0010
0100
0000
,
0110
0000
0001
1000
0001
1000
0000
0100
,
0000
0010
0001
1000
0000
0001
0100
0010
,
0000
0100
0001
0000
1000
0000
0001
0010
,
0000
0100
1000
0000
0001
0000
0100
0010
,
0000
1000
0010
0000
0100
0000
0001
1000
,
0000
0001
0010
0100
1000
0001
1000
0000
,
1001
0000
0001
0100
0010
0100
0000
0001
,
0000
1000
0100
0000
0010
0100
1000
0000
,
0001
1000
0010
0000
1000
0001
0000
1000
,
0000
0010
0000
0100
0000
0001
1000
1001
,
0000
0001
0100
0000
0010
0000
1000
0100
,
0000
0010
0001
0000
1000
0000
0001
0100
,
0000
0001
1000
0000
0001
0010
0000
0110
,
0000
1000
0001
0100
0010
1000
0010
0100
,
0001
1000
0001
0000
0100
0010
1000
0000
,
0001
0010
0100
1000
0001
0100
0010
1000
,
0002
0000
1003
2000
0000
3100
0010
0001
,
0010
0001
1000
0001
0100
0010
0100
0000
,
0002
0203
2300
3200
,
0301
0100
1000
0000
1000
0100
0001
0000
,
0001
0010
0100
1000
0001
0010
0100
1000
,
0000
0001
1001
0000
0000
0001
1000
0010
,
0000
1000
0001
1000
0100
1000
0001
0010
,
0000
0001
1000
0010
0100
0010
1000
0001
,
0000
0010
0100
0010
0100
1000
0001
0100
,
0000
0001
1000
0010
0000
1000
0001
0100
,
0000
0001
0010
0100
1000
0001
0000
1001
,
0000
1000
0001
0100
0010
1000
0000
1100
,
0000
0100
0010
0001
1000
0010
0000
0110
,
0000
0100
0001
1000
0000
0001
0010
0200
,
0000
1300
0001
0100
0010
1000
0000
1001
,
0000
0001
1000
0100
0010
0100
0000
0110
,
0000
0010
0001
1000
0001
0100
0010
0100
,
0000
0001
1000
0001
0010
0100
1000
0100
,
0000
1000
0010
0100
0001
1000
0000
1001
,
0000
0001
0010
0100
0010
0001
0000
1001
,
0000
1000
0100
0001
0000
1000
0010
0001
,
0000
1000
0100
0010
0000
0001
1000
0010
,
0200
0000
0310
0010
0100
0001
1000
0001
,
0010
0100
1000
0001
0100
0010
0100
0000
,
0002
0000
0000
0000
0000
0000
1003
0000
0000
0000
1000
0000
0001
0000
0000
0000
0001
0000
0100
0000
0000
0010
0000
0000
,
0100
0001
1000
0010
0100
0001
0020
0000
,
0130
1000
0010
1000
0100
1000
0001
0000
,
0100
0001
1000
0001
0010
0001
0100
0000
,
0001
0010
0100
1000
0010
0100
0001
0000
,
1000
0001
0100
0010
0200
0000
0302
0000
,
2003
0000
3200
0000
0310
0001
2000
0000
,
3002
0000
0103
0010
0100
0001
2000
0000
,
3200
0000
0320
0000
0031
1000
0002
0000
,
1003
0100
0000
0010
0100
0000
1000
0001
,
1000
0000
1001
0000
0001
1000
0001
0100
,
0010
0000
0100
0001
1000
0001
0010
0100
,
0010
0001
0100
0010
1000
0010
0100
0010
,
0000
1000
0001
0100
0010
1000
0001
0100
,
0000
0110
0000
0000
0000
0000
0000
1001
,
0000
0000
0000
0000
0000
0000
0000
0110
,
0000
0000
0000
0001
0000
1000
0000
1001
,
0000
0000
0000
0000
0000
0000
0000
1100
,
0000
1010
0000
0101
0000
0011
0000
1001
,
0000
0001
1000
0001
0100
0010
0000
0110
,
0000
0100
0001
1000
0001
0010
0000
0011
,
0000
0001
1000
0001
0100
0010
0000
1010
,
0000
1000
0100
0010
0001
1000
0001
0100
,
0000
0001
0010
0001
1000
0001
0000
0101
,
0000
0001
1000
0010
0100
0010
0000
1010
,
0000
1000
0001
0100
0010
1000
0000
1100
,
0000
0100
0010
0001
0100
0010
0000
0110
,
0000
0100
0001
1000
0001
0010
0000
0011
,
0000
1001
0000
1100
0000
1100
0000
0010
,
0000
0101
0000
0010
0000
1000
0100
0001
,
0000
1000
0010
0001
0000
1000
0001
0100
,
0001
0000
0001
0100
0000
0000
0010
0000
0010
1000
0000
0000
,
0100
0000
0100
0010
0000
0000
0001
0000
1000
0001
0000
0000
,
1000
0000
1000
0100
0000
0100
0010
0000
0010
0001
0000
0001
,
0100
0000
0100
0010
0000
0010
1000
0000
1000
0001
0000
1000
,
0000
0000
0001
0100
0010
1000
0001
0100
,
0001
1000
0100
0010
0001
1000
0010
0000
,
0100
0001
1000
0001
0100
0001
1000
0000
,
0001
0000
1000
0000
0100
0000
0010
0000
0001
0000
1000
0000
0010
0100
0010
0200
,
0300
0000
0000
0000
;

//--------------- dance-single - Fred-104 ----------------
#NOTES:
     dance-single:
     Fred-104:
     Hard:
     16:
     :
0000
0000
0000
0000
,
0000
0000
0000
0000
,
0000
0000
0000
0000
,
1000
0001
1000
0010
0100
0200
0000
0301
,
2000
0000
3001
0010
0100
0001
0100
0010
,
0001
1000
0010
1000
0001
0002
0000
0103
,
0010
1000
0001
1000
0100
0010
0002
0000
,
1003
0001
0100
0010
0100
0200
0000
0301
,
2000
0000
3001
0010
0100
0001
0100
0010
,
0001
0000
1000
0000
0001
0000
0100
0000
0010
0000
1000
0001
1000
0001
1000
0000
,
0001
0000
0000
0000
0010
0000
0000
0000
0100
0000
0000
0000
1000
0000
0000
0000
0100
0000
0000
0000
0010
0000
0000
0000
0001
0000
0000
1000
0000
0000
0001
0000
0000
1000
0000
0000
0002
0000
0000
0000
0000
0000
0000
0000
0000
0003
0000
0000
,
1001
0000
1000
0100
1000
1001
0000
1010
,
0000
0110
0100
0001
1000
0100
0010
0001
,
0100
0001
1000
0001
0010
0110
0000
1100
,
0000
0000
1000
0001
0100
0000
0010
0000
1000
0000
0001
0000
0010
0000
0210
0000
,
0000
1300
0010
0100
1000
0100
0010
1020
,
0000
1030
0100
0010
1000
0010
0100
2100
,
0000
3001
0100
0010
0001
0010
0100
0102
,
0000
0000
1003
0100
0010
0000
0001
0000
1000
0100
1000
0000
0001
0100
0001
0000
,
1000
0000
0001
1000
0010
1010
0000
1100
,
0000
0110
0010
0001
1000
0001
0100
0010
,
0100
0001
1000
0001
0010
0011
0000
1010
,
0000
0011
0000
1001
0000
0001
1000
1200
,
0000
0310
0100
1000
0001
0100
0010
0210
,
0000
0301
1000
0010
1000
0001
0010
0210
,
0000
1300
0010
0001
1000
0100
0001
1002
,
0000
0000
1003
0100
1000
0100
0010
0100
0010
0100
0010
0001
0010
0001
1000
0000
,
0001
0100
0001
1000
0001
0010
0100
1000
,
0001
0100
0010
1000
0001
1000
0100
0010
,
0200
0000
1000
2300
0000
3001
1000
0020
,
0000
0000
0130
0001
0100
0000
0001
1000
0001
0000
1000
0100
1000
0001
0100
0000
,
0001
0100
0001
0000
1000
0010
1000
0000
0001
0010
0001
0000
1000
0100
1000
0000
,
0001
0010
0100
0000
0010
0100
1000
0000
0010
1000
0001
0000
1000
0001
0100
0000
,
0001
0010
0001
0010
0100
0010
0100
0000
1000
0100
1000
0100
0010
0100
0010
0000
,
0000
0000
0001
0000
1001
0000
0000
0000
1000
0001
1000
0010
0100
0000
0110
0000
,
0000
0000
0100
0001
1000
0000
0100
0000
1000
0000
0001
0000
0000
0000
1001
0000
,
0000
0000
1000
0100
1000
0000
0001
0000
0100
0000
0010
0000
0000
0000
0110
0000
,
0000
0000
0100
0001
1000
0000
0001
0000
1000
0000
0100
0000
0000
0000
0011
0000
,
0000
0000
0001
1000
0001
0000
0101
0000
0000
0000
1000
0001
1000
0000
1100
0000
,
0000
0000
0100
0010
0001
0000
1000
0000
0010
0000
0110
0000
0000
0000
0101
0000
,
0000
0000
0001
0010
0100
0000
1000
0000
0001
0000
0101
0000
0000
0000
1001
0000
,
0000
0000
1000
0001
0100
0000
0010
0000
0100
0000
0101
0000
0000
0000
1001
0000
,
0000
0000
0001
1000
0100
0000
0110
0000
0000
0000
0010
0001
1000
0001
0200
0000
,
0000
0000
0301
1000
0100
0000
0010
0000
0001
1000
0010
0000
0100
0000
0101
0000
,
0000
0000
0001
1000
0100
0000
0010
0000
0001
1000
0010
0100
0010
0000
0110
0000
,
0000
0110
0010
1000
1001
0001
0010
0011
,
0000
0000
0000
0101
0000
0000
0100
0000
0001
0000
1000
0000
0100
0000
0000
0010
0000
0000
0001
0000
0000
1001
0000
0000
,
0000
0000
1000
0100
0010
0000
0001
0000
1000
0100
0010
0000
0001
0000
1001
0000
,
0000
0000
0001
0100
0010
0000
1000
0000
0001
0100
0010
0000
1000
0000
1001
0000
,
0000
1000
0100
0110
0000
0001
0100
0110
,
0000
0000
1000
0000
0001
0000
1001
0000
0000
0000
0001
0100
0010
1000
0001
0000
,
2000
0000
0000
0000
3010
0000
1000
0001
1000
0000
0100
0010
0001
1000
0010
0000
,
0100
0000
0001
1000
0100
0000
0010
0000
0001
0000
0100
0000
0010
0000
0100
0000
,
0002
0000
0000
0000
0000
0000
0000
0000
0000
0000
0000
0000
1003
0000
0000
0000
0001
0000
0000
0000
0010
0000
0000
0000
0100
0000
0000
0000
1000
0000
0000
0000
0001
0000
0000
0000
0100
0000
0000
0010
0000
0000
0100
0000
0000
0010
0000
0000
,
0100
0000
0001
0010
0100
0000
1000
0010
0100
0000
0001
1000
0002
0000
0000
0000
,
1003
0000
0001
0100
0001
0000
1000
0000
0001
0010
0001
1000
0010
0000
0100
0000
,
0001
0000
0010
0100
1000
0100
1000
0000
0002
0000
0203
0000
0320
0000
2030
0000
,
3001
0010
0001
0000
1000
0000
0001
0100
0001
0000
1000
0100
0010
0001
1000
0000
,
0001
0000
0000
1000
0000
0000
0010
0000
0000
0000
0000
0000
0100
0000
0000
0001
0000
0000
1000
0000
0000
0000
0000
0000
0001
0000
0000
0000
0010
0000
0000
0000
0100
0000
0000
0000
0010
0000
0000
0000
0100
0000
0000
0000
1000
0000
0000
0000
,
0002
0000
2003
0000
3200
0310
0200
1300
,
0002
0000
0203
0310
0200
1300
0200
0301
,
2000
0000
3002
0000
2003
3200
0302
0203
,
1300
0001
0010
0100
1000
0000
0001
1000
0010
0100
0001
0000
1000
0001
1000
0001
,
1000
0000
0100
0010
0100
0000
1000
0000
0001
0100
0001
0000
1000
0010
1000
0000
,
0001
0000
0010
0100
0010
0100
1000
0000
0001
0100
0001
0000
1000
0010
1000
0000
,
0001
0000
0010
0001
0010
0000
0100
1000
0100
1000
0001
0000
1000
0010
0100
0000
,
0000
0000
0001
0100
0010
1000
0010
1000
0001
1000
0001
1000
0001
0010
0100
0000
,
0000
1100
0000
0000
0000
0000
0000
1001
,
0000
0000
0000
0000
0000
0000
0000
0110
,
0000
0000
0000
1010
1000
0001
0000
1001
,
0000
0000
0000
0000
0000
0000
0000
1100
,
0000
0101
0000
1010
0000
0011
0000
1001
,
0000
0000
1000
0010
0100
0000
0001
0000
1000
0000
1100
0000
0000
0000
0110
0000
,
0000
0000
0010
0001
1000
0000
0001
0000
0100
0000
0110
0000
0000
0000
1001
0000
,
0000
0000
0001
0010
0100
0000
1000
0000
0001
0000
1001
0000
0000
0000
1010
0000
,
0000
0000
1000
0001
0100
0000
0001
1000
0100
0010
0001
1000
0010
0000
0210
0000
,
0000
0000
0301
0100
0010
0000
0100
0000
0001
0000
1000
0000
0100
0000
1100
0000
,
0000
0000
0100
0000
0010
0000
0001
0000
1000
0001
0100
0001
1000
0100
0010
0000
,
0000
0011
0001
1000
0001
0100
0010
1010
,
0000
0000
0000
1100
0000
0000
1000
0000
0001
0000
1000
0000
0010
0000
0000
0100
0000
0000
0010
0000
0000
1010
0000
0000
,
0000
1001
1000
0100
0010
0001
1000
1010
,
0000
0011
0000
1100
0000
0101
0100
0010
,
0000
0000
1100
0000
0100
0000
0010
0000
0000
0000
0001
1000
0010
0000
0110
0000
,
0000
0000
0001
1000
0100
0000
1100
0000
0000
0000
0100
0000
1000
0000
0001
0000
,
1000
0100
0010
0001
0010
0100
1000
0010
0100
0001
0100
0010
,
1000
0100
0001
1000
0010
0001
1000
0010
0100
0002
0000
0000
,
1003
0100
0010
0100
0010
0001
0100
0010
0100
0010
1000
0001
,
1000
0100
0010
1000
0010
0001
1000
0010
0100
1000
0100
0001
,
0000
0000
0000
0000
1000
0001
0100
0000
0001
1000
0010
0000
0100
0001
1000
0000
,
0001
0010
0100
0000
1000
0100
0010
0000
0001
1000
0010
1000
0001
1000
0100
0000
,
0010
0001
1000
0000
0010
1000
0001
0000
0010
0100
1000
0010
0100
0001
1000
0000
,
0001
1000
0100
0000
1000
0001
0010
0000
0001
0100
0010
1000
0100
0010
0001
2000
,
3000
0000
0000
0000
;

//--------------- dance-double - Fred-104 ----------------
#NOTES:
     dance-double:
     Fred-104:
     Easy:
     8:
     :
00000000
00000000
00000000
00000000
,
00000000
00000000
00000000
00000000
,
00000000
00000000
00000000
00000000
,
00001000
00000000
00010000
00000000
00001000
00000000
00000000
00001000
,
00001000
01000000
00010000
00000000
,
01000000
00000000
00010000
00000000
10000000
00000000
00000000
10000000
,
10000000
00100000
10000000
00000000
,
01000000
00000000
00100000
00000000
01000000
00000000
00000000
01000000
,
01000000
00001000
00010000
00000000
,
00001000
00001000
00010000
00010000
,
00001000
00010000
00022000
00033000
,
00010000
00000000
00000000
00000000
00001000
00000000
00000000
00010000
,
00000000
00010000
00000000
00000000
00000010
00000000
00001000
00000000
,
00000010
00000000
00000000
00000000
00000100
00000000
00000000
00000001
,
00000000
00000001
00000000
00000000
00000000
00001000
00000000
00000010
,
00000000
00000100
00000100
00000000
00000001
00000000
00000000
00001000
,
00000000
00000000
00000010
00000000
00010000
00000000
00000000
00001000
,
00000000
00000000
00010000
00000000
00001000
00000000
00000000
00100000
,
00000000
00001000
00010000
00001000
,
00011000
00000000
00000000
00000000
00001000
00000000
00000000
00100000
,
00000000
00010000
00000000
10000000
00000000
00000000
00010000
00000000
,
01000000
00000000
00000000
00000000
00100000
00000000
00000000
01000000
,
00000000
00010000
00000000
10000000
00000000
01000000
00000000
00100000
,
00000000
00000000
00001000
00000000
00010000
00000000
00000000
00001000
,
00000000
00000000
01000000
00000000
00001000
00000000
00000000
00010000
,
00000000
00000000
00001000
00000000
00010000
00000000
00000000
00001000
,
00000000
00000000
00000100
00000000
00000001
00001000
00000001
00000000
,
00002000
00000000
00003001
00000100
,
00000001
00001000
00000010
00000000
00010000
00001000
00010000
00000000
,
00001000
00000000
00000000
00010000
00000000
00010000
00000000
00010000
,
00000000
00001000
00010000
00001000
,
00011000
00000000
00001000
00010000
,
00100000
01000000
00001000
00010000
,
01000000
00100000
00010000
00000000
10000000
00010000
10000000
01000000
,
00000000
00000000
01100000
00000000
00000000
00000000
00000000
00011000
,
00000000
00000000
00010000
00000000
00001000
00000000
00000000
00010000
,
00000000
00000000
00000010
00000000
00010000
00000000
00000000
00001000
,
00000000
00000000
00010000
00000000
00000100
00000000
00000000
00010000
,
00000000
00000010
00000000
00010000
00000000
00001000
00000000
00011000
,
00000000
00000000
00010000
00000000
00000010
00000000
00000000
00001000
,
00000000
00000000
00000010
00000000
00000100
00000000
00000000
00000010
,
00000000
00000000
00001000
00000000
00000010
00000000
00000000
00010000
,
00000000
00010000
00000000
00001000
00000000
00001000
00000000
00011000
,
00000000
00000000
00001000
00000000
01000000
00000000
00000000
00001000
,
00000000
00000000
00010000
00000000
00001000
00000000
00000000
00100000
,
00000000
00000000
00001000
00000000
01000000
00000000
00000000
00010000
,
00000000
00000000
01000000
00000000
00010000
00000000
00000000
01000000
,
00000000
00000000
00100000
00000000
01000000
00000000
00000000
00010000
,
00000000
00000000
00100000
00000000
00010000
00000000
00000000
00100000
,
00000000
00100000
00000000
00001000
00000000
00001000
00000000
00010000
,
00000000
00010000
00000000
00001000
00000000
00010000
00001000
00000000
,
00011000
00010000
01000000
00100000
,
00010000
10000000
01000000
00000000
00100000
00000000
00100000
00000000
,
00002000
00023000
00032000
00013000
,
00000010
00001000
00000001
00000000
00000010
00000000
00000100
00000000
,
00000010
00000010
00000010
00000000
00000001
00000000
00000010
00000000
,
00000100
00000100
00000100
00000000
00010000
00000000
00001000
00000000
,
00010000
01000000
00100000
00010000
,
10000000
00010000
20020000
30030000
,
20000000
30020000
02030000
03002000
,
00023000
00030200
00002300
00003002
,
00000203
00000320
00020030
00032000
,
00103000
00000000
00000000
00001000
00000000
00000000
00010000
00000000
,
00011000
00000000
00010000
00001000
,
00000100
00000000
00001000
00010000
,
01000000
00000000
00010000
00000000
00001000
00000000
00000000
00010000
,
00000000
00000000
00001000
00000000
00010000
00000000
00001000
00010000
,
00000000
00011000
00000000
00000000
00000000
00000000
00000000
00010010
,
00000000
00000000
00000000
00000000
00000000
00000000
00000000
00101000
,
00000000
00000000
00000000
00001000
00000000
00010000
00000000
00001000
,
00000000
00000000
00000000
00000000
00000000
00000000
00000000
00001000
,
00000000
00010000
00000000
00100000
00000000
10000000
00000000
10010000
,
00000000
00000000
10000000
00000000
01000000
00000000
00000000
00100000
,
00000000
00000000
00100000
00000000
00001000
00000000
00000000
00010000
,
00000000
00000000
00000010
00000000
00001000
00000000
00000000
00000010
,
00000000
00000000
00000100
00000000
00000001
00000010
00000000
00000110
,
00000000
00000000
00001000
00000000
00000100
00000000
00000000
00010000
,
00000000
00000000
00001000
00000000
01000000
00000000
00000000
00001000
,
00000000
00000000
00010000
00000000
00001000
00000000
00000000
00100000
,
00000000
00000000
00010000
00000000
01000000
00100000
00000000
01100000
,
00000000
00000000
10000000
00000000
01000000
00000000
00000000
00110000
,
00000000
00000000
00001000
00000000
00010000
00000000
00000000
00010010
,
00000000
00010000
00000000
00001000
00000000
00001000
00000000
00010000
,
00000000
00010000
00000000
00000100
00000000
00001000
00000001
00000000
,
00002000
00003100
00000002
00000103
,
00002000
00003010
00020000
00031000
,
00200000
00310000
20000000
30010000
,
20000000
31000000
00020000
01030000
,
10000000
00000000
01000000
00000000
00100000
00100000
00001000
00000000
,
00010000
00000000
00000010
00000000
00010000
00010000
00001000
00000000
,
00010000
00000100
00001000
00000000
00000100
00010000
00001000
00000000
,
01000000
00001000
00010000
00000000
00001000
00010000
01000000
20000000
,
30000000
00000000
00000000
00000000
;

//--------------- dance-double - Fred-104 ----------------
#NOTES:
     dance-double:
     Fred-104:
     Medium:
     12:
     :
00000000
00000000
00000000
00000000
,
00000000
00000000
00000000
00000000
,
00000000
00000000
00000000
00000000
,
00000001
00001000
00000001
00000000
00001000
00002000
00000000
00003010
,
00010000
00000000
00001000
00100000
00010000
10000000
00200000
00000000
,
01300000
00010000
10000000
00000000
01000000
00200000
00000000
00301000
,
00020000
00000000
00030200
00000000
00001300
00000001
00000020
00000000
,
00000031
00000100
00001000
00000000
00010000
00020000
00000000
00130000
,
01000000
00000000
00010000
00100000
01000000
10000000
00020000
00000000
,
10030000
01000000
00010000
00000000
00001000
00000010
00000100
00000000
,
00001000
00000000
00000000
00000000
00000001
00000000
00000100
00000000
00000000
00000000
00000010
00000000
00001000
00000000
00000000
00000001
00000000
00000000
00001001
00000000
00000000
00000000
00000000
00000000
,
00000110
00000000
00000001
00000010
00000100
00010000
00000000
00001000
,
00000000
00001000
00100000
00010000
00100000
00001000
00010000
00000000
,
00011000
00000000
00001000
01000000
00010000
01000000
00000000
00001000
,
00000000
00001000
00010000
00001000
00000000
00010000
00000100
00010000
,
00000000
00000010
00001000
00000000
00000010
00000000
00010000
00001000
,
00000000
00100000
00001000
00000000
00010000
00000000
00001000
01000000
,
00000000
00001000
00010000
00000000
00000100
00000000
00010000
00001000
,
00000000
00010000
00001000
00000100
00000001
00001000
00000010
00000000
,
00000110
00000000
00000100
00000001
00001000
00000001
00000000
00000010
,
00000000
00000100
00000010
00000000
00001000
00010000
01000000
00000000
,
00100000
00010000
10000000
00000000
00100000
01000000
00000000
01000000
,
00000000
00010000
00000000
10000000
00000000
01000000
00100000
01100000
,
00000000
00100000
00001000
00000000
00010000
00000000
00000010
00010000
,
00000000
00001000
00100000
00000000
00001000
00000000
01000000
00001000
,
00000000
00010000
00000100
00000000
00010000
00001000
00000000
00011000
,
00000000
00001000
00010000
00000010
00010000
00001000
00010000
00000100
,
00001000
00000100
00000010
00000001
,
00000100
00001000
00010000
00001000
01000000
00100000
01000000
00010000
,
20000000
00000000
30100000
00200000
00000000
01300000
00010000
10000000
,
01000000
00100000
00001000
00010000
00001000
01000000
00001000
00000000
,
00020000
00032000
00003020
00002030
,
00013000
00001000
00000100
00000000
00001000
00010000
01000000
00000000
,
00010000
00001000
00010000
00000100
00000010
00000001
00000100
00001000
,
00000000
00010000
00011000
00000000
00000000
00001000
00010000
00001000
,
00000000
00010000
00001000
01000000
00001000
00010000
00001000
00100000
,
00000000
00010000
01000000
00100000
10000000
00100000
01000000
00010000
,
00000000
10000000
01000000
00100000
01000000
00010000
00001000
00000010
,
00000000
00000100
00001000
00000010
00000000
00000100
00000001
00001000
,
00000000
00000001
00000100
00001000
00010000
00001000
00000000
00011000
,
00000000
00001000
00010000
01000000
10000000
00010000
00000000
10010000
,
00000000
10000000
01000000
00010000
00001000
00010000
00000000
00011000
,
00000000
00010000
00001000
00000100
00000000
00000001
00001000
00000200
,
00000000
00000310
00000001
00001000
00000010
00000100
00000000
00001001
,
00000000
00000001
00000010
00001000
00010000
00001000
00000000
00011000
,
00000000
00001000
00010000
01000000
10000000
00100000
01000000
00010000
,
00000000
10000000
01000000
00100000
00010000
00100000
00001000
00010000
,
00000000
00000010
00001000
00000010
00000100
00000001
00000000
00001001
,
00000000
00000001
00000100
00000010
00000100
00000001
00000000
00000011
,
00000000
00000001
00000100
00001000
00000000
00010000
00100000
01000000
,
00000000
00010000
00100000
01000000
00000000
10000000
00100000
01000000
,
00020000
00000000
10030000
10000000
01000000
00100000
00001000
00001000
,
00010000
00000100
00001000
00001000
00000001
00000100
00000010
00000000
,
00000200
00000000
00000000
00000000
00000000
00000000
00000301
00000000
00000000
00000000
00001000
00000000
00000100
00000000
00000000
00000000
00001000
00000000
00000001
00000000
00000000
00000100
00000000
00000000
,
00000010
00000100
00001000
00010000
00100000
01000000
00020000
00000000
,
01030000
00100000
10000000
00010000
00100000
01000000
10000000
00000000
,
00010000
01000000
00100000
00010000
00001000
00010000
00001000
00000000
,
00000100
00000010
00001000
00000001
00000010
00000001
00001000
00000000
,
00000001
00001000
00000100
00010000
00002000
00000000
00023000
00000000
,
00032000
00000000
02003000
00000000
03001000
00010000
00002000
00000000
,
00023000
00000000
00031000
00010000
00000100
00010000
00002000
00000000
,
00023000
00000000
00030020
00000000
00010030
00001000
00020000
00000000
,
00031000
00001000
00000000
00010000
00010000
00000000
00001000
00010000
,
00001000
00000000
00011000
00000000
00001000
00010000
01000000
00100000
,
00010000
00000000
01000000
00100000
00010000
00001000
00000100
00000010
,
00010000
00001000
00010000
00000100
00001000
00000100
00010000
00001000
,
00000000
01000000
00010000
00100000
00001000
00010000
00000010
00010000
,
00000000
00011000
00000000
00000000
00000000
00000000
00000000
01001000
,
00000000
00000000
00000000
00000000
00000000
00000000
00000000
00010010
,
00000000
00000000
00000000
00010000
00000000
00001000
00000000
00011000
,
00000000
00000000
00000000
00000000
00000000
00000000
00000000
00101000
,
00000000
00001000
00000000
00010010
00000000
00010000
00000000
00011000
,
00000000
00010000
00001000
00000100
00000010
00001000
00000000
00001100
,
00000000
00000100
00000010
00000001
00001000
00000010
00000000
00000110
,
00000000
00000100
00000001
00000010
00001000
00010000
00000000
00011000
,
00000000
00001000
00010000
01000000
00100000
00001000
00010000
00001000
,
00000000
00010000
00100000
10000000
00010000
00100000
00000000
01100000
,
00000000
01000000
10000000
00010000
10000000
01000000
00000000
01100000
,
00000000
00100000
00001000
00010000
00001000
00100000
00000000
00101000
,
00000000
00001000
00010000
00000010
00010000
00001000
00000000
00011000
,
00000000
00010000
00000100
00001000
00000100
00010000
00000000
00010100
,
00000000
01001000
00000000
00010100
00000000
00011000
00000000
00001000
,
00000000
00010000
00001000
00010000
00000000
00010000
00001000
00000010
,
00000000
00001000
00010000
00100000
00000000
00010000
00001000
00010000
,
00001000
00000000
00010000
00000100
00000000
00000000
00001000
00000000
00000001
00000100
00000000
00000000
,
00000010
00000000
00001000
00000001
00000000
00000000
00000100
00000000
00000010
00000100
00000000
00000000
,
00001000
00000000
00010000
00100000
00000000
01000000
00010000
00000000
00100000
01000000
00000000
00000000
,
10000000
00000000
00010000
01000000
00000000
00001000
00010000
00000000
00001000
00100000
00000000
00001000
,
00000000
00000000
00010000
00001000
00000100
00000010
00010000
00000000
,
00001000
00000100
00000001
00001000
00000100
00000010
00000001
00000000
,
00000100
00000010
00000100
00001000
00010000
00100000
01000000
00000000
,
00010000
00000000
01000000
00000000
00100000
00000000
10000000
00000000
01000000
00000000
00100000
00000000
00001000
00010000
00001000
00020000
,
00030000
00000000
00000000
00000000
;

//--------------- dance-double - Fred-104 ----------------
#NOTES:
     dance-double:
     Fred-104:
     Hard:
     16:
     :
00000000
00000000
00000000
00000000
,
00000000
00000000
00000000
00000000
,
00000000
00000000
00000000
00000000
,
10000000
00010000
10000000
01000000
00100000
00200000
00000000
00301000
,
00020000
00000000
00031000
00000010
00000100
00001000
00000001
00000010
,
00000001
00000100
00000010
00000100
00000001
00000002
00000000
00001003
,
00000010
00010000
00001000
00010000
01000000
00100000
00020000
00000000
,
01030000
00100000
00010000
00001000
00000100
00000020
00000000
00010030
,
00002000
00000000
01003000
00001000
00010000
00001000
00000010
00000100
,
00001000
00000000
00000001
00000000
00000100
00000000
00000010
00000000
00010000
00000000
00001000
00010000
00001000
00010000
00001000
00000000
,
00100000
00000000
00000000
00000000
00001000
00000000
00000000
00000000
00010000
00000000
00000000
00000000
00000010
00000000
00000000
00000000
00001000
00000000
00000000
00000000
00000100
00000000
00000000
00000000
00010000
00000000
00000000
00001000
00000000
00000000
00010000
00000000
00000000
00001000
00000000
00000000
00020000
00000000
00000000
00000000
00000000
00000000
00000000
00000000
00000000
00030000
00000000
00000000
,
00011000
00000000
00010000
00001000
00000100
00000010
00000000
00000110
,
00000000
00000010
00001000
00000001
00000010
00001000
00010000
00001000
,
00100000
01000000
10000000
00010000
01000000
00100000
00000000
10100000
,
00000000
00000000
10000000
00100000
01000000
00000000
00100000
00000000
00010000
00000000
00001000
00000000
00000100
00000000
00000020
00000000
,
00000000
00001030
00000100
00000010
00000001
00000010
00001000
00020000
,
00000000
00130000
01000000
00010000
01000000
00100000
10000000
00020000
,
00000000
10030000
01000000
00010000
00001000
00000010
00000100
00002000
,
00000000
00000000
00003001
00001000
00000010
00000000
00000100
00000000
00000001
00000010
00000001
00000000
00001000
00000100
00001000
00000000
,
00000001
00000000
00000010
00000100
00001000
00001100
00000000
00010100
,
00000000
00011000
00010000
00000010
00010000
00001000
00100000
00001000
,
00010000
00001000
01000000
00001000
00010000
00011000
00000000
01001000
,
00000000
00011000
00000000
00010010
00000000
00010000
00000010
00002010
,
00000000
00003001
00000010
00001000
00010000
01000000
00100000
00120000
,
00000000
10030000
00100000
01000000
00010000
00100000
00001000
00012000
,
00000000
00013000
00001000
00000010
00000001
00001000
00000100
00000120
,
00000000
00000000
00000031
00000100
00000010
00001000
00000001
00000000
00001000
00000100
00010000
00000000
00001000
00010000
00001000
00000000
,
00100000
00001000
00010000
00001000
00000010
00001000
00010000
00001000
,
00100000
00010000
01000000
00001000
00010000
00000100
00001000
00000100
,
00000020
00000000
00000001
00000032
00000000
00001003
00000001
00000200
,
00000000
00000000
00000310
00001000
00000010
00000000
00010000
00001000
00010000
00000000
00001000
00100000
00010000
10000000
00010000
00000000
,
01000000
00100000
01000000
00000000
00010000
00000000
10000000
00000000
01000000
00100000
01000000
00000000
00100000
00000000
00001000
00000000
,
00010000
00001000
00010000
00000000
00000010
00001000
00000010
00000000
00010000
00001000
00010000
00000000
00000100
00001000
00000100
00000000
,
00001000
00000010
00000100
00000010
00001000
00000010
00000100
00000000
00000001
00000010
00000100
00000010
00000001
00001000
00000100
00000000
,
00000000
00000000
00010000
00000000
00011000
00000000
00000000
00000000
00001000
00010000
00001000
00010000
00001000
00000000
01001000
00000000
,
00000000
00000000
00001000
00010000
00001000
00000000
00100000
00000000
00001000
00000000
00010000
00000000
00000000
00000000
00010010
00000000
,
00000000
00000000
00000010
00001000
00000010
00000000
00000100
00000000
00000001
00000000
00001000
00000000
00000000
00000000
00001001
00000000
,
00000000
00000000
00000001
00000010
00000100
00000000
00010000
00000000
00001000
00000000
00010000
00000000
00000000
00000000
00011000
00000000
,
00000000
00000000
00001000
00100000
00001000
00000000
00011000
00000000
00000000
00000000
00010000
00000010
00010000
00000000
00011000
00000000
,
00000000
00000000
00010000
00001000
01000000
00000000
00001000
00000000
00010000
00000000
00011000
00000000
00000000
00000000
00101000
00000000
,
00000000
00000000
00001000
01000000
00010000
00000000
01000000
00000000
00100000
00000000
01100000
00000000
00000000
00000000
10010000
00000000
,
00000000
00000000
10000000
01000000
00100000
00000000
00001000
00000000
00010000
00000000
00011000
00000000
00000000
00000000
00010100
00000000
,
00000000
00000000
00001000
00000001
00000010
00000000
00000110
00000000
00000000
00000000
00000100
00001000
00000001
00001000
00000020
00000000
,
00000000
00000000
00000130
00000001
00000100
00000000
00000001
00000000
00001000
00000100
00001000
00000000
00000100
00000000
00010100
00000000
,
00000000
00000000
00010000
00000010
00010000
00000000
00001000
00000000
00100000
00010000
00100000
00000000
00001000
00000000
00011000
00000000
,
00000000
00001000
00010000
01000000
00100000
00001000
00010000
00011000
,
00000000
00000000
00000000
00010000
00000000
00000000
00001000
00000000
00000100
00000000
00000010
00000000
00010000
00000000
00000000
00001000
00000000
00000000
00010000
00000000
00000000
00011000
00000000
00000000
,
00000000
00000000
00010000
00000100
00001000
00000000
00000010
00000000
00010000
00000010
00001000
00000000
00000100
00000000
00010100
00000000
,
00000000
00000000
00010000
00001000
00100000
00000000
00001000
00000000
00010000
00001000
01000000
00000000
00010000
00000000
10010000
00000000
,
00000000
10000000
01000000
01100000
00000000
00001000
00010000
00011000
,
00000000
00000000
00000010
00000000
00000100
00000000
00000110
00000000
00000000
00000000
00000001
00001000
00000001
00000000
00000100
00000000
,
00000020
00000000
00000000
00000000
00001030
00000000
00000001
00000100
00000001
00000000
00001000
00000100
00001000
00000000
00000010
00000000
,
00010000
00000000
00001000
00010000
00001000
00000000
00100000
00000000
00010000
00000000
00100000
00000000
01000000
00000000
10000000
00000000
,
00020000
00000000
00000000
00000000
00000000
00000000
00000000
00000000
00000000
00000000
00000000
00000000
10030000
00000000
00000000
00000000
00010000
00000000
00000000
00000000
10000000
00000000
00000000
00000000
01000000
00000000
00000000
00000000
00100000
00000000
00000000
00000000
00001000
00000000
00000000
00000000
00010000
00000000
00000000
00001000
00000000
00000000
00010000
00000000
00000000
00001000
00000000
00000000
,
00010000
00000000
00000010
00010000
00001000
00000000
00100000
00001000
00010000
00000000
00000010
00001000
00000002
00000000
00000000
00000000
,
00000103
00000000
00000010
00001000
00000001
00000000
00000010
00000000
00000100
00000010
00000001
00001000
00000010
00000000
00010000
00000000
,
00001000
00000000
00010000
01000000
00100000
00010000
10000000
00000000
00200000
00000000
02300000
00000000
03020000
00000000
20030000
00000000
,
31000000
00100000
00010000
00000000
01000000
00000000
00001000
00010000
00000100
00000000
00001000
00000000
00000001
00000010
00000100
00000000
,
00001000
00000000
00000000
00000100
00000000
00000000
00000010
00000000
00000000
00000000
00000000
00000000
00000001
00000000
00000000
00001000
00000000
00000000
00000010
00000000
00000000
00000000
00000000
00000000
00000100
00000000
00000000
00000000
00000010
00000000
00000000
00000000
00000100
00000000
00000000
00000000
00001000
00000000
00000000
00000000
00010000
00000000
00000000
00000000
00100000
00000000
00000000
00000000
,
02000000
00000000
03020000
00000000
20030000
31000000
00200000
00301000
,
00020000
00000000
00030020
00001030
00000200
00000301
00000200
00001300
,
00000200
00000000
00020300
00030010
00020000
00032000
00003020
00002030
,
00013000
00000010
00001000
00000010
00010000
00000000
00000010
00010000
00001000
00010000
00000010
00000000
00010000
00001000
00100000
00001000
,
00010000
00000000
00001000
00000000
00011000
00000000
00000000
00000000
00010000
00000000
00000100
00001000
00000001
00000000
00000100
00000000
,
00000110
00000000
00000010
00000100
00001000
00010000
00100000
01000000
,
00010000
00000000
00100000
01000000
10000000
00000000
00100000
01000000
00010000
10000000
00010000
00000000
10000000
01000000
00100000
00000000
,
00000000
00000000
00001000
00010000
00001000
00010000
00000010
00001000
00000010
00001000
00000001
00001000
00000100
00000010
00000001
00000000
,
00000000
00000110
00000000
00000000
00000000
00000000
00000000
00001001
,
00000000
00000000
00000000
00000000
00000000
00000000
00000000
00011000
,
00000000
00000000
00000000
10010000
10000000
01000000
00000000
01100000
,
00000000
00000000
00000000
00000000
00000000
00000000
00000000
01001000
,
00000000
00010100
00000000
00101000
00000000
00010010
00000000
00011000
,
00000000
00000000
00010000
00001000
00010000
00000000
00000010
00000000
00001000
00000000
00001001
00000000
00000000
00000000
00000110
00000000
,
00000000
00000000
00000001
00001000
00000010
00000000
00010000
00000000
00001000
00000000
00011000
00000000
00000000
00000000
00010100
00000000
,
00000000
00000000
00010000
00001000
00010000
00000000
00001000
00000000
01000000
00000000
01010000
00000000
00000000
00000000
10010000
00000000
,
00000000
00000000
00010000
10000000
00100000
00000000
10000000
00010000
01000000
00000000
00100000
10000000
00010000
00000000
00210000
00000000
,
00000000
00000000
00301000
00010000
00001000
00000000
00010000
00000000
00000010
00000000
00001000
00000000
00000010
00000000
00010010
00000000
,
00000000
00000000
00010000
00000000
00000100
00000000
00001000
00000000
00000001
00000100
00000010
00000100
00000001
00001000
00000100
00000000
,
00000000
00000110
00000010
00000001
00001000
00000010
00010000
00010100
,
00000000
00000000
00000000
00011000
00000000
00000000
00010000
00000000
00000010
00000000
00001000
00000000
00000100
00000000
00000000
00010000
00000000
00000000
00001000
00000000
00000000
00101000
00000000
00000000
,
00000000
00011000
00001000
00010000
00100000
01000000
00010000
01010000
,
00000000
00011000
00010000
00000010
00000000
00011000
00001000
00100000
,
00000000
00011000
00010000
00000100
00000000
00011000
00000000
01001000
,
00000000
00011000
00010000
00010100
00000000
00010000
00001000
00000100
,
00000010
00001000
00000001
00000010
00000001
00000100
00000010
00000100
00001000
00010000
00100000
01000000
,
00010000
01000000
00100000
10000000
01000000
10000000
00010000
10000000
01000000
00200000
00000000
00000000
,
00301000
00010000
00000100
00010000
00001000
01000000
00001000
00010000
00000010
00001000
00000001
00001000
,
00000001
00000010
00000100
00000010
00001000
00010000
01000000
00100000
00010000
10000000
00010000
01000000
,
00000000
00000000
00000000
00000000
00001000
00010000
00000010
00000000
00001000
00000010
00000100
00000000
00000001
00001000
00000100
00000000
,
00000010
00000001
00001000
00000000
00000010
00010000
00001000
00000000
00100000
00010000
10000000
00000000
00010000
10000000
01000000
00000000
,
00100000
01000000
10000000
00000000
00010000
10000000
00100000
00000000
01000000
00010000
10000000
00000000
01000000
00100000
00001000
00000000
,
00010000
00000100
00001000
00000000
00000001
00001000
00000010
00000000
00001000
00000100
00000010
00000001
00000100
00000010
00001000
00000002
,
00000003
00000000
00000000
00000000
;
