#TITLE:Kill The Beat;
#ARTIST:lapix;
#BANNER:Kill The Beat.png;
#BACKGROUND:Kill The Beat-bg.png;
#CDTITLE:./CDTitles/DANCERUSH STARDOM.png;
#MUSIC:Kill The Beat.ogg;
#SAMPLESTART:36;
#SAMPLELENGTH:15;
#BPMS:0=120;
#BGSTAGE:4;

//--------------- dance-single - Fred-104 ----------------
#NOTES:
     dance-single:
     Fred-104:
     Beginner:
     1:
     :
0000
0000
0000
0000
,
0000
0000
0000
0000
,
0000
0000
0000
0000
,
0000
0000
0000
0000
,
0000
0000
0000
0000
,
0000
0000
0000
0000
,
1000
0000
0000
0000
,
0000
0000
0000
0000
,
0001
0000
0000
0000
,
0000
0000
0000
0000
,
1000
0000
0000
0000
,
0000
0000
0000
0000
,
0001
0000
0000
0000
,
0000
0000
0000
0000
,
0100
0000
0000
0000
,
0010
0000
0000
0000
,
0100
0000
0000
0000
,
0001
0000
0000
0000
,
1000
0000
0000
0000
,
0100
0000
0000
0000
,
1000
0000
0000
0000
,
0000
0000
0000
0000
,
0001
0000
0000
0000
,
0001
0000
0000
0000
,
1000
0000
0000
0000
,
1000
0000
0000
0000
,
0001
0000
0000
0000
,
0001
0000
0000
0000
,
1000
0000
0000
0000
,
0000
0000
0000
0000
,
0001
0000
0000
0000
,
0000
0000
0000
0000
,
0100
0000
0000
0000
,
0000
0000
0000
0000
,
0010
0000
0000
0000
,
0000
0000
0000
0000
,
1000
0000
0000
0000
,
0000
0000
0000
0000
,
0001
0000
0000
0000
,
1000
0000
0000
0000
,
0001
0000
0000
0000
,
1000
0000
0000
0000
,
0001
0000
0000
0000
,
1000
0000
0000
0000
,
0001
0000
0000
0000
,
1000
0000
0000
0000
,
0001
0000
0000
0000
;

//--------------- dance-single - Fred-104 ----------------
#NOTES:
     dance-single:
     Fred-104:
     Easy:
     5:
     :
0000
0000
0000
0000
,
0000
0000
0000
0000
,
0000
0000
0000
0000
,
0000
0000
0000
0000
,
0000
0000
0000
0000
,
0000
0000
0000
0000
,
0001
0010
0100
1000
,
0010
1000
0100
0010
,
0100
1000
0010
0100
,
0001
0000
0000
1000
0000
0000
0001
0000
,
2000
3200
0302
0023
,
2030
3200
0302
0023
,
1030
1000
0001
0001
,
0100
0010
1010
0000
,
1000
0000
0000
0100
0000
0000
0010
0000
,
0001
0000
0000
0100
0000
0000
0010
0000
,
1000
0000
0000
0001
0000
0000
0010
0000
,
0100
0000
0000
1000
0000
0000
0001
0000
,
0100
0000
0000
0010
0000
0000
1000
0000
,
0100
0000
0000
0010
0000
0000
0100
0000
,
1000
0000
0000
0001
0000
0000
0100
0000
,
0001
0000
0000
1000
0000
0000
0001
0000
,
1000
0001
0100
0010
,
1000
0100
0011
0000
,
0001
1000
0001
0100
,
0010
1000
1010
0000
,
0001
0010
1000
0010
,
0001
1000
1100
0000
,
1000
0100
0001
0100
,
1000
0000
0000
0001
0000
0000
1000
0000
,
0002
0010
0010
0013
,
0100
0010
0011
0000
,
1000
0000
0100
0000
,
0001
0000
0010
0000
,
1000
0001
0010
0100
,
1000
0010
0100
0010
,
1000
0000
0000
0001
0000
0000
1000
0000
,
0100
0000
0010
0000
0001
1000
0001
0000
,
2000
0010
0010
3010
,
0100
0001
0101
0000
,
0001
0000
0100
0000
,
1000
0000
0010
0000
,
0001
0010
0100
1000
,
0001
0000
0000
1000
0000
0000
0001
0000
,
0100
0000
0000
0010
0000
0000
0100
0000
,
0001
0000
1000
0000
0001
1000
0001
0000
,
1001
0000
0000
0000
;

//--------------- dance-single - Fred-104 ----------------
#NOTES:
     dance-single:
     Fred-104:
     Medium:
     10:
     :
0000
0000
0000
0000
,
0000
0000
0000
0000
,
0000
0000
0000
0000
,
0000
0000
0000
0000
,
0000
0000
0000
0000
,
0000
0000
0000
0000
,
0001
0000
0100
0001
0000
1000
1100
0000
,
0100
0000
0010
0001
0000
1000
1010
0000
,
0001
0000
0010
0100
1000
0001
1001
0000
,
0001
0000
0000
0010
0000
0000
1000
0000
0000
0100
0000
0000
0001
0000
0000
0000
,
2000
0100
0001
0010
,
3200
1000
0010
0001
,
1300
0100
0001
0000
1000
0010
0001
0000
,
0010
0000
0100
0000
1000
0000
0001
0000
0100
0000
0010
0100
0020
0000
2030
0000
,
3001
0010
0010
1000
0100
0100
0001
0000
,
1000
0100
0100
0001
0010
0010
1000
0000
,
0001
0010
0010
1000
0010
0010
0001
0000
,
1000
0010
0010
0001
0010
0010
1000
0001
,
1000
0100
0001
1000
0010
0001
1000
0000
,
0001
0100
1000
0001
0010
1000
0001
0000
,
1000
0010
0100
1000
0001
0010
1000
0000
,
0001
0000
0000
0010
0000
0000
1000
0000
0000
0100
0000
0000
0001
0000
0000
0000
,
1000
1100
0010
0010
0001
1000
0001
0000
,
0100
0110
0010
0100
0100
0001
1000
0000
,
0001
0011
0100
1000
1000
0001
0100
0000
,
0010
1010
1000
0001
0010
0100
1000
0000
,
0001
0100
1000
0100
0001
1000
0100
0100
,
1000
0010
0001
0010
1000
0001
0010
0010
,
0100
0010
0001
1000
0010
0100
0002
0000
,
1003
0000
0000
0100
0000
0000
0001
0000
0000
0010
0000
0000
1000
0000
0000
0000
,
2000
0100
0001
0010
,
3001
0100
0010
0100
0001
1000
0100
0000
,
1000
1100
0020
0030
0001
0101
0020
0030
,
1000
1010
0200
0300
0001
0011
0200
0300
,
1000
0100
0010
0001
0100
0010
1000
0100
,
0010
0000
0000
0001
0000
0000
1000
0000
0010
0000
0100
0000
0001
0000
1000
0000
,
0001
0000
0000
0010
0000
0000
0100
0000
0000
1000
0000
0000
0001
0000
1000
0000
,
0010
0000
0100
0000
0001
0000
1000
0000
0100
0000
0010
0000
0001
1000
0001
1000
,
0002
0010
1000
0100
,
0013
0100
1000
0010
0100
0001
1000
0000
,
0001
0101
0100
0010
1000
1010
0010
0100
,
0001
0011
0010
0100
1000
1100
0100
0010
,
0001
0100
1000
0001
0010
1000
0001
0010
,
0100
0000
0000
1000
0000
0000
0010
0000
0100
0000
0010
0000
1000
0000
0000
0000
,
0001
0000
0000
0010
0000
0000
1000
0000
0000
0100
0000
0000
0001
0000
0010
0000
,
0100
0000
1000
0000
0001
0000
0100
0000
0010
0000
1000
0000
0001
1000
0001
1000
,
0001
0000
0000
0000
;

//--------------- dance-single - Fred-104 ----------------
#NOTES:
     dance-single:
     Fred-104:
     Hard:
     14:
     :
0000
0000
0000
0000
,
0000
0000
0000
0000
,
0000
0000
0000
0000
,
0000
0000
0000
0000
,
0000
0000
0000
0000
,
0000
0000
0000
0000
,
1000
0000
0010
1000
0001
0000
0100
0000
0010
0000
0100
0001
1000
0001
0010
0000
,
0100
0000
0010
0100
1000
0000
0001
0000
0100
0000
0010
1000
0001
0010
0100
0000
,
0010
0000
0001
1000
0001
0000
0100
0000
0010
1000
0100
0010
0001
1000
0001
0000
,
1000
0100
0000
1000
0100
0000
0001
0100
0000
0001
0100
1000
0001
0000
0100
0000
,
0002
0000
0000
0000
1000
0000
0000
0000
0100
0000
0000
0100
0000
0000
1003
0000
,
0200
0000
0000
0000
0010
0000
0000
0000
0001
0000
0000
1000
0000
0000
1300
0000
,
0001
0100
1000
0000
0100
0000
0001
0000
1000
0100
0001
0000
0100
0000
1000
0000
,
0001
0010
0001
0010
0100
1000
0100
1000
0001
0000
0100
0010
0100
0000
0110
0000
,
1001
0000
1000
0100
1000
0000
1001
0000
0001
0100
0001
0000
2000
3000
0002
0003
,
1001
0000
0001
0010
0001
0000
1001
0000
1000
0010
1000
0000
0001
0010
0100
1000
,
1001
0000
0001
0100
0001
0000
1001
0000
1000
0100
1000
0000
0002
0003
2000
3000
,
1001
0000
1000
0010
1000
0000
1001
0000
0001
0010
0001
0010
0000
0100
1000
0100
,
1000
0000
0100
0010
0001
0000
1001
0000
1000
0010
0100
0000
0201
0000
0301
1000
,
0100
0000
0010
0100
1000
0000
1001
0000
0001
0100
0010
0000
0210
0000
0301
1000
,
0001
0000
0010
0100
1000
0000
1010
0000
1000
0001
0100
0000
0110
0000
0010
1000
,
0001
0010
0000
0001
0010
0000
1000
0010
0000
1000
0010
0001
1000
0000
0000
0000
,
0012
0000
2003
0000
3001
0000
0100
0001
0000
1000
0100
0000
0120
0000
0031
0000
,
2010
0000
3002
0000
1003
0000
0010
0100
0000
1000
0100
0000
0001
1000
0010
1000
,
0100
0000
2001
0000
3010
0000
1000
0001
0000
0010
0100
0000
2100
0000
3001
0000
,
0210
0000
0301
0000
1000
0000
0001
1000
0010
0000
0100
0010
1000
0001
0010
0000
,
0001
0000
0210
0000
1300
0000
0120
0000
0031
1000
0010
0000
0100
0001
1000
0000
,
0001
0000
0120
0000
1030
0000
0210
0000
0301
1000
0001
1000
0010
0100
0001
1000
,
0001
0000
2100
0000
3001
0000
2010
0000
3001
1000
0100
0010
0002
0000
0000
0000
,
1003
0100
0000
1000
0100
0000
0001
0100
0000
0001
0100
1000
0001
0000
1000
0001
,
2000
0000
0000
3200
0000
0000
0320
0000
1030
0010
0000
0001
0000
0010
0000
0200
,
0000
0000
1300
0001
0100
0001
1000
0000
0100
0000
0010
0001
0010
0100
0010
0000
,
0001
0000
0100
0000
0010
0000
1000
0001
1000
0000
0100
0000
0010
0000
0001
1000
,
0001
0000
0100
0000
0010
0000
1000
0001
1000
0100
0010
0001
1000
0010
0100
0000
,
0001
1000
0010
1000
0001
1000
0010
1000
0001
1000
0100
1000
0001
1000
0100
1000
,
0002
0000
0000
2003
0000
0000
3100
0010
0001
0000
1000
0001
0100
0001
1000
0000
,
0001
0010
0000
1000
0010
0000
0100
0001
0000
0100
1000
0000
0001
1000
0000
0001
,
1000
0000
0100
0000
0010
0000
0001
1000
0001
0100
0010
1000
0001
0010
0100
1000
,
0002
0000
0000
0100
0000
0000
1003
0000
0001
0010
0000
0100
0000
0001
0000
0200
,
0000
0000
1300
0001
1000
0010
0100
0000
0010
0000
1000
0001
0010
0100
1000
0000
,
0001
0000
0100
0000
1000
0000
0100
0001
1000
0000
0100
0000
0001
0000
0100
1000
,
0001
0000
0100
0000
1000
0000
0100
0001
1000
0100
1000
0100
0010
0001
1000
0000
,
0001
0100
0010
0100
0001
0100
0010
0100
0001
1000
0100
1000
0001
0000
0010
0000
,
0200
0000
0000
2300
0000
0000
3010
1000
0001
0000
0010
0100
1000
0001
1000
0000
,
0001
0100
0000
1000
0100
0000
0010
0001
0000
0010
1000
0000
0001
1000
0000
0001
,
1000
0000
0100
0000
0110
0000
0001
1000
0010
0100
0001
0010
0100
1000
0001
0100
,
0010
0000
0000
0000
;

//--------------- dance-single - Fred-104 ----------------
#NOTES:
     dance-single:
     Fred-104:
     Challenge:
     11:
     :
0000
0000
0000
0000
,
0000
0000
0000
0000
,
0000
0000
0000
0000
,
0000
0000
0000
0000
,
0000
0000
0000
0000
,
0000
0000
0000
0000
,
0002
0000
2000
3003
MMMM
0000
MMMM
0000
,
2000
0000
0002
3003
MMMM
0000
MMMM
0000
,
0002
0100
2003
0010
,
3002
0000
0000
0000
0100
0000
0000
0003
2001
0000
0000
0000
3001
0000
0000
0000
,
2001
0000
0001
0000
0000
0000
0002
3003
,
1002
0000
1000
0000
0000
0000
2000
3003
,
2001
0000
0002
3003
2001
0000
0002
3003
,
1000
MMMM
1000
MMMM
1001
0001
1000
MMMM
,
0001
MMMM
1000
MMMM
0001
MMMM
2002
3003
,
1000
0000
MMMM
0000
0001
0000
MMMM
0000
2000
0000
0002
3003
1001
0000
MMMM
0000
,
0001
MMMM
1000
MMMM
0001
MMMM
2002
3003
,
0001
MMMM
1000
MMMM
0001
MMMM
1000
0001
,
1000
MMMM
0001
0010
MMMM
0100
1001
0000
,
0001
0000
MMMM
0000
1000
0000
MMMM
0000
0002
0000
2000
3003
1001
0000
MMMM
0000
,
0001
MMMM
2000
3100
MMMM
0010
0011
MMMM
,
0001
MMMM
1000
MMMM
0002
1000
1003
MMMM
,
0020
0000
1000
0000
0200
0330
MMMM
0000
,
2000
0000
0002
3003
MMMM
0000
0001
1000
,
0020
0000
1000
0000
0200
0330
MMMM
0000
,
2000
0000
0002
3003
MMMM
0000
MMMM
0000
,
0001
0000
1000
MMMM
0010
0000
0020
0000
,
0130
0000
0001
MMMM
1000
0000
1000
MMMM
,
0001
0000
2000
0000
0002
3003
MMMM
0000
,
0001
MMMM
1000
MMMM
0001
MMMM
1001
0000
,
0001
MMMM
0010
MMMM
0001
MMMM
0020
0001
,
0001
0000
0001
0000
0100
0000
0032
0003
,
0200
0300
MMMM
0000
0020
0030
MMMM
0000
,
0200
0000
0010
0000
0020
0330
MMMM
0000
,
0001
MMMM
1000
MMMM
0001
MMMM
1000
0100
,
0020
0001
0100
0031
,
2000
0100
3002
0010
,
0203
0010
1000
0310
,
1000
MMMM
0100
MMMM
1000
MMMM
0100
0200
,
1000
0010
1000
2300
,
3002
0003
MMMM
0000
2000
3000
MMMM
0000
,
1001
0000
0110
0000
2002
3003
MMMM
0000
,
2002
0000
0000
3003
0000
0000
0220
0000
0000
0330
0000
0000
2002
0000
3003
0000
,
2002
3003
0000
MMMM
0000
0000
0220
0330
0000
MMMM
0000
0000
2002
0000
3003
0000
,
0001
0010
0100
1000
0100
0010
0001
0010
,
0002
0000
1003
0000
1001
MMMM
0110
MMMM
,
1001
0000
0000
0000
;

//--------------- dance-double - Fred-104 ----------------
#NOTES:
     dance-double:
     Fred-104:
     Easy:
     5:
     :
00000000
00000000
00000000
00000000
,
00000000
00000000
00000000
00000000
,
00000000
00000000
00000000
00000000
,
00000000
00000000
00000000
00000000
,
00000000
00000000
00000000
00000000
,
00000000
00000000
00000000
00000000
,
10000000
00100000
01000000
00010000
,
00100000
00001000
00010000
00100000
,
00010000
00001000
00010000
00000010
,
00010000
00000000
00000000
00001000
00000000
00000000
00010000
00000000
,
00002000
00023000
02030000
23000000
,
30200000
00320000
00032000
00023000
,
00031000
00010000
00000100
00000010
,
00000001
00001000
00001100
00000000
,
00000001
00000000
00000000
00000100
00000000
00000000
00001000
00000000
,
00010000
00000000
00000000
00100000
00000000
00000000
10000000
00000000
,
00010000
00000000
00000000
00100000
00000000
00000000
01000000
00000000
,
00100000
00000000
00000000
00001000
00000000
00000000
00010000
00000000
,
00000010
00000000
00000000
00001000
00000000
00000000
00000010
00000000
,
00000100
00000000
00000000
00000001
00000000
00000000
00000010
00000000
,
00000100
00000000
00000000
00010000
00000000
00000000
00001000
00000000
,
01000000
00000000
00000000
00001000
00000000
00000000
00010000
00000000
,
00001000
00010000
01000000
10000000
,
01000000
00010000
00011000
00000000
,
00001000
00010000
00100000
10000000
,
01000000
00010000
00011000
00000000
,
00010000
00001000
00000100
00000001
,
00000010
00001000
00011000
00000000
,
00001000
00010000
01000000
00010000
,
00001000
00000000
00000000
00010000
00000000
00000000
00001000
00000000
,
00020000
00001000
01000000
00031000
,
00010000
00001000
00011000
00000000
,
00001000
00000000
00010000
00000000
,
01000000
00000000
10000000
00000000
,
00010000
00100000
01000000
10000000
,
00100000
00010000
00001000
00010000
,
00000100
00000000
00000000
00010000
00000000
00000000
00000100
00000000
,
00001000
00000000
00000100
00000000
00000010
00000001
00000010
00000000
,
00000200
00001000
00000001
00001300
,
00000100
00010000
00011000
00000000
,
00001000
00000000
00010000
00000000
,
01000000
00000000
10000000
00000000
,
00010000
10000000
01000000
00100000
,
00001000
00000000
00000000
00010000
00000000
00000000
00000100
00000000
,
00010000
00000000
00000000
00001000
00000000
00000000
00000100
00000000
,
00000001
00000000
00000010
00000000
00000100
00001000
00000100
00000000
,
00000110
00000000
00000000
00000000
;

//--------------- dance-double - Fred-104 ----------------
#NOTES:
     dance-double:
     Fred-104:
     Medium:
     10:
     :
00000000
00000000
00000000
00000000
,
00000000
00000000
00000000
00000000
,
00000000
00000000
00000000
00000000
,
00000000
00000000
00000000
00000000
,
00000000
00000000
00000000
00000000
,
00000000
00000000
00000000
00000000
,
00000001
00000000
00001000
00000010
00000000
00010000
00011000
00000000
,
00001000
00000000
00010000
01000000
00000000
00100000
00110000
00000000
,
10000000
00000000
00010000
01000000
00001000
00010000
00011000
00000000
,
00010000
00000000
00000000
00001000
00000000
00000000
00000010
00000000
00000000
00001000
00000000
00000000
00010000
00000000
00000000
00000000
,
00002000
01000000
00010000
00100000
,
00023000
00001000
01000000
00001000
,
00030100
00010000
00001000
00000000
00010000
00100000
10000000
00000000
,
00010000
00000000
10000000
00000000
01000000
00000000
00100000
00000000
00001000
00000000
00010000
00001000
00020000
00000000
00032000
00000000
,
00013000
00001000
00001000
00000010
00001000
00001000
00010000
00000000
,
00001000
00010000
00010000
00100000
00010000
00010000
00001000
00000000
,
00010000
00001000
00001000
00000100
00001000
00001000
00010000
00000000
,
00001000
00010000
00010000
01000000
00010000
00010000
00001000
00010000
,
00001000
00010000
00100000
10000000
00010000
10000000
01000000
00000000
,
10000000
00100000
00010000
00001000
00000100
00000010
00001000
00000000
,
00000001
00000010
00001000
00010000
01000000
00100000
00010000
00000000
,
10000000
00000000
00000000
00100000
00000000
00000000
00010000
00000000
00000000
00001000
00000000
00000000
00010000
00000000
00000000
00000000
,
00001000
00101000
00100000
00010000
10000000
01000000
00100000
00000000
,
00001000
00011000
00010000
00000010
00001000
00000001
00000010
00000000
,
00000100
00001100
00000001
00000100
00001000
00010000
00001000
00000000
,
00010000
00011000
00001000
00100000
00010000
10000000
00010000
00000000
,
10000000
01000000
00010000
00001000
00010000
00000010
00001000
00001000
,
00000001
00000100
00001000
00000100
00000010
00001000
00000001
00000001
,
00000010
00001000
00010000
01000000
00100000
00010000
02000000
00000000
,
03100000
00000000
00000000
10000000
00000000
00000000
01000000
00000000
00000000
00100000
00000000
00000000
00001000
00000000
00000000
00000000
,
00020000
00001000
00100000
00001000
,
00031000
00100000
00001000
00010000
00001000
00000100
00000010
00001000
,
00000001
00000100
00001000
00000000
00010000
00100000
10000000
00000000
,
10000000
01000000
00010000
00000000
00001000
00000010
00000001
00000000
,
00001000
00000010
00000100
00001000
00010000
00100000
10000000
01000000
,
00100000
00000000
00000000
00010000
00000000
00000000
00100000
00000000
00001000
00000000
00010000
00000000
00000010
00000000
00010000
00000000
,
00001000
00000000
00000000
00010000
00000000
00000000
00000100
00000000
00000000
00000010
00000000
00000000
00000001
00000000
00001000
00000000
,
00000010
00000000
00010000
00000000
00001000
00000000
00010000
00000000
00100000
10000000
00100000
00000000
10000000
00000000
00010000
00000000
,
00200000
00001000
00010000
00001000
,
00310000
10000000
00100000
00010000
00001000
00000100
00000010
00001000
,
00000001
00000010
00001000
00000000
00010000
01000000
10000000
00000000
,
10000000
00100000
00010000
00000000
00001000
00000100
00000001
00000000
,
00001000
00000001
00000100
00001000
00000100
00000001
00001000
00000100
,
00010000
00000000
00000000
00001000
00000000
00000000
01000000
00000000
00001000
00000000
00010000
00000000
00100000
00000000
10000000
00000000
,
00010000
00000000
00000000
01000000
00000000
00000000
10000000
00000000
00000000
01000000
00000000
00000000
00010000
00000000
10000000
00000000
,
01000000
00000000
00010000
00000000
00001000
00000000
00000100
00000000
00000001
00000000
00001000
00000000
00000001
00001000
00000001
00001000
,
00000001
00000000
00000000
00000000
;

//--------------- dance-double - Fred-104 ----------------
#NOTES:
     dance-double:
     Fred-104:
     Hard:
     14:
     :
00000000
00000000
00000000
00000000
,
00000000
00000000
00000000
00000000
,
00000000
00000000
00000000
00000000
,
00000000
00000000
00000000
00000000
,
00000000
00000000
00000000
00000000
,
00000000
00000000
00000000
00000000
,
00010000
00000000
00001000
00010000
00000100
00000000
00001000
00000000
00000001
00000000
00000100
00000000
00001000
00010000
00100000
00000000
,
01000000
00000000
00010000
10000000
00100000
00000000
00010000
00000000
00001000
00000000
00000100
00000010
00001000
00000001
00000010
00000000
,
00000100
00000000
00010000
00001000
00010000
00000000
00100000
00000000
01000000
00100000
10000000
01000000
00100000
00001000
00010000
00000000
,
00001000
01000000
00000000
00010000
00100000
00000000
00001000
01000000
00000000
00010000
00100000
00001000
00010000
00000000
00001000
00000000
,
00020000
00000000
00000000
00000000
00001000
00000000
00000000
00000000
00000100
00000000
00000000
00000100
00000000
00000000
00031000
00000000
,
00020000
00000000
00000000
00000000
00001000
00000000
00000000
00000000
00001000
00000000
00000000
01000000
00000000
00000000
00031000
00000000
,
00010000
00001000
00000010
00000000
00000001
00000000
00001000
00000000
00000010
00000100
00001000
00000000
00010000
00000000
00001000
00000000
,
00010000
00001000
00100000
00001000
00010000
00001000
01000000
00010000
10000000
00000000
01000000
00100000
00010000
00000000
00110000
00000000
,
00101000
00000000
00001000
00010000
00001000
00000000
00010010
00000000
00010000
00001000
00010000
00000000
00000200
00000300
00002000
00003000
,
00001001
00000000
00000001
00000010
00000001
00000000
00001001
00000000
00001000
00000010
00001000
00000000
00000010
00010000
00001000
00100000
,
00010000
00000000
10000000
00100000
01000000
00000000
01010000
00000000
10000000
01000000
00100000
00000000
00002000
00003000
00020000
00030000
,
00011000
00000000
00010000
00000100
00010000
00000000
00011000
00000000
00001000
00000000
00001000
01000000
00000000
00010000
10000000
00010000
,
10000000
00000000
01000000
00100000
00001000
00000000
00011000
00000000
00010000
00000100
00001000
00000000
00001001
00000000
00000001
00000100
,
00001000
00000000
00010000
00001000
00010000
00000000
00011000
00000000
00001000
00010000
00100000
00000000
02100000
00000000
03010000
10000000
,
00100000
00000000
10000000
01000000
00010000
00000000
00011000
00000000
00001000
00000010
00000001
00000000
00001001
00000000
00000001
00001000
,
00000001
00000100
00000000
00000010
00001000
00000000
00000001
00000010
00000000
00000100
00010000
00001000
00010000
00000000
00000000
00000000
,
00012000
00000000
00203000
00000000
00310000
00000000
01000000
00100000
00000000
00010000
00001000
00000000
00021000
00000000
00030010
00000000
,
00021000
00000000
00030200
00000000
00010300
00000000
00001000
00000010
00000000
00000100
00001000
00000000
00000100
00010000
00001000
00010000
,
00100000
00000000
02100000
00000000
03010000
00000000
10000000
01000000
00000000
00010000
00001000
00000000
00021000
00000000
00030010
00000000
,
00002001
00000000
00003100
00000000
00001000
00000000
00000010
00000100
00001000
00000000
00010000
00001000
01000000
00001000
00010000
00000000
,
00001000
00000000
00020100
00000000
00031000
00000000
00020010
00000000
00031000
00100000
00010000
00000000
00100000
01000000
10000000
00000000
,
00010000
00000000
01200000
00000000
10300000
00000000
02100000
00000000
03010000
10000000
01000000
10000000
01000000
00100000
00001000
00010000
,
00000010
00000000
00002100
00000000
00003001
00000000
00002010
00000000
00003001
00000010
00000100
00010000
00002000
00000000
00000000
00000000
,
00013000
00001000
00000000
00000010
00001000
00000000
00010000
00001000
00000000
00000010
00001000
00010000
00001000
00000000
01000000
00010000
,
02000000
00000000
00000000
03200000
00000000
00000000
20300000
00000000
31000000
00100000
00000000
00001000
00000000
00010000
00000000
00200000
,
00000000
00000000
01300000
00010000
10000000
00010000
00100000
00000000
00001000
00000000
00010000
00001000
00000010
00000100
00001000
00000000
,
00000001
00000000
00000100
00000000
00001000
00000000
00010000
01000000
10000000
00000000
01000000
00000000
00010000
00000000
00001000
00000100
,
00000001
00000000
00000100
00000000
00001000
00000000
00010000
01000000
10000000
00010000
10000000
00000000
01000000
00100000
00001000
00000000
,
00010000
00001000
00010000
00000010
00001000
00000010
00010000
00001000
00010000
00000100
00001000
00000100
00010000
00001000
01000000
00001000
,
00020000
00000000
00000000
00032000
00000000
00000000
00003100
00000010
00001000
00000000
00000001
00000010
00000100
00000010
00000001
00000000
,
00001000
00000010
00000000
00000100
00001000
00000000
00010000
00100000
00000000
01000000
00010000
00000000
10000000
01000000
00000000
00100000
,
00001000
00000000
00010000
00000000
00000100
00000000
00010000
00001000
00010000
00000010
00001000
00000001
00000010
00000100
00000010
00000001
,
00002000
00000000
00000000
00003020
00000000
00000000
00000230
00000000
00001300
00010000
00000000
00100000
00000000
10000000
00000000
10020000
,
00000000
00000000
10030000
01000000
00100000
01000000
10000000
00000000
00010000
00000000
01000000
00100000
10000000
00010000
00100000
00000000
,
00001000
00000000
00010000
00000000
00001000
00000000
00000010
00000001
00000010
00000000
00000100
00000000
00010000
00000000
00001000
01000000
,
00001000
00000000
00010000
00000000
01000000
00000000
00100000
00010000
10000000
00100000
01000000
00010000
10000000
01000000
00100000
00000000
,
00001000
00010000
00001000
00100000
00010000
00100000
00001000
00010000
00001000
01000000
00010000
01000000
00001000
00000000
00010000
00000000
,
00000200
00000000
00000000
00002300
00000000
00000000
00003100
00000010
00000001
00000000
00001000
00000010
00000100
00001000
00010000
00000000
,
00001000
00010000
00000000
01000000
10000000
00000000
01000000
00010000
00000000
00001000
00010000
00000000
00001000
01000000
00000000
00001000
,
00010000
00000000
00000100
00000000
00001100
00000000
00001000
00000100
00000010
00000001
00001000
00000010
00010000
00001000
00010000
00001000
,
00010000
00000000
00000000
00000000
;

//--------------- dance-double - Fred-104 ----------------
#NOTES:
     dance-double:
     Fred-104:
     Challenge:
     11:
     :
00000000
00000000
00000000
00000000
,
00000000
00000000
00000000
00000000
,
00000000
00000000
00000000
00000000
,
00000000
00000000
00000000
00000000
,
00000000
00000000
00000000
00000000
,
00000000
00000000
00000000
00000000
,
00002000
00000000
00020000
00033000
MMMMMMMM
00000000
MMMMMMMM
00000000
,
00020000
00000000
00002000
00033000
MMMMMMMM
00000000
MMMMMMMM
00000000
,
00020000
00001000
00030020
00000100
,
00020030
00000000
00001000
00030000
00021000
00000000
00031000
00000000
,
00021000
00000000
00001000
00000000
0000MMMM
00000000
00002000
00033000
,
00012000
00000000
00010000
00000000
MMMM0000
00000000
00020000
00033000
,
00021000
00000000
00002000
00033000
00021000
00000000
00002000
00033000
,
01000000
MMMMMMMM
00010000
MMMMMMMM
10010000
00010000
10000000
MMMMMMMM
,
00010000
MMMM0000
10000000
MMMM0000
00010000
MMMM0000
20020000
30030000
,
10000000
00000000
MMMM0000
00000000
00010000
00000000
MMMM0000
00000000
20000000
00000000
00020000
30030000
10010000
00000000
MMMM0000
00000000
,
00001000
MMMMMMMM
00010000
MMMMMMMM
00001000
MMMMMMMM
00022000
00033000
,
00000001
0000MMMM
00001000
0000MMMM
00000001
0000MMMM
00001000
00000001
,
00001000
0000MMMM
00000001
00000100
0000MMMM
00000010
00001001
00000000
,
00010000
00000000
MMMMMMMM
00000000
00001000
00000000
MMMMMMMM
00000000
00020000
00000000
00002000
00033000
00011000
00000000
MMMMMMMM
00000000
,
00010000
MMMM0000
20000000
31000000
MMMM0000
00100000
00110000
MMMM0000
,
00001000
MMMMMMMM
00010000
MMMMMMMM
00002000
00010000
00013000
MMMMMMMM
,
00002000
00000000
01000000
00000000
00020000
00033000
MMMMMMMM
00000000
,
00020000
00000000
00002000
00033000
MMMMMMMM
00000000
00001000
01000000
,
00020000
00000000
10000000
0000MMMM
02000000
03030000
MMMM0000
00000000
,
20000000
00000000
00020000
30030000
MMMM0000
00000000
MMMM0000
00000000
,
00010000
00000000
10000000
MMMM0000
00100000
00000000
00200000
00000000
,
01300000
00000000
00001000
MMMMMMMM
00010000
00000000
00010000
MMMMMMMM
,
00001000
00000000
00020000
00000000
00002000
00033000
MMMMMMMM
00000000
,
00000001
0000MMMM
00001000
0000MMMM
00000001
0000MMMM
00001001
00000000
,
00000001
0000MMMM
00000010
0000MMMM
00000001
0000MMMM
00000200
00000001
,
00000001
00000000
00000001
MMMM0000
00001000
MMMM0000
00000302
00000003
,
00020000
00030000
MMMMMMMM
00000000
00002000
00003000
MMMMMMMM
00000000
,
00020000
00000000
00001000
00000000
00002000
00033000
MMMMMMMM
00000000
,
00001000
MMMMMMMM
00010000
MMMMMMMM
00100000
MMMMMMMM
10000000
01000000
,
00200000
00000000
00010000
0000MMMM
01000000
0000MMMM
00310000
00000000
,
20000000
00000000
00100000
0000MMMM
30020000
00000000
01000000
0000MMMM
,
00230000
00000000
10000000
0000MMMM
01000000
0000MMMM
00301000
00000000
,
00001000
MMMMMMMM
00100000
MMMMMMMM
01000000
MMMMMMMM
00010000
00020000
,
00001000
00000000
01000000
00000000
00001000
00000000
00032000
00003000
,
00020000
00030000
MMMMMMMM
00000000
00002000
00003000
MMMMMMMM
00000000
,
00011000
00000000
00000110
00000000
00002002
00003003
0000MMMM
00000000
,
00002002
00003003
00000000
0000MMMM
00000000
00000000
00022000
00033000
00000000
MMMM0000
00000000
00000000
20020000
00000000
30030000
00000000
,
20020000
30030000
00000000
MMMM0000
00000000
00000000
00022000
00033000
00000000
0000MMMM
00000000
00000000
00002002
00000000
00003003
00000000
,
00000001
00000100
00000010
00010000
00001000
01000000
00100000
10000000
,
00020000
00000000
10030000
MMMM0000
10010000
MMMM0000
10010000
MMMM0000
,
10010000
00000000
00000000
00000000
;
