#VERSION:0.83;
#TITLE:鬼華-修羅の舞-;
#ARTIST:SOUND HOLIC Vs. BEMANI Sound Team "T.Kakuta" feat. Nana Takahashi;
#TITLETRANSLIT:Kikka-shura no mai-;
#ARTISTTRANSLIT:SOUND HOLIC Vs. T.Kakuta feat. Nana Takahashi;
#BANNER:Kikka-shura no mai-.png;
#BACKGROUND:Kikka-shura no mai--bg.png;
#CDTITLE:./CDTitles/GITADORA EXCHAIN.png;
#MUSIC:Kikka-shura no mai-.ogg;
#SAMPLESTART:69.931;
#SAMPLELENGTH:15;
#BPMS:0=211;
#STOPS:390.9375=0.284;
#TIMESIGNATURES:0=4=4,296=7=4,303=4=4,391=3=4,394=4=4,422=7=4,429=4=4;
#BGSTAGE:14;

//--------------- dance-single - Fred-104 ----------------
#NOTEDATA:;
#STEPSTYPE:dance-single;
#DESCRIPTION:Fred-104;
#DIFFICULTY:Beginner;
#METER:6;
#CREDIT:Fred-104;
#NOTES:
0000
0000
0000
0000
,
0000
0000
0000
0000
,
0000
0000
0000
0000
,
0000
0000
0000
0000
,
0000
0000
0000
0000
,
0000
0000
0000
0000
,
1000
0000
0000
0000
,
0001
0000
0100
0000
,
0001
0000
0000
0000
,
0010
0000
0001
0000
,
1000
0000
0000
0000
,
0001
0000
1000
0000
,
0001
0000
0001
0000
,
1000
0000
1000
0000
,
1001
0000
0000
0000
,
0001
0000
0100
0100
,
0100
0000
0000
0000
,
0010
0000
0100
0100
,
0100
0000
0000
0000
,
0001
0000
1000
1000
,
1000
0000
0000
0000
,
0001
0000
1000
0001
,
1000
0000
0010
0000
,
1000
0000
0100
0000
,
1000
0000
0100
0000
,
0010
0000
0001
0000
,
1000
0000
0001
0000
,
1000
0000
0100
0000
,
1000
0000
0001
0000
,
2002
0000
3003
0000
,
1000
0000
0010
0000
,
1000
0000
0100
0100
,
0100
0000
1000
0000
,
0001
0000
0100
0100
,
0100
0000
0001
0000
,
0010
0000
0001
0001
,
0001
0000
1000
0000
,
0001
0000
0100
0100
,
0100
0000
0010
0000
,
1000
0000
0001
0000
,
1001
0000
0000
0000
,
1000
1000
1000
1000
,
1000
0000
0001
0000
,
0100
0000
0001
0001
,
0001
0000
1000
0000
,
0001
0001
0001
0001
,
0002
0000
0000
0000
,
0000
0000
0000
0003
,
1000
0000
0010
0000
,
1000
0000
0002
0000
,
0103
0000
0001
0000
,
0010
0000
0001
0001
,
2000
0000
0000
0000
,
0000
0000
3002
0000
,
0103
0000
0100
0000
,
0010
0000
1000
1000
,
1000
0000
0100
0000
,
1000
0000
0001
0001
,
0001
0000
0000
0001
,
0000
0000
1000
0000
,
0001
0000
0100
0000
,
0220
0000
0330
0000
,
1000
0000
0010
0000
,
1000
0000
0100
0000
,
1000
0000
0001
0000
,
1000
0000
0001
0001
,
0001
0000
0100
0000
,
0001
0000
0010
0010
,
0010
0000
0100
0000
,
1000
0000
0001
0001
,
0002
0000
0000
0003
,
2000
0000
0000
3000
,
1001
0000
0000
0000
,
0002
0003
2000
3000
,
0001
0000
0001
0000
,
0001
0000
0001
1000
,
0000
1000
0000
1000
,
1000
1000
1000
1000
,
0000
0010
0000
1000
,
0000
0100
0000
0010
,
0000
0001
0000
1000
,
0000
0001
0000
0100
,
0000
0100
0000
0010
,
0000
0010
0000
1000
,
0000
1000
0000
0001
,
0000
0001
0000
1000
,
0000
0010
0000
1000
,
0000
0001
0000
1000
,
0000
0001
0000
0100
,
0000
0001
0000
1000
,
1000
1000
0000
0001
,
0001
0001
0000
0100
,
0100
0100
0000
0110
,
0000
0000
0000
1001
,
0000
0000
0000
1001
,
0000
0000
0000
1001
,
0000
0000
0000
1001
,
0000
0000
0000
0000
,
1000
0000
0010
0000
,
0010
0000
1000
0000
,
0100
0000
1000
0000
,
0001
0001
0001
0000
,
1000
0000
0001
0000
,
0100
0000
2002
0000
,
0000
3003
0001
0001
,
0001
0001
0001
0000
,
0001
0000
1000
0000
,
1000
0010
0000
0010
,
0000
0000
0100
0000
0000
0110
0000
0000
;

//--------------- dance-single - Fred-104 ----------------
#NOTEDATA:;
#STEPSTYPE:dance-single;
#DESCRIPTION:Fred-104;
#DIFFICULTY:Easy;
#METER:9;
#CREDIT:Fred-104;
#NOTES:
0000
0000
0000
0000
,
0000
0000
0000
0000
,
0000
0000
0000
0000
,
0000
0000
0000
0000
,
0000
0000
0000
0000
,
0000
0000
0000
0000
,
1000
0000
0010
0000
0100
0000
0000
0100
,
0000
0001
1000
0001
,
1000
0100
0001
0000
,
0001
0100
1000
0000
,
0001
0000
1000
0000
0010
0000
0000
0010
,
0000
1000
0100
0010
,
0001
0000
0000
0100
0000
0000
0010
0000
,
0100
0100
0001
1000
,
0001
0000
0001
0000
0000
0000
0000
0100
,
0000
0100
0000
0000
,
1000
0000
1000
0000
0000
0000
0000
0100
,
0000
0100
0001
1000
,
0001
0000
0001
0000
0000
0000
0000
0010
,
0000
0010
0000
0000
,
1000
0000
1000
0000
0000
0000
0000
0010
,
0000
0010
0002
2003
,
3001
0100
0010
0000
,
1000
0100
0010
0000
,
0001
0100
1000
0000
,
1000
0100
0001
0000
,
0001
0010
1000
0000
,
1000
0010
0001
0000
,
1000
0000
0000
0001
0000
0000
1000
0000
,
2002
0000
0000
3003
,
0001
0000
0000
0010
0000
0000
0001
0000
,
0000
0100
0000
0000
0001
0000
1000
0000
,
0001
0000
0000
1000
0000
0000
0100
0000
,
0000
0010
0000
0000
0001
0000
1000
0000
,
0010
0000
0000
1000
0000
0000
0100
0000
,
0000
0010
0000
0000
0100
0000
1000
0000
,
0100
0000
0000
1000
0000
0000
0001
0000
,
0000
0100
0000
0000
0010
0000
1000
0000
,
0001
0001
0100
0100
,
1000
1000
0100
0100
,
1001
0000
0000
0000
,
1000
1000
0001
0001
,
1000
0000
0000
0100
0000
0000
0010
0000
,
0000
0001
0000
0000
0100
0000
0010
0000
,
0100
0000
0000
0001
0000
0000
0010
0000
,
0001
1000
0001
0100
,
0020
0000
0000
0000
,
0000
0000
0000
0000
,
0030
2000
3002
2003
,
3020
0000
0130
0001
,
2000
3200
0320
0000
,
2030
3020
0032
0000
,
2003
0000
0000
0000
,
0000
0000
3000
0000
,
0001
0001
0100
0100
,
0010
0000
0010
0000
1000
0100
1000
0000
,
0100
0100
0010
0010
,
0001
0000
0001
0000
1000
0001
1000
0000
,
0001
0000
0000
0100
0000
0000
1000
0000
,
1000
0000
0000
0100
0000
0000
0001
0000
,
1000
0000
0000
0001
0000
0000
0100
0000
,
0220
0000
0330
0000
,
1000
1000
0010
0100
,
0010
0000
0000
1000
0000
0000
0100
0000
,
1000
0100
0001
0000
,
0001
0100
1000
0000
,
0001
0100
0010
0100
,
0001
0000
0000
0100
0000
0000
0010
0000
,
1000
0010
0001
0000
,
0001
0010
1000
0000
,
0001
0000
0000
1000
0000
0000
0100
0000
,
0010
0000
0000
0100
0000
0000
1000
0000
,
1001
0000
0000
0002
,
2003
0000
3020
0000
,
1030
0000
0000
0100
0000
0000
0010
0000
,
0000
0001
0000
0000
1001
0000
0001
0001
,
0000
1000
1000
0000
0010
0000
0100
0000
,
0100
0001
1000
0002
,
0000
0203
0000
0310
,
1000
0100
0000
2000
,
0000
3200
0000
0310
,
0001
1000
0000
0001
,
0001
0100
0100
0010
,
0010
1000
1000
0001
,
0010
0100
1000
0001
,
0100
0000
0010
1000
0010
0000
1000
0000
,
0100
1000
1000
0010
,
0100
0000
0001
1000
0001
0000
0100
0000
,
0100
0000
0010
0000
0100
0010
0000
0000
,
1000
0000
0010
0000
1000
0001
1000
0000
,
0000
0100
0000
0000
0001
0000
1000
0000
,
0000
0010
0000
0000
0001
0000
1000
0000
,
0000
0001
0000
0000
0100
0000
0110
0000
,
0000
0010
0000
0000
1000
0000
1100
0000
,
1100
0000
0000
0000
0000
0010
0000
0000
,
0100
0001
1000
0101
,
0101
0000
0000
0000
0000
0010
0000
0000
,
0100
2000
3020
0130
,
0010
0000
0100
0000
0001
0000
0000
1000
,
0000
0000
0001
0000
0100
0010
1000
0000
,
0100
0010
0001
0000
1000
0001
0100
0000
,
0001
1000
0010
0000
1000
0000
0000
0100
,
0000
0000
0001
0000
0001
0000
0000
0010
,
0000
1000
0002
0203
,
0320
0000
2030
0000
3001
0100
0001
0000
,
1000
0010
1000
0000
0001
0000
0000
0010
,
0000
0000
0100
0000
0000
1000
0000
0000
,
1100
0000
1000
1000
0000
0010
0010
0000
,
0100
0000
0001
1000
0001
1000
0000
0000
;

//--------------- dance-single - Fred-104 ----------------
#NOTEDATA:;
#STEPSTYPE:dance-single;
#DESCRIPTION:Fred-104;
#DIFFICULTY:Medium;
#METER:13;
#CREDIT:Fred-104;
#NOTES:
0000
0000
0000
0000
,
0000
0000
0000
0000
,
0000
0000
0000
0000
,
0000
0000
0000
0000
,
0000
0000
0000
0000
,
0000
0000
0000
0000
,
1000
0100
1000
0100
1000
0000
0001
0100
,
0000
0010
0100
0000
0001
0000
0010
0000
,
0001
0100
0010
0000
0100
0001
0010
0000
,
0100
1000
0010
0000
1000
0010
0100
0000
,
0010
1000
0010
1000
0010
0000
0100
0001
,
0000
0100
0010
0000
1000
0001
0100
0000
,
1001
0000
0000
0110
0000
0000
1001
0000
,
1000
0010
0100
0000
0001
1000
0001
0100
,
0001
0000
0001
0000
0100
0010
0100
0010
,
0000
1000
0100
0000
1000
0000
0001
0000
,
0100
0000
0100
0000
0010
1000
0010
1000
,
0000
0100
0010
0000
0001
1000
0001
0000
,
0100
0000
0100
0000
0001
0010
0001
0010
,
0000
0100
1000
0000
0001
0100
0010
0000
,
1000
0000
1000
0000
0100
1000
0010
0100
,
0000
0010
1000
0000
0002
0000
2003
0000
,
3001
0100
0001
0000
0010
0100
0000
0100
,
1000
0010
1000
0000
0100
1000
0000
1000
,
0001
0100
0001
0000
0100
0010
0000
0010
,
1000
0100
0010
0000
0001
1000
0001
0000
,
0100
0010
1000
0000
0100
1000
0001
0000
,
0100
0001
0010
0000
0001
0100
0010
0000
,
1001
0000
0000
0110
0000
0000
1001
0000
,
1010
0020
0230
0302
,
1003
0000
0010
1000
0000
0100
1000
0000
,
0001
1000
0000
0100
1000
0000
0001
0000
,
1000
0000
0001
0010
0000
0001
0100
0000
,
0001
1000
0000
0001
0100
0000
0010
0000
,
1000
0000
0100
1000
0000
0010
1000
0000
,
0100
0010
0000
0001
0100
0000
0010
0000
,
0100
0000
0001
0010
0000
0100
1000
0000
,
0001
0100
0010
0000
1000
0010
0100
0000
,
0101
0101
1001
1010
,
1100
1100
1001
0011
,
1001
0000
0000
0000
1000
0001
1000
0000
,
1100
0110
0011
1001
,
1000
0000
0100
0010
0000
0010
0001
0000
,
0100
0010
0000
0010
1000
0010
0100
0000
,
0001
0000
0010
0100
0000
0100
1000
0000
,
0001
0100
0001
0100
0010
1000
0100
0000
,
2002
0000
0000
0000
,
0000
0000
0000
0000
,
3003
2000
3020
0032
,
0203
0000
0000
0000
0000
0000
1300
0000
0100
0000
0010
0000
,
0002
0000
0203
0000
0320
0000
0230
0302
,
0000
0000
0203
0000
2300
0000
3200
0302
,
0000
0000
0000
0000
,
0000
0000
0000
0000
1003
0001
1000
0000
,
0010
1000
0010
1000
0100
1000
0100
1000
,
0100
0010
0100
0010
0001
1000
0001
0000
,
0100
0001
0100
0001
0010
0001
0010
0100
,
0010
0100
1000
0001
0100
0010
1000
0000
,
1100
0000
0000
0110
0000
0000
0011
0000
,
0101
0000
0000
0110
0000
0000
1010
0000
,
1100
0000
0000
0011
0000
0000
0110
0000
,
2002
0000
3003
0000
,
1000
0100
1000
0010
1000
0100
1000
0000
,
0001
0100
0001
0100
0000
0010
0100
0000
,
0001
0010
0100
0000
1000
0010
0100
0000
,
0001
1000
0100
0000
0010
0001
1000
0000
,
0010
1000
0100
1000
0001
0100
0001
0000
,
1000
0100
0010
0001
0000
1000
0010
0000
,
1000
0100
0001
0000
1000
0010
0001
0000
,
1000
0010
0001
0000
1000
0100
0001
0000
,
1001
0000
0000
0110
0000
0000
1010
0000
,
0101
0000
0000
1100
0000
0000
0011
0000
,
1001
0000
0000
0200
,
0320
0000
0000
0000
1030
0001
1000
0000
,
0001
0001
0000
0100
0100
0000
0010
0010
,
0000
1000
1000
0000
1001
0000
1000
1000
,
0000
0001
0001
0000
0100
0010
1000
0010
,
0100
0000
0000
0010
0000
0000
1000
0000
0000
0100
0000
0000
0010
0000
0000
0001
0000
0000
1000
0000
0000
0000
1000
0000
,
0100
0000
0100
0010
0000
0010
0001
0000
0000
0100
0000
0100
,
0010
0000
0010
1000
0000
1000
0001
0000
0000
0100
0010
0100
,
0010
0000
0000
1000
0001
1000
0001
0000
0000
1000
0100
1000
,
0100
0000
0000
0010
0001
0010
0001
0000
0000
1100
0000
0000
,
1010
1100
1010
0101
,
0011
0101
0011
0110
,
1001
0000
1010
0000
0101
0000
1000
0100
,
0010
0001
0100
0010
0100
0001
1000
0010
,
0100
0000
0010
1000
0100
0000
0010
0001
,
1000
0000
0001
0100
0000
0100
0001
0010
,
0100
0000
1000
0000
0001
0100
0000
0010
,
0100
0000
0001
0000
1000
0001
0101
0000
,
0000
0011
0000
0000
0101
0000
1010
0000
,
0000
1100
0000
0000
1010
0000
1100
0000
,
0000
0011
0000
0000
0110
0000
1001
0000
,
0000
1000
0000
0001
0100
0000
0110
0000
,
0110
0000
0010
0100
0010
0100
0000
0001
,
1000
0001
1000
1001
,
1001
0000
0001
1000
0100
0010
0000
0100
,
0010
0002
2003
3001
,
0100
0000
0010
0000
1000
0100
1000
0010
,
0000
0100
0001
1000
0001
0000
0010
0100
,
1000
0000
0010
0100
0001
1000
0001
0100
,
0010
0000
1000
0000
1100
0000
0000
0110
,
0000
0000
1100
0000
0101
0000
0000
1010
,
0000
0011
1001
2000
,
3020
0000
0230
0000
0301
0100
0001
0100
,
1000
0100
0001
0000
1000
1000
0000
0010
,
0010
0000
0100
0100
0000
0001
0001
0000
,
1001
0000
0001
0001
0000
1000
1000
0000
,
0010
0100
0001
0010
0100
1100
0000
0000
;

//--------------- dance-single - Fred-104 ----------------
#NOTEDATA:;
#STEPSTYPE:dance-single;
#DESCRIPTION:Fred-104;
#DIFFICULTY:Hard;
#METER:17;
#CREDIT:Fred-104;
#NOTES:
0000
0000
0000
0000
,
0000
0000
0000
0000
,
0000
0000
0000
0000
,
0000
0000
0000
0000
,
0000
0000
0000
0000
,
0000
0000
0000
0000
,
0001
0000
0010
0000
0100
0000
1000
0000
0010
0000
0100
0000
0001
0010
0200
0000
,
0000
0000
0310
0001
1000
0000
0010
0000
0100
0000
0010
1000
0100
0000
0010
0000
,
0100
0000
1000
0000
0010
1000
0001
0000
0100
0000
0001
0000
0010
0001
0100
0000
,
0001
0010
0100
0001
1000
0010
0100
1000
,
0001
0000
1000
0000
0100
0000
0010
0000
0001
0000
1000
0000
0010
1000
0200
0000
,
0000
0000
0310
0001
0100
0000
0001
0000
0010
0000
0100
1000
0010
0000
0100
0000
,
0101
0100
0010
1100
0100
0010
1001
0001
,
1000
0000
0100
0000
0010
0000
0001
0000
1000
0100
1000
0100
0010
0001
0010
0001
,
0020
0030
0020
0030
0001
0100
0010
0200
,
0000
0000
0301
0000
1001
0000
0000
0000
1000
0000
0010
1000
0001
0000
0100
0010
,
2000
3000
2000
3000
0100
0010
0001
0200
,
0000
0000
0310
0000
0110
0000
0000
0000
0100
1000
0010
0000
1000
0010
0100
0000
,
0020
0030
0020
0030
1000
0100
0010
0002
,
0000
0000
0103
0000
0101
0000
0000
0000
0001
0010
0001
0000
0100
0010
0100
0000
,
0002
0003
0002
0003
0100
1000
0100
0020
,
0000
1030
2100
0000
3200
0000
0320
0000
,
0031
0010
0100
1000
0001
0001
0100
0010
,
0100
0001
1000
0100
0010
0010
0100
1000
,
0001
0100
0010
0100
0010
0010
1000
0100
,
1000
0100
1000
0010
0100
0100
0010
1000
,
0001
0100
0001
0100
0010
0001
0010
0001
,
1000
0100
1000
0100
0010
1000
0010
1000
,
0001
1000
0001
1000
0100
0000
1000
0001
1000
0001
0010
0000
0100
0000
0000
0000
,
2100
3002
0203
0320
,
2030
3001
0010
0002
0103
0010
0200
0301
,
1000
0002
1003
0100
0020
0032
2003
3002
,
2003
3100
1000
0020
0130
0010
2000
3001
,
0010
0200
0310
0001
2000
3002
0203
0320
,
0230
0301
1000
0002
0103
0010
2000
3001
,
1000
0200
0310
0001
0200
0320
0230
0302
,
2003
3100
0010
0200
0310
0001
0200
0310
,
0100
0002
0013
0001
2000
3002
0203
0320
,
1030
0010
1000
0010
0100
0001
0100
0001
1000
0010
0100
0001
1000
0000
0000
0000
,
0001
0010
0001
0010
0100
1000
0100
1000
0001
0010
0100
1000
0001
0000
0000
0000
,
1001
0000
0000
0000
0000
0000
0000
0000
1000
0100
0010
0001
1000
0000
0000
0000
,
0001
0100
0010
0000
1000
0010
0100
0000
0001
1000
0010
1000
0100
0000
0000
0000
,
2000
3100
0010
2000
3010
0100
2000
3001
,
0100
2000
3100
0010
2000
3200
0320
0032
,
0203
0310
0001
0020
1030
0001
0200
0310
,
1000
0100
1000
0100
0010
0001
0010
0001
1000
0001
0100
0010
1000
0000
0000
0000
,
2002
0000
0000
0000
,
0000
0000
0000
0000
,
3003
0002
0203
2300
,
3020
0000
0000
0000
0000
0000
0031
0000
0001
0000
0001
0000
,
2000
0000
3020
0000
0230
0000
2300
3200
,
0000
0000
0302
0000
2003
0000
3002
0000
0023
0000
0000
0000
0230
0000
0000
0302
,
0000
0000
0000
0000
,
0000
0000
0000
0000
0000
0000
0000
0000
0103
1000
0100
1000
0001
0000
0000
0000
,
0100
0010
0011
0000
0100
0010
1010
0000
,
1000
0000
0100
0000
0110
0000
0000
0000
0010
0001
1000
0001
0100
0000
0000
0000
,
0001
0100
0110
0000
1000
0100
0110
0000
,
0010
0000
0001
0000
1001
0000
0000
0000
1000
0100
0010
0001
1000
0000
0000
0000
,
0001
0010
0001
0010
0100
0000
1000
0010
1000
0010
0100
0000
0001
1000
0010
0000
,
1000
0100
1000
0100
0010
0000
0001
0100
0001
0100
0010
0000
0100
0010
1000
0000
,
0001
0010
0100
1000
0001
0000
1000
0010
0100
0001
1000
0000
0100
1000
0001
0100
,
0020
0000
0030
0000
,
1000
0100
0010
0100
0001
0100
1000
0001
,
1000
0001
0100
1000
0100
0010
1000
0001
,
1000
0100
0010
1000
0001
0100
0010
0001
,
1000
0010
0001
0010
0100
0001
1000
0010
,
0100
0001
0010
0100
1000
0100
0010
0001
,
1000
0010
0100
1000
0100
0001
1000
0010
,
1000
0010
0100
1000
0001
0010
0100
0001
,
1000
0000
0001
0000
0100
0000
0010
0000
1000
0001
0100
0001
1000
0000
0000
0000
,
0001
1000
0010
1000
0001
0000
1000
0001
0010
0001
1000
0000
0001
0100
0010
0000
,
1000
0100
1000
0001
0100
0000
0001
1000
0100
1000
0010
0000
0100
0001
0010
0100
,
1000
0000
0000
0200
,
0320
0000
0000
0000
0000
0000
0000
0000
0031
1000
0010
1000
0001
0000
0000
0000
,
1000
0000
0000
0000
0000
0000
0000
0000
0000
0000
0000
0000
0000
0000
0000
0000
0000
0000
0000
0000
0000
0000
0000
0000
0200
0300
0000
0000
0000
0000
0000
0000
0000
0000
0000
0000
0000
0000
0000
0000
0000
0000
0000
0000
0000
0000
0000
0000
0200
0300
0000
0000
0000
0000
0000
0000
0000
0000
0000
0000
0000
0000
0000
0000
0000
0000
0000
0000
0000
0000
0000
0000
0001
0000
0000
0000
0000
0000
0000
0000
0000
0000
0000
0000
0000
0000
0000
0000
0000
0000
0000
0000
0000
0000
0000
0000
0200
0300
0000
0000
0000
0000
0000
0000
0000
0000
0000
0000
0000
0000
0000
0000
0000
0000
0000
0000
0000
0000
0000
0000
0200
0300
0000
0000
0000
0000
0000
0000
0000
0000
0000
0000
0000
0000
0000
0000
0000
0000
0000
0000
0000
0000
0000
0000
1000
0000
0000
0000
0000
0000
0000
0000
0000
0000
0000
0000
0000
0000
0000
0000
0000
0000
0000
0000
0000
0000
0000
0000
0200
0300
0000
0000
0000
0000
0000
0000
0000
0000
0000
0000
0000
0000
0000
0000
0000
0000
0000
0000
0000
0000
0000
0000
,
0200
0300
0000
0000
0000
0000
0000
0000
0000
0000
0000
0000
0000
0000
0000
0000
0000
0000
0000
0000
0000
0000
0000
0000
0001
0000
0000
0000
0000
0000
0000
0000
0000
0000
0000
0000
0000
0000
0000
0000
0000
0000
0000
0000
0000
0000
0000
0000
0200
0300
0000
0000
0000
0000
0000
0000
0000
0000
0000
0000
0000
0000
0000
0000
0000
0000
0000
0000
0000
0000
0000
0000
0200
0300
0000
0000
0000
0000
0000
0000
0000
0000
0000
0000
0000
0000
0000
0000
0000
0000
0000
0000
0000
0000
0000
0000
1000
0000
0000
0000
0000
0000
0000
0000
0000
0000
0000
0000
0000
0000
0000
0000
0000
0000
0000
0000
0000
0000
0000
0000
0000
0000
0000
0000
0000
0000
0000
0000
0000
0000
0000
0000
0000
0000
0000
0000
0000
0000
0000
0000
0000
0000
0000
0000
0001
0000
0000
0000
0000
0000
0000
0000
0000
0000
0000
0000
0000
0000
0000
0000
0000
0000
0000
0000
0000
0000
0000
0000
0020
0030
0000
0000
0000
0000
0000
0000
0000
0000
0000
0000
0000
0000
0000
0000
0000
0000
0000
0000
0000
0000
0000
0000
,
0020
0030
0000
0000
0000
0000
0000
0000
0000
0000
0000
0000
0000
0000
0000
0000
0000
0000
0000
0000
0000
0000
0000
0000
1000
0000
0000
0000
0000
0000
0000
0000
0000
0000
0000
0000
0000
0000
0000
0000
0000
0000
0000
0000
0000
0000
0000
0000
0020
0030
0000
0000
0000
0000
0000
0000
0000
0000
0000
0000
0000
0000
0000
0000
0000
0000
0000
0000
0000
0000
0000
0000
0020
0030
0000
0000
0000
0000
0000
0000
0000
0000
0000
0000
0000
0000
0000
0000
0000
0000
0000
0000
0000
0000
0000
0000
0001
0000
0000
0000
0000
0000
0000
0000
0000
0000
0000
0000
0000
0000
0000
0000
0000
0000
0000
0000
0000
0000
0000
0000
1000
0000
0000
0000
0000
0000
0000
0000
0000
0000
0000
0000
0000
0000
0000
0000
0000
0000
0000
0000
0000
0000
0000
0000
0001
0000
0000
0000
0000
0000
0000
0000
0000
0000
0000
0000
0000
0000
0000
0000
0000
0000
0000
0000
0000
0000
0000
0000
1000
0000
0000
0000
0000
0000
0000
0000
0000
0000
0000
0000
0000
0000
0000
0000
0000
0000
0000
0000
0000
0000
0000
0000
,
0010
0000
0000
0000
0000
0000
0100
0000
0000
0000
0000
0000
0001
0000
0000
0010
0000
0000
0100
0000
0000
1000
0000
0000
0001
0000
0000
0100
0000
0000
0010
0000
0000
0000
0000
0000
1000
0000
0000
0000
0000
0000
0000
0000
0001
0000
0000
0000
,
0010
0100
0010
0001
1000
0001
0100
0000
0000
0010
1000
0010
,
0100
0001
0100
0000
0001
0010
0100
1000
0001
1000
0100
1000
,
0010
0100
0010
1000
0100
0010
0001
0010
0100
1000
0001
0100
,
0010
0000
0000
0000
0200
0000
0000
0000
0000
0000
0000
0000
0300
0000
0000
0000
0000
0000
0001
0000
0000
0010
0000
0000
,
0010
0000
0010
0000
0001
1000
0100
1000
0010
0000
0000
0000
1000
0000
0100
0000
,
0100
0000
0100
0000
1000
0001
0010
0001
0100
0000
0000
0000
0001
0000
0100
0000
,
0100
0000
0100
0000
0001
0010
0100
1000
0001
0000
0000
0000
1000
0000
0010
0000
,
1000
0000
0100
0000
1000
0010
1000
0010
0100
0001
1000
0000
0001
0000
1000
0000
,
0010
0100
0001
0010
0100
1000
0001
0100
,
0010
1000
0100
0001
0100
1000
0010
0100
,
0001
1000
0100
0010
0001
0100
0001
0010
,
1000
0000
0010
0000
0001
0000
1000
0000
0100
0000
0010
0000
0001
0100
0001
0100
,
0010
0000
1000
0100
1000
0100
0010
0000
0001
1000
0010
0000
1000
0100
1000
0100
,
0010
0000
0001
0100
0001
0100
0010
0000
1000
0001
0010
0000
0001
1000
0100
1000
,
0001
0000
1000
0001
0010
0001
1000
0000
0001
0100
0010
1000
0001
0000
0000
0000
,
0000
1000
0000
0010
0100
0000
0011
0000
,
1100
0000
0001
0100
0010
1000
0000
0100
,
0110
0000
0010
0001
1000
0000
1010
0000
,
0101
0000
1000
0100
0010
0001
0000
0100
,
0010
0000
0200
0000
0302
0000
1003
0010
,
0100
0010
1000
0001
1000
0010
0100
1000
,
0100
0010
1000
0001
1000
0001
0010
0100
,
1000
0010
0100
0010
1000
0001
0010
0100
,
0010
0001
0010
0001
0100
0000
0000
0000
0001
0100
0001
0100
0010
0000
1000
0010
,
1000
0010
0100
0000
0001
1000
0010
0000
1000
0100
1000
0010
0100
0000
0001
0010
,
0001
0100
0010
0000
1000
0100
0010
0001
2000
0000
0000
0000
3002
0000
0000
0000
,
0203
0000
0000
0000
0320
0000
0000
0000
1030
0010
1000
0000
0001
0100
0001
0000
,
1000
0000
0000
0000
0000
0000
0000
0000
0000
0000
0000
0000
0001
0000
0000
0000
0000
0000
0000
0000
0000
0000
0000
0000
1000
0000
0000
0000
0000
0000
0000
0000
0000
0000
0000
0000
0000
0000
0000
0000
0000
0000
0000
0000
0000
0000
0000
0000
1001
0000
0000
0000
0000
0000
0000
0000
0000
0000
0000
0000
0000
0000
0000
0000
0000
0000
0000
0000
0000
0000
0000
0000
0000
0000
0000
0000
0000
0000
0000
0000
0000
0000
0000
0000
0000
0000
0000
0000
0000
0000
0000
0000
0000
0000
0000
0000
1000
0000
0000
0000
0000
0000
0000
0000
0000
0000
0000
0000
0000
0000
0000
0000
0000
0000
0000
0000
0000
0000
0000
0000
0200
0300
0000
0000
0000
0000
0000
0000
0000
0000
0000
0000
0000
0000
0000
0000
0000
0000
0000
0000
0000
0000
0000
0000
0200
0300
0000
0000
0000
0000
0000
0000
0000
0000
0000
0000
0000
0000
0000
0000
0000
0000
0000
0000
0000
0000
0000
0000
0001
0000
0000
0000
0000
0000
0000
0000
0000
0000
0000
0000
0000
0000
0000
0000
0000
0000
0000
0000
0000
0000
0000
0000
,
0020
0030
0000
0000
0000
0000
0000
0000
0000
0000
0000
0000
0000
0000
0000
0000
0000
0000
0000
0000
0000
0000
0000
0000
0020
0030
0000
0000
0000
0000
0000
0000
0000
0000
0000
0000
0000
0000
0000
0000
0000
0000
0000
0000
0000
0000
0000
0000
1000
0000
0000
0000
0000
0000
0000
0000
0000
0000
0000
0000
0000
0000
0000
0000
0000
0000
0000
0000
0000
0000
0000
0000
0200
0300
0000
0000
0000
0000
0000
0000
0000
0000
0000
0000
0000
0000
0000
0000
0000
0000
0000
0000
0000
0000
0000
0000
0200
0300
0000
0000
0000
0000
0000
0000
0000
0000
0000
0000
0000
0000
0000
0000
0000
0000
0000
0000
0000
0000
0000
0000
0001
0000
0000
0000
0000
0000
0000
0000
0000
0000
0000
0000
0000
0000
0000
0000
0000
0000
0000
0000
0000
0000
0000
0000
0020
0030
0000
0000
0000
0000
0000
0000
0000
0000
0000
0000
0000
0000
0000
0000
0000
0000
0000
0000
0000
0000
0000
0000
0020
0030
0000
0000
0000
0000
0000
0000
0000
0000
0000
0000
0000
0000
0000
0000
0000
0000
0000
0000
0000
0000
0000
0000
,
1000
0000
0000
0000
0000
0000
0000
0000
0000
0000
0000
0000
0000
0000
0000
0000
0000
0000
0000
0000
0000
0000
0000
0000
0000
0000
0000
0000
0000
0000
0000
0000
0000
0000
0000
0000
0000
0000
0000
0000
0000
0000
0000
0000
0000
0000
0000
0000
0001
0000
0000
0000
0000
0000
0000
0000
0000
0000
0000
0000
0000
0000
0000
0000
0000
0000
0000
0000
0000
0000
0000
0000
0200
0300
0000
0000
0000
0000
0000
0000
0000
0000
0000
0000
0000
0000
0000
0000
0000
0000
0000
0000
0000
0000
0000
0000
0200
0300
0000
0000
0000
0000
0000
0000
0000
0000
0000
0000
0000
0000
0000
0000
0000
0000
0000
0000
0000
0000
0000
0000
1000
0000
0000
0000
0000
0000
0000
0000
0000
0000
0000
0000
0000
0000
0000
0000
0000
0000
0000
0000
0000
0000
0000
0000
0020
0030
0000
0000
0000
0000
0000
0000
0000
0000
0000
0000
0000
0000
0000
0000
0000
0000
0000
0000
0000
0000
0000
0000
0020
0030
0000
0000
0000
0000
0000
0000
0000
0000
0000
0000
0000
0000
0000
0000
0000
0000
0000
0000
0000
0000
0000
0000
,
0001
1000
1001
0001
0100
0110
0000
0000
;

//--------------- dance-single - Fred-104† ----------------
#NOTEDATA:;
#STEPSTYPE:dance-single;
#DESCRIPTION:Fred-104†;
#DIFFICULTY:Challenge;
#METER:19;
#CREDIT:Fred-104†;
#NOTES:
0000
0000
0000
0000
,
0000
0000
0000
0000
,
0000
0000
0000
0000
,
0000
0000
0000
0000
,
0000
0000
0000
0000
,
0000
0000
0000
0000
,
1000
0000
0010
1000
0100
0010
0001
0000
1000
0000
0001
1000
0010
0100
0002
0000
,
0000
0000
1003
0100
0010
0000
0001
0100
0010
0000
1000
0001
0010
0000
0100
0000
,
1000
0100
0010
1000
0001
0100
0010
0001
,
1000
0000
0001
1000
0100
0000
0010
0000
0001
0000
0010
0100
1000
0000
0010
0000
,
0100
0000
0001
0010
0001
1000
0010
0000
0100
0000
0001
0010
0100
1000
0020
0000
,
0000
0000
1030
0010
0100
0000
0001
0010
0100
0000
1000
0001
0100
0000
0010
0000
,
1000
0100
1000
0001
0100
0000
0001
1000
0010
1000
0001
0000
1000
0100
0010
0000
,
0001
0100
0001
0100
0010
1000
0010
1000
0001
0010
0100
1000
0001
0100
0010
1000
,
0002
0003
0002
0003
0100
1000
0100
0120
,
0000
0000
1030
0000
1001
0000
0000
0000
1000
0000
0001
0010
0100
1000
0001
0100
,
0002
0000
0003
0000
0002
0000
0003
0000
1000
0010
1000
0000
0100
0000
0210
0000
,
0000
0000
0310
0000
0011
0000
0000
0000
0001
0010
0100
0000
1000
0100
0010
0000
,
0200
0000
0300
0000
0200
0000
0300
0000
1000
0010
0100
0001
1000
0100
0020
0000
,
0000
0000
0031
0000
0101
0000
0000
0000
0001
0010
0100
1000
0100
0010
0001
0000
,
0020
0000
0030
0000
0020
0000
0030
0000
0001
1000
0010
1000
0001
0010
0200
0000
,
0000
1300
1010
0000
0101
0000
1001
0000
,
2000
3100
0002
0103
0020
0032
1003
0002
,
0203
0310
0002
0013
2000
3002
0103
2000
,
3200
0310
2000
3100
0020
0031
2000
3001
,
0020
0130
0002
0103
0020
0031
2000
3001
,
1000
0100
0010
1000
0001
0100
0010
0001
,
2000
0000
3100
0000
0010
0000
2000
0000
3010
0000
0100
0000
2000
0000
3001
0010
,
0100
1000
0010
0100
0001
0000
1000
0100
0010
0100
1000
0000
0001
1000
0010
1000
,
0002
0000
0000
0000
2003
0000
0000
0000
3001
0010
0100
1000
0100
0010
0001
1000
,
0002
0013
1000
0002
0103
1000
0002
0103
,
1000
0000
0002
0000
0013
0000
1000
0000
0001
0010
0200
0000
1300
0010
0200
0000
,
0320
1030
0100
0020
0031
0100
0020
1030
,
0100
0000
0020
0000
0031
0000
0100
0000
0001
1000
0200
0000
1300
0001
0020
0000
,
0032
0103
0010
0002
0013
1000
0002
0103
,
1000
0000
0200
0000
0310
0000
1000
0000
0001
1000
0200
0000
1300
0010
0200
0000
,
0320
1030
0001
0200
0301
1000
0020
1030
,
0001
0000
2000
0000
3100
0000
0010
0000
0001
0010
0100
1000
0001
0100
0001
0000
,
1000
0100
1000
0001
0100
0001
1000
0010
1000
0001
0010
0001
1000
0010
1000
0001
,
1000
0100
0010
0001
1000
0100
0010
0001
1000
0100
0010
0001
1000
0000
0000
0000
,
1001
0000
0000
0000
0000
0000
0000
0000
0001
1000
0010
0100
0001
0000
0000
0000
,
1000
0010
1000
0001
0010
0001
1000
0100
1000
0001
0010
0100
1000
0000
0000
0000
,
0001
0010
0200
0000
1300
0000
0010
1000
0200
0000
1300
0000
0001
1000
0020
0000
,
0130
0000
0001
0010
0200
0000
1300
0000
0001
0010
2000
0000
3001
0100
2000
0000
,
3001
1000
0010
0000
0200
0000
0301
1000
0100
0000
0020
0000
0031
0010
0100
1000
,
0001
0100
0001
0010
0001
1000
0100
1000
0001
0100
0010
1000
0001
0000
0000
0000
,
2002
0000
0000
0000
,
0000
0000
0000
0000
,
3003
2000
3020
0032
,
2003
0000
0000
0000
0000
0000
3200
0000
0302
0000
2003
0000
,
3002
0000
2003
0000
3200
0000
0320
2030
,
0000
0000
3020
0000
0032
0000
2003
0000
3002
0000
0000
0000
0203
0000
0000
0320
,
0000
0000
0000
0000
,
0000
0000
0000
0000
0000
0000
0000
0000
1030
0100
0010
0001
1000
0000
0000
0000
,
1200
0310
0001
1000
0120
1030
0001
0100
,
0021
1030
0001
0100
0110
0110
1001
0000
,
0201
0310
1000
0001
2010
3100
1000
0010
,
2001
0000
3100
0000
0010
0000
0001
0000
0100
0010
1000
0001
1000
0000
0000
0000
,
0001
0010
0100
1000
0100
0010
0001
0100
0010
1000
0010
0100
0001
1000
0010
1000
,
0100
0010
0001
0010
0100
1000
0010
0100
0001
0100
0010
1000
0001
0010
0100
1000
,
0001
0010
0001
1000
0010
1000
0001
0100
0001
1000
0100
1000
0001
0100
0010
1000
,
0002
0000
0000
0000
0000
0000
0000
0000
1003
0100
0010
0001
0010
0100
1000
0001
,
1000
0000
0100
0000
0010
0001
1000
0000
0010
0000
0100
0000
0001
1000
0100
0000
,
1000
0100
0010
0000
0001
0000
1000
0100
0010
0000
0001
0000
1000
0100
0010
0000
,
0001
0100
0010
0000
1000
0000
0100
0000
0010
0100
1000
0000
0010
0000
0100
0000
,
0001
0100
0001
0000
1000
0010
1000
0000
0001
0010
0100
1000
0001
0000
0100
0000
,
0010
0000
1000
0000
0001
0010
0100
0000
0010
0000
0001
0000
1000
0010
0100
0000
,
0010
1000
0100
0000
0010
0000
0100
1000
0010
0000
0100
0000
0001
0010
0100
0000
,
1000
0001
0010
0000
0100
0000
0010
0000
0001
1000
0100
0000
1000
0000
0010
0000
,
0100
0001
0100
0000
0010
1000
0010
0000
1000
0100
0010
0001
1000
0000
0000
0000
,
0001
0100
0010
1000
0010
0100
0001
1000
0001
0010
0100
1000
0100
0010
0001
1000
,
0010
0100
0001
0100
0010
1000
0100
0010
0001
0100
0010
1000
0100
0010
0001
1000
,
0002
0000
0000
0203
,
2300
0000
0000
0000
0000
0000
0000
0000
3001
0010
0001
0010
1000
0000
0000
0000
,
0210
0000
1300
0100
0010
0000
0210
0000
0301
0100
0010
0000
0120
0000
1030
0010
,
0100
0000
0120
0000
0031
0010
0100
0000
1001
0000
0000
0000
1020
0000
1030
0100
,
0001
0000
0021
0000
0031
0100
1000
0000
1002
0000
1003
0001
1000
0000
0100
0000
,
0010
0000
0000
0000
0000
0000
0001
0000
0000
0000
0000
0000
1000
0000
0000
0001
0000
0000
0100
0000
0000
0001
0000
0000
1000
0000
0000
0001
0000
0000
0010
0000
0000
0100
0000
0000
0010
0000
0000
0000
0000
0000
0000
0000
0001
0000
0000
0000
,
0010
0100
0001
0100
1000
0001
1000
0100
0010
1000
0010
0100
,
1000
0001
0100
0010
1000
0100
0010
0001
0100
0010
0001
0010
,
1000
0001
0100
1000
0100
0010
1000
0001
1000
0100
0001
1000
,
0010
0000
0000
0000
0001
0000
0000
0000
1000
0000
0000
0000
0100
0000
0000
0000
0010
0000
0000
0000
0001
0000
0000
0000
1001
0000
0000
0000
0000
0000
0000
0000
0000
0000
0000
0000
0001
0000
0000
0100
0000
0000
0010
0000
0000
1000
0000
0000
,
0001
0100
0010
1000
0001
0010
0100
1000
0100
0000
0000
0000
1000
0010
0100
0001
,
1000
0010
0100
0001
1000
0100
0010
0001
0100
0000
0000
0000
0001
1000
0010
1000
,
0001
1000
0100
1000
0001
1000
0100
0010
0001
0000
1000
0000
0001
0100
0001
0010
,
0100
0010
0001
1000
0010
1000
0100
1000
0010
0100
0010
1000
0001
0000
1000
0010
,
0100
0000
0010
0000
1000
0000
0100
0010
0001
0000
1000
0000
0001
0000
0010
0001
,
1000
0000
0100
0000
1000
0001
0100
0000
0001
0000
0010
0000
0001
0010
0001
0000
,
0010
0000
1000
0010
1000
0000
0010
0000
0001
0100
0001
0000
0100
0000
1000
0100
,
1000
0000
0100
0000
0001
0010
0100
0000
1000
0010
0100
0001
1000
0100
1000
0010
,
0100
0010
1000
0100
0010
0001
1000
0001
0100
0000
0001
0010
0001
1000
0001
0100
,
0001
0010
0100
1000
0100
0010
0001
1000
0010
0000
0000
0000
1000
0010
1000
0100
,
0010
0100
1000
0001
0100
0010
0100
0001
1000
0001
0010
0100
1000
0000
0000
0000
,
0000
0010
0000
0001
0100
0000
2200
3300
,
0202
0000
0303
0000
1000
0100
0010
0001
0100
0010
0002
0000
0000
0000
0013
0000
,
1010
0000
0000
0000
1000
0010
0100
0000
0001
0100
0010
0000
2020
0000
3030
0000
,
0022
0000
0033
0000
1000
0001
0100
1000
0100
0010
2000
0000
0000
0000
3100
0000
,
0120
0000
0000
0000
0032
0000
0000
0000
2003
0000
0000
0000
3001
0010
0100
0000
,
1000
0000
0100
0000
0010
0001
1000
0000
0001
0010
0100
0000
0001
0000
0100
1000
,
0010
0000
0100
0000
0001
1000
0010
0000
1000
0100
0010
0000
0001
0000
0101
0000
,
0100
0010
0100
0000
0001
0000
0011
0000
0010
0100
1000
0010
0100
0001
0100
0010
,
1000
0100
0010
0001
0200
0000
0000
0000
0301
0010
0100
1000
0010
0100
0001
0010
,
0100
1000
0010
0100
0001
0010
0100
0010
0001
0100
0010
1000
0100
0010
0001
0100
,
0010
1000
0100
0010
0001
0010
0100
1000
0002
0000
0000
0000
0203
0000
0000
0000
,
0320
0000
0000
0000
2030
0000
0000
0000
3001
0010
1000
0000
0001
0100
1000
0000
,
0001
0010
0100
1000
0001
0000
0000
0000
0021
0000
0031
0100
1000
0000
1020
0000
,
1030
0100
0001
0000
0201
0000
0301
0010
1000
0000
1200
0000
1300
0010
0001
0000
,
1001
0000
0000
0000
1001
0000
1000
0100
0001
0000
1001
0000
0001
0100
1000
0000
,
0001
1000
0001
1000
0100
0000
0110
0000
0011
0000
1001
0000
0000
0000
0000
0000
;

//--------------- dance-double - Fred-104 ----------------
#NOTEDATA:;
#STEPSTYPE:dance-double;
#DESCRIPTION:Fred-104;
#DIFFICULTY:Easy;
#METER:9;
#CREDIT:Fred-104;
#NOTES:
00000000
00000000
00000000
00000000
,
00000000
00000000
00000000
00000000
,
00000000
00000000
00000000
00000000
,
00000000
00000000
00000000
00000000
,
00000000
00000000
00000000
00000000
,
00000000
00000000
00000000
00000000
,
00001000
00000000
00010000
00000000
00001000
00000000
00000000
00100000
,
00000000
00001000
00010000
00001000
,
01000000
00010000
00100000
00000000
,
00010000
10000000
00100000
00000000
,
10000000
00000000
01000000
00000000
00100000
00000000
00000000
01000000
,
00000000
00100000
01000000
10000000
,
00010000
00000000
00000000
01000000
00000000
00000000
00010000
00000000
,
00100000
00100000
00001000
00010000
,
00001000
00000000
00001000
00000000
00000000
00000000
00000000
00010000
,
00000000
00000010
00000000
00000000
,
00001000
00000000
00001000
00000000
00000000
00000000
00000000
00000001
,
00000000
00000100
00000010
00000100
,
00000001
00000000
00000001
00000000
00000000
00000000
00000000
00001000
,
00000000
00000010
00000000
00000000
,
00010000
00000000
00010000
00000000
00000000
00000000
00000000
00001000
,
00000000
00100000
00002000
00023000
,
00031000
01000000
00001000
00000000
,
00100000
00010000
00100000
00000000
,
00010000
10000000
00010000
00000000
,
10000000
00100000
10000000
00000000
,
01000000
00100000
01000000
00000000
,
00100000
00001000
00010000
00000000
,
00001000
00000000
00000000
00010000
00000000
00000000
00001000
00000000
,
00022000
00000000
00000000
00033000
,
00001000
00000000
00000000
00001000
00000000
00000000
00010000
00000000
,
00000000
00010000
00000000
00000000
01000000
00000000
10000000
00000000
,
00010000
00000000
00000000
00010000
00000000
00000000
10000000
00000000
,
00000000
10000000
00000000
00000000
00100000
00000000
00010000
00000000
,
00001000
00000000
00000000
00001000
00000000
00000000
00000010
00000000
,
00000000
00000010
00000000
00000000
00000001
00000000
00001000
00000000
,
00000001
00000000
00000000
00000001
00000000
00000000
00000100
00000000
,
00000000
00000100
00000000
00000000
00001000
00000000
00010000
00000000
,
00001000
00001000
00000010
00000010
,
00000001
00000001
00001000
00001000
,
00001001
00000000
00000000
00000000
,
00010000
00000000
00000000
00010000
00000000
00000000
00001000
00000000
,
00010000
00000000
00000000
00001000
00000000
00000000
01000000
00000000
,
00000000
00001000
00000000
00000000
00100000
00000000
00010000
00000000
,
10000000
00000000
00000000
01000000
00000000
00000000
00100000
00000000
,
00001000
00001000
00010000
00010000
,
00022000
00000000
00000000
00000000
,
00000000
00000000
00000000
00000000
,
00033000
00002000
00023000
00030020
,
00002030
00000000
00003001
00000100
,
00000002
00000023
00002030
00000000
,
00023000
02030000
03200000
00000000
,
00320000
00000000
00000000
00000000
,
00000000
00000000
00030000
00000000
,
10000000
10000000
01000000
01000000
,
00100000
00000000
00100000
00000000
00001000
00010000
00001000
00000000
,
00010000
00010000
00001000
00001000
,
00000100
00000000
00000100
00000000
00000001
00001000
00000001
00000000
,
00001000
00000000
00000000
00000001
00000000
00000000
00000010
00000000
,
00001000
00000000
00000000
00010000
00000000
00000000
00001000
00000000
,
00000010
00000000
00000000
00000001
00000000
00000000
00001000
00000000
,
00002002
00000000
00003003
00000000
,
00001000
00000001
00000100
00000010
,
00000100
00000000
00000000
00000001
00000000
00000000
00000100
00000000
,
00001000
00010000
01000000
00000000
,
00010000
00001000
00000100
00000000
,
00001000
00010000
00100000
10000000
,
00010000
00000000
00000000
01000000
00000000
00000000
00010000
00000000
,
10000000
01000000
00100000
00000000
,
00001000
00010000
00100000
00000000
,
10000000
00000000
00000000
01000000
00000000
00000000
00100000
00000000
,
00001000
00000000
00000000
00010000
00000000
00000000
00001000
00000000
,
00011000
00000000
00000000
00020000
,
00030020
00000000
00002030
00000000
,
00003001
00000000
00000000
00000100
00000000
00000000
00001000
00000000
,
00000000
00010000
00000000
00000000
00011000
00000000
00001000
00100000
,
00000000
00001000
01000000
00000000
00010000
00000000
10000000
00000000
,
01000000
00100000
01000000
20000000
,
00000000
30020000
00000000
00130000
,
00001000
00010000
00000000
00002000
,
00000000
00023000
00000000
00030010
,
00001000
00000100
00000000
00000010
,
00000010
00000001
00000001
00001000
,
00001000
00000010
00000010
00010000
,
00001000
00100000
00001000
00010000
,
00001000
00000000
00100000
00010000
00100000
00000000
00010000
00000000
,
01000000
00010000
01000000
00100000
,
10000000
00000000
01000000
10000000
01000000
00000000
00100000
00000000
,
00100000
00000000
00001000
00000000
00010000
00001000
00000000
00000000
,
00010000
00000000
00001000
00000000
00000100
00000001
00001000
00000000
,
00000000
00000001
00000000
00000000
00001000
00000000
00000001
00000000
,
00000000
00000010
00000000
00000000
00001000
00000000
00010000
00000000
,
00000000
00100000
00000000
00000000
10000000
00000000
10010000
00000000
,
00000000
00010000
00000000
00000000
01000000
00000000
01100000
00000000
,
01100000
00000000
00000000
00000000
00000000
10000000
00000000
00000000
,
01000000
00100000
00001000
00011000
,
00011000
00000000
00000000
00000000
00000000
00010000
00000000
00000000
,
00000010
00020000
00032000
00103000
,
00001000
00000000
00010000
00000000
00001000
00000000
00000000
00000100
,
00000000
00000000
00000010
00000000
00001000
00000100
00001000
00000000
,
00000001
00000010
00000001
00000000
00001000
00000010
00000001
00000000
,
00000010
00001000
00000001
00000000
00000010
00000000
00000000
00001000
,
00000000
00000000
00010000
00000000
01000000
00000000
00000000
10000000
,
00000000
00010000
20000000
32000000
,
03020000
00000000
00230000
00000000
10300000
00010000
10000000
00000000
,
00100000
01000000
00100000
00000000
10000000
00000000
00000000
00100000
,
00000000
00000000
00010000
00000000
00000000
00001000
00000000
00000000
,
00011000
00000000
00010000
00000010
00000000
00000100
00000010
00000000
,
00001000
00000000
00000001
00000010
00000100
00001000
00000000
00000000
;

//--------------- dance-double - Fred-104 ----------------
#NOTEDATA:;
#STEPSTYPE:dance-double;
#DESCRIPTION:Fred-104;
#DIFFICULTY:Medium;
#METER:14;
#CREDIT:Fred-104;
#NOTES:
00000000
00000000
00000000
00000000
,
00000000
00000000
00000000
00000000
,
00000000
00000000
00000000
00000000
,
00000000
00000000
00000000
00000000
,
00000000
00000000
00000000
00000000
,
00000000
00000000
00000000
00000000
,
00010000
01000000
00010000
01000000
00100000
00000000
10000000
01000000
,
00000000
00100000
01000000
00000000
10000000
00000000
01000000
00000000
,
00100000
00100000
00001000
00000000
00010000
00001000
00010000
00000000
,
00000100
00001000
00000001
00000000
00001000
00000010
00000100
00000000
,
00000001
00000100
00000001
00000100
00001000
00000000
00010000
00100000
,
00000000
01000000
00010000
00000000
00100000
01000000
10000000
00000000
,
11000000
00000000
00000000
00110000
00000000
00000000
00011000
00000000
,
00001000
00000010
00000100
00000000
00001000
00000010
00000100
00000001
,
00001000
00000000
00001000
00000000
00000001
00000100
00001000
00010000
,
00000000
01000000
10000000
00000000
10000000
00000000
00010000
00000000
,
10000000
00000000
10000000
00000000
00010000
10000000
00100000
00010000
,
00000000
00001000
00000010
00000000
00000001
00001000
00000001
00000000
,
00001000
00000000
00001000
00000000
00000001
00000010
00001000
00010000
,
00000000
01000000
00100000
00000000
00010000
10000000
00010000
00000000
,
10000000
00000000
10000000
00000000
00100000
00010000
00001000
00000100
,
00000000
00000010
00001000
00000000
00000200
00000000
00000320
00000000
,
00000031
00000010
00000100
00000000
00010000
00001000
00000000
00000100
,
00000001
00000010
00000100
00000000
00010000
00001000
00000000
00000100
,
00000001
00000010
00001000
00000000
00010000
01000000
00100000
00000000
,
00010000
10000000
01000000
00000000
00100000
00010000
00010000
00000000
,
10000000
01000000
00100000
00000000
00001000
00010000
00100000
00000000
,
10000000
01000000
00010000
00001000
00000000
00000010
00000100
00000000
,
00001001
00000000
00000000
00000110
00000000
00000000
00001001
00000000
,
00000101
00000200
00000320
00002030
,
00003100
00000000
00010000
00001000
00000000
01000000
00001000
00000000
,
00010000
00000100
00000000
00010000
00001000
00000000
00100000
00000000
,
00001000
00000000
00010000
00000010
00000000
00010000
00001000
00000000
,
00100000
00001000
00000000
00010000
00000100
00000000
00010000
00000000
,
00001000
00000000
01000000
00010000
00000000
00100000
00001000
00000000
,
00010000
00000010
00000000
00001000
00000100
00000000
00010000
00000000
,
00000010
00000000
00010000
00001000
00000000
01000000
00100000
00000000
,
01000000
00001000
00010000
00000000
00000100
00010000
00000010
00000000
,
00010000
00001000
00000010
00001000
00010000
00001000
00100000
00000000
,
00001000
00010000
00100000
00010000
00001000
00010000
00000010
00000000
,
00011000
00000000
00000000
00000000
01000000
01000000
01000000
00000000
,
01010000
01001000
00011000
00010100
,
00010000
00000000
00001000
00010000
00000000
00000010
00001000
00000000
,
00000100
00010000
00000000
00001000
00100000
01000000
00100000
00000000
,
00001000
00000000
00010000
00000010
00000000
00000100
00000010
00000000
,
00010000
00001000
00100000
00010000
01000000
00001000
00010000
00000000
,
00022000
00000000
00000000
00000000
,
00000000
00000000
00000000
00000000
,
00033000
00002000
00023000
02030000
,
03200000
00000000
00000000
00000000
00000000
00000000
00301000
00000000
00010000
00000000
00010000
00000000
,
00002000
00000000
00003020
00000000
00000032
00000000
00000203
00002300
,
00000000
00000000
00000000
00000000
00023000
00000000
00000000
00000000
02030000
00000000
00000000
00000000
23000000
00000000
00000000
30020000
,
00000000
00000000
00000000
00000000
,
00000000
00000000
00000000
00000000
00000000
00000000
00000000
00000000
10030000
00010000
10000000
00010000
10000000
00000000
00000000
00000000
,
00010000
10000000
01000000
10000000
01000000
00010000
01000000
00010000
,
00001000
00000100
00000001
00000100
00000001
00001000
00000001
00000000
,
00001000
00000001
00000010
00000001
00000010
00001000
00010000
00001000
,
00010000
00100000
10000000
00100000
10000000
00010000
10000000
00000000
,
10100000
00000000
00000000
00110000
00000000
00000000
00011000
00000000
,
00001010
00000000
00000000
00000011
00000000
00000000
00000101
00000000
,
00001100
00000000
00000000
00011000
00000000
00000000
01010000
00000000
,
22000000
00000000
33000000
00000000
,
10000000
01000000
10000000
01000000
00010000
00001000
00010000
00000000
,
00001000
00010000
00001000
00000100
00000001
00000100
00000001
00000000
,
00000001
00000010
00000001
00000010
00001000
00010000
00001000
00000000
,
00010000
00001000
00010000
00100000
10000000
00100000
10000000
00000000
,
00010000
01000000
10000000
01000000
00010000
10000000
00010000
00000000
,
10000000
01000000
00010000
00001000
00010000
01000000
10000000
00000000
,
00100000
00010000
00001000
00000100
00000010
00001000
00000001
00000000
,
00001000
00000010
00000001
00000010
00001000
00000100
00000010
00000000
,
00001001
00000000
00000000
00000110
00000000
00000000
00011000
00000000
,
01100000
00000000
00000000
10100000
00000000
00000000
01010000
00000000
,
10010000
00000000
00000000
00200000
,
00302000
00000000
00000000
00000000
00013000
00001000
00010000
00000000
,
00010000
01000000
00000000
01000000
10000000
00000000
10000000
00100000
,
00000000
00100000
00010000
00000000
00011000
00000000
00001000
00000010
,
00000000
00000001
00000100
00000000
00001000
00010000
00001000
00100000
,
00010000
00000000
00000000
10000000
00000000
00000000
00010000
00000000
00000000
01000000
00000000
00000000
00100000
00000000
00000000
10000000
00000000
00000000
00010000
00000000
00000000
00000000
00010000
00000000
,
01000000
00000000
01000000
00100000
00000000
00100000
10000000
00000000
00000000
01000000
00000000
01000000
,
00100000
00000000
00100000
00001000
00000000
00010000
00000010
00000000
00000000
00001000
00000100
00000010
,
00000001
00000000
00000000
00000001
00001000
00000010
00001000
00000000
00000000
00000010
00010000
00001000
,
00100000
00000000
00000000
00000000
00000000
00000000
00010000
00000000
10000000
00000000
00100000
00000000
01000000
00000000
00000000
00000000
00000000
00000000
00010000
00000000
00000000
10000000
00000000
00000000
,
01000000
00010000
00001000
00000010
00000100
00000000
00001000
00000001
,
00000100
00001000
00010000
00100000
01000000
00000000
00010000
10000000
,
00100000
00010000
00001000
00000100
00000010
00000000
00001000
00000001
,
00000010
00001000
00010000
01000000
00100000
00010000
10000000
00100000
,
01000000
00000000
00001000
00100000
00010000
00000000
00100000
01000000
,
10000000
00000000
00010000
00100000
00000000
00010000
10000000
01000000
,
00100000
00000000
10000000
00000000
00100000
01000000
00000000
10000000
,
00100000
00000000
01000000
00000000
00001000
00010000
00011000
00000000
,
00000000
00010010
00000000
00000000
00011000
00000000
01001000
00000000
,
00000000
00011000
00000000
00000000
00101000
00000000
00010100
00000000
,
00000000
00011000
00000000
00000000
00101000
00000000
00011000
00000000
,
00000000
00000010
00000000
00001000
00000001
00000000
00001001
00000000
,
00001001
00000000
00000001
00000100
00001000
00010000
00000000
01000000
,
10000000
00010000
10000000
10010000
,
10010000
00000000
10000000
01000000
00010000
00001000
00000000
00000100
,
00000001
00002000
00003002
00001003
,
00000010
00000000
00010000
00000000
00001000
00010000
00001000
00100000
,
00010000
10000000
00100000
01000000
00010000
00100000
10000000
00100000
,
00010000
01000000
00001000
00010000
00000100
00001000
00000001
00000010
,
00001000
00000010
00000100
00000000
00001001
00000000
00000000
00000011
,
00000000
00000000
00001010
00000000
00011000
00000000
00000000
01010000
,
00000000
11000000
10010000
20000000
,
32000000
00000000
03200000
00000000
00301000
00001000
00010000
00010000
,
00001000
00010000
00011000
00000000
00010000
00000010
00000000
00001000
,
00000001
00000000
00000100
00000001
00000000
00010000
00000100
00000000
,
00011000
00000000
00001000
00010000
00000000
01000000
10000000
00000000
,
00100000
00010000
00001000
00001000
00010000
00011000
00000000
00000000
;

//--------------- dance-double - Fred-104 ----------------
#NOTEDATA:;
#STEPSTYPE:dance-double;
#DESCRIPTION:Fred-104;
#DIFFICULTY:Hard;
#METER:17;
#CREDIT:Fred-104;
#NOTES:
00000000
00000000
00000000
00000000
,
00000000
00000000
00000000
00000000
,
00000000
00000000
00000000
00000000
,
00000000
00000000
00000000
00000000
,
00000000
00000000
00000000
00000000
,
00000000
00000000
00000000
00000000
,
00100000
00001000
00010000
00001000
00000010
00001000
00010000
00001000
,
00000000
00000000
00100000
00010000
10000000
00000000
00100000
10000000
00010000
00000000
01000000
00100000
10000000
00000000
01000000
00000000
,
00100000
00010000
01000000
00010000
00001000
00000010
00000100
00000001
,
00000010
00001000
00010000
01000000
00100000
00010000
10000000
00000000
,
00010000
01000000
00001000
00010000
01000000
00010000
00001000
00010000
,
00000000
00000000
00001000
00010000
00000100
00000000
00001000
00000001
00000100
00000000
00000001
00001000
00000100
00000000
00000010
00000000
,
00000011
00000001
00001000
00001010
00000010
00000100
00000101
00000001
,
00001000
00000000
00000010
00000000
00010000
00000000
00001000
00000000
00010000
00001000
00010000
00001000
00010000
00001000
00010000
00001000
,
00020000
00030000
00020000
00030000
00010000
00001000
00000100
00000002
,
00000000
00000000
00000103
00000000
00000110
00000000
00000000
00000000
00001000
00000000
00000100
00000010
00000001
00000000
00000010
00000100
,
00002000
00003000
00002000
00003000
00000010
00001000
00010000
02000000
,
00000000
00000000
03100000
00000000
01100000
00000000
00000000
00000000
10000000
00010000
01000000
00000000
00100000
10000000
01000000
00000000
,
00200000
00300000
00200000
00300000
00001000
00010000
00000100
00002000
,
00000000
00000000
00003100
00000000
00000110
00000000
00000000
00000000
00000010
00000001
00000010
00000000
00000001
00001000
00000001
00000000
,
00002000
00003000
00002000
00003000
00000001
00000100
00000010
00000200
,
00000000
00000310
00020010
00000000
00032000
00000000
00203000
00000000
,
00310000
00100000
01000000
10000000
00010000
00010000
10000000
00100000
,
01000000
00010000
10000000
01000000
00100000
00100000
00001000
00010000
,
00000010
00001000
00000100
00010000
00001000
00001000
00010000
00000100
,
00001000
00000100
00000010
00000001
00000100
00000100
00000010
00001000
,
00000001
00000010
00000001
00000010
00001000
00000010
00001000
00010000
,
00001000
00010000
00100000
10000000
00100000
10000000
00010000
10000000
,
00010000
01000000
00100000
00000000
10000000
00000000
01000000
00100000
00001000
00000000
00010000
00000000
00000100
00010000
00001000
00000000
,
00021000
00000000
00000000
00000000
00030020
00000000
00000000
00000000
00001030
00000010
00001000
00000010
00000100
00000010
00000100
00000010
,
00002000
00003100
00000010
00000002
00000103
00000010
00002000
00003100
,
00010000
00002000
00103000
00010000
20000000
32000000
03020000
02030000
,
23000000
30100000
01000000
00020000
00130000
01000000
20000000
30100000
,
01000000
00020000
00130000
00001000
00020000
00030200
00002300
00003200
,
00000320
00000031
00001000
00000020
00001030
00000001
00000200
00001300
,
00000100
00000002
00000013
00000100
00020000
00032000
00203000
02300000
,
23000000
30010000
00100000
20000000
30010000
01000000
20000000
30010000
,
01000000
00200000
10300000
01000000
00200000
00302000
00023000
00030200
,
00001300
00000010
00001000
00000000
00000001
00000100
00000001
00000000
00001000
00000100
00000010
00000001
00001000
00000000
00000000
00000000
,
00000100
00010000
00000100
00000000
00010000
00001000
00010000
00000000
00001000
00100000
00010000
10000000
00100000
00000000
00000000
00000000
,
10010000
00000000
00000000
00000000
00000000
00000000
00000000
00000000
10000000
01000000
00100000
00010000
00100000
00000000
00000000
00000000
,
00001000
00100000
00001000
00000000
00010000
00000100
00010000
00000000
00000100
00001000
00000100
00000000
00000110
00000000
00000000
00000000
,
00000002
00000103
00001000
00020000
00130000
01000000
00020000
10030000
,
00100000
20000000
31000000
00100000
00002000
00023000
00030200
00000320
,
00000032
00000013
00001000
00020000
01030000
00100000
00020000
10030000
,
00100000
10000000
00100000
00000000
01000000
00100000
01000000
00000000
00010000
01000000
00001000
01000000
00001000
00000000
00010000
00000000
,
00002000
00000000
00000000
00000000
,
00000000
00000000
00000000
00000000
,
00003000
00020000
00030020
00002030
,
00003200
00000000
00000000
00000000
00000000
00000000
00001300
00000000
00001000
00000000
00001000
00000000
,
00020000
00000000
02030000
00000000
03200000
00000000
00310000
00020000
,
00000000
00000000
00230000
00000000
02300000
00000000
03020000
00000000
00032000
00000000
00000000
00000000
00003020
00000000
00000000
00000032
,
00000000
00000000
00000000
00000000
,
00000000
00000000
00000000
00000000
00000000
00000000
00000000
00000000
00001003
00000001
00000100
00000001
00001000
00000000
00000000
00000000
,
00000001
00000100
00000110
00000000
00001000
00000100
00000110
00000000
,
00000001
00000000
00001000
00000000
00001100
00000000
00000000
00000000
00000100
00010000
00001000
00100000
00010000
00000000
00000000
00000000
,
00100000
00001000
00011000
00000000
00000010
00010000
00011000
00000000
,
00001000
00000000
00100000
00000000
00110000
00000000
00000000
00000000
00010000
10000000
00100000
10000000
00010000
00000000
00000000
00000000
,
10000000
01000000
00100000
00000000
00010000
00000000
10000000
01000000
00100000
00000000
00001000
00000000
00010000
00001000
00010000
00000000
,
00000100
00001000
00000010
00000000
00001000
00000000
00000001
00000010
00000100
00000000
00001000
00000000
00000001
00000100
00000010
00000000
,
00001000
00000001
00000010
00000000
00000100
00000000
00000010
00000001
00001000
00000000
00000100
00000000
00010000
00001000
00010000
00001000
,
00020000
00000000
00030000
00000000
,
00001000
00010000
00100000
10000000
00010000
01000000
10000000
01000000
,
00100000
10000000
01000000
00100000
00001000
00010000
00100000
10000000
,
00010000
01000000
00100000
01000000
00010000
00100000
00001000
00010000
,
00001000
00000100
00000010
00001000
00000100
00000010
00000001
00000000
,
00000001
00000010
00000100
00010000
00001000
00000100
00000001
00001000
,
00000001
00000100
00001000
00010000
00100000
01000000
00010000
01000000
,
00100000
10000000
00010000
10000000
00100000
01000000
00100000
00010000
,
00001000
00000000
00000100
00000000
00000010
00000000
00001000
00000000
00000001
00000010
00000100
00001000
00000001
00000000
00000000
00000000
,
00001000
00000001
00000010
00000000
00000001
00000000
00001000
00000010
00000100
00000000
00000010
00000000
00010000
00001000
00010000
00000000
,
00000100
00010000
00001000
00000000
00100000
00000000
00010000
10000000
00100000
00000000
01000000
00000000
00010000
10000000
00010000
10000000
,
02000000
00000000
00000000
03200000
,
00302000
00000000
00000000
00000000
00000000
00000000
00000000
00000000
00013000
00001000
00010000
00001000
00010000
00000000
00000000
00000000
,
00101000
00001000
00000000
00010010
00010000
00000000
01001000
00001000
,
00000000
00010100
00010000
00000000
00011000
00000000
00101000
00001000
,
00000000
00010010
00010000
00000000
00001000
00010000
00001000
00100000
,
00010000
00000000
00000000
00000000
00000000
00000000
10000000
00000000
00000000
00000000
00000000
00000000
00010000
00000000
00000000
00100000
00000000
00000000
01000000
00000000
00000000
10000000
00000000
00000000
00010000
00000000
00000000
01000000
00000000
00000000
00100000
00000000
00000000
00000000
00000000
00000000
10000000
00000000
00000000
00000000
00000000
00000000
00000000
00000000
10000000
00000000
00000000
00000000
,
00100000
00000000
00100000
01000000
00010000
00100000
00010000
00000000
00010000
01000000
00001000
00010000
,
00001000
00100000
00001000
00010000
00000100
00001000
00000010
00000000
00000000
00000100
00000001
00000010
,
00000100
00001000
00000001
00000100
00000010
00000100
00001000
00010000
00100000
01000000
00100000
10000000
,
00010000
00000000
00000000
00000000
20000000
00000000
00000000
00000000
00000000
00000000
00000000
00000000
30000000
00000000
00000000
00000000
00000000
00000000
10000000
00000000
00000000
01000000
00000000
00000000
,
00010000
00001000
00000010
00000001
00001000
00000000
00000001
00000100
,
00001000
00010000
00100000
10000000
00010000
00000000
10000000
00100000
,
00010000
00001000
00000100
00000001
00001000
00000000
00000001
00000010
,
00001000
00010000
01000000
10000000
00010000
01000000
00100000
10000000
,
00010000
10000000
00100000
01000000
00010000
00100000
10000000
00100000
,
00001000
00010000
00000010
00000001
00000010
00010000
00001000
00100000
,
00001000
00010000
00001000
00100000
00010000
01000000
00010000
00100000
,
01000000
00000000
00010000
00000000
00001000
00000000
00000010
00000000
00000100
00000000
00001000
00000000
00000001
00001000
00000010
00000000
,
00010000
00000000
00001000
00010000
00001000
00000000
00100000
00000000
01000000
10000000
00010000
00000000
10000000
00100000
01000000
00000000
,
00001000
00000000
00010000
00001000
00010000
00000000
00000100
00000000
00001000
00000001
00000010
00000000
00000001
00000100
00000010
00000000
,
00001000
00000000
00000001
00000010
00000100
00000000
00010000
00000000
00001000
00010000
00001000
00000000
00011000
00000000
00000000
00000000
,
00000000
00100000
00000000
00010000
10000000
00000000
11000000
00000000
,
00110000
00000000
10000000
01000000
00010000
00001000
00000000
00000010
,
00000110
00000000
00000100
00000001
00001000
00000000
00001010
00000000
,
00000101
00000000
00000001
00000010
00001000
00010000
00000000
01000000
,
00100000
00000000
00020000
00000000
02030000
00000000
03001000
00010000
,
00001000
00010000
00000100
00001000
00000100
00000010
00000001
00001000
,
00000010
00000100
00000001
00000010
00000100
00001000
00010000
00100000
,
01000000
10000000
00100000
00010000
00001000
00000100
00000001
00001000
,
00000010
00000100
00000001
00001000
00000100
00000000
00000000
00000000
00001000
00000001
00000100
00000000
00000001
00000000
00000010
00000100
,
00001000
00000000
00000100
00000000
00010000
00001000
00100000
00000000
00010000
10000000
00100000
00000000
01000000
00000000
00010000
10000000
,
01000000
00000000
00100000
00000000
00001000
00010000
00001000
00010000
00002000
00000000
00000000
00000000
00023000
00000000
00000000
00000000
,
00030020
00000000
00000000
00000000
00002030
00000000
00000000
00000000
00003001
00000010
00000100
00000000
00001000
00000100
00000010
00000000
,
00000001
00001000
00000001
00000000
00001001
00000000
00000000
00000000
00000001
00000000
00000010
00000000
00001000
00000000
00010000
00000000
,
00100000
10000000
01000000
00010000
00001000
00000100
00000001
00001000
,
00001001
00000000
00000001
00000100
00001000
00010000
00100000
10000000
,
01000000
00010000
00001000
00000010
00000001
00001001
00000000
00000000
;

//--------------- dance-double - Fred-104† ----------------
#NOTEDATA:;
#STEPSTYPE:dance-double;
#DESCRIPTION:Fred-104†;
#DIFFICULTY:Challenge;
#METER:19;
#CREDIT:Fred-104†;
#NOTES:
00000000
00000000
00000000
00000000
,
00000000
00000000
00000000
00000000
,
00000000
00000000
00000000
00000000
,
00000000
00000000
00000000
00000000
,
00000000
00000000
00000000
00000000
,
00000000
00000000
00000000
00000000
,
00000001
00000000
00000100
00000001
00000100
00000000
00000010
00000000
00001000
00000000
00000100
00010000
00001000
00000000
00020000
00000000
,
00000000
00000000
00130000
10000000
00010000
00000000
10000000
00010000
00100000
00000000
01000000
10000000
00100000
00000000
01000000
00000000
,
00010000
10000000
00100000
00010000
00001000
00010000
01000000
10000000
,
00100000
00000000
00010000
00000000
00001000
00000000
00010000
00000000
01000000
00000000
10000000
00010000
10000000
00000000
00100000
00000000
,
01000000
00000000
00100000
10000000
00100000
00000000
01000000
00000000
00001000
00000000
00010000
00001000
00010000
00000000
00000020
00000000
,
00000000
00000000
00001030
00000010
00000100
00000000
00000001
00000010
00000100
00000000
00000010
00000001
00001000
00000000
00000100
00000000
,
00010100
00010000
00001000
00101000
00100000
00010000
10000000
00100000
,
01000000
00010000
01000000
00010000
10000000
01000000
10000000
01000000
00100000
00010000
00100000
00001000
00010000
00000010
00001000
00000010
,
00000200
00000300
00000200
00000300
00000001
00000100
00001000
00012000
,
00000000
00000000
00013000
00000000
00011000
00000000
00000000
00000000
00001000
00000000
00100000
00010000
10000000
00010000
01000000
00100000
,
02000000
03000000
02000000
03000000
00010000
10000000
01000000
01200000
,
00000000
00000000
00301000
00000000
00011000
00000000
00000000
00000000
00010000
00000100
00001000
00000000
00000001
00001000
00000100
00000000
,
00000020
00000000
00000030
00000000
00000020
00000000
00000030
00000000
00000001
00000010
00000100
00000010
00000001
00000100
00000002
00000000
,
00000000
00000000
00001003
00000000
00001100
00000000
00000000
00000000
00000100
00010000
00000100
00010000
00001000
00100000
00010000
00000000
,
00200000
00000000
00300000
00000000
00200000
00000000
00300000
00000000
00010000
10000000
01000000
00100000
00010000
00100000
00002000
00000000
,
00000000
00013000
00010020
00000000
00002030
00000000
00003002
00000000
,
00002003
00003001
00000200
00000310
00002000
00003002
00000013
00000200
,
00000320
00000031
00000200
00000310
00000200
00002300
00013000
00200000
,
02300000
03010000
20000000
31000000
00020000
00031000
00020000
00130000
,
20000000
31000000
00020000
00031000
00000020
00000130
00002000
00003010
,
00000100
00000001
00000100
00000010
00001000
00000001
00000010
00000100
,
00000020
00000000
00001030
00000000
00010000
00000000
02000000
00000000
03100000
00000000
01000000
00000000
20000000
00000000
30010000
10000000
,
00100000
10000000
00010000
10000000
01000000
00000000
00100000
00010000
00100000
00001000
00010000
00000000
00001000
00010000
00000010
00010000
,
00002000
00000000
00000000
00000000
00203000
00000000
00000000
00000000
00310000
10000000
00010000
10000000
01000000
00100000
01000000
00100000
,
00020000
00130000
01000000
00020000
00031000
00000100
00000002
00000013
,
00000100
00000000
00020000
00000000
00031000
00000000
00100000
00000000
00010000
00100000
02000000
00000000
13000000
00100000
02000000
00000000
,
03200000
10300000
01000000
00200000
00301000
00010000
00200000
10300000
,
01000000
00000000
00020000
00000000
00031000
00000000
00000010
00000000
00000001
00001000
00000002
00000000
00000013
00000100
00000020
00000000
,
00000032
00000013
00001000
00020000
01030000
10000000
00200000
00310000
,
00001000
00000000
00000200
00000000
00000301
00000000
00001000
00000000
00000001
00000010
00000200
00000000
00010300
00001000
00020000
00000000
,
00032000
00013000
00100000
20000000
31000000
00010000
00002000
00003010
,
00000001
00000000
00000200
00000000
00001300
00000000
00010000
00000000
00100000
10000000
00020000
00000000
01030000
00100000
20000000
00000000
,
30010000
00100000
00010000
00100000
00001000
00010000
00001000
00010000
00000010
00001000
00000010
00001000
00000001
00000000
00001000
00000000
,
00000100
00010000
00000100
00010000
00001000
01000000
00001000
01000000
00010000
10000000
00010000
10000000
00010000
00000000
10000000
00000000
,
11000000
00000000
00000000
00000000
00000000
00000000
00000000
00000000
10000000
01000000
00100000
00001000
00010000
00000000
00000000
00000000
,
00001000
00010000
00001000
00010000
00000010
00001000
00000010
00001000
00000001
00000010
00000100
00010000
00001000
00000000
00000000
00000000
,
00001000
00100000
00020000
00000000
10030000
00000000
00010000
01000000
00020000
00000000
00130000
00000000
01000000
00100000
00020000
00000000
,
01030000
00000000
00001000
00010000
00002000
00000000
00003010
00000000
00000100
00001000
00000020
00000000
00001030
00000100
00000020
00000000
,
00000031
00000100
00000020
00000000
00000130
00000000
00001000
00010000
00200000
00000000
01300000
00000000
00010000
10000000
00010000
10000000
,
00100000
10000000
00100000
10000000
00010000
01000000
00010000
01000000
00001000
00010000
00001000
00010000
00001000
00000000
00000000
00000000
,
00022000
00000000
00000000
00000000
,
00000000
00000000
00000000
00000000
,
00033000
00020000
00032000
00003002
,
00002003
00000000
00000000
00000000
00000000
00000000
00023000
00000000
00032000
00000000
00023000
00000000
,
00032000
00000000
00023000
00000000
02030000
00000000
23000000
30200000
,
00000000
00000000
00320000
00000000
00032000
00000000
00003200
00000000
00000302
00000000
00000000
00000000
00000023
00000000
00000000
00000230
,
00000000
00000000
00000000
00000000
,
00000000
00000000
00000000
00000000
00000000
00000000
00000000
00000000
00010300
00001000
00010000
00001000
00010000
00000000
00000000
00000000
,
00021000
00031000
00100000
00010000
20010000
31000000
00100000
00001000
,
00021000
00030010
00001000
00000100
00000110
00000101
00001001
00000000
,
00000201
00000310
00001000
00000100
00020100
00031000
00100000
00010000
,
10020000
10030000
01000000
00100000
00010000
01010000
10010000
00000000
,
10000000
01000000
00100000
00010000
01000000
00000000
00001000
00010000
00000010
00001000
00000001
00000000
00001000
00000100
00000010
00000001
,
00001000
00000100
00000010
00000100
00001000
00000000
00000001
00000100
00000010
00001000
00000001
00000000
00000010
00000100
00000010
00000001
,
00001000
00000001
00000010
00000001
00001000
00000100
00010000
00001000
00100000
00010000
10000000
00100000
10000000
00010000
01000000
00100000
,
20000000
00000000
30000000
00000000
,
01000000
00000000
10000000
00000000
00010000
10000000
01000000
00000000
00100000
00000000
00001000
00000000
00010000
00100000
01000000
00000000
,
00001000
00010000
01000000
00000000
10000000
00000000
01000000
00100000
00010000
00000000
00100000
00000000
00001000
00010000
00000010
00000000
,
00010000
00001000
00000010
00000000
00000001
00000000
00000010
00000000
00000100
00001000
00000001
00000000
00001000
00000000
00000010
00000000
,
00010000
00001000
00100000
00000000
00001000
00010000
00000010
00000000
00001000
00000100
00010000
00001000
01000000
00000000
00001000
00000000
,
00010000
00000000
00100000
00000000
10000000
00010000
01000000
00000000
00001000
00000000
00010000
00000000
00100000
01000000
00001000
00000000
,
00010000
00001000
00000010
00000000
00000100
00000000
00001000
00000001
00000100
00000000
00001000
00000000
00010000
00100000
01000000
00000000
,
00001000
00100000
00010000
00000000
10000000
00000000
00100000
00000000
00010000
00001000
00000100
00000000
00000010
00000000
00000100
00000000
,
00000001
00001000
00000100
00000000
00000010
00000001
00001000
00000000
00000001
00001000
00000001
00000100
00000010
00000000
00000000
00000000
,
00001000
00000010
00010000
00001000
00100000
00000000
00010000
01000000
00001000
00010000
00000100
00000000
00001000
00000010
00010000
00001000
,
00010000
00000100
00001000
00000100
00010000
00000000
00001000
00100000
00010000
01000000
00001000
00000000
00010000
00000010
00001000
00000010
,
00000200
00000000
00000000
00000302
,
00020003
00000000
00000000
00000000
00000000
00000000
00000000
00000000
00031000
00010000
00001000
00010000
00001000
00000000
00000000
00000000
,
00021000
00000000
00031000
00100000
00010000
00000000
01020000
00000000
01030000
00010000
10000000
00000000
21000000
00000000
31000000
00100000
,
00010000
00000000
00210000
00000000
00301000
00010000
00000010
00000000
00001010
00000000
00000000
00000000
00001200
00000000
00001300
00000100
,
00000010
00000000
00000021
00000000
00000031
00000100
00001000
00000000
00012000
00000000
00013000
00100000
10000000
00000000
00010000
00000000
,
01000000
00000000
00000000
00000000
00000000
00000000
00100000
00000000
00000000
00000000
00000000
00000000
10000000
00000000
00000000
00100000
00000000
00000000
01000000
00000000
00000000
00010000
00000000
00000000
00100000
00000000
00000000
01000000
00000000
00000000
00100000
00000000
00000000
00010000
00000000
00000000
10000000
00000000
00000000
00000000
00000000
00000000
00000000
00000000
00010000
00000000
00000000
00000000
,
00100000
01000000
10000000
00010000
00100000
01000000
00010000
01000000
00100000
00010000
10000000
01000000
,
00010000
00001000
00010000
01000000
10000000
00100000
00010000
00001000
00000100
00000010
00001000
00000001
,
00000010
00000100
00010000
00001000
00000100
00000001
00000100
00000010
00000100
00001000
00010000
00100000
,
01000000
00000000
00000000
00000000
00010000
00000000
00000000
00000000
00100000
00000000
00000000
00000000
01000000
00000000
00000000
00000000
10000000
00000000
00000000
00000000
00010000
00000000
00000000
00000000
10010000
00000000
00000000
00000000
00000000
00000000
00000000
00000000
00000000
00000000
00000000
00000000
10000000
00000000
00000000
00100000
00000000
00000000
10000000
00000000
00000000
00100000
00000000
00000000
,
01000000
00010000
01000000
00010000
00100000
00001000
00010000
00001000
00100000
00000000
00000000
00000000
00001000
00010000
00001000
00010000
,
00000010
00001000
00000010
00001000
00000001
00000100
00000010
00000100
00000001
00000000
00000000
00000000
00001000
00000100
00000010
00000001
,
00001000
00000100
00000010
00000001
00001000
00000010
00000100
00000001
00000100
00000000
00000010
00000000
00001000
00000010
00000100
00000001
,
00001000
00000100
00010000
00001000
00100000
00010000
10000000
00100000
01000000
00010000
10000000
01000000
00100000
00000000
00001000
00000000
,
00010000
00100000
01000000
00000000
10000000
00000000
00010000
00000000
00100000
00001000
00010000
00000000
00001000
00000000
00000100
00000010
,
00001000
00000000
00000001
00000000
00000010
00000100
00001000
00000000
00000100
00000000
00010000
00000000
00001000
00000100
00000010
00000000
,
00000100
00000000
00000001
00001000
00000100
00000000
00000010
00000000
00000100
00001000
00000001
00000000
00001000
00000000
00000100
00000010
,
00000001
00000000
00000100
00000000
00001000
00010000
00100000
00000000
01000000
00010000
10000000
01000000
10000000
00010000
01000000
00100000
,
10000000
00000000
01000000
00100000
00001000
00010000
00001000
00000000
00000100
00000001
00001000
00000100
00000010
00000001
00001000
00000010
,
00000100
00000000
00000010
00001000
00000001
00000010
00000100
00000000
00001000
00000010
00000100
00000001
00001000
00000100
00000010
00000001
,
00001000
00000010
00000100
00001000
00010000
00100000
01000000
00010000
10000000
01000000
00100000
00010000
10000000
00000000
00000000
00000000
,
00000000
00001000
00000000
01000000
00001000
00000000
00022000
00033000
,
00002002
00000000
00003003
00000000
00000001
00000100
00000010
00000100
00000001
00000010
00000200
00000000
00000000
00000000
00010300
00000000
,
00011000
00000000
00000000
00000000
00001000
00010000
00100000
00000000
00010000
00001000
00010000
00000000
00022000
00000000
00033000
00000000
,
20020000
00000000
30030000
00000000
00010000
10000000
00010000
01000000
00100000
10000000
02000000
00000000
00000000
00000000
03100000
00000000
,
00102000
00000000
00000000
00000000
00023000
00000000
00000000
00000000
00030020
00000000
00000000
00000000
00001030
00000100
00000010
00000000
,
00000001
00000000
00000100
00000000
00000010
00000100
00000001
00000000
00001000
00000001
00000010
00000000
00000100
00000000
00010000
00001000
,
00000100
00000000
00000001
00000000
00000010
00000100
00000010
00000000
00001000
00010000
01000000
00000000
00100000
00000000
00010000
00000000
,
01000000
00010000
10000000
00000000
01000000
00000000
00100000
00000000
00010000
10000000
00100000
00000000
10000000
00010000
01000000
00000000
,
00010000
10000000
01000000
00100000
00010000
00000000
00000000
00000000
10000000
00100000
01000000
00010000
01000000
00000000
00001000
00010000
,
00000010
00001000
00000001
00000000
00001000
00000001
00000100
00000010
00001000
00000001
00000010
00000100
00001000
00000000
00000100
00010000
,
00001000
00100000
00010000
10000000
00010000
01000000
00100000
10000000
02000000
00000000
00000000
00000000
03200000
00000000
00000000
00000000
,
00302000
00000000
00000000
00000000
00023000
00000000
00000000
00000000
00031000
00010000
00000010
00001000
00000010
00010000
00001000
00100000
,
00010000
01000000
00001000
00010000
00000100
00000000
00001000
00000000
00001200
00000000
00001300
00000100
00000010
00000000
00000021
00000000
,
00000031
00000100
00000010
00000000
00001020
00000000
00001030
00000100
00010000
00000000
00021000
00000000
00031000
00100000
01000000
00000000
,
11000000
00000000
00000000
00000000
01200000
00000000
10300000
01000000
00010000
00000000
00021000
00000000
00031000
00000010
00000001
00000000
,
00001000
00000001
00000100
00000001
00001000
00000000
00001100
00000000
00000011
00000000
00001001
00000000
00000000
00000000
00000000
00000000
;
