#VERSION:0.83;
#TITLE:鴉;
#ARTIST:L.E.D.-G;
#TITLETRANSLIT:Karasu;
#GENRE:CROSSBREED;
#BANNER:Karasu.png;
#BACKGROUND:Karasu-bg.png;
#CDTITLE:./CDTitles/bm IIDX 24 SINOBUZ.png;
#MUSIC:Karasu.ogg;
#SAMPLESTART:20.991;
#SAMPLELENGTH:15;
#BPMS:0=190;

//--------------- dance-single - Fred-104 ----------------
#NOTEDATA:;
#STEPSTYPE:dance-single;
#DESCRIPTION:Fred-104;
#DIFFICULTY:Beginner;
#METER:4;
#CREDIT:Fred-104;
#NOTES:
0000
0000
0000
0000
,
0000
0000
0000
0000
,
0000
0000
0000
0000
,
0000
0000
0000
0000
,
0000
0000
0000
0000
,
1000
0000
0000
1000
,
0000
0000
1000
0000
,
0001
0000
0001
0000
,
0100
0100
0100
0000
,
0010
0000
0000
0010
,
0000
0000
0010
0000
,
1000
0000
0000
1000
,
0000
0000
1000
0000
,
0001
0000
0000
0010
,
0000
0000
1000
0000
,
0100
0000
0001
0000
,
1001
0000
0000
0000
,
1001
0000
0000
0000
,
1001
0000
0000
0000
,
0001
0000
1000
0000
,
0001
0000
1000
0000
,
1001
0000
0000
0000
,
1001
0000
0000
0000
,
0001
0000
1000
0000
,
0010
0000
0100
0000
,
0110
0000
0000
0000
,
0110
0000
0000
0000
,
0010
0000
0010
0000
,
0100
0000
0100
0000
,
1001
0000
0000
0000
,
0110
0000
0000
0000
,
0001
0000
1000
0000
,
1001
0000
0000
0000
,
1000
0000
0000
0100
,
0000
0000
0001
0000
,
0001
0000
0000
0100
,
0000
0000
1000
0000
,
0001
0000
0000
0100
,
0000
0000
1000
0000
,
1000
0000
0000
0100
,
0000
0000
0001
0000
,
1001
0000
0000
1000
,
0000
0000
0010
0000
,
0100
0000
0000
0100
,
0000
0000
0001
0000
,
0010
0000
0000
0010
,
0000
0000
0100
0000
,
1000
0000
1000
0000
,
1001
0000
0000
0000
,
0001
0000
0001
0000
,
0010
0000
0010
0000
,
0100
0000
0100
0000
,
0010
0000
1000
0000
,
0010
0000
0010
0000
,
0001
0000
0001
0000
,
1000
0000
0010
0000
,
1000
1000
1000
1000
,
1001
0000
0000
0000
,
0000
0000
0000
0000
,
0000
0000
0000
0000
,
0000
0000
0000
0000
,
0000
0000
0000
0000
,
0000
0000
0000
0000
,
0000
0000
0000
0000
,
0000
0000
0000
0000
,
1000
0000
0000
0100
,
0000
0000
0001
0000
,
0001
0000
0000
0100
,
0000
0000
1000
0000
,
1000
0000
0000
0010
,
0000
0000
0100
0000
,
0001
0000
0000
1000
,
1001
0000
0000
0000
,
0001
0000
0010
0000
,
0100
0100
0100
0000
,
1000
0000
0001
0000
,
0100
0100
0100
0000
,
0010
0000
0100
0000
,
0001
0001
0001
0000
,
1000
0000
0001
0000
,
1000
0000
0001
0000
,
1001
0000
1000
0000
,
0001
0001
0001
0000
,
0100
0000
0001
0000
,
0010
0010
0010
0000
,
1001
0000
0001
0000
,
1000
0000
0010
0000
,
1000
0000
0001
0000
,
1000
1000
1000
1000
,
2002
0000
0000
0000
,
0000
0000
0000
0000
,
3003
0000
0000
0000
;

//--------------- dance-single - Fred-104 ----------------
#NOTEDATA:;
#STEPSTYPE:dance-single;
#DESCRIPTION:Fred-104;
#DIFFICULTY:Easy;
#METER:8;
#CREDIT:Fred-104;
#NOTES:
0000
0000
0000
0000
,
0000
0000
0000
0000
,
0000
0000
0000
0000
,
0000
0000
0000
0000
,
0000
0000
0000
0000
,
0001
0000
0000
0001
0000
0000
0001
0000
,
0000
0100
0000
0000
0100
0000
0000
0000
,
0010
0000
0000
0010
0000
0000
1000
0000
,
0100
0100
0010
0001
,
1000
0000
0000
0001
0000
0000
1000
0000
,
0000
0010
0000
0000
0100
0000
0100
0000
,
0001
0000
0000
1000
0000
0000
0100
0000
,
0000
0010
0000
0000
0001
0000
0001
0000
,
0100
0000
0000
0010
0000
0000
0100
0000
,
0000
0001
0000
0000
1000
0000
0100
0000
,
1000
1000
0001
0001
,
1001
0000
0000
0000
,
1001
0000
0000
0110
0000
0000
1001
0000
,
1001
0000
0000
0110
0000
0000
1001
0000
,
1000
0100
1000
0100
,
0001
0100
1000
0000
,
1001
0000
0000
0110
0000
0000
1001
0000
,
1001
0000
0000
0110
0000
0000
1001
0000
,
0001
0100
0001
0100
,
1000
0100
0001
1000
,
1001
0000
0000
0110
0000
0000
1001
0000
,
0001
0010
0100
1000
,
1000
0001
0100
0010
,
0100
0100
0001
1000
,
1001
0000
0000
0110
0000
0000
1001
0000
,
1001
0000
0000
0110
0000
0000
1001
0000
,
0001
0000
0100
0000
0010
1000
0010
0000
,
1001
0000
0000
0000
,
1000
0000
1000
0100
0000
0100
0010
0000
,
0010
0100
0000
0100
2000
0000
3000
0000
,
0001
0000
0001
0100
0000
0100
0010
0000
,
0010
0100
0000
0100
0002
0000
0003
0000
,
1000
0000
1000
0010
0000
0010
0100
0000
,
0100
0010
0000
0010
2000
0000
3000
0000
,
0001
0000
0001
0010
0000
0010
0100
0000
,
1000
0001
0100
0001
,
1001
0000
0000
1000
0000
0000
0010
0000
,
0010
1000
0000
1000
0001
0000
0001
0000
,
0010
0000
0010
0100
0000
0100
0010
0000
,
0010
0001
0000
0001
0100
0000
0100
0000
,
0010
0000
0010
1000
0000
1000
0010
0000
,
0010
0100
0000
0100
0001
0000
1000
0000
,
0001
0001
0010
0010
,
0110
0000
0000
0100
0000
0000
0100
0000
,
1001
0000
0000
1000
0000
0000
1000
0000
,
0100
0000
0000
0100
0000
0000
0100
0000
,
0010
0000
0000
0010
0000
0000
0010
0000
,
0001
1000
0001
0100
,
0001
0000
0000
0001
0000
0000
0001
0000
,
0100
0000
0000
0100
0000
0000
0100
0000
,
0010
0010
1000
1000
,
0001
0000
1000
0000
0001
1000
0001
0000
,
1001
0000
0000
0000
,
0000
0000
0000
0000
,
0000
0000
0000
0000
,
0000
0000
0000
0000
,
0000
0000
0000
0000
,
0000
0000
0000
0000
,
0000
0000
0000
0000
,
0000
0000
0000
0000
,
0001
0000
0000
0100
0000
0000
1000
0000
,
0000
0010
0000
0000
0001
0000
0000
0000
,
1000
0000
0000
0100
0000
0000
0001
0000
,
0000
0010
0000
0000
1000
0000
0000
0000
,
0001
0000
0000
0010
0000
0000
1000
0000
,
0000
0100
0000
0000
0001
0000
0000
0000
,
1000
0000
0000
0001
0000
0000
1000
0000
,
2002
0000
0000
3003
,
1001
0000
0000
1000
0000
0000
0001
0000
,
0100
0100
0010
0100
,
0001
0000
0000
0001
0000
0000
0001
0000
,
1000
0100
0010
0001
,
1000
0000
0000
1000
0000
0000
1000
0000
,
0010
0100
0100
0001
,
1001
0000
0000
0001
0000
0000
1000
0000
,
0001
0001
0100
0010
,
0220
0330
0001
1000
,
0001
1000
1000
0010
,
0100
0000
0000
0100
0000
0000
0100
0000
,
0010
1000
1000
0001
,
1001
0000
0000
0001
0000
0000
0001
0000
,
0010
0000
0000
0100
0000
0000
1000
0000
,
1001
0000
0000
0001
0000
0000
1000
0000
,
0010
0000
0100
0000
0001
1000
0001
0000
,
2002
0000
0000
0000
,
0000
0000
0000
0000
,
3003
0000
0000
0000
;

//--------------- dance-single - Fred-104 ----------------
#NOTEDATA:;
#STEPSTYPE:dance-single;
#DESCRIPTION:Fred-104;
#DIFFICULTY:Medium;
#METER:13;
#CREDIT:Fred-104;
#NOTES:
0000
0000
0000
0000
,
0000
0000
0000
0000
,
0000
0000
0000
0000
,
0000
0000
0000
0000
,
0000
0000
0000
0000
,
0001
0000
0010
0100
0000
0100
1000
0000
,
0001
1000
0000
1000
0010
0000
1000
0000
,
0001
0000
1000
0100
0000
0100
0010
0000
,
0001
0010
0001
0000
1000
0010
1000
0000
,
1001
0000
0001
0100
0000
0001
1000
0000
,
0100
0010
0000
0001
1000
0000
0010
0000
,
1000
0000
0001
0010
0000
0100
0010
0000
,
0001
1000
0000
0010
1000
0000
0001
0000
,
1000
0000
0100
0010
0000
0001
1000
0000
,
0010
0100
0000
0010
1000
0000
0001
0000
,
1000
0100
1000
0100
0010
0001
0010
0001
,
1000
1000
0000
0000
0000
0000
1001
0000
,
1100
0000
0000
0101
0000
0000
1100
0000
,
1010
0000
0000
0011
0000
0000
1010
0000
,
1000
0000
0001
0000
0010
0100
0001
0000
,
0100
1000
0001
0000
0100
0010
0100
0000
,
0101
0000
0000
1001
0000
0000
1100
0000
,
1010
0000
0000
1001
0000
0000
0011
0000
,
0001
0000
1000
0000
0010
0100
1000
0000
,
0100
0001
1000
0100
0010
0001
1000
0000
,
0110
0000
1000
0100
0000
0010
0001
0000
,
1000
0010
1000
0000
0001
0010
0001
0000
,
0100
0000
0001
0000
1000
0100
0001
0000
,
0100
1000
0001
0000
0100
0010
0100
0000
,
0101
0000
0001
0010
0000
0100
1000
0000
,
1100
0000
1000
0010
0000
0100
0001
0000
,
1000
0100
0010
0001
1000
0100
0010
0001
,
2000
0000
3000
0000
,
1001
0000
0001
0010
0000
0010
1000
0000
,
1000
0010
0000
0010
0001
0010
0001
0000
,
1001
0000
1000
0010
0000
0010
0001
0000
,
0001
0010
0000
0010
1000
0010
1000
0000
,
1001
0000
1000
0100
0000
0100
0001
0000
,
0001
0100
0000
0100
1000
0100
1000
0000
,
1001
0000
0001
0100
0000
1000
0100
0000
,
0001
1000
0100
0000
0010
0001
1000
0001
,
0100
0000
0110
0000
0010
1000
0010
0000
,
1000
0100
1000
0001
0100
0010
1000
0000
,
1001
0000
0001
0010
0000
0100
0010
0000
,
0100
1000
0001
1000
0010
0100
0001
0000
,
1001
0000
1000
0100
0000
0010
0001
0000
,
1000
0010
1000
0001
0010
0001
0100
0000
,
0010
0100
0010
0100
0001
1000
0010
0100
,
0010
0000
0000
0110
0000
0000
1001
0000
,
1000
0100
1000
0010
0100
0001
1000
0000
,
0001
0100
0001
0010
0100
1000
0001
0000
,
1000
0100
1000
0001
0100
0010
1000
0000
,
0001
0010
0100
1000
0100
0010
0001
0000
,
1000
0010
1000
0001
0010
0001
1000
1000
,
0001
0100
0001
1000
0100
1000
0001
0001
,
0100
0010
0100
0010
1000
0001
1000
0001
,
0010
0100
1000
0100
0010
0001
1000
0000
,
2002
0000
0000
0000
,
0000
0000
0000
0000
,
0000
0000
0000
0000
,
0000
0000
0000
0000
,
0000
0000
0000
0000
,
0000
0000
0000
0000
,
3003
0000
0000
0000
,
0000
0000
0000
0000
,
0001
0001
0000
0100
0100
0000
0010
0010
,
0000
1000
1000
0000
0001
1000
0001
0000
,
1000
1000
0000
0100
0100
0000
0010
0010
,
0000
0001
0001
0000
1000
0001
1000
0000
,
0001
0100
0000
1000
0100
0000
0001
0010
,
0000
1000
0010
0000
0001
1000
0001
0100
,
0010
0010
0000
0100
0100
0000
0001
1000
,
0001
2002
0000
0000
0000
0000
3003
0000
,
1000
0100
1000
0010
1000
0010
0100
0001
,
0010
0100
0010
0100
0010
1000
0010
0001
,
1000
0010
1000
0001
0010
0001
0100
0010
,
1000
0010
0100
0001
1000
0100
1000
0001
,
0010
0001
0100
0001
0010
0001
0010
0100
,
1000
0001
0100
0001
1000
0100
0010
0001
,
1001
0000
0001
0100
0000
0010
1000
0000
,
0001
0010
0100
1000
0010
0100
0001
1000
,
0100
0000
0110
0000
0010
0001
1000
0010
,
0100
0010
1000
0001
0010
0100
0010
0001
,
1000
0010
1000
0001
0100
0001
1000
0100
,
1000
0100
0010
0001
0100
0010
0100
0001
,
1001
0000
0001
0100
1000
0100
0001
1000
,
0001
0010
1000
0010
0001
1000
0010
0100
,
0101
0000
1000
0100
0000
0001
0100
1000
,
0001
0100
0010
1000
0001
0001
1001
0000
,
0001
2002
0000
0000
0000
0000
0000
0000
,
0000
0000
0000
0000
,
3003
0000
0000
0000
;

//--------------- dance-single - Fred-104 ----------------
#NOTEDATA:;
#STEPSTYPE:dance-single;
#DESCRIPTION:Fred-104;
#DIFFICULTY:Hard;
#METER:16;
#CREDIT:Fred-104;
#NOTES:
0000
0000
0000
0000
,
0000
0000
0000
0000
,
0000
0000
0000
0000
,
0000
0000
0000
0000
,
0000
0000
0000
0000
,
1000
0000
0010
0000
1000
0000
0001
0000
0010
0001
0010
0000
0001
1000
0001
0000
,
1000
0000
0100
0000
1000
0000
0001
0100
0001
0100
0010
0000
0000
0000
1001
0000
,
1000
0000
0100
0000
1000
0000
0001
0000
0100
0000
0001
0000
0010
0100
0010
0000
,
0001
0001
0100
0100
0010
0010
1000
1000
,
0001
0000
0010
0000
0100
0000
0010
0000
0001
0000
0100
0000
0010
1000
0010
0000
,
1000
0000
0001
0000
0010
0000
0100
0000
1000
0010
2000
0000
0001
0000
3001
0000
,
0100
0000
0010
0000
1000
0000
0001
0000
0010
0000
0100
0000
0010
0000
0001
1000
,
0010
0000
0100
0000
0001
0000
1000
0000
0100
0010
0200
0000
0010
0000
0310
0000
,
0001
0000
1000
0000
0010
0000
1000
0000
0100
0000
0010
0000
0100
0000
1000
0001
,
2000
3000
0010
0000
0200
0300
0001
0000
2000
3000
0100
0000
0020
0030
0001
0000
,
1000
0000
0001
0000
1000
0000
0001
0000
1000
0100
1000
0100
0010
0001
0010
0001
,
1000
0000
1000
0000
0000
0000
0000
0000
0000
0000
0001
1000
0010
0000
0000
0000
,
1001
0000
0101
1001
0000
1100
1001
0000
,
1001
0000
1010
1001
0000
0011
1000
0001
,
1000
0100
0001
0100
0010
1000
0010
0001
,
1000
0000
0010
0000
0100
0000
0001
0000
0010
0000
0100
0000
1000
0001
1000
0000
,
1001
0000
1001
0011
0000
0001
0100
0010
,
0110
0000
0101
0110
0000
1001
1000
0001
,
1000
0100
0010
1000
0001
0100
0010
0001
,
0100
0000
0010
0000
0001
0000
1000
0000
0100
0000
0001
1000
0001
0000
1000
0000
,
1001
0100
0100
1001
0010
0010
1001
0001
,
1000
1000
0001
0001
2000
3020
0230
0302
,
1003
0100
0001
1000
0010
0100
1000
0001
,
0100
0000
1000
0000
0001
0000
0010
0000
0100
0000
0001
1000
0001
0000
1000
0000
,
1100
0100
0010
0101
0100
0010
1001
1000
,
0001
0011
0001
0100
0110
0010
1000
0001
,
1000
0000
0100
0000
0010
0000
0001
0000
1000
0000
0001
0000
1000
0001
1000
0001
,
1000
0000
0000
0000
0000
0000
0000
0000
0001
0100
0001
0000
1000
0010
1000
0000
,
0001
0010
1000
0001
0100
1000
0001
0100
,
1000
0001
0010
0100
0001
1000
0100
0010
,
0001
0100
0010
0001
1000
0100
0010
1000
,
0001
0010
0001
1000
1010
0110
0101
1001
,
0001
0010
0100
0001
1000
0010
0001
1000
,
0010
0001
1000
0100
0001
0010
0001
1000
,
0010
0100
1000
0100
0001
1000
0100
0001
,
0100
0010
0011
0000
0100
0110
0010
0100
,
0220
0330
1001
1000
0001
0010
0100
1000
,
0001
0100
1000
0100
0010
0001
0010
1000
,
0001
0010
0100
0001
1000
0010
0001
1000
,
0100
0001
0100
0010
1000
0001
0100
1000
,
0001
0100
1000
0001
0010
1000
0100
0010
,
0001
0100
0010
0001
1000
0100
0010
1000
,
1001
0000
0001
0000
1000
0000
0001
0000
0010
0000
0100
1000
0001
0000
0010
0100
,
1000
0100
0001
1000
0010
0001
1001
0000
,
1010
0010
0010
0101
0100
0100
1001
0001
,
0011
0000
0001
0000
0001
0000
1100
0000
1000
0000
1000
0000
1001
0000
0001
0010
,
0100
1000
0001
1001
1000
0010
0100
0001
,
1000
0000
0100
0000
0010
0100
0010
0100
0010
0000
0001
0000
1000
0000
0001
0000
,
1100
0100
0010
0101
0100
0010
1001
1000
,
1010
0010
0100
0011
0010
0100
1001
2000
,
3001
0000
0001
0000
1000
0000
1000
0000
0001
0010
0001
1000
0010
0100
0001
1000
,
0100
0000
0100
0000
0010
0000
0010
0000
0001
0000
0001
0000
0100
0010
0000
1000
,
0002
0000
0000
0000
,
0000
0000
0000
0000
,
0000
0000
0000
0000
,
0000
0000
0000
0000
,
0000
0000
0000
0000
,
0000
0000
0000
0000
,
0003
0000
0000
0000
,
0000
0000
0000
0000
,
1100
1100
0000
0101
0101
0000
1010
1010
,
0000
0011
0011
0000
0001
1000
0100
1000
,
1010
1010
0000
0011
0011
0000
1100
1100
,
0000
0000
0101
0000
0101
0000
0000
0000
0001
0000
1000
0000
0100
0000
1000
0001
,
0010
0011
0000
1010
1001
0000
0101
1001
,
0000
0000
1001
0000
0001
1000
0001
0000
0100
0000
0001
0000
0000
1000
0000
1000
,
0100
0000
1100
0000
0000
0000
0101
0000
0110
0000
0000
0000
1000
0000
0001
1000
,
0001
2002
0000
0000
0000
0000
3003
0000
,
1000
0100
0010
1000
0010
0001
1000
0010
,
0100
0000
0010
0000
0001
0000
0010
0000
1000
0000
0001
0000
0010
0100
0010
0100
,
0010
0001
0100
0010
0001
1000
0100
0010
,
1000
0000
0100
0000
0010
0000
0001
0000
1000
0000
0001
0000
0100
0001
0100
0001
,
1000
0001
0100
1000
0001
0010
1000
0001
,
0010
0000
0100
0000
0010
0000
1000
0000
0001
0000
0100
0000
1000
0001
1000
0001
,
1000
0000
1100
0101
0000
0110
1001
0000
,
0001
0000
1000
0000
0010
0000
1000
0000
0001
0010
0001
0010
0100
1000
0100
1000
,
0001
1000
1001
2000
3010
0002
2003
3100
,
0001
0000
2000
0000
3010
0000
0200
0000
0301
0000
2000
0000
3100
0010
0001
1000
,
0002
0103
0020
0032
1003
0200
0320
1030
,
0001
0000
0020
0000
0130
0000
0002
0000
0103
0000
2000
0000
3001
1000
0001
1000
,
0100
0000
0000
0000
0011
0000
1001
0000
0000
0000
0001
0000
0100
0001
1000
0001
,
0010
0000
0000
0000
0110
0000
1100
0000
0000
0000
1000
0000
0010
1000
0001
1000
,
0100
0000
1100
0101
0000
1010
0011
0000
,
0001
0000
1000
0000
0010
0000
1000
0000
0100
1000
0001
1000
0010
0000
0000
0000
,
2000
0002
0000
0000
0000
0000
0000
0000
,
0000
0000
0000
0000
,
3003
0000
0000
0000
;

//--------------- dance-single - Fred-104 ----------------
#NOTEDATA:;
#STEPSTYPE:dance-single;
#DESCRIPTION:Fred-104;
#DIFFICULTY:Challenge;
#METER:17;
#CREDIT:Fred-104;
#NOTES:
0000
0000
0000
0000
,
0000
0000
0000
0000
,
0000
0000
0000
0000
,
0000
0000
0000
0000
,
0000
0000
0000
0000
,
1000
0000
0001
0010
0100
0000
1000
0000
0001
1000
0100
0000
1000
0001
1000
0000
,
0001
0000
0100
0010
1000
0000
0010
0100
0001
0100
0002
0000
0000
0000
0103
0000
,
0001
0000
1000
0100
0010
0000
0001
0000
1000
0010
0100
0000
0001
1000
0100
0000
,
1100
0100
0110
0010
0011
0001
1001
1000
,
0001
0000
1000
0010
0100
0000
0010
0000
0001
0010
0100
0000
0001
0010
0100
0000
,
1000
0000
0001
1000
0010
0000
0100
0001
1000
0001
0200
0000
0000
0000
1300
0000
,
0100
0000
0001
1000
0100
0000
0001
0000
0100
0010
0001
0000
1000
0010
0100
0000
,
0001
0000
1000
0100
0010
0000
1000
0010
0100
0010
0002
0000
0000
0000
0103
0000
,
0001
0000
1000
0100
0010
0000
0001
0000
0100
0010
0001
0000
0010
1000
0001
0000
,
1000
0000
0001
0010
0100
0000
0001
0100
0010
0100
2000
0000
0000
0000
3001
0000
,
1000
0000
0100
0000
0001
0000
0100
0000
1000
0100
0010
0001
1000
0010
0100
0001
,
1000
0000
1001
0000
0000
0000
0000
0000
0000
0000
0001
1000
0001
0000
0000
0000
,
1100
0010
0001
0101
0010
1000
1001
0001
,
0101
0010
1000
1100
0010
0001
1001
1000
,
0001
2000
0010
3200
0001
0320
0001
0230
,
0001
0000
2300
0000
0100
0000
3002
0000
0100
0000
1003
0000
0100
0010
0001
0000
,
0011
0100
1000
1010
0100
0001
1001
1000
,
1010
0100
0001
0011
0100
1000
1001
0001
,
1000
0020
0001
0230
1000
0320
0001
2030
,
0100
0000
3002
0000
0100
0000
0013
0000
0001
0000
0010
0100
1000
0000
0001
0000
,
1001
0100
0100
1001
0010
0010
1001
0100
,
0100
1001
0010
0010
1002
2003
3200
0320
,
0031
0000
1000
0010
0001
0000
0010
0000
1000
0000
0001
0010
0100
0000
1000
0000
,
0001
0000
0100
0010
0001
0000
0010
0000
0100
0000
0001
1000
0100
0000
0010
0000
,
0011
0010
0100
1010
0010
0100
1001
0001
,
1100
0100
0010
0101
0100
0010
1001
0001
,
1000
0000
0001
0010
0100
0000
1000
0000
0010
0100
0001
0000
1000
0100
0010
0001
,
2000
0000
0000
0000
3000
0000
0000
0000
0001
0100
1000
0000
0001
0010
1000
0000
,
1002
0000
0100
0100
0000
0010
0010
0000
,
1003
0001
0010
0000
0100
0000
0001
0000
0100
1000
0001
0000
0100
0000
0010
0000
,
2010
0000
0001
0001
0000
0100
0100
0000
,
3001
1000
0100
0000
0010
0000
0001
0000
0011
0000
1100
0000
0101
0000
1010
0000
,
1002
0000
1000
1000
0000
0100
0100
0000
,
1003
0001
0100
0000
0010
0000
0001
0000
0010
1000
0001
0000
0010
0000
0100
0000
,
2100
0000
0001
0001
0000
0100
0100
0000
,
3001
1001
1001
0000
0010
0110
0100
0010
,
0220
0330
1001
0001
0100
0010
0100
0001
,
1000
0100
0001
0000
0100
0000
1000
0000
0001
0010
1000
0000
0010
0000
0001
0000
,
1000
0000
0001
0010
0001
0000
1000
0000
0001
0100
0001
0000
1000
0000
0001
0000
,
0010
1000
0010
0000
0001
0000
1000
0000
0100
0001
0100
0000
1000
0001
1000
0000
,
0001
0000
1000
0010
0100
0000
0001
0000
1000
0100
0010
0000
0001
1000
0001
0000
,
1000
0010
1000
0001
0010
0000
0100
0000
0010
0001
1000
0010
0100
0000
0001
0000
,
1001
0000
1000
0000
0001
0000
0001
0000
1000
0000
0100
0010
0001
0000
1000
0100
,
0010
0000
0011
1001
0000
1010
1001
0000
,
1000
0000
0000
0000
0000
0000
0000
0000
0200
0300
0000
0000
0000
0000
0000
0000
0200
0300
0000
0000
0000
0000
0000
0000
0001
0000
0000
0000
0000
0000
0000
0000
0020
0030
0000
0000
0000
0000
0000
0000
0020
0030
0000
0000
0000
0000
0000
0000
1000
0000
0000
0000
0001
0000
0000
0000
1000
0000
0000
0000
0000
0000
0000
0000
,
0001
0000
0000
0000
0000
0000
0000
0000
0020
0030
0000
0000
0000
0000
0000
0000
0020
0030
0000
0000
0000
0000
0000
0000
1000
0000
0000
0000
0000
0000
0000
0000
0200
0300
0000
0000
0000
0000
0000
0000
0200
0300
0000
0000
0000
0000
0000
0000
0001
0000
0000
0000
1000
0000
0000
0000
0001
0000
0000
0000
0000
0000
0000
0000
,
1000
0000
0000
0000
0000
0000
0000
0000
0200
0300
0000
0000
0000
0000
0000
0000
0200
0300
0000
0000
0000
0000
0000
0000
0001
0000
0000
0000
0000
0000
0000
0000
0020
0030
0000
0000
0000
0000
0000
0000
0020
0030
0000
0000
0000
0000
0000
0000
0100
0000
0000
0000
0001
0000
0000
0000
1000
0000
0000
0000
0000
0000
0000
0000
,
0001
0000
0010
0000
0100
0010
0001
1000
0010
0000
1000
0000
1001
0000
1000
0001
,
1000
0000
0100
0000
0001
0000
1000
0000
0010
0000
0100
0000
0010
0001
1000
0000
,
0001
0000
0100
0000
1000
0000
0001
0000
0010
0000
0100
0000
0010
1000
0002
0013
,
0100
0000
0010
0000
0001
0000
1000
0000
0001
0010
0100
1000
0010
1000
0001
0010
,
0001
0000
1000
0000
0010
0000
0100
0000
0001
0000
0001
0000
1000
0100
0001
0100
,
2000
0000
0000
0000
,
0000
0000
0000
0000
,
0000
0000
0000
0000
,
0000
0000
0000
0000
,
0000
0000
0000
0000
,
0000
0000
0000
0000
,
3000
0000
0000
0000
,
0000
0000
0000
0000
,
1000
0100
0001
0100
0110
0000
0001
0100
,
1000
0000
0100
0000
0110
0000
0000
0000
1000
0000
0100
0000
0010
0001
1000
0000
,
0001
0010
1000
0010
0110
0000
1000
0010
,
0001
0000
0010
0000
0110
0000
0000
0000
1000
0000
0010
0000
0100
0000
0001
1000
,
0001
0100
1000
0100
0101
0000
1000
0100
,
0001
0000
0100
0000
1000
0001
0100
0000
0010
0000
1000
0000
0000
0001
0000
0001
,
0010
0000
0011
0000
0000
0000
1010
0000
0101
0000
0000
0000
1100
0000
0010
0001
,
0100
0220
0000
0000
0000
0000
0330
0000
,
0001
0010
1000
0001
0100
0010
0001
1000
,
0001
0000
0100
0000
0010
0000
1000
0000
0001
0000
1000
0100
1000
0010
0100
0001
,
1000
0010
0100
1000
0001
0010
0100
0001
,
1000
0000
0100
0000
0010
0000
0100
0000
1000
0000
0001
0100
0001
0100
0010
1000
,
0001
0100
1000
0001
0010
1000
0001
0010
,
1000
0000
0001
0000
0100
0000
0010
0000
0001
0000
0100
0010
1000
0001
0100
0010
,
1000
0100
1100
0101
0000
1010
0011
0000
,
1001
0000
1000
0010
0100
0000
0010
0100
0001
0010
0100
1000
0100
0010
0001
1000
,
0002
0000
0000
0000
0000
0000
0000
0000
0000
0000
0000
0000
0000
0000
0000
0003
1000
0000
0000
0000
0000
0000
0000
0000
0200
0300
0000
0000
0000
0000
0000
0000
0200
0300
0000
0000
0000
0000
0000
0000
0001
0000
0000
0000
0000
0000
0000
0000
0020
0030
0000
0000
0000
0000
0000
0000
0020
0030
0000
0000
0000
0000
0000
0000
,
1000
0000
0001
0010
0100
0000
0001
0000
0100
0000
0010
0001
1000
0010
0100
0001
,
1000
0000
0000
0000
0000
0000
0000
0000
0020
0030
0000
0000
0000
0000
0000
0000
0020
0030
0000
0000
0000
0000
0000
0000
0001
0000
0000
0000
0000
0000
0000
0000
0200
0300
0000
0000
0000
0000
0000
0000
0200
0300
0000
0000
0000
0000
0000
0000
0010
0000
0000
0000
0000
0000
0000
0000
0001
0000
0000
0000
0000
0000
0000
0000
,
1000
0000
0001
0100
0010
0000
0001
0000
0010
0100
0010
1000
0001
0010
0100
1000
,
0001
0000
0000
0000
0101
0000
1010
0000
0000
0000
1001
0000
0001
0100
0010
1000
,
0001
0000
0000
0000
1100
0000
0011
0000
0000
0000
1001
0000
0001
1000
0010
0100
,
0001
0100
0110
1000
0100
0110
1001
0000
,
0001
0000
0100
0000
1000
0000
0100
0000
0010
0001
1000
0100
0001
0000
0000
0000
,
1000
2002
0000
0000
0000
0000
0000
0000
,
0000
0000
0000
0000
,
3003
0000
0000
0000
;

//--------------- dance-double - Fred-104 ----------------
#NOTEDATA:;
#STEPSTYPE:dance-double;
#DESCRIPTION:Fred-104;
#DIFFICULTY:Easy;
#METER:8;
#CREDIT:Fred-104;
#NOTES:
00000000
00000000
00000000
00000000
,
00000000
00000000
00000000
00000000
,
00000000
00000000
00000000
00000000
,
00000000
00000000
00000000
00000000
,
00000000
00000000
00000000
00000000
,
10000000
00000000
00000000
00010000
00000000
00000000
10000000
00000000
,
00000000
01000000
00000000
00000000
00100000
00000000
00000000
00000000
,
00001000
00000000
00000000
00100000
00000000
00000000
00001000
00000000
,
00010000
00010000
00001000
00000100
,
00000001
00000000
00000000
00001000
00000000
00000000
00000001
00000000
,
00000000
00000010
00000000
00000000
00000100
00000000
00001000
00000000
,
00000100
00000000
00000000
00010000
00000000
00000000
00001000
00000000
,
00000000
01000000
00000000
00000000
00001000
00000000
00001000
00000000
,
00010000
00000000
00000000
01000000
00000000
00000000
00100000
00000000
,
00000000
00010000
00000000
00000000
10000000
00000000
00100000
00000000
,
00010000
00010000
00001000
00001000
,
00011000
00000000
00000000
00000000
,
00011000
00000000
00000000
00000010
00000000
00000000
00010000
00000000
,
00011000
00000000
00000000
00100000
00000000
00000000
00001000
00000000
,
00010000
00100000
01000000
10000000
,
01000000
00010000
10000000
01000000
,
11000000
00000000
00000000
01000000
00000000
00000000
00010000
00000000
,
00011000
00000000
00000000
00001000
00000000
00000000
00000100
00000000
,
00000001
00001000
00000001
00000010
,
00001000
00010000
00001000
00010000
,
00011000
00000000
00000000
01000000
00000000
00000000
00001000
00000000
,
00010000
00000100
00010000
00001000
,
00010000
00100000
01000000
00010000
,
10000000
01000000
00100000
00001000
,
00011000
00000000
00000000
00010010
00000000
00000000
00101000
00000000
,
00011000
00000000
00000000
01001000
00000000
00000000
00010100
00000000
,
00010000
00000000
00001000
00000000
01000000
00010000
00100000
00000000
,
10010000
00000000
00000000
00000000
,
10000000
00000000
10000000
01000000
00000000
01000000
00010000
00000000
,
00010000
00001000
00000000
00001000
00020000
00000000
00030000
00000000
,
00001000
00000000
00001000
00010000
00000000
00010000
01000000
00000000
,
01000000
00010000
00000000
00010000
00002000
00000000
00003000
00000000
,
00010000
00000000
00010000
00001000
00000000
00001000
00000010
00000000
,
00000010
00001000
00000000
00001000
00020000
00000000
00030000
00000000
,
00001000
00000000
00000010
00001000
00000000
00000010
00000100
00000000
,
00000001
00001000
00000100
00010000
,
00011000
00000000
00010000
00001000
00000000
00001000
00010000
00000000
,
00010000
01000000
00000000
01000000
10000000
00000000
00010000
00000000
,
10000000
00000000
10000000
00100000
00000000
00100000
00010000
00000000
,
00010000
00001000
00000000
00001000
00010000
00000000
00000100
00000000
,
00010000
00000000
00010000
00001000
00000000
00001000
00010000
00000010
,
00000000
00000010
00001000
00000000
00001000
00000000
00000100
00000000
,
00001000
00000001
00000100
00001000
,
00011000
00000000
00000000
00010000
00000000
00000000
00010000
00000000
,
00011000
00000000
00000000
01000000
00000000
00000000
00001000
00000000
,
00010000
00000000
00000000
00000100
00000000
00000000
00001000
00000000
,
00000010
00000000
00000000
00010000
00000000
00000000
00001000
00000000
,
00100000
00010000
01000000
00001000
,
00010000
00000000
00000000
00001000
00000000
00000000
01000000
00000000
,
00010000
00000000
00000000
10000000
00000000
00000000
01000000
00000000
,
00100000
00100000
00001000
00001000
,
00010000
00000000
00100000
00000000
10000000
00010000
10000000
00000000
,
10010000
00000000
00000000
00000000
,
00000000
00000000
00000000
00000000
,
00000000
00000000
00000000
00000000
,
00000000
00000000
00000000
00000000
,
00000000
00000000
00000000
00000000
,
00000000
00000000
00000000
00000000
,
00000000
00000000
00000000
00000000
,
00000000
00000000
00000000
00000000
,
00010000
00000000
00000000
00001000
00000000
00000000
00000010
00000000
,
00000000
00000100
00000000
00000000
00010000
00000000
00000000
00000000
,
00001000
00000000
00000000
00010000
00000000
00000000
01000000
00000000
,
00000000
00100000
00000000
00000000
00001000
00000000
00000000
00000000
,
00010000
00000000
00000000
00001000
00000000
00000000
00000100
00000000
,
00000000
00000010
00000000
00000000
00010000
00000000
00000000
00000000
,
00001000
00000000
00000000
00000100
00000000
00000000
00000001
00000000
,
00000220
00000000
00000000
00000330
,
00001001
00000000
00001000
00000001
00000000
00000001
00000100
00000000
,
00001000
00010000
00001000
01000000
,
00010000
00000000
01000000
00100000
00000000
00100000
01000000
00000000
,
00010000
10000000
01000000
00100000
,
00001000
00000000
00010000
00000100
00000000
00000100
00010000
00000000
,
00001000
00010000
00000010
00001000
,
00001001
00000000
00000000
00000001
00000000
00000000
00000100
00000000
,
00001000
00010000
00010000
00001000
,
00022000
00033000
00001000
00010000
,
01000000
00100000
10000000
00100000
,
00010000
00000000
10000000
01000000
00000000
10000000
01000000
00000000
,
00100000
00001000
00010000
00001000
,
00011000
00000000
00000000
00000010
00000000
00000000
00010000
00000000
,
00000100
00000000
00000000
00001000
00000000
00000000
00000001
00000000
,
00001001
00000000
00000000
00000001
00000000
00000000
00000100
00000000
,
00001000
00000000
00010000
00000000
01000000
10000000
01000000
00000000
,
20020000
00000000
00000000
00000000
,
00000000
00000000
00000000
00000000
,
30030000
00000000
00000000
00000000
;

//--------------- dance-double - Fred-104 ----------------
#NOTEDATA:;
#STEPSTYPE:dance-double;
#DESCRIPTION:Fred-104;
#DIFFICULTY:Medium;
#METER:13;
#CREDIT:Fred-104;
#NOTES:
00000000
00000000
00000000
00000000
,
00000000
00000000
00000000
00000000
,
00000000
00000000
00000000
00000000
,
00000000
00000000
00000000
00000000
,
00000000
00000000
00000000
00000000
,
00000001
00001000
00000010
00000100
00000000
00001000
00010000
00000000
,
00001000
01000000
00010000
00100000
00010000
10000000
00100000
00000000
,
10000000
00010000
00100000
01000000
00000000
00010000
00001000
00000000
,
00010000
00001000
00010000
00000000
00000010
00001000
00000010
00000000
,
00001001
00000000
00001000
00000100
00000000
00000001
00000100
00000000
,
00001000
00000001
00000100
00001000
00010000
00001000
00100000
00000000
,
01000000
00000000
00100000
00010000
00000000
10000000
00100000
00000000
,
01000000
00100000
10000000
01000000
00010000
00001000
00010000
00000000
,
00001000
00000000
00010000
00000100
00000000
00000010
00000100
00000000
,
00000010
00000001
00001000
00000010
00000100
00001000
00010000
00000000
,
00001000
00010000
00100000
10000000
01000000
00100000
00001000
00010000
,
00001000
00011000
00000000
00000000
00000000
00000000
01100000
00000000
,
10010000
00000000
10000000
01000000
00000000
00010000
00001000
00000000
,
00011000
00000000
00010000
00001000
00000000
00000010
00000001
00000000
,
00001001
00000000
00000001
00000100
00001000
00000100
00000001
00001000
,
00000001
00000100
00001000
00010000
00001000
00010000
00001000
00000000
,
00011000
00000000
00001000
00010000
00000000
00100000
10000000
00100000
,
10000000
00000000
01000000
00100000
00000000
00001000
00010000
00001000
,
00010000
00000000
00000100
00001000
00000000
00000001
00001000
00000100
,
00000010
00000100
00000010
00000001
00000100
00001000
00010000
00000000
,
00011000
00000000
00001000
00010000
00000000
00100000
01000000
00000000
,
10000000
01000000
00010000
00000000
10000000
01000000
00010000
00001000
,
00010000
00000000
00001000
00010000
00000000
00000010
00001000
00000010
,
00000100
00000001
00001000
00000100
00000010
00001000
00010000
00000000
,
00001000
00010000
00001000
01000000
00000000
01000000
00010000
00000000
,
10000000
01000000
10000000
01000000
00000000
00100000
00001000
00000000
,
00010000
00000100
00001000
00000010
00000100
00000001
00001000
00000000
,
00001001
00000000
00000000
00000000
,
00000110
00000000
00001000
00000100
00000000
00000010
00000001
00000000
,
00000100
00001000
00000000
00010000
00001000
00000000
00011000
00000000
,
01100000
00000000
00010000
00100000
00000000
10000000
00100000
00000000
,
00010000
10000000
01000000
00000000
00010000
00001000
00010000
00000000
,
00011000
00000000
00010000
00000100
00000000
00001000
00000010
00000000
,
00000100
00000001
00000000
00001000
00000100
00000000
00010100
00000000
,
00011000
00000000
00001000
00010000
00000000
01000000
10000000
00000000
,
00010000
10000000
01000000
00000000
00100000
00100000
00001000
00001000
,
00010000
00000000
00011000
00000000
00010000
00000100
00001000
00000000
,
00000100
00000010
00000001
00001000
00000010
00010000
00001000
00000000
,
00011000
00000000
00001000
00010000
00000000
00100000
01000000
00000000
,
00010000
10000000
01000000
10000000
00100000
01000000
00010000
00000000
,
10010000
00000000
10000000
01000000
00000000
00100000
00001000
00000000
,
00010000
00000010
00001000
00000010
00000100
00000010
00001000
00000000
,
00000100
00000010
00001000
00010000
00001000
01000000
00100000
01000000
,
00001000
00000000
00000000
00011000
00000000
00000000
00000110
00000000
,
00000001
00000100
00001000
00000001
00000010
00001000
00000001
00000000
,
00001000
00000100
00000010
00001000
00010000
00001000
01000000
00000000
,
00010000
00100000
10000000
00010000
01000000
10000000
00010000
00000000
,
10000000
01000000
00100000
00100000
00100000
00001000
00010000
00000000
,
00001000
00010000
00010000
00000010
00010000
00010000
00001000
00010000
,
00000100
00001000
00001000
00000001
00000100
00000100
00000010
00001000
,
00000001
00000010
00000100
00001000
00000010
00000100
00001000
00010000
,
00001000
00100000
01000000
10000000
00100000
00010000
00001000
00000000
,
00022000
00000000
00000000
00000000
,
00000000
00000000
00000000
00000000
,
00000000
00000000
00000000
00000000
,
00000000
00000000
00000000
00000000
,
00000000
00000000
00000000
00000000
,
00000000
00000000
00000000
00000000
,
00033000
00000000
00000000
00000000
,
00000000
00000000
00000000
00000000
,
00000001
00000001
00000000
00000100
00000100
00000000
00001000
00001000
,
00000000
00010000
00010000
00000000
00001000
00010000
00011000
00000000
,
00001000
00001000
00000000
00010000
00010000
00000000
00100000
00100000
,
00000000
10000000
10000000
00000000
00010000
10000000
10010000
00000000
,
10000000
01000000
00000000
00010000
00001000
00000000
00010000
00100000
,
00000000
00010000
00001000
00000000
00000100
00001000
00010000
00001000
,
00000010
00000001
00000000
00001000
00000001
00000000
00000100
00001000
,
00010000
00022000
00000000
00000000
00000000
00000000
00033000
00000000
,
00001000
00010000
00001000
01000000
00010000
10000000
00010000
00100000
,
01000000
00010000
01000000
10000000
00010000
01000000
00001000
00000000
,
00010000
00000100
00000010
00000001
00001000
00000010
00000100
00001000
,
00000100
00000001
00001000
00000100
00000010
00001000
00010000
00000000
,
00001000
00010000
00000100
00000010
00000100
00001000
00000010
00010000
,
00001000
00010000
00100000
10000000
00010000
10000000
01000000
00100000
,
00101000
00000000
00001000
00011000
00000000
00010000
00010010
00000000
,
00010000
00001000
00010000
00100000
01000000
00100000
10000000
01000000
,
00200000
00000000
00301000
00010000
00000010
00001000
00000001
00000010
,
00001000
00100000
01000000
10000000
00010000
01000000
00100000
10000000
,
00100000
01000000
00010000
10000000
01000000
00010000
00001000
00010000
,
00000100
00000010
00000001
00001000
00000001
00000100
00001000
00010000
,
00011000
00000000
00001000
01000000
00010000
10000000
00010000
00100000
,
01000000
00010000
01000000
10000000
00010000
01000000
00100000
00000000
,
10010000
00000000
10000000
01000000
00000000
00010000
00001000
00000000
,
00010000
00001000
00000010
00000001
00001000
00000001
00000100
00000000
,
00001000
00022000
00000000
00000000
00000000
00000000
00000000
00000000
,
00000000
00000000
00000000
00000000
,
00033000
00000000
00000000
00000000
;

//--------------- dance-double - Fred-104 ----------------
#NOTEDATA:;
#STEPSTYPE:dance-double;
#DESCRIPTION:Fred-104;
#DIFFICULTY:Hard;
#METER:16;
#CREDIT:Fred-104;
#NOTES:
00000000
00000000
00000000
00000000
,
00000000
00000000
00000000
00000000
,
00000000
00000000
00000000
00000000
,
00000000
00000000
00000000
00000000
,
00000000
00000000
00000000
00000000
,
00001000
00010000
00100000
01000000
00010000
10000000
01000000
00001000
,
00000100
00010000
00001000
00000010
00000001
00000100
00000010
00001000
,
00000100
00000010
00001000
00010000
01000000
10000000
00010000
01000000
,
00001000
00001000
00010000
00010000
01000000
01000000
00100000
00100000
,
00001000
00000000
00000000
00000000
00010000
00000000
00000010
00000000
00000000
00000000
00001000
00000000
00000001
00000100
00000001
00000000
,
00001000
00000000
00000100
00000000
00010000
00000000
01000000
00100000
01000000
00100000
01000000
00000000
10000000
00000000
00010000
00000000
,
10000000
00000000
00000000
00000000
00100000
00000000
00010000
00000000
00000000
00000000
00001000
00000000
00010000
00000100
00010000
00000000
,
00001000
00000000
00000100
00000000
00000001
00000000
00000010
00000100
00000010
00000100
00000010
00000000
00000100
00000000
00010000
00000000
,
00001000
00000000
00000000
00000000
00010000
00000000
00100000
00000000
00000000
00000000
10000000
00000000
01000000
00100000
01000000
00000000
,
00100000
00000000
00001000
00000000
00010000
00000000
00000100
00010000
00000100
00010000
00000100
00000000
00010000
00000000
00001000
00000000
,
00000100
00000000
00000001
00000000
00001000
00000000
00000100
00000000
00000010
00000001
00000010
00000001
00000010
00000001
00000010
00000001
,
00000010
00000000
00000110
00000000
00000000
00000000
00000000
00000000
00000000
00000000
00010000
00001000
00010000
00000000
00000000
00000000
,
00001000
00010000
00010000
01000000
00010000
00010000
00011000
00000000
,
00010000
00001000
00001000
00000100
00001000
00001000
00011000
00000000
,
00001000
00010000
00100000
01000000
10000000
01000000
00010000
10000000
,
01000000
00010000
00001000
00000100
00000001
00000010
00000110
00000000
,
00011000
00010000
00001000
00000010
00001000
00010000
00011000
00010000
,
00011000
00001000
00010000
00100000
00010000
00001000
00011000
00001000
,
00010000
00001000
00000010
00000100
00000001
00000100
00001000
00000001
,
00000100
00000000
00010000
00000000
01000000
00000000
00001000
00000000
00010000
00000000
01000000
10000000
01000000
00000000
00100000
00000000
,
00101000
00001000
00010000
00010010
00000010
00001000
00001001
00000000
,
00001100
00000100
00000010
00000001
00001000
00000010
00000100
00001000
,
00010000
00001000
00100000
10000000
00010000
01000000
10000000
00010000
,
01000000
00000000
00001000
00000000
00000100
00000000
00000010
00000000
00001000
00000000
00000100
00000010
00000100
00000000
00000010
00000000
,
00000011
00000001
00000100
00001100
00001000
00010000
00011000
00000000
,
00011000
00010000
00100000
10100000
10000000
01000000
01100000
00000000
,
00001000
00000000
00010000
00000000
00000010
00000000
00010000
00000000
00001000
00000000
00001000
00000000
00010000
00001000
00010000
00001000
,
00010000
00000000
00000000
00000000
00000000
00000000
00000000
00000000
00001000
00010000
00001000
00000000
00010000
00001000
00010000
00000000
,
00001000
01000000
00100000
00010000
10000000
01000000
00010000
10000000
,
01000000
00010000
00001000
00000100
00000001
00000010
00000100
00000000
,
00010000
00000100
00000010
00001000
00000001
00000100
00001000
00000001
,
00000100
00001000
01000000
00010000
00110000
00100000
01100000
01000000
,
11000000
10000000
00100000
00010000
10000000
01000000
00001000
00010000
,
00001000
00000010
00000100
00001000
00000001
00000100
00001000
00010000
,
00001000
00100000
10000000
00010000
01000000
10000000
00010000
01000000
,
00100000
00010000
00011000
00000000
00011000
00010000
00000010
00001000
,
00002002
00003003
00000110
00001000
00000001
00000100
00001000
00000100
,
00000001
00000010
00001000
00010000
00100000
10000000
01000000
10000000
,
00010000
01000000
00100000
00010000
00001000
00000100
00000010
00001000
,
00000100
00010000
01000000
00100000
00001000
01000000
00100000
00010000
,
00001000
00010000
00000100
00000001
00001000
00000010
00000100
00001000
,
00000001
00000100
00001000
00010000
00100000
10000000
01000000
00100000
,
01100000
00000000
01000000
00000000
00100000
00000000
00100000
00000000
00001000
00000000
00010000
00000100
00001000
00000000
00000100
00000010
,
00000001
00000100
00001000
00010000
00100000
10000000
10010000
00000000
,
11000000
01000000
00010000
00011000
00001000
00010000
00011000
00000000
,
00011000
00010000
00001000
00001010
00000010
00000001
00000011
00000000
,
00001001
00000001
00000100
00001100
00001000
00010000
00011000
00000000
,
00001000
00000000
00010000
00000000
01000000
00100000
01000000
00100000
01000000
00000000
10000000
00000000
00100000
00000000
00010000
00000000
,
00011000
00010000
00000010
00001010
00001000
00000001
00000011
00000010
,
00000110
00000100
00010000
00011000
00001000
01000000
01010000
00020000
,
10030000
00000000
10000000
00000000
01000000
00000000
01000000
00000000
00100000
00001000
00100000
00001000
00010000
00001000
00010000
00001000
,
00000100
00000000
00000100
00000000
00000001
00000000
00000001
00000000
00001000
00000000
00001000
00000000
00000100
00000010
00000000
00001000
,
00020000
00000000
00000000
00000000
,
00000000
00000000
00000000
00000000
,
00000000
00000000
00000000
00000000
,
00000000
00000000
00000000
00000000
,
00000000
00000000
00000000
00000000
,
00000000
00000000
00000000
00000000
,
00030000
00000000
00000000
00000000
,
00000000
00000000
00000000
00000000
,
00100000
00101000
00000000
00000010
00010010
00000000
00010000
00011000
,
00000000
00000000
00001000
00000000
00010000
00000000
01000000
00000000
00100000
00000000
00010000
00000000
01000000
00001000
00010000
00000000
,
00000100
00010100
00000000
01000000
01001000
00000000
00001000
00011000
,
00000000
00000000
00010000
00000000
00001000
00000000
00000010
00000000
00000100
00000000
00001000
00000000
00000010
00000000
00010000
00001000
,
00010000
00010100
00000000
00001000
01001000
00000000
00001000
00011000
,
00000000
00000000
00001000
00000000
00010000
00000000
00001000
01000000
00001000
00000000
00010000
00000000
00000000
00000010
00000000
00000010
,
00010000
00000000
00011000
00000000
00000000
00000000
00001000
00000000
00101000
00000000
00000000
00000000
00001000
00000000
00010000
00001000
,
00010000
00022000
00000000
00000000
00000000
00000000
00033000
00000000
,
00001000
00010000
01000000
00100000
10000000
00100000
00001000
00010000
,
00000100
00000000
00000010
00000000
00000100
00000000
00000001
00000000
00000100
00000000
00001000
00000000
00000001
00001000
00000001
00000000
,
00000100
00000010
00000001
00001000
00000100
00000010
00010000
00001000
,
00010000
00000000
00100000
00000000
01000000
00000000
10000000
00000000
01000000
00000000
00010000
00000000
10000000
01000000
10000000
00000000
,
00010000
01000000
00100000
00010000
00001000
00000100
00000001
00001000
,
00000001
00000000
00000010
00000000
00001000
00000000
00010000
00000000
00100000
00000000
00010000
00000000
00001000
00010000
00001000
00000000
,
00011000
00000000
00010010
00011000
00000000
01001000
00011000
00000000
,
00001000
00000000
00001000
00000000
00010000
00000000
00010000
00000000
00001000
00010000
00001000
00010000
00000010
00001000
00000010
00001000
,
00000001
00000000
00001001
00001000
00000001
00000010
00001000
00000010
,
00000001
00000000
00001000
00000000
00000100
00000000
00000001
00000000
00000100
00000000
00010000
00000000
00001000
00010000
00001000
00000000
,
00010000
00100000
10000000
00010000
01000000
10000000
01000000
00010000
,
10000000
00000000
01000000
00000000
00010000
00000000
00001000
00000000
00000100
00000000
00000001
00000000
00001000
00000001
00001000
00000001
,
00001000
00000000
00000001
00000000
00000010
00000000
00000100
00000000
00000001
00000000
00000100
00000000
00010000
00001000
00010000
00001000
,
00010000
00000000
00100000
00000000
01000000
00000000
00100000
00000000
10000000
00000000
00010000
00000000
00100000
01000000
00100000
01000000
,
10000000
00000000
10010000
10100000
00000000
01010000
10010000
00000000
,
10000000
00000000
01000000
00000000
00010000
00000000
00001000
00000000
00000100
00000001
00000100
00000001
00000010
00000000
00000000
00000000
,
00000100
00000220
00000000
00000000
00000000
00000000
00000000
00000000
,
00000000
00000000
00000000
00000000
,
00000330
00000000
00000000
00000000
;

//--------------- dance-double - Fred-104 ----------------
#NOTEDATA:;
#STEPSTYPE:dance-double;
#DESCRIPTION:Fred-104;
#DIFFICULTY:Challenge;
#METER:17;
#CREDIT:Fred-104;
#NOTES:
00000000
00000000
00000000
00000000
,
00000000
00000000
00000000
00000000
,
00000000
00000000
00000000
00000000
,
00000000
00000000
00000000
00000000
,
00000000
00000000
00000000
00000000
,
00010000
00000000
00001000
00000000
00000100
00000000
00000001
00001000
00000001
00001000
00000100
00000000
00000010
00000001
00001000
00000000
,
00000001
00000000
00000100
00000010
00000100
00000000
00001000
00010000
00001000
00010000
00002000
00000000
00000000
00000000
01003000
00000000
,
00010000
00000000
00100000
00000000
01000000
00000000
10000000
00100000
10000000
00100000
10000000
00000000
01000000
00100000
00001000
00000000
,
00010000
00000010
00000100
00001000
00010000
00001000
00000100
00000010
,
00010000
00000000
00001000
00010000
00100000
00000000
01000000
00000000
00100000
10000000
00100000
00000000
01000000
00010000
01000000
00000000
,
00010000
00000000
10000000
01000000
00100000
00000000
00001000
00010000
00000010
00010000
00002000
00000000
00000000
00000000
00013000
00000000
,
00001000
00000000
00000010
00000100
00001000
00000000
00000001
00000000
00000010
00000100
00001000
00000000
00000010
00000100
00001000
00000000
,
00010000
00000000
00001000
00100000
00001000
00000000
00100000
00010000
00100000
01000000
00200000
00000000
00000000
00000000
00301000
00000000
,
00010000
00000000
01000000
00100000
01000000
00000000
10000000
00000000
00010000
01000000
00100000
00000000
10000000
00100000
01000000
00000000
,
00010000
00000000
10000000
01000000
00100000
00000000
00001000
00010000
00000100
00010000
00002000
00000000
00000000
00000000
00013000
00000000
,
00001000
00000000
00010000
00000000
00001000
00000000
00010000
00000000
00001000
00010000
00000010
00010000
00001000
00100000
00010000
00100000
,
00001000
00000000
00011000
00000000
00000000
00000000
00000000
00000000
00000000
00000000
00000010
00000100
00000010
00000000
00000000
00000000
,
00001100
00000100
00000010
00000011
00000010
00000100
00001001
00000000
,
00010010
00010000
00001000
01001000
01000000
00010000
10010000
00000000
,
00020000
01000000
00230000
10000000
00320000
01000000
00230000
01000000
,
00302000
00000000
00010000
00000000
00003200
00000000
00000001
00000000
00000310
00000000
00001000
00000000
00000001
00001000
00000100
00000000
,
00001100
00001000
00000001
00000101
00000100
00001000
00011000
00001000
,
00011000
00010000
00100000
10100000
10000000
01000000
01100000
00100000
,
00002000
00010000
00003200
00000001
00000320
00001000
00000230
00000001
,
00002300
00000000
00010000
00000000
00203000
00000000
00010000
00000000
01300000
00000000
10000000
00010000
10000000
00000000
00100000
00000000
,
01100000
10000000
10000000
01100000
00010000
00010000
10010000
00000000
,
11000000
00100000
00001000
00011000
00020000
00030200
00000320
00000032
,
00002003
00000001
00003200
00000001
00000320
00000001
00002030
00010000
,
02003000
00000000
00010000
00000000
23000000
00000000
01000000
00000000
31000000
00000000
00010000
00100000
00001000
00000000
00010000
00000000
,
00011000
00000010
00010000
00011000
00100000
00001000
00011000
00010000
,
00011000
00000100
00010000
00011000
01000000
00001000
00011000
00010000
,
00001000
00000000
00010000
00000100
00001000
00000000
00000100
00000000
00000010
00000001
00001000
00000000
00000001
00000010
00000100
00010000
,
00002000
00000000
00000000
00000000
00003000
00000000
00000000
00000000
00010000
00100000
10000000
00000000
00010000
10000000
01000000
00000000
,
01200000
00000000
00010000
00010000
00000000
01000000
01000000
00000000
,
00301000
00010000
01000000
00100000
00001000
00000010
00000100
00001000
,
00001002
00000000
00000100
00000100
00000000
00000010
00000010
00000000
,
00001003
00000001
00000010
00001000
00011000
00010010
00011000
00101000
,
00012000
00000000
00010000
00010000
00000000
00000100
00000100
00000000
,
00013000
00001000
01000000
00010000
00100000
10000000
00100000
00001000
,
00021000
00000000
00000010
00000010
00000000
01000000
01000000
00000000
,
00031000
00010000
00011000
00000000
01000000
01100000
00100000
01100000
,
20020000
30030000
10000000
01000000
00010000
10000000
00100000
00001000
,
00010000
00000100
00000010
00000000
00000001
00000000
00001000
00000000
00000010
00000100
00001000
00000000
00010000
00000000
00001000
00000000
,
00010000
00000100
00000010
00001000
00000001
00000100
00010000
00001000
,
00100000
00001000
00010000
00000000
00100000
00000000
01000000
00000000
00100000
10000000
00010000
00000000
10000000
01000000
00100000
00000000
,
00001000
01000000
00100000
00010000
10000000
01000000
00010000
10000000
,
01000000
00100000
00010000
00100000
00001000
00000000
00010000
00000000
00001000
00000100
00000010
00000100
00000001
00000000
00001000
00000000
,
00001001
00000000
00000001
00000000
00000100
00000000
00000100
00000000
00001000
00000000
00010000
01000000
10000000
00000000
00010000
10000000
,
01000000
00000000
01100000
00101000
00000000
00010010
00011000
00000000
,
00010000
00000000
00001000
00000000
00000100
00000000
00000001
00000000
00000010
00000000
00001000
00000000
00010000
00001000
00010000
00000000
,
00001000
00000000
00010000
00000000
01000000
00000000
10000000
00000000
00100000
00000000
00010000
00000000
00001000
00010000
00001000
00000000
,
00010000
00000000
00001000
00000000
00000010
00000000
00000100
00000000
00001000
00000000
00000010
00000000
00010000
00001000
00010000
00000000
,
00001000
00000000
00000100
00000000
00000010
00001000
00000010
00001000
00000100
00000010
00000001
00000000
00001000
00000000
00000001
00001000
,
00000010
00000000
00000100
00000000
00001000
00000000
00000001
00000000
00000010
00000000
00010000
00000000
00001000
00100000
00001000
00000000
,
00010000
00000000
00001000
00000000
00100000
00000000
10000000
00000000
00010000
00000000
01000000
00000000
00100000
00010000
10000000
00010000
,
01000000
00000000
00100000
00000000
10000000
00000000
01000000
00000000
00100000
00001000
00010000
00001000
00010000
00000100
00001000
00000100
,
00000010
00000000
00000001
00000000
00000100
00000000
00000010
00000000
00001000
00000000
00001000
00000000
00000001
00001000
00000001
00001000
,
00000001
00000000
00000000
00000000
,
00000000
00000000
00000000
00000000
,
00000000
00000000
00000000
00000000
,
00000000
00000000
00000000
00000000
,
00000000
00000000
00000000
00000000
,
00000000
00000000
00000000
00000000
,
00000000
00000000
00000000
00000000
,
00000000
00000000
00000000
00000000
,
10000000
01000000
00010000
00001000
00011000
00000000
00010000
00001000
,
00000100
00000000
00000001
00000000
00001001
00000000
00000000
00000000
00001000
00000000
00000010
00000000
00000100
00000010
00001000
00000000
,
00000001
00000010
00001000
00010000
00011000
00000000
00001000
00010000
,
00100000
00000000
10000000
00000000
10010000
00000000
00000000
00000000
10000000
00000000
01000000
00000000
00100000
00000000
00001000
00010000
,
00001000
00010000
01000000
00010000
00011000
00000000
00010000
00001000
,
00000100
00000000
00001000
00000000
00010000
00001000
00010000
00000000
00000100
00000000
00000010
00000000
00000000
00000001
00000000
00000001
,
00000100
00000000
00000110
00000000
00000000
00000000
00010000
00000000
00011000
00000000
00000000
00000000
01000000
00000000
00100000
01000000
,
00100000
02200000
00000000
00000000
00000000
00000000
03300000
00000000
,
10000000
01000000
00010000
01000000
00100000
00010000
01000000
00001000
,
00010000
00000000
00000100
00000000
00000010
00000000
00001000
00000000
00000010
00000000
00000001
00000010
00000100
00001000
00000010
00001000
,
00000001
00000100
00000010
00000100
00001000
00000100
00000010
00010000
,
00001000
00000000
00010000
00000000
00100000
00000000
01000000
00000000
10000000
00000000
01000000
00010000
10000000
01000000
00100000
00001000
,
00010000
00000010
00000100
00001000
00000001
00000010
00001000
00000001
,
00000010
00000000
00001000
00000000
00010000
00000000
00001000
00000000
01000000
00000000
00010000
00100000
01000000
10000000
01000000
00100000
,
00010000
00000000
00110000
00101000
00000000
00010010
00011000
00000000
,
00011000
00000000
00010000
00000100
00001000
00000000
00000100
00000010
00000001
00001000
00000010
00010000
00000010
00010000
00001000
00100000
,
00020000
00000000
10030000
00100000
00010000
10000000
01000000
00001000
,
00010000
00000000
00000100
00000010
00000001
00000000
00001000
00000010
00000100
00000000
00000010
00001000
00000001
00000010
00000100
00000000
,
00010000
00001000
01000000
00100000
00010000
10000000
01000000
00010000
,
10000000
00000000
01000000
00100000
00010000
00000000
00100000
00000000
00001000
00010000
00000010
00001000
00000010
00000100
00000010
00001000
,
00000001
00000000
00000000
00000000
00000011
00000000
00001001
00000000
00000000
00000000
00001010
00000000
00000010
00010000
00001000
00100000
,
01000000
00000000
00000000
00000000
11000000
00000000
01010000
00000000
00000000
00000000
00011000
00000000
00010000
00000100
00001000
00000100
,
00010000
00000000
00011000
00010010
00000000
01001000
00011000
00000000
,
00010000
00000000
00001000
00000000
00000010
00000000
00000001
00000000
00000100
00001000
00010000
00100000
10000000
00000000
00000000
00000000
,
00010000
20020000
00000000
00000000
00000000
00000000
00000000
00000000
,
00000000
00000000
00000000
00000000
,
30030000
00000000
00000000
00000000
;
