#TITLE:神よ、ニャンコを与えたまえ!;
#ARTIST:かめりあ feat. ななひら & 謎の黒猫神W;
#TITLETRANSLIT:Kamiyo, nyanko wo ataetamae!;
#ARTISTTRANSLIT:Camellia feat. Nanahira & Nazo no kuro nekoshin W;
#BANNER:Kamiyo, nyanko wo ataetamae!.png;
#BACKGROUND:Kamiyo, nyanko wo ataetamae!-bg.png;
#CDTITLE:./CDTitles/RB VOLZZA.png;
#MUSIC:Kamiyo, nyanko wo ataetamae!.ogg;
#SAMPLESTART:62.703;
#SAMPLELENGTH:15;
#BPMS:0=222,24=444,88=222,168=111,188=222,348=444,492=222;
#STOPS:510.9375=0.811;
#BGSTAGE:5;

//--------------- dance-single - Fred-104 ----------------
#NOTES:
     dance-single:
     Fred-104:
     Beginner:
     6:
     :
0000
0000
0000
0000
,
0000
0000
0000
0000
,
0000
0000
0000
0000
,
0001
0000
0000
0000
,
1000
0000
0001
0000
,
1000
1000
1000
0000
,
0001
0000
0000
0000
,
0001
0000
0000
0000
,
1000
0000
0000
0000
,
0001
0000
0000
0000
,
0100
0000
0000
0000
,
0100
0000
0000
0000
,
0010
0000
0000
0000
,
0010
0000
0010
0000
,
0100
0000
0000
0000
,
0100
0000
0000
0000
,
0001
0000
0000
0000
,
1000
0000
0000
0000
,
0001
0000
0000
0000
,
1000
0000
0000
0000
,
0100
0000
0000
0000
,
1000
0000
1000
0000
,
0001
0000
1000
0000
,
0100
0000
1000
0000
,
0001
0000
0010
0000
,
0001
0000
1000
0000
,
0001
0000
1000
0000
,
1001
0000
0000
0000
,
1000
0000
0001
0000
,
0200
0000
0000
0300
,
0100
0000
0001
0000
,
1000
0000
1000
0000
,
0001
0000
0010
0000
,
0001
0001
0001
0000
,
1000
0000
0001
0000
,
1000
0000
0001
0000
,
0100
0000
0010
0000
,
0100
0100
0100
0100
,
0100
0000
0001
0000
,
1000
0000
0001
0000
,
1000
0000
0100
0000
,
1000
0000
0001
0000
,
2002
0000
0000
0000
,
3003
1000
0000
0001
,
0100
0100
0000
0100
,
0010
0010
0000
1000
,
0001
0001
0000
0000
,
1000
0000
0000
0000
,
0001
0000
1000
1000
,
1000
0000
0100
0000
,
0010
0000
0001
0001
,
0001
0000
1000
0000
,
0001
0000
0010
0000
,
0001
0000
0001
0000
,
1000
1000
1000
0000
,
0001
0000
1000
0000
,
0001
0000
0100
0000
,
0001
0000
1000
0000
,
0001
0001
0001
0000
,
1001
0000
0000
0000
,
0000
0000
0000
0000
,
1000
1000
1000
0000
,
0000
0000
0000
0000
,
0001
0001
0001
0000
,
1000
0000
0002
0000
,
0000
0000
0000
0000
,
0000
0000
0000
0003
,
1000
1000
1000
0000
,
1001
0000
0000
0000
,
0001
0001
0001
0000
,
0000
0000
0000
0000
,
1000
1000
1000
0000
,
0001
0000
0020
0000
,
0000
0000
0000
0000
,
0000
0000
0000
0030
,
0010
0000
0100
0000
,
0010
0000
0010
0000
,
0001
0001
0001
0000
,
0001
0000
1000
0000
,
0100
0000
1000
0000
,
0001
0000
0000
0000
,
2000
0000
0000
0000
,
3002
0000
0000
0000
,
2003
0000
0000
0000
,
3000
0000
0000
0000
,
0001
0000
1000
0000
,
0001
0000
1000
0000
,
0001
0000
0000
0000
,
1000
0000
1000
0000
,
0100
0000
0000
0000
,
0100
0000
0000
0000
,
0010
0000
0000
0000
,
0001
0000
0001
0000
,
0001
0000
0000
0000
,
1000
0000
1000
0000
,
1000
0000
0000
0000
,
0001
0000
0001
0000
,
0001
0000
0000
0000
,
0100
0000
0000
0000
,
0010
0000
0000
0000
,
0100
0000
0100
0000
,
0100
0000
0000
0000
,
1001
0000
0000
0000
,
1000
0000
0000
0000
,
0001
0000
0001
0000
,
0001
0000
0000
0000
,
1000
0000
0000
0000
,
0001
0000
0000
0000
,
0100
0000
0100
0000
,
0100
0000
0000
0000
,
0002
0003
2000
3000
,
0001
0000
0000
0000
,
1000
0000
1000
0000
,
1000
0000
0000
0000
,
0001
0000
0000
0000
,
0100
0000
0000
0000
,
0100
0000
0100
0000
,
0100
0000
0000
0000
,
0100
0000
0000
0000
,
1001
0000
0000
0000
,
0000
0000
0000
0000
,
1001
0000
0000
0000
,
0000
0000
0000
0000
,
0000
0000
0000
0000
,
0000
0000
0000
0000
,
0000
1000
0100
0010
,
0001
0000
1000
0000
,
0001
1000
1001
0000
;

//--------------- dance-single - Fred-104 ----------------
#NOTES:
     dance-single:
     Fred-104:
     Easy:
     9:
     :
0000
0000
0000
0000
,
0000
0000
0000
0000
,
0000
0000
0000
0000
,
0002
0000
0000
0000
,
1003
0000
0001
0000
,
0100
0010
0200
0300
,
0001
0000
0001
0000
,
1000
0000
1000
0000
,
0001
0000
0010
0000
,
0001
0000
0001
0000
,
1000
0000
1000
0000
,
0001
0000
0001
0000
,
0100
0000
0100
0000
,
0200
0300
0200
0300
,
0100
0000
0100
0000
,
0010
0000
0010
0000
,
1000
0000
0001
0000
,
1000
0000
0100
0000
,
1000
0000
0001
0000
,
1000
0000
1000
0000
,
0001
0000
0001
0000
,
0002
0000
0003
0000
,
1000
0000
0001
0001
,
0100
0001
1000
0000
,
0100
0100
0010
0001
,
1000
0001
1001
0000
,
0001
0010
0001
1000
,
0001
0000
0000
1000
0000
0001
0000
0100
,
0000
0220
0000
0330
,
2002
0000
0000
3003
,
1000
0100
1000
0000
,
0001
1000
0010
0000
,
0100
0100
0001
1000
,
0100
0010
0100
1000
,
0001
0000
1000
0000
,
0001
0000
0000
0001
0000
1000
0000
1001
,
0000
1000
0001
0100
,
0010
0010
0100
0100
,
0002
0000
2003
0000
,
3200
0000
0320
0000
,
0032
0000
2003
0000
,
3001
0001
1000
1000
,
2002
0000
0000
0000
,
0000
0000
3003
0000
1000
0100
0110
0000
,
0001
0001
0100
0100
0001
1000
0100
0000
,
0010
0000
0110
0000
0100
1000
0001
1000
,
0010
0100
0001
2002
0000
0000
3003
0000
,
2000
0000
3200
0000
,
0320
0000
0031
1000
,
0002
0000
0203
0000
,
0320
0000
0130
0001
,
1001
0000
0001
0000
,
1000
0100
1000
1000
,
0001
0001
0100
0100
,
0010
0100
1001
0000
,
1000
0000
0001
0000
,
1000
0001
2002
3003
,
0001
0100
0001
1000
,
0100
1000
2002
3003
,
0110
0000
0000
0000
,
0000
0000
0000
0000
,
2000
3002
2003
3000
,
0100
0010
0001
1000
,
0002
2003
3002
0003
,
0100
0000
0010
0000
0100
0000
0000
0001
,
0000
0000
0000
1000
0000
0000
0000
0001
,
0000
0000
0000
1000
0000
0000
0001
0000
,
0100
0100
0010
0100
,
0002
0000
0000
0000
0000
2000
0000
3003
,
2000
3200
2300
3000
,
0001
1000
0010
0100
,
0002
0023
0032
0003
,
0100
0000
0010
0000
0100
0000
0000
0001
,
0000
0000
0000
1000
0000
0000
0000
0001
,
0000
0000
0000
1000
0000
0000
0001
0000
,
1000
0100
0001
0100
,
1000
0000
0000
0001
0000
0000
0100
0000
,
0000
0010
0100
0000
0100
0000
0000
0000
,
0001
0000
0000
1000
0000
0000
0001
0000
,
2000
3200
0320
0032
,
1003
0000
0000
0001
0000
0000
0100
0000
,
0020
0000
0000
0000
,
0230
0000
0000
0000
,
0302
0000
0000
0000
,
0000
0000
0000
0003
,
1000
0000
0001
0000
,
0010
0100
0010
0100
,
1000
0000
1000
0000
,
0001
0000
0100
0000
,
0001
0000
0001
0000
,
0010
0000
0100
0000
,
1000
0000
1000
0000
,
0001
0000
0100
0000
,
0001
1000
0001
1000
,
0002
0003
0002
0003
,
1000
0000
0001
0000
,
1000
0000
0010
0000
,
0100
0000
0010
0000
,
1000
0000
0001
0000
,
0010
0000
0010
0000
,
0100
0000
1000
0000
,
0001
0100
0001
0100
,
0002
0000
0003
0000
,
0100
0000
0010
0000
,
0100
0000
0010
0000
,
0100
0000
0001
0000
,
1000
0000
0001
0000
,
0010
0000
0100
0000
,
0100
0000
1000
0000
,
0010
1000
0010
1000
,
0020
0030
2000
3000
,
0001
0000
0001
0000
,
1000
0000
0001
0000
,
0100
0000
0010
0000
,
1000
0000
0010
0000
,
0100
0000
0100
0000
,
0001
0000
1000
0000
,
0002
0000
2003
0000
,
3200
0000
0320
0000
,
0032
0000
0000
0000
,
2003
0000
0000
0000
,
3020
0000
0000
0000
,
1030
0000
0001
0000
,
2002
0000
0000
0000
,
0000
0000
0000
0000
,
3003
1000
0001
1000
,
0001
0000
0000
1000
0000
0001
0000
0000
,
0100
0010
1001
0000
;

//--------------- dance-single - Fred-104 ----------------
#NOTES:
     dance-single:
     Fred-104:
     Medium:
     13:
     :
0000
0000
0000
0000
,
0000
0000
0000
0000
,
0000
0000
0000
0000
,
0002
0000
0000
0000
0000
1003
0001
1000
,
0100
0000
0010
0001
0000
1001
0000
1000
,
0001
1000
0001
0100
0020
0000
0030
0000
,
1000
0000
1001
0000
,
1000
0010
0100
0000
,
0001
1000
0001
0010
,
0000
0100
0010
0000
,
0001
0000
1001
0000
,
0001
0010
0100
0000
,
1000
0001
0100
0010
,
0100
0000
0110
0000
,
0001
0000
1001
0000
,
1000
0001
0010
0000
,
0001
1000
0010
1000
,
0000
0001
0010
0000
,
0100
0000
1100
0000
,
1000
0001
0100
0000
,
0001
1000
0010
0100
,
0002
0000
2003
0000
,
3001
0000
0001
0000
1000
0100
0000
0100
,
0010
0001
1000
0000
0001
0100
0000
0100
,
0010
0100
0001
0000
0100
0010
0000
1001
,
0000
1000
0100
0010
0001
0000
1000
0010
,
0100
0101
0110
1001
,
1000
1000
0000
1010
0000
0101
0000
0110
,
0000
2002
0000
3003
,
0001
1000
0001
1000
0001
0000
1001
0000
,
1000
0100
1000
0000
0001
0010
0000
0010
,
0100
0010
0001
0000
0100
0010
0000
0010
,
1000
0001
0000
0100
0001
1000
0000
0110
,
0000
0001
1000
0001
0010
0000
0100
1000
,
0001
0110
1000
0110
,
0001
0010
0100
1000
0000
1010
0000
0101
,
0000
0001
1000
0000
0001
0100
0010
0000
,
1000
0001
0010
0100
,
2002
0000
3003
1000
0001
1000
0000
0010
,
0000
1000
0000
0001
0000
0100
0001
1000
,
0001
0010
0000
0100
0000
1000
0000
0001
,
0100
0010
1000
0000
0100
0010
0001
0000
,
2002
0000
0000
0000
,
0000
3003
1000
0100
1000
0001
0101
0001
,
0011
0000
0000
1010
0000
0000
0011
0000
0000
1001
0000
0000
0000
0000
0000
1000
0000
0000
0001
0000
0010
0000
0100
0000
,
1100
0000
0000
0000
0001
0100
0010
0000
0000
1000
0010
1000
0001
0000
0100
0000
,
0110
0000
1000
2200
0000
0000
3300
0000
,
1000
0100
1000
0001
,
0100
0000
0000
0010
0000
0000
1000
0000
1000
0001
0000
0001
,
0010
0100
1000
0001
,
0100
0000
0000
0010
0000
0000
0100
0000
0001
0000
1000
0000
,
2001
3002
0203
0320
,
1030
0001
0010
0001
0100
0000
0001
0000
,
1000
0100
1000
0000
0001
1000
0100
0010
,
0001
0000
0110
0000
1000
0001
1000
0000
,
1100
0000
0101
0000
,
1000
0100
0010
0000
2002
0000
3003
0000
,
0001
0000
0100
0000
0010
1000
0001
0000
,
1100
0011
2002
3003
,
0110
0000
0000
0000
,
0000
0000
0000
0000
0000
1000
0001
0000
,
1100
0000
1001
0000
1100
0000
1000
0100
,
0000
0010
0000
0001
0000
1000
0001
0000
,
0101
0000
1001
0000
0101
0000
0001
0010
,
0000
0100
0000
1000
0000
0001
1000
1100
,
0000
0010
0000
0101
0000
0010
0000
1001
,
0000
0001
0000
1000
0010
0100
0001
0000
,
1000
0001
0000
1000
0010
0000
0100
0001
,
2000
0000
0000
0000
0000
0002
0000
3003
,
1010
0000
1001
0000
1010
0000
1000
0100
,
0000
1000
0000
0001
0000
0010
0001
0000
,
0011
0000
1001
0000
0011
0000
0001
0100
,
0000
0010
0000
1000
0000
0001
0010
0110
,
0000
1000
0000
0110
0000
0001
0000
1001
,
0000
0100
0000
1000
0001
0100
0010
0000
,
1100
1000
0101
0001
,
1000
0001
0000
0010
0000
0100
0010
0001
,
0000
1000
0001
0000
1001
0000
1000
0001
,
0100
0000
0000
0110
0000
0000
0010
1000
,
0002
0203
2300
3200
,
0301
0010
0000
0100
0000
1000
0001
1000
,
0200
0000
0000
0000
,
0320
0000
0000
0000
,
0032
0000
0000
0000
,
0000
0000
0000
0000
0003
1000
0001
0100
,
0010
0000
1000
0001
0000
0011
0000
0010
,
0100
1000
0001
1001
,
1000
0000
1001
0000
,
0001
1000
0001
0000
,
0010
0100
1000
0001
,
0000
0100
0010
0000
,
0100
0000
0110
0000
,
0010
1000
0001
0000
,
1000
0100
0010
0001
,
1000
0000
1001
0000
,
0001
0000
0011
0000
,
0001
1000
0010
0000
,
0100
0001
1000
0001
,
0000
0010
0100
0000
,
1000
0000
1100
0000
,
1000
0001
0010
0000
,
0001
1000
0010
1000
,
0002
0000
0003
0000
,
1000
0000
1001
0000
,
1000
0001
0100
0000
,
0001
1000
0100
0010
,
0000
0100
1000
0000
,
0010
0000
0110
0000
,
0100
0001
1000
0000
,
0001
0010
0100
1000
,
0002
0003
2000
3000
,
0001
0000
0011
0000
,
0001
1000
0100
0000
,
1000
0001
0100
0010
,
0000
0100
0001
0000
,
1000
0000
1100
0000
,
1000
0001
0010
0000
,
0002
0000
0023
0000
,
0230
0000
2300
0000
,
3001
1000
0001
0000
,
0100
0000
0000
0010
0000
0000
0100
0000
,
0001
0000
1000
0100
,
0010
0000
0000
0001
0000
0000
2002
0000
,
0000
0000
0000
0000
,
0000
0000
0000
0000
,
3003
1000
0100
1000
,
1001
0000
0001
0100
0000
0110
0000
0010
,
1000
0001
0010
0100
2000
0000
3000
0000
;

//--------------- dance-single - Fred-104 ----------------
#NOTES:
     dance-single:
     Fred-104:
     Hard:
     16:
     :
0000
0000
0000
0000
,
0000
0000
0000
0000
,
0000
0000
0000
0000
,
2002
0000
0000
0000
3003
0001
1000
0001
,
0010
0000
0010
0100
0000
1100
0000
1000
,
0001
0010
0100
1000
0001
0100
0020
0000
,
0130
0000
1001
0000
,
1000
0001
0010
0000
,
0001
0000
1000
0100
1000
0000
0020
0000
,
0000
0130
0001
1000
,
0100
0000
0110
0000
,
0001
1000
0001
0000
,
1000
0010
1000
0010
1000
0000
0100
0000
,
1100
0000
1001
0000
,
0001
0000
0011
0000
,
1000
0001
0100
0000
,
0001
0000
1000
0010
1000
0000
0002
0000
,
0000
0103
0010
1000
,
0100
0000
1100
0000
,
1000
0001
1000
0000
,
0001
0010
0100
1000
,
0002
0000
2003
0000
,
3001
1000
0001
0010
0100
0010
0000
0010
,
0001
1000
0001
0100
0010
1000
0000
1000
,
0100
1000
0001
0100
0010
1000
0000
1001
,
0000
1000
0001
0100
0010
0000
1000
0001
,
0010
0000
0110
0000
1000
0001
0100
0010
,
0100
0001
0000
0011
0000
1001
0000
1100
,
0000
0000
1000
0000
0100
0000
0010
0100
0010
0000
0001
0000
0100
0000
0010
0000
,
1000
0100
1000
0100
1000
0000
1001
0000
,
0001
1000
0001
0010
0100
1000
0000
0001
,
0100
0010
1000
0010
0100
0001
0000
0010
,
0001
1000
0000
0010
1000
0001
0000
0110
,
0000
0001
1000
0001
1000
0010
0100
0001
,
1000
0100
1100
0000
1001
0000
0001
1000
,
0001
0010
0001
0011
0000
0110
0000
1100
,
0000
1000
0001
0000
0100
0010
0100
0000
,
0001
0010
1000
0001
0100
1000
0001
0000
,
2001
0000
0000
3010
1000
0001
1000
0100
,
0010
0000
0001
0000
1000
0000
0001
0000
0100
0000
0001
1000
0001
0000
0010
0100
,
0010
0000
0000
0001
0000
0000
1000
0000
0001
0000
0100
0000
0010
0000
1000
0000
,
0001
0010
0001
0000
1000
0000
0001
0000
0100
0010
0100
0000
0001
0000
1000
0000
,
0002
0000
0000
0000
0000
0000
0000
2000
,
0000
0000
3003
0000
0110
0000
1001
0000
1000
0100
0010
0001
0010
0100
1000
0000
,
0001
0000
0000
0100
0000
0000
0010
0000
0000
1000
0000
0000
0001
0000
0000
0010
0000
0000
0100
0000
0000
0000
0000
0000
1000
0000
0000
0000
0000
0000
0001
0000
0000
0000
1000
0000
0001
0000
0000
0000
0001
0000
0000
0000
1000
0000
0000
0000
,
0100
0000
0000
0000
0000
0000
0000
0000
0000
0000
0000
0000
1000
0000
0000
0010
0000
0000
0100
0000
0000
0000
0000
0000
0001
0000
0000
1000
0000
0000
0001
0000
0000
0010
0000
0000
0100
0000
0000
1000
0000
0000
0001
0000
0000
0000
1000
0000
,
0001
0000
0000
0000
0000
0000
0000
0000
0100
0000
0000
0000
1000
0000
0000
0000
0100
0000
0000
0000
0000
0000
0000
0000
0002
0000
0003
0000
0000
0000
0000
0000
0000
0000
0000
0000
0010
0000
0000
0000
0000
0000
0000
0100
0000
0000
0000
0000
0000
0000
0000
2002
0000
0000
0000
0000
0000
0000
0000
0000
3003
0000
0000
0000
,
2000
0000
3001
1000
,
0100
0000
0000
0010
0000
0000
0001
0100
0010
0100
0001
1000
,
0100
0010
0001
1000
,
0001
0000
0000
0100
0000
0000
0010
0000
1000
0000
0001
0000
,
1001
1000
1100
0011
,
0001
1000
0001
0000
0001
0010
0001
0000
,
1000
0010
1000
0000
1000
0001
0010
0100
,
0110
0000
1100
0000
0001
1000
1001
0000
,
2100
3010
0102
0013
,
1000
0100
0010
0000
2002
0000
3003
0000
,
0001
1000
0001
0100
0010
0010
1000
0100
,
1100
0101
2002
3003
,
0220
0000
0000
0000
,
0000
0000
0000
0000
0000
0000
0000
0000
0000
0000
0000
0000
0000
0000
0000
0000
0000
0000
0000
0000
0000
0000
0000
0000
0000
0000
0000
0000
0000
0000
0000
0000
0330
0000
0000
0000
0000
0000
0000
0000
2000
3000
0000
0000
0000
0000
0000
0000
0002
0003
0000
0000
0000
0000
0000
0000
0000
0000
0000
0000
0000
0000
0000
0000
,
1100
0000
1010
0000
1100
0000
1000
0100
,
0010
1000
0010
0100
1000
0001
0100
0000
,
0110
0000
0101
0000
0110
0000
0100
0001
,
1000
0000
0100
0000
1000
0000
0001
0100
0001
0000
1000
0000
0001
0000
0011
0000
,
0000
0100
0000
1010
0000
0100
0000
0011
,
0000
1001
0000
1000
0100
0010
0001
0000
,
1000
0000
0001
0000
0100
0000
0001
1000
0001
0000
0010
0000
0100
0000
0010
0000
,
0022
0000
0000
0000
0033
2002
0000
3003
,
1100
0000
0101
0000
1100
0000
1000
0001
,
0100
1000
0100
0010
1000
0001
0010
0000
,
0011
0000
1010
0000
0011
0000
0001
0100
,
0010
0000
0001
0000
0010
0000
0100
0010
0100
0000
0001
0000
1000
0000
1100
0000
,
0000
0010
0000
0101
0000
0010
0000
1100
,
0000
1001
0000
0001
0100
0010
1000
0000
,
1100
1001
0101
1001
,
1000
0100
0010
1000
0010
0100
1000
0001
,
0100
0000
0110
0000
0110
0000
0010
1000
,
1001
0000
0000
0110
0000
0000
0001
1000
,
0001
0000
0000
0010
0100
0000
0000
0000
1000
0000
0000
0010
0100
0000
0000
0000
,
0001
0000
1001
0000
0000
0000
0110
0000
0000
0000
0001
0000
1000
0010
1000
0010
,
0200
0000
0000
0000
,
0302
0000
0000
0000
,
2000
0000
0000
0000
,
0000
0000
0000
0000
3003
1000
0100
0010
,
0001
0000
0100
0010
0000
1010
0000
1000
,
0001
0110
1000
0110
,
0001
0000
0101
0000
,
0001
1000
0100
0000
,
1000
0001
0100
1000
,
0100
0010
0100
0000
,
0101
0000
1010
0000
,
0001
1000
0100
0000
,
1000
0000
0001
0010
0001
0000
1000
0000
,
0001
0100
0001
0000
1000
0100
1000
0100
,
1000
0000
1001
0000
,
1000
0010
0100
0000
,
0001
0000
1000
0010
1000
0000
0001
0000
,
0010
0000
0100
0000
1000
0001
1000
0001
,
1000
0100
0010
1000
,
0010
0001
1000
0000
,
0001
0100
1000
0100
,
0002
0000
0003
0000
,
1100
0000
0110
0000
,
1000
0100
0010
0000
,
0001
0000
0100
0010
0100
0000
0001
0000
,
0010
0100
0010
0001
,
1001
0000
0110
0000
,
1000
0001
0010
0000
,
0100
1000
0100
1000
0100
0000
1000
0000
,
0002
0003
2000
3000
,
1010
0000
0101
0000
,
1000
0100
0010
0000
,
0001
1000
0001
1000
0001
0000
0100
0000
,
0010
0100
0001
0010
,
0011
0000
1100
0000
,
0001
1000
0010
0000
,
0100
0000
0001
0000
1000
0000
0001
0000
0010
0000
0100
0000
,
1000
0000
0010
0000
0100
0000
0001
0000
0010
0000
0100
0000
,
1000
0001
0100
0001
,
1000
0000
0000
0100
0000
0000
0010
0000
,
0110
0000
0001
1000
,
1001
0000
0000
1000
0000
0000
0002
0000
,
0000
0000
0000
0000
,
2003
0000
0000
0000
,
3000
1100
0101
0011
,
1010
0000
1000
0001
0000
0110
0000
1000
,
0001
0100
0010
1000
0002
0000
0003
0000
;

//--------------- dance-double - Fred-104 ----------------
#NOTES:
     dance-double:
     Fred-104:
     Easy:
     9:
     :
00000000
00000000
00000000
00000000
,
00000000
00000000
00000000
00000000
,
00000000
00000000
00000000
00000000
,
00002000
00000000
00000000
00000000
,
00003001
00000000
00001000
00000000
,
00000010
00010000
00002000
00003000
,
00010000
00000000
00010000
00000000
,
00001000
00000000
00001000
00000000
,
00100000
00000000
00010000
00000000
,
10000000
00000000
00100000
00000000
,
01000000
00000000
01000000
00000000
,
00010000
00000000
00010000
00000000
,
10000000
00000000
10000000
00000000
,
02000000
03000000
02000000
03000000
,
00100000
00000000
00100000
00000000
,
00001000
00000000
00001000
00000000
,
00010000
00000000
00001000
00000000
,
00000010
00000000
00000100
00000000
,
00001000
00000000
00000001
00000000
,
00000100
00000000
00000100
00000000
,
00000010
00000000
00010000
00000000
,
00002000
00000000
00003000
00000000
,
00010000
00000000
00001000
00010000
,
00100000
01000000
00010000
00000000
,
10000000
01000000
00100000
00010000
,
01000000
00001000
00011000
00000000
,
00010000
00001000
00010000
00000010
,
00010000
00000000
00000000
00001000
00000000
00010000
00000000
00000100
,
00000000
00022000
00000000
00033000
,
00002002
00000000
00000000
00003003
,
00001000
00000100
00000010
00000000
,
00000001
00000100
00001000
00000000
,
00010000
00001000
00010000
01000000
,
00100000
00010000
10000000
00010000
,
10000000
00000000
01000000
00000000
,
00100000
00000000
00000000
00001000
00000000
00010000
00000000
00011000
,
00000000
00010000
00001000
00010000
,
00000010
00001000
00000010
00001000
,
00000002
00000000
00000203
00000000
,
00002300
00000000
00023000
00000000
,
00230000
00000000
02300000
00000000
,
03010000
10000000
01000000
00100000
,
20020000
00000000
00000000
00000000
,
00000000
00000000
30030000
00000000
10000000
01000000
01100000
00000000
,
00010000
00001000
00010000
00000010
00001000
00000001
00001000
00000000
,
00000100
00000000
00001001
00000000
00000001
00000100
00000010
00000100
,
00001000
00010000
00001000
00022000
00000000
00000000
00033000
00000000
,
00020000
00000000
00032000
00000000
,
00023000
00000000
00031000
01000000
,
00020000
00000000
20030000
00000000
,
32000000
00000000
03100000
00001000
,
00011000
00000000
00010000
00000000
,
00001000
00010000
00000100
00001000
,
00000001
00001000
00000001
00000010
,
00000100
00010000
00011000
00000000
,
00001000
00000000
00010000
00000000
,
00001000
00010000
00022000
00033000
,
00001000
00010000
00100000
01000000
,
00100000
10000000
02200000
03300000
,
10010000
00000000
00000000
00000000
,
00000000
00000000
00000000
00000000
,
00002000
00023000
00032000
00003000
,
00010000
00001000
00000010
00000001
,
00000200
00000320
00000230
00000300
,
00001000
00000000
00010000
00000000
00001000
00000000
00000000
00010000
,
00000000
00000000
00000000
00001000
00000000
00000000
00000000
01000000
,
00000000
00000000
00000000
00001000
00000000
00000000
00100000
00000000
,
00010000
10000000
01000000
00010000
,
00002000
00000000
00000000
00000000
00000000
00020000
00000000
00033000
,
00020000
00030020
00020030
00030000
,
00001000
00010000
00100000
01000000
,
00200000
20300000
30200000
00300000
,
10000000
00000000
01000000
00000000
00100000
00000000
00000000
00001000
,
00000000
00000000
00000000
00010000
00000000
00000000
00000000
00000010
,
00000000
00000000
00000000
00010000
00000000
00000000
00001000
00000000
,
00010000
00000100
00001000
00000001
,
00001000
00000000
00000000
00000001
00000000
00000000
00000010
00000000
,
00000000
00000100
00001000
00000000
00000100
00000000
00000000
00000000
,
00010000
00000000
00000000
00001000
00000000
00000000
00010000
00000000
,
00002000
00023000
02030000
03200000
,
00301000
00000000
00000000
00010000
00000000
00000000
00001000
00000000
,
00020000
00000000
00000000
00000000
,
00030200
00000000
00000000
00000000
,
00020300
00000000
00000000
00000000
,
00000000
00000000
00000000
00030000
,
00001000
00000000
01000000
00000000
,
00010000
10000000
01000000
00100000
,
00010000
00000000
00010000
00000000
,
01000000
00000000
00001000
00000000
,
00010000
00000000
00010000
00000000
,
00000100
00000000
00001000
00000000
,
00000001
00000000
00000001
00000000
,
00000100
00000000
00001000
00000000
,
00010000
00001000
00010000
00001000
,
00020000
00030000
00020000
00030000
,
00001000
00000000
00010000
00000000
,
00100000
00000000
01000000
00000000
,
00100000
00000000
10000000
00000000
,
00010000
00000000
00100000
00000000
,
01000000
00000000
10000000
00000000
,
00010000
00000000
01000000
00000000
,
00001000
00010000
00001000
00010000
,
00002000
00000000
00003000
00000000
,
00010000
00000000
00001000
00000000
,
00000100
00000000
00000010
00000000
,
00001000
00000000
00000010
00000000
,
00001000
00000000
00000001
00000000
,
00000100
00000000
00001000
00000000
,
00010000
00000000
00010000
00000000
,
00001000
00010000
00001000
00010000
,
00002000
00003000
00020000
00030000
,
00100000
00000000
01000000
00000000
,
00010000
00000000
10000000
00000000
,
00100000
00000000
10000000
00000000
,
01000000
00000000
00100000
00000000
,
00001000
00000000
00001000
00000000
,
00010000
00000000
00000010
00000000
,
00020000
00000000
00032000
00000000
,
00003200
00000000
00000302
00000000
,
00002003
00000000
00000000
00000000
,
00003200
00000000
00000000
00000000
,
00000320
00000000
00000000
00000000
,
00000031
00000000
00001000
00000000
,
00002002
00000000
00000000
00000000
,
00000000
00000000
00000000
00000000
,
00003003
00000001
00000100
00001000
,
00010000
00000000
00000000
00001000
00000000
00000010
00000000
00000000
,
00000100
00001000
00001001
00000000
;

//--------------- dance-double - Fred-104 ----------------
#NOTES:
     dance-double:
     Fred-104:
     Medium:
     13:
     :
00000000
00000000
00000000
00000000
,
00000000
00000000
00000000
00000000
,
00000000
00000000
00000000
00000000
,
00020000
00000000
00000000
00000000
00000000
00031000
00010000
00001000
,
01000000
00000000
00100000
10000000
00000000
10010000
00000000
10000000
,
01000000
00100000
00001000
00010000
00002000
00000000
00003000
00000000
,
00010000
00000000
00011000
00000000
,
00010000
00001000
00000100
00000000
,
00000001
00001000
00000001
00000010
,
00000000
00000100
00010000
00000000
,
00001000
00000000
00011000
00000000
,
00001000
00010000
00100000
00000000
,
10000000
00010000
01000000
00100000
,
10000000
00000000
11000000
00000000
,
01000000
00000000
01100000
00000000
,
00100000
00010000
00100000
00000000
,
00001000
00010000
00000010
00010000
,
00000000
00001000
00010000
00000000
,
00000100
00000000
00001001
00000000
,
00000001
00000010
00000100
00000000
,
00010000
00001000
00100000
00001000
,
00020000
00000000
00032000
00000000
,
00103000
00001000
00010000
00000000
00001000
00010000
00000000
00010000
,
00000010
00001000
00000100
00000000
00010000
00001000
00000000
00001000
,
00010000
00000010
00001000
00000000
00000010
00010000
00000000
00011000
,
00000000
00001000
00010000
00100000
01000000
00000000
00010000
01000000
,
00001000
00011000
01001000
00010010
,
00010000
00010000
00000000
00010100
00000000
00101000
00000000
00011000
,
00000000
00022000
00000000
00033000
,
00010000
00001000
00000100
00000010
00001000
00000000
00001001
00000000
,
00000001
00000100
00001000
00000000
00010000
00100000
00000000
01000000
,
00100000
10000000
00010000
00000000
10000000
01000000
00000000
00100000
,
00001000
00010000
00000000
00001000
00010000
00000010
00000000
00001010
,
00000000
00000010
00001000
00000001
00000100
00000000
00001000
00010000
,
00001000
00011000
00100000
10010000
,
10000000
00100000
01000000
00010000
00000000
00100000
00000000
00101000
,
00000000
00001000
00010000
00000000
00001000
00010000
00000010
00000000
,
00010000
00001000
00000010
00000100
,
00022000
00000000
00033000
00010000
00001000
00010000
00000000
00000100
,
00000000
00010000
00000000
00001000
00000000
01000000
00010000
01000000
,
00001000
00010000
00000000
00001000
00000000
00100000
00000000
00001000
,
00010000
00000010
00010000
00000000
00001000
00000000
00010000
00000000
,
00022000
00000000
00000000
00000000
,
00000000
00033000
00001000
00010000
01000000
00100000
00010000
10000000
,
10100000
00000000
00000000
00100000
00000000
00000000
01000000
00000000
00000000
01010000
00000000
00000000
00000000
00000000
00000000
00001000
00000000
00000000
00010000
00000000
00001000
00000000
00000100
00000000
,
00000010
00000000
00000000
00000000
00001000
00000100
00000010
00000000
00000000
00000001
00001000
00000100
00000010
00000000
00000001
00000000
,
00000100
00001000
00010000
00022000
00000000
00000000
00033000
00000000
,
00001000
01000000
00001000
00010000
,
01000000
00000000
00000000
00100000
00000000
00000000
00001000
00000000
00001000
00010000
00000000
00010000
,
00001000
00010000
00001000
00000010
,
00000100
00000000
00000000
00001000
00000000
00000000
00000001
00000000
00000100
00000000
00001000
00000000
,
00021000
00032000
00203000
00302000
,
00013000
00001000
01000000
00001000
00010000
00000000
00001000
00000000
,
00010000
00100000
01000000
00000000
00010000
10000000
01000000
10000000
,
00010000
00000000
11000000
00000000
01000000
00100000
00010000
00000000
,
00110000
00000000
00001100
00000000
,
00010000
00001000
00010000
00000000
00022000
00000000
00033000
00000000
,
00010000
00000000
00001000
00000000
00000100
00000001
00001000
00000000
,
00000100
00000010
00002002
00003003
,
00001001
00000000
00000000
00000000
,
00000000
00000000
00000000
00000000
00000000
00010000
00001000
00000000
,
00011000
00000000
00010010
00000000
00011000
00000000
00001000
00010000
,
00000000
00100000
00000000
01000000
00000000
00010000
00000000
00000000
,
10100000
00000000
10010000
00000000
10100000
00000000
10000000
01000000
,
00000000
00100000
00000000
00001000
00000000
00010000
00000000
00011000
,
00000000
00010000
00000000
00010010
00000000
00010000
00000000
00011000
,
00000000
00010000
00000000
00001000
00000100
00000001
00000010
00000000
,
00000001
00001000
00000000
00000010
00001000
00000000
00000100
00010000
,
00002000
00000000
00000000
00000000
00000000
00020000
00000000
00033000
,
00011000
00000000
01001000
00000000
00011000
00000000
00001000
00010000
,
00000000
01000000
00000000
00100000
00000000
00001000
00000000
00000000
,
00101000
00000000
00010010
00000000
00101000
00000000
00010000
00001000
,
00000000
00000010
00000000
00000100
00000000
00001000
00000000
00001001
,
00000000
00001000
00000000
00001100
00000000
00001000
00000000
00001010
,
00000000
00001000
00000000
00000100
00000010
00001000
00010000
00000000
,
00011000
01000000
10010000
01000000
,
10000000
00100000
00000000
10000000
00000000
01000000
00100000
00001000
,
00000000
00010000
00001000
00000000
00011000
00000000
00010000
00000100
,
00001000
00000000
00000000
00001001
00000000
00000000
00000001
00001000
,
00000002
00000203
00002300
00023000
,
00031000
00010000
00000000
00100000
00000000
01000000
00010000
10000000
,
02000000
00000000
00000000
00000000
,
03200000
00000000
00000000
00000000
,
00302000
00000000
00000000
00000000
,
00000000
00000000
00000000
00000000
00003000
00010000
00001000
00010000
,
00000010
00000000
00010000
00001000
00000000
00101000
00000000
00001000
,
00010000
00001000
00010000
00011000
,
00010000
00000000
00010100
00000000
,
00000100
00001000
00000001
00000000
,
00000100
00000010
00000100
00001000
,
00000000
00010000
00001000
00000000
,
01000000
00000000
01100000
00000000
,
00010000
10000000
00100000
00000000
,
01000000
00100000
10000000
01000000
,
00100000
00000000
00011000
00000000
,
00001000
00000000
00101000
00000000
,
00001000
00010000
00000010
00000000
,
00010000
00001000
00000100
00000010
,
00000000
00001000
00000001
00000000
,
00000100
00000000
00000110
00000000
,
00000010
00001000
00000001
00000000
,
00000010
00001000
00010000
00001000
,
00020000
00000000
00030000
00000000
,
00001000
00000000
00011000
00000000
,
00001000
00010000
01000000
00000000
,
00100000
00010000
10000000
00100000
,
00000000
10000000
00010000
00000000
,
01000000
00000000
01010000
00000000
,
00001000
00010000
00001000
00000000
,
00010000
00001000
00000010
00001000
,
00020000
00030000
00020000
00030000
,
00001000
00000000
00011000
00000000
,
00001000
00010000
01000000
00000000
,
10000000
00010000
00100000
01000000
,
00000000
00100000
00001000
00000000
,
00010000
00000000
00011000
00000000
,
00010000
00001000
00010000
00000000
,
00002000
00000000
00023000
00000000
,
00230000
00000000
02300000
00000000
,
03010000
10000000
01000000
00000000
,
00100000
00000000
00000000
00100000
00000000
00000000
00100000
00000000
,
00001000
00000000
00010000
00100000
,
01000000
00000000
00000000
00010000
00000000
00000000
20020000
00000000
,
00000000
00000000
00000000
00000000
,
00000000
00000000
00000000
00000000
,
30030000
10000000
01000000
00010000
,
00011000
00000000
00010000
00001000
00000000
00000010
00000000
00000001
,
00000100
00000010
00000100
00001000
00020000
00000000
00030000
00000000
;

//--------------- dance-double - Fred-104 ----------------
#NOTES:
     dance-double:
     Fred-104:
     Hard:
     16:
     :
00000000
00000000
00000000
00000000
,
00000000
00000000
00000000
00000000
,
00000000
00000000
00000000
00000000
,
00022000
00000000
00000000
00000000
00033000
00010000
00001000
00010000
,
00000010
00000000
00001000
00000100
00000000
00000110
00000000
00000010
,
00000001
00000100
00001000
00010000
00001000
00000000
00020000
00000000
,
00031000
00000000
00011000
00000000
,
00001000
00010000
00100000
00000000
,
01000000
00000000
00010000
10000000
00010000
00000000
00200000
00000000
,
00000000
01300000
10000000
01000000
,
00100000
00000000
00110000
00000000
,
00001000
00010000
00001000
00000000
,
00010000
00000010
00010000
00000010
00010000
00000000
00000010
00000000
,
00001010
00000000
00001001
00000000
,
00000100
00000000
00011000
00000000
,
01000000
00100000
01000000
00000000
,
00010000
00000000
10000000
01000000
10000000
00000000
00020000
00000000
,
00000000
10030000
00100000
00010000
,
00001000
00000000
00011000
00000000
,
00010000
00001000
00010000
00000000
,
00001000
00000100
00000010
00010000
,
00002000
00000000
00003020
00000000
,
00000031
00001000
00000001
00000010
00000100
00001000
00000000
00001000
,
00000010
00010000
00001000
00010000
00100000
01000000
00000000
01000000
,
00010000
10000000
01000000
00100000
01000000
10000000
00000000
11000000
,
00000000
01000000
00100000
00001000
00010000
00000000
00001000
00010000
,
00000010
00000000
00001001
00000000
00001000
00000100
00000001
00000100
,
00001000
00000001
00000000
00000101
00000000
00001100
00000000
00011000
,
00000000
00000000
00001000
00000000
00010000
00000000
00100000
01000000
00100000
00000000
10000000
00000000
00010000
00000000
00100000
00000000
,
01000000
00100000
00001000
00010000
00001000
00000000
00011000
00000000
,
00010000
00000100
00001000
00000100
00010000
00000010
00000000
00000010
,
00001000
00000100
00000010
00000001
00000100
00001000
00000000
00010000
,
00001000
00010000
00000000
00100000
01000000
00010000
00000000
10010000
,
00000000
10000000
01000000
00100000
10000000
00100000
00010000
10000000
,
01000000
00010000
00001000
00010000
01000000
00100000
00010000
10000000
,
00100000
01000000
00010000
00110000
00000000
00101000
00000000
00010010
,
00000000
00010000
00001000
00000000
00010000
00001000
00000100
00000000
,
00000001
00001000
00000001
00000010
00000100
00001000
00000100
00000000
,
00021000
00000000
00000000
00031000
00010000
00001000
00100000
00010000
,
00100000
00000000
01000000
00000000
10000000
00000000
00010000
00000000
10000000
00000000
00100000
10000000
00100000
00000000
01000000
00000000
,
00001000
00000000
00000000
00010000
00000000
00000000
00001000
00000000
00000100
00000000
00000010
00000000
00000100
00000000
00000001
00001000
,
00000001
00000010
00000100
00010000
00001000
00000100
00000010
00000000
,
00002000
00000000
00000000
00000000
00000000
00000000
00000000
00000002
,
00000000
00000000
00003003
00000000
00000110
00000000
00001001
00000000
00000001
00000010
00000100
00000000
00010000
00001000
00010000
00000000
,
00001000
00000000
00000000
00010000
00000000
00000000
00100000
00000000
00000000
00000000
00000000
00000000
01000000
00000000
00000000
00100000
00000000
00000000
10000000
00000000
00000000
00000000
00000000
00000000
00010000
00000000
00000000
00000000
00000000
00000000
10000000
00000000
00000000
00000000
01000000
00000000
00010000
00000000
00000000
00000000
00001000
00000000
00000000
00000000
00010000
00000000
00000000
00000000
,
00001000
00000000
00000000
00000000
00000000
00000000
00000000
00000000
00000000
00000000
00000000
00000000
00010000
00000000
00000000
00001000
00000000
00000000
00000010
00000000
00000000
00000000
00000000
00000000
00000100
00000000
00000000
00001000
00000000
00000000
00000100
00000000
00000000
00000010
00000000
00000000
00000001
00000000
00000000
00000000
00000000
00000000
00001000
00000000
00000000
00000000
00000010
00000000
,
00010000
00000000
00000000
00000000
00000000
00000000
00000000
00000000
00001000
00000000
00000000
00000000
00010000
00000000
00000000
00000000
00100000
00000000
00000000
00000000
00000000
00000000
00000000
00000000
20000000
00000000
30000000
00000000
00000000
00000000
00000000
00000000
00000000
00000000
00000000
00000000
01000000
00000000
00000000
00000000
00000000
00000000
00000000
00010000
00000000
00000000
00000000
00000000
00000000
00000000
00000000
00022000
00000000
00000000
00000000
00000000
00000000
00000000
00000000
00000000
00033000
00000000
00000000
00000000
,
00020000
00000000
00031000
00010000
,
00000100
00000000
00000000
00010000
00000000
00000000
00001000
01000000
00010000
01000000
00001000
00100000
,
00001000
00010000
00100000
10000000
,
01000000
00000000
00000000
00010000
00000000
00000000
00001000
00000000
00000010
00000000
00000001
00000000
,
00001001
00000010
00000110
00001001
,
00001000
00000010
00001000
00000000
00001000
00000100
00001000
00000000
,
00000010
00010000
00001000
00000000
00001000
00010000
00100000
01000000
,
01010000
00000000
11000000
00000000
01000000
00100000
01100000
00000000
,
10010000
01000000
00011000
00000100
,
00001000
00000010
00000100
00001000
00020000
00000000
00031000
00000000
,
00010000
00001000
00100000
00001000
00010000
00001000
00000100
00000010
,
00001000
00000001
00002002
00003003
,
00011000
00000000
00000000
00000000
,
00000000
00000000
00000000
00000000
00000000
00000000
00000000
00000000
00000000
00000000
00000000
00000000
00000000
00000000
00000000
00000000
00000000
00000000
00000000
00000000
00000000
00000000
00000000
00000000
00000000
00000000
00000000
00000000
00000000
00000000
00000000
00000000
00000000
00000000
00000000
00000000
00000000
00000000
00000000
00000000
20000000
30000000
00000000
00000000
00000000
00000000
00000000
00000000
00020000
00030000
00000000
00000000
00000000
00000000
00000000
00000000
00000000
00000000
00000000
00000000
00000000
00000000
00000000
00000000
,
11000000
00000000
01010000
00000000
11000000
00000000
10000000
01000000
,
00100000
01000000
00010000
00001000
00000010
00000001
00001000
00000001
,
00000101
00000000
00001100
00000000
00000101
00000000
00001000
00000001
,
00000010
00000000
00000100
00000000
00010000
00000000
00001000
00010000
00001000
00000000
00100000
00000000
00001000
00000000
00011000
00000000
,
00000000
00000010
00000000
00011000
00000000
00100000
00000000
00011000
,
00000000
00011000
00000000
00001000
00010000
00100000
01000000
00000000
,
00010000
00000000
10000000
00000000
01000000
00000000
00100000
01000000
00100000
00000000
00000000
00000000
00001000
00000000
00010000
00000000
,
00022000
00000000
00000000
00000000
00033000
00020020
00000000
00030030
,
00001010
00000000
00000011
00000000
00001010
00000000
00001000
00000100
,
00000010
00001000
00010000
01000000
00100000
00010000
10000000
00100000
,
10100000
00000000
00110000
00000000
10100000
00000000
10000000
00010000
,
00100000
00000000
00001000
00000000
00010000
00000000
00000010
00001000
00000010
00000000
00010000
00000000
00001000
00000000
00011000
00000000
,
00000000
00100000
00000000
00011000
00000000
00000010
00000000
00011000
,
00000000
00011000
00000000
00010000
00001000
00000010
00000100
00000000
,
00001100
00000101
00001010
00000011
,
00001000
00000001
00000010
00000001
00001000
00000010
00010000
00001000
,
00010000
00000000
00010010
00000000
00101000
00000000
00001000
00010000
,
00011000
00000000
00000000
01100000
00000000
00000000
10000000
10000000
,
10000000
00000000
00000000
00100000
01000000
00000000
00000000
00000000
00010000
00000000
00000000
00100000
01000000
00000000
00000000
00000000
,
10000000
00000000
01000000
00000000
00000000
00000000
01100000
00000000
00000000
00000000
00001000
00000000
00010000
00001000
00010000
00001000
,
00020000
00000000
00000000
00000000
,
00030200
00000000
00000000
00000000
,
00002000
00000000
00000000
00000000
,
00000000
00000000
00000000
00000000
00003300
00001000
00000001
00000010
,
00000100
00000000
00010000
00001000
00000000
00011000
00000000
00010000
,
00000100
00011000
01000000
00011000
,
00010100
00000000
00011000
00000000
,
00001000
00010000
00100000
00000000
,
01000000
00010000
10000000
01000000
,
00100000
00001000
00010000
00000000
,
00011000
00000000
00010010
00000000
,
00010000
00001000
00000010
00000000
,
00000001
00000000
00001000
00000010
00001000
00000000
00000001
00000000
,
00000100
00000010
00000100
00000000
00000001
00001000
00000001
00001000
,
00000100
00000000
00001001
00000000
,
00000010
00010000
00001000
00000000
,
00010000
00000000
00100000
01000000
00100000
00000000
10000000
00000000
,
00010000
00000000
00100000
00000000
01000000
10000000
01000000
10000000
,
01000000
10000000
00100000
00010000
,
00001000
00000100
00000010
00000000
,
00001000
00000001
00000010
00000100
,
00020000
00000000
00030000
00000000
,
00011000
00000000
01001000
00000000
,
00001000
00010000
00001000
00000000
,
00010000
00000000
00000100
00001000
00000100
00000000
00010000
00000000
,
00001000
00000010
00000001
00001000
,
00001001
00000000
00000110
00000000
,
00000001
00000100
00001000
00000000
,
00010000
00001000
00010000
00001000
00010000
00000000
01000000
00000000
,
00200000
00300000
00020000
00030000
,
11000000
00000000
00110000
00000000
,
10000000
00100000
01000000
00000000
,
00010000
00100000
00010000
00100000
00010000
00000000
10000000
00000000
,
01000000
00100000
00001000
00010000
,
00011000
00000000
00010100
00000000
,
00010000
00001000
00000100
00000000
,
00000001
00000000
00001000
00000000
00000100
00000000
00000010
00000000
00001000
00000000
00010000
00000000
,
01000000
00000000
10000000
00000000
00010000
00000000
01000000
00000000
00100000
00000000
01000000
00000000
,
00010000
01000000
00001000
00010000
,
00001000
00000000
00000000
00011000
00000000
00000000
00010000
00000000
,
00000100
00000000
00001000
00000001
,
00000100
00000000
00000000
00001000
00000000
00000000
00022000
00000000
,
00000000
00000000
00000000
00000000
,
00000000
00000000
00000000
00000000
,
00033000
00010100
01001000
00010010
,
00101000
00000000
00001000
00010000
00000000
00011000
00000000
00001000
,
00010000
01000000
00100000
00010000
20000000
00000000
30000000
00000000
;
