#TITLE:Kailua;
#ARTIST:kors k;
#GENRE:ENERGETIC HAWAIIAN TRANCE;
#BANNER:Kailua.png;
#BACKGROUND:Kailua-bg.png;
#CDTITLE:./CDTitles/bm IIDX 18 Resort Anthem.png;
#MUSIC:Kailua.ogg;
#SAMPLESTART:69.031;
#SAMPLELENGTH:15;
#BPMS:0=146;
#BGSTAGE:22;

//--------------- dance-single - Fred-104 ----------------
#NOTES:
     dance-single:
     Fred-104:
     Beginner:
     2:
     :
0000
0000
0000
0000
,
0000
0000
0000
0000
,
0000
0000
0000
0000
,
0000
0000
0000
0000
,
0000
0000
0000
0000
,
0000
0000
0000
0000
,
0002
0000
0000
0000
,
0000
0000
0000
0003
,
2000
0000
0000
0000
,
0000
0000
0000
3000
,
0002
0000
0000
0003
,
2000
3000
0020
0030
,
0200
0000
0000
0300
,
0002
0000
0000
0003
,
2000
0000
0000
3000
,
0020
0000
0000
0030
,
2000
0000
0000
3000
,
0020
0000
0000
0030
,
1000
0000
0000
0000
,
0001
0000
0100
0000
,
0001
0000
0000
0000
,
1000
0000
0100
0000
,
2000
0000
0000
3000
,
0002
0000
0000
0003
,
2000
3000
0002
0003
,
2000
0000
0000
3000
,
0002
0000
0000
0000
,
0000
0000
0000
0003
,
2000
0000
0000
0000
,
0000
0000
0000
3000
,
0002
0000
0000
0000
,
0000
0000
0000
0003
,
2000
0000
0000
0000
,
0000
0000
0000
3000
,
0002
0000
0000
0003
,
0200
0300
0020
0030
,
2000
0000
0000
3000
,
0200
0300
0020
0030
,
0002
0003
2000
3000
,
0001
0000
1000
0000
,
0002
0000
0000
0000
,
0000
0000
0000
0003
,
2000
0000
0000
3000
,
0010
0000
1000
0000
,
0002
0000
0000
0003
,
0010
0000
0100
0000
,
0020
0000
0000
0030
,
0001
0000
0001
0000
,
2000
0000
0000
3000
,
0010
0000
1000
0000
,
0002
0000
0000
0003
,
1000
0000
0010
0000
,
0200
0000
0000
0300
,
0001
0000
1000
0000
,
0020
0000
0000
0030
,
1000
0000
0100
0000
,
0020
0000
0000
0030
,
0002
0000
0000
0003
,
1000
0000
0010
0000
,
1000
0000
0001
0000
,
0100
0000
0100
0000
,
0001
0000
1000
0000
,
0002
0000
0000
0003
,
2000
0000
0000
3000
,
0002
0003
2000
3000
,
0002
0000
0000
0003
,
2002
0000
0000
0000
,
3003
0000
0000
0000
;

//--------------- dance-single - Fred-104 ----------------
#NOTES:
     dance-single:
     Fred-104:
     Easy:
     5:
     :
0000
0000
0000
0000
,
0000
0000
0000
0000
,
0000
0000
0000
0000
,
0000
0000
0000
0000
,
0000
0000
0000
0000
,
0000
0000
0000
0000
,
2000
0000
0000
3002
0000
0000
2003
0000
,
0000
0000
0000
3000
,
0002
0000
0000
0023
0000
0000
0230
0000
,
2300
0000
3002
0000
2003
0000
3002
0003
,
2001
0000
3010
1000
,
0002
1003
0002
0103
,
0002
0000
2003
0000
,
3200
0000
0320
0032
,
2003
0000
3010
1000
,
0002
0000
0013
0001
,
2000
3002
0203
0320
,
2030
0000
0002
3003
,
1000
0010
1000
1000
,
0100
0010
0100
0100
,
0001
0010
0001
1000
,
0001
0100
0001
1000
,
1001
0000
0001
0100
,
0110
0000
1000
0100
,
0110
0000
0001
0000
,
2000
3002
0203
0320
,
2030
0000
0000
3020
0000
0000
2030
0000
,
0000
0000
0000
0000
,
3002
0000
0000
0023
0000
0000
0032
0000
,
0000
0000
0000
0000
,
2003
0000
0000
3200
0000
0000
2300
0000
,
0000
0000
0000
0000
,
3002
0000
0000
0203
0000
0000
0302
0000
,
0000
0000
2003
3020
,
2030
0000
0000
3200
0000
0000
0320
0000
,
0000
0000
0000
0032
,
0203
0000
0000
0302
0000
0000
0203
0000
,
0000
0000
0320
2030
,
3002
0000
0000
2003
0000
0000
3020
0000
,
1030
0010
0100
0100
,
0002
0000
0000
0000
,
2003
0000
3020
0130
,
0002
0000
0000
2003
0000
0000
3002
0000
,
0000
0103
0000
0010
,
2000
0000
0000
3200
0000
0000
0320
0000
,
0000
0031
0000
1000
,
0002
0000
0000
0203
0000
0000
0302
0000
,
0000
1003
0000
0010
,
0200
0000
0000
0320
0000
0000
2030
0000
,
0000
3001
0200
0320
,
1030
0010
1000
0001
,
0200
0000
0302
0000
,
1003
0100
0010
0100
,
2000
0000
3020
2030
,
3001
0010
0100
1000
,
0002
0000
0203
0320
,
1030
0100
0010
0001
,
2002
0000
0000
3003
,
2000
0000
3010
1000
,
0002
0000
0103
0010
,
0200
0000
0301
0010
,
0200
0000
1300
0001
,
2000
0000
0000
0000
,
3200
0000
0000
0000
,
0320
0000
0000
0000
,
0032
0000
0000
0003
,
2002
0000
0000
0000
,
3003
0000
0000
0000
;

//--------------- dance-single - Fred-104 ----------------
#NOTES:
     dance-single:
     Fred-104:
     Medium:
     9:
     :
0000
0000
0000
0000
,
0000
0000
0000
0000
,
0000
0000
0000
0000
,
0000
0000
0000
0000
,
0000
0000
0000
0000
,
0000
0000
0000
0000
,
0002
0000
0000
0023
0000
0000
0230
0000
,
0000
1000
0000
0010
,
2300
0000
0000
3020
0000
0000
0230
0000
,
0301
0100
0001
0000
1000
0010
2000
0000
,
3002
0100
0100
0103
,
0001
1000
0002
0000
2003
0000
3010
1000
,
0200
0000
2300
0000
3001
1000
0001
0000
,
2000
0100
3002
0010
,
1003
0100
1000
0000
0010
1000
0001
0000
,
0100
0001
0010
0000
0100
1000
0001
0000
,
1000
0000
0010
0000
2000
0000
0000
3020
0000
0000
0230
0000
0302
0000
0000
0000
,
0023
0000
2030
3200
,
0301
0000
0010
0000
0001
0100
0010
0000
,
1000
0000
0100
0000
1000
0100
0010
0000
,
0001
0000
0010
0000
1000
0010
0002
0000
,
1003
0000
0100
0000
0001
0100
2000
0000
,
3002
0000
0000
0023
0000
0000
0032
0000
0000
2003
0000
0000
3020
0000
0000
0000
,
2030
0000
0000
3200
0000
0000
0320
0000
0000
0032
0000
0000
2003
0000
0000
0000
,
3002
0000
0000
0203
0000
0000
0320
0000
0000
2030
0000
0000
3002
0000
0000
0000
,
1003
0000
0020
0000
0130
0000
0000
0110
0000
0000
0100
0000
0001
0000
1000
0000
,
0200
0000
0000
2300
0000
0000
3020
0000
,
0000
0000
0000
0000
,
0230
0000
0000
0302
0000
0000
0023
0000
,
0000
0000
0000
0000
,
0230
0000
0000
0320
0000
0000
0032
0000
,
0000
0000
0000
0000
,
2003
0000
0000
3020
0000
0000
2030
0000
,
0000
0000
0000
0000
0000
3002
2003
3002
,
0203
0000
0000
0320
0000
0000
2030
0000
,
0000
0000
0000
0000
0000
0000
0000
3002
,
0023
0000
0000
0032
0000
0000
2003
0000
,
0000
0000
0000
0000
3002
0023
0230
2300
,
3002
0000
0000
0023
0000
0000
0032
0000
,
0000
0000
0000
0000
0000
0200
0300
2000
,
0003
0000
0000
0000
,
3001
0000
1000
0000
0001
0000
1000
0000
0001
0000
1000
0001
2000
0000
0000
0000
,
3002
0000
0000
0203
0000
0000
0320
0000
,
0032
0023
2030
3001
,
2000
0000
0000
3200
0000
0000
0320
0000
,
2030
3020
0032
1003
,
0002
0000
0000
0023
0000
0000
0230
0000
,
0302
0203
2300
3001
,
2000
0000
0000
3020
0000
0000
0230
0000
,
2300
0000
3200
0000
0302
2003
3002
0000
,
2003
0000
0000
3200
0000
0000
0302
0000
,
1003
0010
0001
1000
,
0002
0000
0000
0203
0000
0000
2300
0000
,
3001
0010
2000
3002
,
2003
0000
0000
3200
0000
0000
0320
0000
,
0031
0000
1000
0000
0001
0020
0031
0200
,
0301
0010
0100
1000
,
0001
1000
0001
0000
1000
0001
1000
0000
,
0001
0010
0001
1000
0001
0100
0020
0000
,
1030
0100
1000
0010
0100
0010
2000
0000
,
3001
0100
0010
0100
0001
1000
0002
0000
,
1003
0100
0010
0001
1000
0010
0200
0000
,
0302
0010
0000
0010
0000
0010
0003
0010
,
2000
0100
0000
0100
0000
0100
3000
0100
,
0001
0100
0001
0010
0100
1000
0010
1000
,
0001
1000
0001
1000
0010
0100
0010
0100
,
0220
0000
0000
0000
,
0330
0000
0000
0000
;

//--------------- dance-single - Fred-104 ----------------
#NOTES:
     dance-single:
     Fred-104:
     Hard:
     14:
     :
0000
0000
0000
0000
,
0000
0000
0000
0000
,
0000
0000
0000
0000
,
0000
0000
0000
0000
,
0000
0000
0000
0000
,
0000
0000
0000
0000
,
2000
0000
0000
3020
0000
0000
0230
0000
,
0001
1000
0001
0310
,
0001
0100
0010
1000
0001
0010
0100
1000
,
0001
0100
0001
0000
1000
0010
1000
0000
0001
1000
0001
1000
0002
0000
0000
0000
,
2003
0100
3100
1000
0010
0100
0001
1000
,
0001
1000
0001
1000
0002
0000
1003
0010
2000
0000
3002
0000
0203
0000
0320
0000
,
0230
0000
0302
0000
1003
0020
0030
1000
0200
0300
0010
0002
0003
1000
0002
0000
,
1003
0000
0100
0000
0010
0000
0100
0010
0001
0000
1000
0001
2000
0000
0000
0000
,
3010
1000
0010
0000
1000
0100
1000
0000
0001
0100
0001
0000
0100
0010
0100
0010
,
1000
0010
1000
0000
0001
1000
0001
1000
0001
0100
0001
0000
1000
0100
1000
0100
,
0010
0000
0001
0000
1000
0000
0001
0100
0000
0010
1000
0000
0001
0010
0000
0010
,
0100
1000
0001
0100
0020
2030
0002
3003
,
0001
0100
0000
0010
1000
0000
0001
0010
0000
0010
0100
0000
1000
0000
0010
0000
,
1000
0100
0000
1000
0010
0000
0100
0001
0000
0001
0010
0000
0100
0000
1000
0010
,
0100
0001
0000
1000
0100
0000
0010
0001
0000
0001
1000
0000
0020
0000
0230
0000
,
0301
0010
0000
0010
0100
0000
1000
0010
0000
0100
0010
0000
1000
0000
0001
0000
,
1000
0100
0000
0100
0010
0000
0010
0001
0000
0001
1000
0000
0010
0000
0100
0000
,
0001
0010
0000
0010
0100
0000
0100
1000
0000
1000
0010
0000
0100
0000
0001
1000
,
0100
0010
0000
0010
0001
0000
0001
1000
0000
1000
0001
0000
0100
0000
0010
0000
,
1000
0000
0002
0023
0130
1000
0010
0100
0000
0000
0101
0000
0001
1000
0001
1000
,
0002
0000
0000
0203
0000
0000
2300
0000
,
0000
0000
0000
0000
,
3002
0000
0000
0023
0000
0000
2030
0000
,
0000
0000
0000
0000
,
3002
0000
0000
0203
0000
0000
0320
0000
,
0000
0000
0000
0000
,
2030
0000
0000
3200
0000
0000
0320
0000
,
0000
0000
0000
0000
0000
0032
2003
3002
,
0203
0000
0010
0320
0000
1030
2000
0000
,
3020
0000
1000
0000
0001
0000
2030
3200
,
0320
0000
0130
0200
0000
1300
2000
0000
,
3002
0000
0203
0000
2300
3200
0320
2030
,
3002
1003
0001
0020
0130
1000
0002
0013
,
1000
0010
0001
0100
0010
2000
3001
0020
,
0031
1000
0001
1000
0001
1000
0001
1000
0001
1000
0001
1000
0001
1000
0001
1000
,
0001
1000
0001
1000
0001
1000
0001
1000
0001
1000
0001
1000
0001
0000
0000
0000
,
2000
3100
0010
2000
3010
0100
2000
3001
,
0200
1000
0001
0310
,
2000
3010
0100
2000
3100
0010
2000
3001
,
0200
0000
0000
0000
1000
0000
0000
0000
0310
0000
1000
0000
0100
0000
0010
0001
,
2000
3010
0100
2000
3100
0010
2000
3001
,
0020
0100
0001
1000
,
0032
0103
0010
0002
0013
0100
0002
1003
,
0020
0000
1000
0000
0230
0302
0023
0230
,
2300
0000
3100
1000
0020
0000
0230
0000
0301
0010
0200
0000
2300
0000
3001
0100
,
0020
0000
1000
0000
0031
0010
1000
0200
,
2300
0000
3100
0010
0002
0000
2003
0000
3010
0100
0002
0000
2003
0000
3001
0100
,
0020
0000
0000
0000
1000
0000
0000
0000
0230
0000
0320
0000
2030
0000
3001
0100
,
0020
0000
1030
0100
0020
0000
0032
0000
0103
0010
2000
0000
3020
0000
0130
0001
,
2000
0000
0001
0000
3010
2000
3100
2000
,
3001
0100
0001
0000
0100
0000
0010
0000
1000
0100
1000
0000
0001
0000
0100
0000
,
0010
0100
0010
0000
1000
0001
1000
0000
0001
0010
0001
1000
0010
0000
0020
0000
,
0230
0000
0302
0000
1003
0001
0010
0000
0001
0000
1000
0100
0000
0010
0001
0010
,
0001
0100
0000
0100
0000
0010
1000
0000
0200
0000
2300
0000
3001
0100
0001
0100
,
0001
0010
0100
0000
1000
0010
1000
0000
0001
0000
0100
0001
0000
0100
0010
1000
,
0001
0100
0001
0000
1000
0010
1000
0000
0001
1000
0001
0000
0100
0010
0100
0000
,
0001
0000
0010
0000
0100
1000
0010
0000
1000
0000
0001
0100
0000
0100
0010
1000
,
0200
0000
0310
0001
0200
0000
0310
1000
0200
0000
0310
0001
0200
0000
0310
1000
,
0200
0000
1300
0001
0200
0000
0301
1000
0020
0000
1030
0001
0020
0000
0031
0000
,
1000
0001
1000
0001
1000
0001
1000
0001
1000
0001
1000
0001
1000
0001
1000
0001
,
2000
0000
0000
0000
,
3000
0000
0000
0000
;

//--------------- dance-double - Fred-104 ----------------
#NOTES:
     dance-double:
     Fred-104:
     Easy:
     5:
     :
00000000
00000000
00000000
00000000
,
00000000
00000000
00000000
00000000
,
00000000
00000000
00000000
00000000
,
00000000
00000000
00000000
00000000
,
00000000
00000000
00000000
00000000
,
00000000
00000000
00000000
00000000
,
00000020
00000000
00000000
00002030
00000000
00000000
00003002
00000000
,
00000000
00000000
00000000
00000003
,
00000200
00000000
00000000
00000320
00000000
00000000
00020030
00000000
,
00032000
00000000
02003000
00000000
03002000
00000000
00023000
00030000
,
00012000
00000000
00103000
00001000
,
00020000
00031000
00020000
00030010
,
00020000
00000000
00032000
00000000
,
00203000
00000000
00320000
20030000
,
30200000
00000000
10300000
01000000
,
00020000
00000000
00031000
00000100
,
00000002
00000023
00000230
00002300
,
00003002
00000000
00002000
00003003
,
00000001
00000100
00000001
00000100
,
00000100
00000010
00001000
00000010
,
00010000
00000100
00010000
00001000
,
00100000
00010000
10000000
00010000
,
10010000
00000000
10000000
00100000
,
00010000
00000000
00001000
00000010
,
00000001
00000000
00000001
00000000
,
00000002
00000203
00002300
00023000
,
00032000
00000000
00000000
00023000
00000000
00000000
00230000
00000000
,
00000000
00000000
00000000
00000000
,
02300000
00000000
00000000
23000000
00000000
00000000
30020000
00000000
,
00000000
00000000
00000000
00000000
,
00230000
00000000
00000000
00302000
00000000
00000000
00023000
00000000
,
00000000
00000000
00000000
00000000
,
00030020
00000000
00000000
00002030
00000000
00000000
00003200
00000000
,
00000000
00000000
00000320
00000032
,
00002003
00000000
00000000
00003002
00000000
00000000
00000203
00000000
,
00000000
00000000
00000000
00000320
,
00020030
00000000
00000000
00032000
00000000
00000000
00203000
00000000
,
00000000
00000000
00320000
20030000
,
32000000
00000000
00000000
03200000
00000000
00000000
00302000
00000000
,
00013000
00001000
00010000
00001000
,
00020000
00000000
00000000
00000000
,
00032000
00000000
00020000
00033000
,
00002000
00000000
00000000
00003020
00000000
00000000
00000230
00000000
,
00000000
00000301
00000000
00001000
,
00000020
00000000
00000000
00020030
00000000
00000000
00032000
00000000
,
00000000
01003000
00000000
00000100
,
00020000
00000000
00000000
00032000
00000000
00000000
00203000
00000000
,
00000000
00301000
00000000
00010000
,
00000020
00000000
00000000
00002030
00000000
00000000
00003200
00000000
,
00000000
00010300
00002000
00023000
,
00031000
00010000
01000000
10000000
,
00020000
00000000
20030000
00000000
,
30100000
10000000
01000000
00100000
,
00002000
00000000
00023000
00030200
,
00001300
00000010
00000100
00000001
,
00002000
00000000
00003002
00000023
,
00000130
00010000
00001000
00000100
,
00000220
00000000
00000000
00000330
,
00000002
00000000
00000103
00001000
,
00000200
00000000
00000301
00000010
,
00000200
00000000
00010300
00001000
,
00200000
00000000
00310000
10000000
,
00200000
00000000
00000000
00000000
,
20300000
00000000
00000000
00000000
,
32000000
00000000
00000000
00000000
,
03200000
00000000
00000000
00300000
,
00022000
00000000
00000000
00000000
,
00033000
00000000
00000000
00000000
;

//--------------- dance-double - Fred-104 ----------------
#NOTES:
     dance-double:
     Fred-104:
     Medium:
     9:
     :
00000000
00000000
00000000
00000000
,
00000000
00000000
00000000
00000000
,
00000000
00000000
00000000
00000000
,
00000000
00000000
00000000
00000000
,
00000000
00000000
00000000
00000000
,
00000000
00000000
00000000
00000000
,
20000000
00000000
00000000
32000000
00000000
00000000
03020000
00000000
,
00000000
00001000
00000000
00130000
,
20000000
00000000
00000000
30020000
00000000
00000000
02030000
00000000
,
03100000
01000000
00100000
00000000
00001000
00010000
00002000
00000000
,
00023000
00000100
01000000
00030100
,
00010000
00001000
00020000
00000000
00030020
00000000
00001030
00000001
,
00000200
00000000
00000320
00000000
00001030
00000001
00001000
00000000
,
00000002
00000100
00002003
00000010
,
00003001
00000100
00001000
00000000
00010000
01000000
10000000
00000000
,
00010000
00100000
01000000
00000000
10000000
00100000
01000000
00000000
,
00010000
00000000
10000000
00000000
00200000
00000000
00000000
02300000
00000000
00000000
03002000
00000000
00023000
00000000
00000000
00000000
,
00030200
00000000
00020300
00032000
,
00013000
00000000
00000010
00000000
00001000
00000100
00010000
00000000
,
00001000
00000000
00100000
00000000
00010000
00100000
01000000
00000000
,
10000000
00000000
00100000
00000000
00010000
00001000
00020000
00000000
,
00031000
00000000
00000010
00000000
00000001
00000100
00001000
00000000
,
00000002
00000000
00000000
00000023
00000000
00000000
00002030
00000000
00000000
00023000
00000000
00000000
00230000
00000000
00000000
00000000
,
20300000
00000000
00000000
32000000
00000000
00000000
03020000
00000000
00000000
00032000
00000000
00000000
00003200
00000000
00000000
00000000
,
00000302
00000000
00000000
00000023
00000000
00000000
00002030
00000000
00000000
00023000
00000000
00000000
02030000
00000000
00000000
00000000
,
13000000
00000000
02000000
00000000
13000000
00000000
00000000
11000000
00000000
00000000
00100000
00000000
00001000
00000000
00010000
00000000
,
00002000
00000000
00000000
00023000
00000000
00000000
00032000
00000000
,
00000000
00000000
00000000
00000000
,
00203000
00000000
00000000
00320000
00000000
00000000
20030000
00000000
,
00000000
00000000
00000000
00000000
,
32000000
00000000
00000000
03020000
00000000
00000000
00032000
00000000
,
00000000
00000000
00000000
00000000
,
00003020
00000000
00000000
00000032
00000000
00000000
00002003
00000000
,
00000000
00000000
00000000
00000000
00000000
00003020
00000230
00000302
,
00000203
00000000
00000000
00002300
00000000
00000000
00023000
00000000
,
00000000
00000000
00000000
00000000
00000000
00000000
00000000
00032000
,
00003020
00000000
00000000
00000032
00000000
00000000
00002003
00000000
,
00000000
00000000
00000000
00000000
00023000
00032000
00203000
00320000
,
20030000
00000000
00000000
30200000
00000000
00000000
02300000
00000000
,
00000000
00000000
00000000
00000000
00000000
00020000
00030000
00002000
,
03000000
00000000
00000000
00003000
,
00010000
00001000
00010000
00001000
00010000
00001000
00011000
00000000
,
00020000
00000000
00000000
02030000
00000000
00000000
03200000
00000000
,
00320000
00230000
20300000
30010000
,
20000000
00000000
00000000
32000000
00000000
00000000
03200000
00000000
,
20300000
30200000
00320000
00031000
,
00000200
00000000
00000000
00000302
00000000
00000000
00000203
00000000
,
00002300
00003002
00000023
00000130
,
00000002
00000000
00000000
00000203
00000000
00000000
00002300
00000000
,
00003002
00000000
00000023
00000000
00002030
00003020
00000032
00000000
,
00002003
00000000
00000000
00003002
00000000
00000000
00000203
00000000
,
00001300
00010000
01000000
10000000
,
00020000
00000000
00000000
20030000
00000000
00000000
30200000
00000000
,
01300000
00010000
20000000
30200000
,
02300000
00000000
00000000
03200000
00000000
00000000
00302000
00000000
,
00013000
00000000
00001000
00000000
00100000
00002000
00013000
00000020
,
00001030
00000100
00010000
00001000
,
00010000
00001000
00100000
00000000
00010000
10000000
01000000
00000000
,
10000000
01000000
10000000
01000000
00010000
01000000
00020000
00000000
,
00031000
00000100
00001000
00000100
00000001
00000100
00000002
00000000
,
00000013
00001000
00000010
00001000
00010000
00001000
00020000
00000000
,
00130000
10000000
00100000
10000000
00010000
10000000
00020000
00000000
,
20030000
01000000
00000000
01000000
00000000
00100000
30000000
01000000
,
00002000
00010000
00000000
00010000
00000000
00000100
00003000
00010000
,
00001000
00010000
00000010
00001000
00000100
00010000
00001000
00000000
,
00100000
00010000
01000000
00001000
00010000
00000010
00001000
00000000
,
00022000
00000000
00000000
00033000
;

//--------------- dance-double - Fred-104 ----------------
#NOTES:
     dance-double:
     Fred-104:
     Hard:
     14:
     :
00000000
00000000
00000000
00000000
,
00000000
00000000
00000000
00000000
,
00000000
00000000
00000000
00000000
,
00000000
00000000
00000000
00000000
,
00000000
00000000
00000000
00000000
,
00000000
00000000
00000000
00000000
,
00020000
00000000
00000000
00032000
00000000
00000000
00023000
00000000
,
00000000
01000000
00000100
01030000
,
00001000
00010000
00000100
00001000
00000010
00000100
00000001
00001000
,
00000010
00010000
00000010
00000000
00010000
00001000
00010000
00000000
00001000
00100000
00001000
00100000
00020000
00000000
00000000
00000000
,
02030000
00100000
03100000
10000000
01000000
00100000
00001000
00010000
,
00001000
00010000
00001000
00010000
00002000
00000000
00013000
00000100
00020000
00000000
00032000
00000000
00003020
00000000
00000032
00000000
,
00002003
00000000
00003002
00000000
00001003
00000200
00000300
00001000
00000020
00000030
00000100
00000002
00000003
00000100
00000020
00000000
,
00001030
00000000
00000010
00000000
00000100
00000000
00000001
00000010
00000100
00000000
00010000
00001000
00020000
00000000
00000000
00000000
,
00031000
00100000
00001000
00000000
00100000
00000000
00010000
00000000
10000000
00100000
10000000
00000000
00010000
01000000
00010000
01000000
,
00100000
10000000
00100000
00000000
10000000
01000000
10000000
00000000
01000000
00000000
00100000
00000000
00001000
00010000
00001000
00010000
,
00001000
00000000
00010000
00000000
00000100
00000000
00010000
00001000
00000000
00010000
00000100
00000000
00001000
00000010
00000000
00000100
,
00000001
00000010
00001000
00010000
02000000
23000000
00020000
30030000
,
10000000
01000000
00000000
01000000
00100000
00000000
00100000
00010000
00000000
00010000
10000000
00000000
00100000
00000000
01000000
00000000
,
00010000
00100000
00000000
00100000
01000000
00000000
01000000
00100000
00000000
00100000
00010000
00000000
00001000
00000000
00010000
00000100
,
00001000
00000100
00000000
00000100
00000010
00000000
00000010
00000100
00000000
00000100
00001000
00000000
00000001
00000000
00000100
00000000
,
00000010
00001000
00000000
00001000
00000001
00000000
00000001
00000010
00000000
00000010
00000100
00000000
00000010
00000000
00000001
00000000
,
00001000
00000001
00000000
00000100
00000001
00000000
00001000
00000010
00000000
00010000
00001000
00000000
00100000
00000000
00010000
00000000
,
01000000
00100000
00000000
10000000
00010000
00000000
10000000
01000000
00000000
00100000
00001000
00000000
00010000
00000000
00001000
01000000
,
00001000
00010000
00000000
00000100
00010000
00000000
00001000
00010000
00000000
00000100
00001000
00000000
00000010
00000000
00000100
00000000
,
00000001
00000000
00002000
00003020
00001030
00000100
00000010
00000001
00000000
00000000
00001001
00000000
00000001
00001000
00000001
00001000
,
00000002
00000000
00000000
00000203
00000000
00000000
00002300
00000000
,
00000000
00000000
00000000
00000000
,
00023000
00000000
00000000
02030000
00000000
00000000
23000000
00000000
,
00000000
00000000
00000000
00000000
,
30200000
00000000
00000000
00320000
00000000
00000000
00032000
00000000
,
00000000
00000000
00000000
00000000
,
00003020
00000000
00000000
00000032
00000000
00000000
00002003
00000000
,
00000000
00000000
00000000
00000000
00000000
00003002
00000203
00002300
,
00023000
00000000
00000000
00032000
00000000
00000000
02003000
00000000
,
03002000
00000000
00010000
00000000
00000010
00000000
00203000
00302000
,
00023000
00000000
00030000
00000020
00000000
00000000
00002030
00000000
,
00003200
00000000
00020300
00000000
00032000
00023000
02030000
23000000
,
30020000
01030000
00100000
20000000
31000000
00100000
00002000
00013000
,
00000010
00001000
00000001
00000100
00000010
00000200
00001300
00000200
,
00000301
00001000
00000001
00001000
00000001
00001000
00000001
00001000
00000001
00001000
00000001
00001000
00000001
00001000
00000001
00001000
,
00000001
00001000
00000001
00001000
00000001
00001000
00000001
00001000
00000001
00001000
00000001
00001000
00000001
00000000
00000000
00000000
,
00002000
00013000
00000010
00002000
00003100
00010000
00002000
00103000
,
00020000
01000000
00030100
00011000
,
02000000
03001000
00010000
00002000
00103000
00001000
00020000
00030010
,
00002000
00000010
00103000
00011000
,
00000020
00001030
00000100
00020000
00031000
01000000
00020000
00130000
,
00002000
01000000
00003100
00011000
,
01000000
00010000
00100000
00001000
00010000
00000100
00001000
00000010
,
00020000
00000000
00100000
00000000
00030020
00020030
00032000
00203000
,
00320000
01030000
10000000
00020000
00130000
10000000
02000000
03010000
,
00002000
00000000
00100000
00000000
00003010
00000000
00001000
00000200
,
00000320
00000031
00000100
00002000
00003001
00000010
00002000
00013000
,
00002000
00000000
00000100
00000000
00003002
00000203
00002300
00023000
,
01030000
00100000
00001000
00010000
00000100
00001000
00000010
00010000
,
00002000
00000000
01000000
00000000
00003010
00020000
00030100
00002000
,
00003001
00000010
00000001
00000100
00000010
00001000
00000001
00000010
,
00000100
00001000
00000100
00001000
00000100
00001000
00000100
00001000
00000100
00001000
00000100
00001000
00000200
00000000
00002300
00000000
,
00003001
00000000
00000010
00000000
00000100
00000010
00000100
00000000
00000010
00000000
00000001
00000100
00000000
00000010
00001000
00000000
,
00000100
00010000
00000000
00001000
00000000
00010000
00001000
00000000
00100000
00000000
00010000
00000000
10000000
00010000
10000000
00000000
,
00010000
01000000
00010000
00000000
10000000
00100000
10000000
00000000
01000000
00000000
00100000
00001000
00000000
00010000
00001000
00000000
,
01000000
00001000
01000000
00000000
00001000
00010000
00001000
00000000
00010000
00000100
00010000
00000000
00000010
00001000
00000010
00000000
,
00000100
00000000
00000001
00000000
00000010
00000100
00000010
00000000
00000001
00000000
00000100
00000010
00000000
00001000
00000001
00000010
,
00000200
00000000
00000310
00000100
00002000
00000000
00003100
00001000
00020000
00000000
00031000
00010000
00200000
00000000
00310000
00100000
,
02000000
00000000
03100000
01000000
20000000
00000000
31000000
10000000
00020000
00000000
00130000
00010000
20000000
00000000
30010000
00000000
,
01000000
00100000
01000000
00100000
01000000
00100000
01000000
00100000
01000000
00100000
01000000
00100000
01000000
00100000
01000000
00000000
,
20020000
00000000
00000000
00000000
,
30030000
00000000
00000000
00000000
;
