#VERSION:0.83;
#TITLE:怪物;
#ARTIST:Remixed by Nhato feat. ricono;
#TITLETRANSLIT:Kaibutsu;
#GENRE:IIDX EDITION;
#BANNER:Kaibutsu.png;
#BACKGROUND:Kaibutsu-bg.png;
#CDTITLE:./CDTitles/bm IIDX 29 CastHour.png;
#MUSIC:Kaibutsu.ogg;
#SAMPLESTART:46.2;
#SAMPLELENGTH:15;
#BPMS:0=170;
#BGSTAGE:29;

//--------------- dance-single - Fred-104 ----------------
#NOTEDATA:;
#STEPSTYPE:dance-single;
#DESCRIPTION:Fred-104;
#DIFFICULTY:Beginner;
#METER:1;
#CREDIT:Fred-104;
#NOTES:
0000
0000
0000
0000
,
0000
0000
0000
0000
,
0000
0000
0000
0000
,
0000
0000
0000
0000
,
0000
0000
0000
0000
,
1000
0000
0000
0000
,
0000
0000
0000
0000
,
0001
0000
0000
0000
,
0000
0000
0000
0000
,
1000
0000
0000
0000
,
0000
0000
0000
0000
,
0001
0000
0000
0000
,
0000
0000
0000
0000
,
1000
0000
0000
0000
,
0000
0000
0000
0000
,
0001
0000
0000
0000
,
1000
0000
0000
0000
,
0100
0000
0000
0000
,
0000
0000
0000
0000
,
0010
0000
0000
0000
,
0000
0000
0000
0000
,
0001
0000
0000
0000
,
0000
0000
0000
0000
,
1000
0000
0000
0000
,
0001
0000
0000
0000
,
1000
0000
0000
0000
,
0001
0000
0000
0000
,
1000
0000
0000
0000
,
0001
0000
0000
0000
,
0001
0000
0000
0000
,
1000
0000
0000
0000
,
0001
0000
0000
0000
,
1000
0000
0000
0000
,
0001
0000
0000
0000
,
0010
0000
0000
0000
,
0100
0000
0000
0000
,
1000
0000
0000
0000
,
0001
0000
0000
0000
,
1000
0000
0000
0000
,
0001
0000
0000
0000
,
1000
0000
0000
0000
,
0001
0000
0000
0000
,
0000
0000
0000
0000
,
1000
0000
0000
0000
,
0000
0000
0000
0000
,
0001
0000
0000
0000
,
1000
0000
0000
0000
,
0001
0000
0000
0000
,
0000
0000
0000
0000
,
1000
0000
0000
0000
,
0000
0000
0000
0000
,
0001
0000
0000
0000
,
0000
0000
0000
0000
,
0010
0000
0000
0000
,
0000
0000
0000
0000
,
0100
0000
0000
0000
,
1000
0000
0000
0000
,
0001
0000
0000
0000
,
1000
0000
0000
0000
,
0001
0000
0000
0000
,
1000
0000
0000
0000
,
0001
0000
0000
0000
,
1000
0000
0000
0000
,
0001
0000
0000
0000
,
1000
0000
0000
0000
,
0001
0000
0000
0000
,
1000
0000
0000
0000
,
0001
0000
0000
0000
,
1000
0000
0000
0000
,
0001
0000
0000
0000
,
0001
0000
0000
0000
,
1000
0000
0000
0000
,
1000
0000
0000
0000
,
0010
0000
0000
0000
,
0010
0000
0000
0000
,
0100
0000
0000
0000
,
0100
0000
0000
0000
,
0001
0000
0000
0000
,
1000
0000
0000
0000
,
0001
0000
0000
0000
,
0001
0000
0000
0000
,
1000
0000
0000
0000
,
1000
0000
0000
0000
,
0001
0000
0000
0000
,
1000
0000
0000
0000
,
0100
0000
0000
0000
;

//--------------- dance-single - Fred-104 ----------------
#NOTEDATA:;
#STEPSTYPE:dance-single;
#DESCRIPTION:Fred-104;
#DIFFICULTY:Easy;
#METER:4;
#CREDIT:Fred-104;
#NOTES:
0000
0000
0000
0000
,
0000
0000
0000
0000
,
0000
0000
0000
0000
,
0000
0000
0000
0000
,
0000
0000
0000
0000
,
0002
0000
0000
0000
,
0003
0000
0000
0000
,
1000
0000
0001
0000
,
2000
0000
3000
0000
,
0001
0000
0010
0000
,
0100
0100
0100
0000
,
1000
0000
0001
0000
,
0100
0100
0100
0000
,
0010
0000
1000
0000
,
0001
0001
0001
0000
,
1000
0000
0001
0000
,
0100
0100
0100
0000
,
0001
0000
1000
0000
,
0100
0100
0010
0000
,
0001
0000
1000
0000
,
0010
0010
0100
0000
,
0010
0000
1000
0000
,
0001
0001
0010
0000
,
0100
0000
1000
0000
,
0001
1000
0001
1000
,
1001
0000
0001
0000
,
1000
0000
0100
0100
,
0010
0000
0001
0000
,
1000
1000
0100
1000
,
0001
0000
0100
0000
,
1000
0000
0010
0000
,
0001
0000
1000
0001
,
2002
0000
3003
0000
,
2000
0000
0000
3000
0000
0000
2000
0000
,
0000
3000
0000
0000
2000
0000
3000
0000
,
0002
0000
0000
0003
0000
0000
0002
0000
,
0000
0003
0000
0000
0002
0000
0003
0000
,
0200
0300
0020
0030
,
0200
0300
0002
0003
,
1000
0100
0020
0030
,
0001
0100
0020
0030
,
1000
0000
0001
0000
,
0010
0000
0100
0000
,
1000
0000
0001
0000
,
0100
0100
0100
0000
,
0001
0000
0100
0000
,
1000
0000
0010
0000
,
0001
1000
0002
0003
,
0100
0100
0100
0000
,
0001
1000
0200
0300
,
0010
0100
1000
0000
,
0001
1000
0020
0030
,
0100
0001
1000
0000
,
0100
0000
0010
0000
,
0001
1000
1001
0000
,
2000
0000
3000
0000
,
0002
0003
0020
0030
,
0200
0300
2000
3000
,
0002
0003
2000
3000
,
0020
0030
0200
0300
,
0002
0003
2000
3000
,
0200
0300
0020
0030
,
0002
0003
2000
3000
,
0001
0000
0010
0000
,
0100
0100
1000
0000
,
0001
1000
0001
0000
,
0100
0000
0010
0000
,
0100
0000
0001
0000
,
1000
0000
2002
3003
,
0001
0000
1000
0000
,
0010
0000
0100
0100
,
0001
0000
1000
0000
,
0100
0000
0010
0010
,
0001
0000
1000
0000
,
0001
0000
0100
0100
,
0010
0000
0100
0000
,
0001
0000
1000
0001
,
1000
0000
0100
0000
,
0010
0000
0001
0001
,
0010
0000
0100
0000
,
0010
0000
0001
0001
,
1000
0000
0010
0000
,
0100
0000
0001
0001
,
1000
0000
0001
0000
,
1000
0000
0001
0000
,
1001
0000
0000
0000
;

//--------------- dance-single - Fred-104 ----------------
#NOTEDATA:;
#STEPSTYPE:dance-single;
#DESCRIPTION:Fred-104;
#DIFFICULTY:Medium;
#METER:8;
#CREDIT:Fred-104;
#NOTES:
0000
0000
0000
0000
,
0000
0000
0000
0000
,
0000
0000
0000
0000
,
0000
0000
0000
0000
,
0000
0000
0000
0000
,
1000
0000
0001
0000
,
0010
0000
0100
0000
,
1000
0001
0100
0010
,
0100
0010
0100
0010
0100
0000
0000
0000
,
0001
0010
1000
0100
,
0001
0000
0000
1000
0000
0100
0000
0010
,
0000
0100
1000
0001
,
1000
0000
0000
0001
0000
0000
0100
0000
,
0001
0010
1000
0100
,
0001
0000
0000
1000
0000
0100
0000
0010
,
0000
2002
0000
0000
0000
0000
3003
0000
,
0001
0010
0100
0000
1000
0010
0100
0000
,
0001
0010
0100
0010
,
0001
0000
1000
0010
0000
0100
0000
0101
,
0000
0001
0100
0010
,
1000
0001
0000
0010
0000
0100
1000
0000
,
0001
0000
0100
0000
1000
0000
0100
0010
,
0000
1000
0000
0001
0000
0010
0000
0100
,
0000
1001
0000
0000
0001
0000
1000
0010
,
0100
0110
1010
0101
,
1001
0000
0001
0000
,
1000
0100
0001
0010
,
1000
0000
0001
0000
,
0010
0010
0100
0000
,
1000
0000
0001
0000
,
0100
0010
0100
0000
,
0001
1000
0001
1000
,
2002
0000
3003
0000
,
0001
0000
0000
0010
0000
0000
0100
0000
,
0000
1000
0000
0000
0010
0000
0100
0000
,
0010
0000
0000
1000
0000
0000
0001
0000
,
0000
1000
0000
0000
0100
0000
0010
0000
,
0002
0023
0032
0023
,
0230
0320
0230
2300
,
3002
2003
3002
0003
,
0100
0010
0100
0000
,
0001
0010
0100
0000
,
1000
0010
0100
0000
,
0010
1000
0001
0000
,
1000
0100
0010
0001
,
2000
3100
2000
3100
,
0002
0013
0002
0013
,
1000
0000
0000
0000
0001
0000
0000
0000
0010
0000
0000
0010
0000
0000
0010
0000
,
0000
0100
0010
0001
,
1000
0000
0000
0000
0010
0000
0000
0000
0100
0000
0000
0100
0000
0000
0100
0000
,
0000
0010
1000
0001
,
0010
0000
0000
0000
0100
0000
0000
0000
1000
0000
0000
1000
0000
0000
1000
0000
,
0000
0001
0100
0010
,
0100
0001
1000
0100
,
0010
0001
1001
0000
,
2000
0000
0000
3001
2000
0000
3000
0000
,
0002
0023
0230
0300
,
2000
3002
0203
0300
,
0020
2030
3002
0003
,
2000
3200
0320
0030
,
0002
2003
3002
0003
,
0200
0320
0230
0300
,
0002
2003
3002
0013
,
0100
0000
1000
0000
,
0010
0010
0100
0010
,
1000
1000
0100
0010
,
0010
0001
1000
0001
,
0200
0320
0230
0302
,
1003
0100
0220
0330
,
0001
0000
0000
0001
0000
0000
0001
0000
0010
0000
0000
0000
1000
0000
0000
0000
,
1000
0000
0000
1000
0000
0000
1000
0000
0010
0000
0000
0000
0001
0000
0000
0000
,
1000
0000
0000
1000
0000
0000
1000
0000
0100
0000
0000
0000
0001
0000
0000
0000
,
0001
0000
0000
0001
0000
0000
0001
0000
0100
0000
0000
0000
1000
0000
0000
0000
,
0001
0000
0000
0001
0000
0000
0001
0000
0100
0000
0000
0000
0010
0000
0000
0000
,
0100
0000
0000
0100
0000
0000
0100
0000
0001
0000
0000
0000
1000
0000
0000
0000
,
0100
0000
0000
0100
0000
0000
0100
0000
0010
0000
0000
0000
0001
0000
0000
0000
,
1000
0000
0000
1000
0000
0000
1000
0000
0001
0000
0000
0000
0100
0000
0000
0000
,
0010
0000
0000
0010
0000
0000
0010
0000
0100
0000
0001
0000
0100
0000
0000
0000
,
0001
0000
0000
0001
0000
0000
0001
0000
1000
0000
0100
0000
1000
0000
0000
0000
,
0001
0000
0000
0001
0000
0000
0001
0000
0010
0000
0100
0000
1000
0000
0000
0000
,
0001
0000
0000
0001
0000
0000
0001
0000
1000
0000
0001
0000
0100
0000
0000
0000
,
0010
0000
0000
0010
0000
0000
0010
0000
0100
0000
0001
0000
1000
0000
0000
0000
,
0100
0000
0000
0100
0000
0000
0100
0000
0010
0000
0001
0000
0010
0000
0000
0000
,
0011
0100
1010
0100
,
0002
2003
3200
0310
,
1001
0000
0000
0000
;

//--------------- dance-single - Fred-104 ----------------
#NOTEDATA:;
#STEPSTYPE:dance-single;
#DESCRIPTION:Fred-104;
#DIFFICULTY:Hard;
#METER:12;
#CREDIT:Fred-104;
#NOTES:
0000
0000
0000
0000
,
0000
0000
0000
0000
,
0000
0000
0000
0000
,
0000
0000
0000
0000
,
0000
0000
0000
0000
,
1000
0000
0000
1000
0000
0000
1000
0000
0100
0000
0010
0000
0001
0000
0000
0000
,
1000
0000
0000
1000
0000
0000
1000
0000
0001
0000
0100
0000
0010
0000
0000
0000
,
0100
0001
0100
0001
1000
0100
0010
0001
,
1000
0000
0000
0001
0000
0000
0100
0000
0020
0000
0000
0000
0030
0000
1000
0000
,
0001
0010
0100
1000
0001
1000
0010
1000
,
0001
0100
0010
2000
0000
3002
0000
0023
,
0000
0130
1000
0100
0010
0100
1000
0001
,
0100
0010
1000
0002
0000
0013
0100
1000
,
0001
0100
0010
0100
0001
0100
0010
1000
,
0001
0010
0100
2000
0000
3001
1000
0020
,
0000
0230
0000
0000
0000
0300
0000
0001
,
1000
0001
0010
0100
1000
0001
1001
0000
,
1000
0100
0010
0100
1000
0100
0010
0100
,
1000
0001
0100
0001
1000
0100
0000
0110
,
0000
0010
0001
1000
0001
0010
0001
1000
,
0001
0200
0000
0320
0000
1030
0001
0010
,
0100
1000
0001
1000
0100
1000
0001
2000
,
0000
3010
0100
0002
0000
1003
0100
0020
,
0000
0032
1000
0000
1000
0000
1003
0001
,
1000
1100
0101
0110
,
1001
0000
0000
0001
0010
0100
0000
1000
,
0010
0100
0001
1000
0000
0100
0010
0001
,
1000
0000
1001
0000
0001
1000
0000
0010
,
0100
0001
0010
0100
0000
1000
0001
1000
,
0010
0000
0110
0000
0100
0001
1000
0001
,
0000
0010
0100
0010
0001
1000
0010
0100
,
0001
1000
0100
0010
0001
1000
0010
0100
,
0010
1000
0100
0010
0001
0000
1001
0000
,
1000
0100
0000
0001
0100
0000
1000
0100
,
0000
0001
0100
1000
0100
0010
0001
0000
,
1000
0010
0000
0001
0010
0000
1000
0010
,
0000
0001
0010
1000
0010
0100
0001
1000
,
0001
0101
1000
1100
,
0011
1010
0101
1100
,
0110
0000
1001
0000
0001
0100
0010
1000
,
0000
0100
0010
0001
0000
0100
0010
0000
,
1010
0000
1000
0100
0010
0001
0000
1000
,
0100
0010
0001
0100
0000
0010
1000
0100
,
0000
0010
0001
0100
0000
0010
1000
0100
,
0000
0010
0001
0000
1000
0001
0010
0100
,
2100
3010
0102
0013
,
1200
0310
0201
0310
,
1001
0000
0000
0000
0001
0000
0010
0000
0100
0000
0000
1000
0000
0000
0002
0000
,
0000
0000
0103
0000
0010
0000
1000
0000
0001
0000
0010
0000
0100
1000
0100
0000
,
1000
0000
0000
0000
0010
0000
1000
0000
0001
0000
0000
0100
0000
0000
0020
0000
,
0000
0000
1030
0000
0001
0000
0010
0000
0100
0000
0010
0000
0001
1000
0001
0000
,
0100
0000
0000
0000
0010
0000
1000
0000
0100
0000
0000
0010
0000
0000
0200
0000
,
0000
0000
1300
0000
0001
0000
0100
0000
0010
0000
1000
0000
0001
0010
0001
0000
,
0020
0000
0000
0230
0000
0000
0320
0000
0031
0000
0000
0000
1001
0000
0000
0000
,
0002
0000
0000
2003
0000
0000
3002
0000
0103
0000
0010
0000
1000
0000
0001
0000
,
1000
0000
0100
0010
0001
0100
0010
1000
,
0002
0203
0320
2030
,
3002
0023
0230
2300
,
3002
0203
2300
3200
,
0302
2003
3200
0302
,
0203
0320
0032
2003
,
3020
0000
0230
0000
0301
0001
2000
0000
,
3100
0010
0001
1000
1000
0001
0100
0010
,
1000
0100
0000
0001
0100
1000
0000
0001
,
0100
1000
0100
0001
0000
1000
0100
0010
,
0000
0001
0100
0010
0000
1000
0100
0010
,
0000
0001
2000
0000
3001
1000
0010
0100
,
0001
0011
1000
1010
,
1100
0101
1010
1001
,
1000
0000
0000
1000
0000
0000
1000
0000
0100
0000
0010
0000
0001
0000
1000
0000
,
0010
0000
0000
0010
0000
0000
0010
0000
0100
0000
0001
0000
1000
0000
0001
0000
,
0010
0000
0000
0010
0000
0000
0010
0000
0100
0000
1000
0000
0001
0000
0100
0000
,
0010
0000
0000
0010
0000
0000
0010
0000
1000
0000
0001
0000
0010
0000
0100
0000
,
1000
0000
0000
0001
0000
0000
0100
0000
0010
0000
1000
0000
0001
0000
0010
0000
,
0100
0000
0000
1000
0000
0000
0010
0000
0100
0000
0010
0000
1000
0000
0001
0000
,
0010
0000
0000
0100
0000
0000
0010
0000
0100
0000
1000
0000
0010
0000
0100
0000
,
0001
0000
0000
1000
0000
0000
0100
0000
0010
0000
0100
0000
1000
0000
0001
0000
,
0100
0000
0000
0010
0000
0000
1000
0000
0001
0000
0010
0000
1000
0000
0010
0000
,
0001
0000
0000
1000
0000
0000
0001
0000
0100
0000
0010
0000
1000
0000
0010
0000
,
0100
0000
0000
0001
0000
0000
1000
0000
0100
0000
0001
0000
0100
0000
0010
0000
,
0001
0000
0000
1000
0000
0000
0010
0000
0100
0000
0001
0000
1000
0000
0100
0000
,
1000
0000
0000
0100
0000
0000
0001
0000
0100
0000
1000
0000
0100
0000
0010
0000
,
0001
1000
0010
0100
0001
1000
0100
0010
,
0011
1000
0110
1001
,
1000
0000
0100
0000
0001
0000
0100
0000
1000
0000
0001
1000
0001
0000
0100
0000
,
0110
0000
0000
0000
;

//--------------- dance-single - Fred-104† ----------------
#NOTEDATA:;
#STEPSTYPE:dance-single;
#DESCRIPTION:Fred-104†;
#DIFFICULTY:Challenge;
#METER:15;
#CREDIT:Fred-104†;
#NOTES:
0000
0000
0000
0000
,
0000
0000
0000
0000
,
0000
0000
0000
0000
,
0000
0000
0000
0000
,
0000
0000
0000
0000
,
0001
0000
1000
0100
0000
1000
0100
0000
0010
0000
0001
0000
1000
0000
0010
0000
,
0100
0000
0001
1000
0000
0001
1000
0000
0100
0000
0010
0000
0001
0000
1000
0000
,
0001
0010
0001
0000
0010
0100
0010
0000
0100
1000
0100
0000
1000
0001
1000
0000
,
0001
1000
0001
1000
0001
1000
0001
1000
0001
0000
0000
0000
0000
0000
1000
0000
,
0001
0100
1000
0100
0001
0100
1000
0100
,
0001
1000
0100
0010
0000
0011
0000
1001
,
0000
0001
0010
1000
0010
0001
0010
1000
,
0010
0001
1000
0100
0000
0010
0001
1000
,
0001
0100
0010
0001
0010
0100
1000
0100
,
0010
0100
0001
1000
0000
0100
0010
0001
,
0000
1001
0000
0000
0000
0000
0000
1000
,
0001
0100
0001
0100
0010
0000
1000
0100
1000
0100
0010
0000
0001
1000
0001
1000
,
0001
0100
1000
0100
0010
0001
0010
1000
,
0001
1000
0100
0010
0001
1000
0000
1001
,
0000
0001
0010
1000
0010
0100
0001
0100
,
1000
0000
0100
0000
0010
0000
0001
0000
0000
0000
0001
1000
0100
0000
0010
0000
,
0001
1000
0100
0001
0100
0010
1000
0010
,
0000
0000
0001
1000
0100
0000
0010
0000
0001
0000
0100
0000
0010
0000
0100
0000
,
0000
0000
0001
0000
1000
0000
1000
0000
0100
0000
0100
0000
0010
0001
0010
0000
,
0011
1010
1100
0101
,
1001
0000
0000
0001
0010
1000
0000
0001
,
0100
1000
0001
0010
0000
0100
0010
0001
,
0100
0000
0110
0000
0010
1000
0000
0001
,
0010
1000
0010
0001
0000
1000
0010
0001
,
0010
0000
0110
0000
1000
0100
0001
0100
,
0000
0010
0001
1000
0010
0100
0001
1000
,
0100
0000
0010
0001
0010
0000
0100
1000
0100
0000
1000
0000
0001
0100
0001
0000
,
0100
0010
0100
0010
0100
0010
0100
0010
0100
0000
0000
0000
1001
0000
0000
0000
,
0001
0010
1000
0001
0100
1000
0001
0100
,
1000
0001
0010
1000
0100
0010
0001
0000
,
1000
0100
0001
1000
0010
0001
1000
0010
,
0001
1000
0100
0001
0010
0100
0010
0001
,
0011
0000
0000
0001
0010
0000
0000
0010
1000
0000
0000
1000
0100
0000
0000
0100
,
0001
0000
0000
0001
0100
0000
0000
0100
1000
0000
0000
1000
0010
0000
0000
0010
,
0001
0000
0000
0001
1000
0000
0000
1000
0100
0000
0010
0000
0001
0000
1000
0000
,
0010
0100
1000
0001
0010
0100
0001
1000
,
1001
0000
0000
0000
0001
0000
0010
0100
0010
0000
0001
0000
1000
0000
0010
0100
,
0010
0000
1000
0000
0001
0010
0001
0000
1000
0000
0100
0000
0010
0001
0010
0000
,
0001
0000
0100
0000
0010
1000
0010
0000
0100
0000
0001
0000
0010
0100
0010
0000
,
0001
0000
0100
0010
0100
0000
0001
0000
0010
0100
0010
0000
0001
1000
0001
0000
,
1001
0000
0000
0001
0010
0000
0000
0010
1000
0000
0000
1000
0100
0000
0000
0100
,
0001
0000
0000
0001
0010
0000
0000
0010
0100
0000
0000
0100
1000
0001
1000
0000
,
1100
0000
0000
0000
0001
0000
1000
0000
0100
0000
0010
0001
0000
1000
0001
0000
,
0000
0000
0100
0000
0001
0000
1000
0000
0001
0000
0010
0000
0100
0010
0001
0000
,
1000
0000
0000
0000
0010
0000
0100
0000
0010
0000
1000
0100
0000
0010
0001
0000
,
0000
0000
1000
0000
0010
0000
0100
0000
0010
0000
1000
0000
0001
0010
0100
1000
,
0001
0000
0000
0000
0100
0000
0001
0000
1000
0000
0100
0001
0000
0100
1000
0000
,
0000
0000
0001
0000
0100
0000
1000
0000
0100
0000
0001
0000
0010
0100
0010
0000
,
0001
0000
1000
0010
0000
0100
0001
0000
0010
0000
0100
0000
1000
0000
0000
0000
,
0010
0000
0100
0001
0000
0100
0010
0000
1000
0000
0001
0000
0010
0100
0010
0100
,
0010
0001
0100
0010
0001
1000
0100
0010
,
1000
0000
0100
0010
0100
0000
0001
0000
1000
0000
0010
0100
0010
0000
0001
0000
,
1000
0000
0100
0001
0100
0000
1000
0000
0001
0000
0100
1000
0100
0000
0001
0000
,
1000
0000
0010
0100
0010
0000
0001
0000
1000
0000
0100
0010
0100
0000
0001
0000
,
1000
0000
0010
0001
0010
0000
1000
0000
0001
0000
0010
1000
0010
0000
0001
0000
,
1000
0000
0100
0010
0001
0000
1000
0000
0001
0000
0100
0010
1000
0000
0001
0000
,
0010
0000
0100
1000
0001
0000
0100
0000
0010
0000
1000
0001
0010
0000
0100
0000
,
1000
0000
0001
0000
0100
0000
1000
0100
0010
0000
0100
0000
0010
0000
0010
0000
,
1000
0100
1000
0000
0001
0000
0100
0000
0010
1000
0010
0000
0100
0000
0001
1000
,
0001
0000
0010
0000
0100
1000
0100
0000
0010
0000
0001
0000
1000
0010
1000
0000
,
0001
0000
0010
0000
0100
1000
0100
0000
0010
0000
0001
0000
0100
0010
0100
0000
,
0001
0000
0010
0100
0010
0000
0001
0000
0100
0001
0100
0000
0010
1000
0010
0000
,
1001
0000
0000
1000
0100
0000
0000
0100
0001
0000
0000
0001
0010
0000
0000
0010
,
1000
0000
0000
1000
0100
0000
0000
0100
0010
0000
0000
0010
0001
0000
0000
0000
,
1000
0000
0010
0100
0000
0010
0100
0000
0001
0000
0010
0000
0100
0000
1000
0000
,
0001
0000
1000
0100
0000
1000
0100
0000
0010
0000
0100
0000
1000
0000
0010
0000
,
0100
0000
0010
1000
0000
0010
1000
0000
0100
0000
0010
0000
0001
0000
1000
0000
,
0001
0000
0010
0001
0000
0010
0001
0000
1000
0000
0010
0000
0100
0000
0001
1000
,
0001
0000
1000
0100
0000
0010
0001
0000
1000
0000
0010
0000
0100
0000
0010
0000
,
1000
0000
0001
0010
0000
0100
1000
0000
0001
0000
0100
0000
0001
0000
1000
0000
,
0100
0000
0010
0100
0000
1000
0001
0000
0100
0000
0010
0000
1000
0000
0010
0000
,
0100
0000
0001
1000
0000
0100
1000
0000
0001
0100
0001
0100
0010
1000
0010
1000
,
0001
0000
1000
0001
0000
0010
0100
0000
1000
0000
0001
0100
0001
0000
1000
0000
,
0100
0000
0010
0001
0000
1000
0010
0000
0100
0000
0010
1000
0010
0000
0100
0000
,
0001
0000
1000
0001
0000
0100
0010
0000
0100
0000
0001
0010
0001
0000
1000
0000
,
0100
0000
0010
0100
0000
1000
0001
0000
0100
0010
1000
0010
0100
0000
0001
0000
,
1000
1000
0100
0100
0010
0010
0001
0001
,
1000
0100
1000
0100
1000
0100
1000
0100
0010
0001
0010
0001
0010
0001
0010
0001
,
0010
0000
0000
0010
0000
0000
0010
0000
0001
0000
1000
0000
0010
0000
0100
0000
,
0001
0000
0100
0010
0100
0000
0001
1000
0010
1000
0001
0010
0100
1000
0001
0000
,
1001
0000
0000
0000
;

//--------------- dance-double - Fred-104 ----------------
#NOTEDATA:;
#STEPSTYPE:dance-double;
#DESCRIPTION:Fred-104;
#DIFFICULTY:Easy;
#METER:4;
#CREDIT:Fred-104;
#NOTES:
00000000
00000000
00000000
00000000
,
00000000
00000000
00000000
00000000
,
00000000
00000000
00000000
00000000
,
00000000
00000000
00000000
00000000
,
00000000
00000000
00000000
00000000
,
00002000
00000000
00000000
00000000
,
00003000
00000000
00000000
00000000
,
00010000
00000000
00001000
00000000
,
00020000
00000000
00030000
00000000
,
00001000
00000000
00010000
00000000
,
00100000
00000000
01000000
00000000
,
00010000
00000000
10000000
00000000
,
00010000
00000000
10000000
00000000
,
01000000
00000000
00100000
00000000
,
00001000
00000000
00010000
00000000
,
00001000
00000000
00010000
00000000
,
00001000
00000000
00000000
00000000
,
00010000
00000000
00001000
00000000
,
00000100
00000000
00000001
00000000
,
00001000
00000000
00000001
00000000
,
00000010
00000000
00000100
00000000
,
00000010
00000000
00000100
00000000
,
00010000
00000000
00001000
00000000
,
00010000
00000000
00000000
00000000
,
00001000
00001000
00001000
00001000
,
00011000
00000000
00001000
00000000
,
01000000
00000000
00010000
01000000
,
00010000
00000000
10000000
00000000
,
01000000
00100000
01000000
00100000
,
00001000
00000000
00010000
00000000
,
00000100
00000000
00010000
00000000
,
00001000
00000000
00010000
00001000
,
00022000
00000000
00033000
00000000
,
00002000
00000000
00000000
00003000
00000000
00000000
00002000
00000000
,
00000000
00003000
00000000
00000000
00002000
00000000
00003000
00000000
,
00020000
00000000
00000000
00030000
00000000
00000000
00020000
00000000
,
00000000
00030000
00000000
00000000
00020000
00000000
00030000
00000000
,
00002000
00003000
00020000
00030000
,
00002000
00003000
02000000
03000000
,
00010000
10000000
00020000
00030000
,
10000000
01000000
00200000
00300000
,
00001000
00000000
00010000
00000000
,
00001000
00000000
00000010
00000000
,
00000001
00000000
00001000
00000000
,
00000100
00000100
00000100
00000000
,
00000010
00000000
00000001
00000000
,
00001000
00000000
00000010
00000000
,
00010000
00001000
00020000
00030000
,
00001000
00000000
00001000
00000000
,
01000000
00010000
02000000
03000000
,
00100000
00000000
00100000
00000000
,
10000000
01000000
00200000
00300000
,
00001000
00000000
00010000
00000000
,
00001000
00000000
00010000
00000000
,
00001000
01000000
01100000
00000000
,
20000000
00000000
30000000
00000000
,
02000000
03000000
00200000
00300000
,
00002000
00003000
00020000
00030000
,
00002000
00003000
00020000
00030000
,
00000200
00000300
00020000
00030000
,
00000200
00000300
00002000
00003000
,
00000200
00000300
00000020
00000030
,
00000002
00000003
00002000
00003000
,
00000001
00000000
00000100
00000000
,
00001000
00010000
01000000
00000000
,
10000000
00010000
10000000
00000000
,
00100000
00000000
00010000
00000000
,
00001000
00000000
00000010
00000000
,
00000001
00000000
00002002
00003003
,
00000001
00000000
00000100
00000000
,
00001000
00000000
00010000
00001000
,
00010000
00000000
00001000
00000000
,
00010000
00000000
00100000
01000000
,
00100000
00000000
10000000
00000000
,
01000000
00000000
00100000
00010000
,
00100000
00000000
00001000
00000000
,
00010000
00000000
00000010
00010000
,
00000010
00000000
00001000
00000000
,
00000001
00000000
00000010
00000100
,
00000010
00000000
00000001
00000000
,
00001000
00000000
00000010
00010000
,
00000010
00000000
00010000
00000000
,
00001000
00000000
01000000
00010000
,
10000000
00000000
01000000
00000000
,
00100000
00000000
00001000
00000000
,
00011000
00000000
00000000
00000000
;

//--------------- dance-double - Fred-104 ----------------
#NOTEDATA:;
#STEPSTYPE:dance-double;
#DESCRIPTION:Fred-104;
#DIFFICULTY:Medium;
#METER:8;
#CREDIT:Fred-104;
#NOTES:
00000000
00000000
00000000
00000000
,
00000000
00000000
00000000
00000000
,
00000000
00000000
00000000
00000000
,
00000000
00000000
00000000
00000000
,
00000000
00000000
00000000
00000000
,
00010000
00000000
00001000
00000000
,
00010000
00000000
00000100
00000000
,
00000010
00000001
00000100
00001000
,
00010000
00001000
00011000
00000000
,
00001000
00010000
00100000
10000000
,
01000000
00000000
00000000
00100000
00000000
00100000
00000000
00100000
,
00000000
00001000
00010000
00000010
,
00010000
00000000
00000000
00001000
00000000
00000000
00010000
00000000
,
00001000
00000100
00000001
00000100
,
00000001
00000000
00000000
00000010
00000000
00000100
00000000
00010000
,
00000000
00022000
00000000
00000000
00000000
00000000
00033000
00000000
,
00001000
00010000
01000000
10000000
,
00010000
01000000
10000000
01000000
,
00010000
00000000
10000000
01000000
00000000
00100000
00000000
00110000
,
00000000
00001000
00010000
00000010
,
00010000
00001000
00000000
00010000
00000000
00000010
00001000
00000000
,
00000010
00000000
00000100
00000000
00000001
00000000
00000100
00000001
,
00000000
00001000
00000000
00000001
00000000
00000010
00000000
00000100
,
00000000
00011000
00000000
00000000
00001000
00000000
01000000
00010000
,
01000000
10100000
11000000
01010000
,
00011000
00000000
00001000
00000000
,
00010000
00001000
00000010
00000100
,
00010000
00000000
00001000
00000000
,
00010000
00001000
00000100
00000000
,
00000001
00000000
00000010
00000000
,
00000100
00010000
00001000
00000000
,
00010000
00100000
10000000
01000000
,
02200000
00000000
03300000
00000000
,
10000000
00000000
00000000
01000000
00000000
00000000
00010000
00000000
,
00000000
00001000
00000000
00000000
00000010
00000000
00000001
00000000
,
00001000
00000000
00000000
00000001
00000000
00000000
00000100
00000000
,
00000000
00000010
00000000
00000000
00000100
00000000
00001000
00000000
,
00020000
00032000
00023000
00230000
,
02300000
03020000
20030000
32000000
,
03020000
00032000
00023000
00030000
,
00001000
00010000
00001000
00000000
,
00010000
00001000
00000100
00000001
,
00001000
00000100
00000010
00000001
,
00000100
00001000
00010000
00001000
,
00010000
01000000
10000000
00000000
,
20000000
30100000
20000000
30100000
,
00020000
00031000
00020000
00031000
,
00010000
00000000
00000000
00000000
00000100
00000000
00000000
00000000
00010000
00000000
00000000
00010000
00000000
00000000
00010000
00000000
,
00000000
00001000
00100000
00010000
,
10000000
00000000
00000000
00000000
00010000
00000000
00000000
00000000
01000000
00000000
00000000
01000000
00000000
00000000
01000000
00000000
,
00000000
00100000
10000000
01000000
,
00100000
00000000
00000000
00000000
00001000
00000000
00000000
00000000
00010000
00000000
00000000
00010000
00000000
00000000
00010000
00000000
,
00000000
00001000
01000000
00100000
,
01000000
00001000
00010000
00000100
,
00000010
00000100
00001001
00000000
,
00002000
00000000
00000000
00003001
00000200
00000000
00000300
00000000
,
00000002
00000203
00002300
00003000
,
00020000
02030000
23000000
30000000
,
20000000
30200000
00320000
00030000
,
00002000
00003020
00000032
00000003
,
00000002
00000203
00002300
00003000
,
00020000
00230000
20300000
30000000
,
02000000
03200000
00302000
00013000
,
00001000
00000000
00010000
00000000
,
00001000
00000100
00000010
00001000
,
00000100
00000010
00000001
00001000
,
00000010
00010000
00001000
00010000
,
00002000
00023000
00230000
02300000
,
03010000
10000000
20020000
30030000
,
10000000
00000000
00000000
10000000
00000000
00000000
01000000
00000000
00010000
00000000
00000000
00000000
00001000
00000000
00000000
00000000
,
00010000
00000000
00000000
00001000
00000000
00000000
00000100
00000000
00000010
00000000
00000000
00000000
00001000
00000000
00000000
00000000
,
00000001
00000000
00000000
00000001
00000000
00000000
00000100
00000000
00001000
00000000
00000000
00000000
00010000
00000000
00000000
00000000
,
00001000
00000000
00000000
00010000
00000000
00000000
01000000
00000000
10000000
00000000
00000000
00000000
00100000
00000000
00000000
00000000
,
10000000
00000000
00000000
10000000
00000000
00000000
00100000
00000000
00010000
00000000
00000000
00000000
00001000
00000000
00000000
00000000
,
00010000
00000000
00000000
00001000
00000000
00000000
00000010
00000000
00000001
00000000
00000000
00000000
00000100
00000000
00000000
00000000
,
00000001
00000000
00000000
00000001
00000000
00000000
00000010
00000000
00001000
00000000
00000000
00000000
00010000
00000000
00000000
00000000
,
00001000
00000000
00000000
00010000
00000000
00000000
00100000
00000000
10000000
00000000
00000000
00000000
01000000
00000000
00000000
00000000
,
10000000
00000000
00000000
01000000
00000000
00000000
01000000
00000000
00100000
00000000
00001000
00000000
00010000
00000000
00000000
00000000
,
00001000
00000000
00000000
00010000
00000000
00000000
00010000
00000000
00000010
00000000
00001000
00000000
00000010
00000000
00000000
00000000
,
00001000
00000000
00000000
00001000
00000000
00000000
00000001
00000000
00000010
00000000
00000100
00000000
00010000
00000000
00000000
00000000
,
00001000
00000000
00000000
00010000
00000000
00000000
00001000
00000000
00010000
00000000
00100000
00000000
01000000
00000000
00000000
00000000
,
00010000
00000000
00000000
00010000
00000000
00000000
00010000
00000000
10000000
00000000
01000000
00000000
00010000
00000000
00000000
00000000
,
01000000
00000000
00000000
01000000
00000000
00000000
01000000
00000000
10000000
00000000
00010000
00000000
01000000
00000000
00000000
00000000
,
01100000
00001000
00011000
00010000
,
00000200
00002300
00003002
00000103
,
00001001
00000000
00000000
00000000
;

//--------------- dance-double - Fred-104 ----------------
#NOTEDATA:;
#STEPSTYPE:dance-double;
#DESCRIPTION:Fred-104;
#DIFFICULTY:Hard;
#METER:12;
#CREDIT:Fred-104;
#NOTES:
00000000
00000000
00000000
00000000
,
00000000
00000000
00000000
00000000
,
00000000
00000000
00000000
00000000
,
00000000
00000000
00000000
00000000
,
00000000
00000000
00000000
00000000
,
00001000
00000000
00000000
00001000
00000000
00000000
00001000
00000000
00010000
00000000
00000010
00000000
00001000
00000000
00000000
00000000
,
00000001
00000000
00000000
00000001
00000000
00000000
00000001
00000000
00000010
00000000
00001000
00000000
00010000
00000000
00000000
00000000
,
00001000
00010000
00001000
01000000
00010000
10000000
01000000
00100000
,
00001000
00000000
00000000
00010000
00000000
00000000
00000010
00000000
00002000
00000000
00000000
00000000
00003000
00000000
00000100
00000000
,
00010000
00001000
00010000
00000010
00001000
00000010
00000100
00000001
,
00001000
00000100
00000010
00000002
00000000
00001003
00000001
00000200
,
00000000
00000310
00000100
00001000
00010000
00100000
01000000
00100000
,
10000000
00010000
00100000
02000000
00000000
03100000
00001000
00010000
,
00001000
01000000
00001000
00010000
00001000
00100000
00001000
00010000
,
00001000
00000100
00000010
00002000
00000000
00003001
00000010
00000200
,
00000000
00020300
00000000
00000000
00000000
00030000
00000000
00001000
,
00100000
00000000
00001000
00000000
00010000
00000000
00001000
00000000
01000000
00000000
00010000
10000000
00010000
00000000
00000000
00000000
,
10000000
00100000
10000000
00010000
00100000
00001000
00010000
00001000
,
01000000
00001000
00010000
00000100
00000010
00000001
00001000
00000001
,
00000000
00001000
00000001
00001000
00000100
00010000
00000100
00001000
,
00000001
00000200
00000000
00002300
00000000
00013000
01000000
10000000
,
00010000
01000000
00010000
10000000
01000000
00100000
00001000
00020000
,
00000000
00031000
00000100
00000020
00000000
00001030
00000001
00000010
,
00000000
00000200
00000000
00000000
00010300
00000000
00010000
00001000
,
00010000
00011000
00010010
01001000
,
00011000
00000000
00000000
00001000
00010000
00100000
00000000
01000000
,
00010000
10000000
01000000
00100000
00000000
00001000
00010000
00001000
,
01000000
00000000
01100000
00000000
00100000
10000000
00000000
01000000
,
00100000
00001000
00010000
00001000
00000000
00000100
00000010
00001000
,
00000001
00000000
00001001
00000000
00001000
00000001
00000010
00001000
,
00000000
00010000
00100000
01000000
00000000
00100000
10000000
00010000
,
00100000
00000000
01000000
00100000
00001000
00010000
00000100
00000010
,
00000001
00000100
00001000
00010000
00001000
00000000
00011000
00000000
,
00001000
00010000
00000000
00100000
00010000
00000000
00001000
00010000
,
00000000
00100000
00010000
00001000
00010000
00000100
00010000
00000000
,
00001000
00010000
00000000
01000000
00010000
00000000
00001000
00010000
,
00000000
01000000
00010000
00001000
00010000
00000010
00010000
00001000
,
00010000
00011000
00000100
00001001
,
00000101
00001100
00011000
00110000
,
10100000
00000000
10010000
00000000
10000000
01000000
00100000
00001000
,
00000000
00010000
00000010
00001000
00000000
00000001
00000010
00000000
,
00001001
00000000
00000000
00000001
00000100
00001000
00000000
00010000
,
00001000
00010000
01000000
10000000
00000000
01000000
00100000
00001000
,
00000000
00010000
00100000
01000000
00000000
00001000
00010000
00100000
,
00000000
10000000
00010000
00000000
00100000
01000000
00010000
00001000
,
00021000
00030010
00012000
00103000
,
00021000
00030100
00012000
01003000
,
00011000
00000000
00000000
00000000
00010000
00000000
00000100
00000000
00000010
00000000
00000000
00000001
00000000
00000000
00002000
00000000
,
00000000
00000000
00003001
00000000
00000100
00000000
00000010
00000000
00000100
00000000
00001000
00000000
00010000
00001000
00010000
00000000
,
00001000
00000000
00000000
00000000
01000000
00000000
00001000
00000000
00010000
00000000
00000000
01000000
00000000
00000000
00200000
00000000
,
00000000
00000000
00310000
00000000
00100000
00000000
01000000
00000000
10000000
00000000
00010000
00000000
01000000
00100000
01000000
00000000
,
00010000
00000000
00000000
00000000
10000000
00000000
01000000
00000000
00010000
00000000
00000000
00001000
00000000
00000000
00000200
00000000
,
00000000
00000000
00000301
00000000
00001000
00000000
00000100
00000000
00000010
00000000
00000001
00000000
00001000
00000010
00001000
00000000
,
00000001
00000000
00000000
00000010
00000000
00000000
00001000
00000000
00010000
00000000
00000000
00000000
00011000
00000000
00000000
00000000
,
00001000
00000000
00000000
00010000
00000000
00000000
00100000
00000000
01000000
00000000
00010000
00000000
10000000
00000000
01000000
00000000
,
10000000
00000000
01000000
00100000
00001000
00010000
00000100
00000010
,
00000002
00000203
00002300
00023000
,
00230000
20300000
32000000
03020000
,
00032000
00003020
00000032
00000203
,
00002300
00023000
00230000
20300000
,
32000000
03020000
00032000
00003020
,
00000032
00000000
00000203
00000000
00001300
00010000
00002000
00000000
,
00013000
00001000
01000000
01000000
00010000
10000000
01000000
00100000
,
00001000
00010000
00000000
00001000
00000010
00000001
00000000
00000010
,
00000100
00001000
00000001
00000100
00000000
00001000
00010000
00100000
,
00000000
01000000
00100000
10000000
00000000
01000000
00100000
00001000
,
00000000
00010000
00002000
00000000
00013000
00001000
00000100
00000001
,
00000010
00000110
00010000
00011000
,
01001000
00010100
00101000
00010010
,
00010000
00000000
00000000
00010000
00000000
00000000
00010000
00000000
00001000
00000000
00100000
00000000
00010000
00000000
10000000
00000000
,
00100000
00000000
00000000
00100000
00000000
00000000
00100000
00000000
01000000
00000000
00010000
00000000
10000000
00000000
01000000
00000000
,
00100000
00000000
00000000
00100000
00000000
00000000
00100000
00000000
00001000
00000000
00010000
00000000
00001000
00000000
00000100
00000000
,
00000001
00000000
00000000
00000001
00000000
00000000
00000001
00000000
00000010
00000000
00000100
00000000
00001000
00000000
00000100
00000000
,
00010000
00000000
00000000
00001000
00000000
00000000
01000000
00000000
00010000
00000000
10000000
00000000
01000000
00000000
00100000
00000000
,
00001000
00000000
00000000
00010000
00000000
00000000
00001000
00000000
00000100
00000000
00000010
00000000
00001000
00000000
00000001
00000000
,
00000010
00000000
00000000
00000100
00000000
00000000
00010000
00000000
00001000
00000000
00010000
00000000
00000100
00000000
00000010
00000000
,
00000001
00000000
00000000
00001000
00000000
00000000
00000010
00000000
00000100
00000000
00001000
00000000
00010000
00000000
00001000
00000000
,
01000000
00000000
00000000
00010000
00000000
00000000
10000000
00000000
01000000
00000000
00010000
00000000
00001000
00000000
00010000
00000000
,
01000000
00000000
00000000
10000000
00000000
00000000
00010000
00000000
00100000
00000000
01000000
00000000
00100000
00000000
00001000
00000000
,
00010000
00000000
00000000
00001000
00000000
00000000
00000100
00000000
00000001
00000000
00001000
00000000
00000010
00000000
00010000
00000000
,
00001000
00000000
00000000
00010000
00000000
00000000
00100000
00000000
10000000
00000000
00100000
00000000
01000000
00000000
00010000
00000000
,
10000000
00000000
00000000
01000000
00000000
00000000
00100000
00000000
00001000
00000000
00010000
00000000
00000010
00000000
00001000
00000000
,
00000010
00000000
00000000
00010000
00000000
00000000
00001000
00000000
00010000
00000000
00000100
00000000
00001000
00000000
00000100
00000000
,
00000110
00000001
00001001
00001100
,
00000001
00000000
00000100
00000000
00001000
00000000
00010000
00000000
01000000
00000000
10000000
00010000
10000000
00000000
01000000
00000000
,
01100000
00000000
00000000
00000000
;

//--------------- dance-double - Fred-104† ----------------
#NOTEDATA:;
#STEPSTYPE:dance-double;
#DESCRIPTION:Fred-104†;
#DIFFICULTY:Challenge;
#METER:15;
#CREDIT:Fred-104†;
#NOTES:
00000000
00000000
00000000
00000000
,
00000000
00000000
00000000
00000000
,
00000000
00000000
00000000
00000000
,
00000000
00000000
00000000
00000000
,
00000000
00000000
00000000
00000000
,
00010000
00001000
00000000
00010000
00001000
00000000
00000010
00000000
00000100
00000000
00000010
00000000
00000001
00000000
00001000
00000000
,
00000001
00000100
00000000
00000001
00000100
00000000
00001000
00000000
00010000
00000000
01000000
00000000
00100000
00000000
00010000
00000000
,
01000000
10000000
00010000
00100000
01000000
00010000
10000000
01000000
,
00100000
00010000
00100000
00010000
00100000
00001000
00100000
00001000
00010000
00000000
00000000
00000000
00000000
00000000
00010000
00000000
,
00001000
00000100
00000010
00000100
00000001
00001000
00000100
00000010
,
00000001
00000100
00001000
00010000
00000000
01100000
00000000
00110000
,
00000000
10000000
01000000
00010000
00001000
00010000
01000000
10000000
,
00100000
00010000
00001000
00000100
00000000
00000010
00001000
00000001
,
00000010
00000100
00001000
00000010
00000100
00001000
00010000
00001000
,
00000010
00000001
00001000
00000100
00000000
00000010
00000001
00000100
,
00001000
00010000
00100000
10000000
00000000
01000000
01100000
00000000
,
00001000
00010000
00001000
00010000
00001000
00000000
00000100
00000010
00000100
00000010
00000100
00000000
00000001
00001000
00000001
00001000
,
00000001
00000100
00001000
00010000
00001000
00000100
00000010
00000100
,
00000001
00001000
00000100
00000010
00001000
00010000
01000000
10000000
,
00000000
00010000
01000000
10000000
01000000
00001000
00010000
00000100
,
00000001
00000000
00000100
00000000
00010000
00000000
00001000
00000000
00000000
00000000
00010000
00000010
00010000
00000000
00001000
00000000
,
00010000
00001000
00000010
00000100
00001000
00000010
00000100
00001000
,
00000000
00000000
00010000
00100000
10000000
00000000
00010000
00000000
00100000
00000000
01000000
00000000
10000000
00000000
01000000
00000000
,
00000000
00010000
00001000
00000100
00000001
00000010
00000001
00001000
,
00000011
00001100
01010000
10100000
,
10010000
00000000
00000000
10000000
01000000
00010000
00000000
00001000
,
00000100
00000000
00000010
00000000
00001000
00000000
00000001
00000000
00000000
00000000
00000010
00000100
00000010
00000000
00000001
00000000
,
00000100
00000000
00011000
00000000
00001000
00010000
00000000
00100000
,
10000000
00010000
00100000
10000000
00000000
00100000
00010000
10000000
,
00100000
00000000
00011000
00000000
00010000
00001000
00000100
00000001
,
00000000
00001000
00000100
00000010
00000001
00001000
00000010
00000100
,
00000001
00000000
00001000
00000100
00001000
00000000
00000001
00000100
00000001
00000000
00001000
00000000
00000100
00010000
00000100
00000000
,
00010000
00001000
00010000
00001000
00010000
00001000
00010000
00001000
00010000
00000000
00000000
00000000
00011000
00000000
00000000
00000000
,
00001000
00010000
00100000
10000000
01000000
00010000
00001000
00000010
,
00000001
00000100
00001000
00010000
00001000
00010000
00011000
00000000
,
00010000
00001000
00000010
00000001
00000100
00001000
00010000
00100000
,
10000000
00000000
01000000
00000000
00010000
00000000
00001000
00000000
00010000
00000000
00000010
00001000
00000010
00000000
00001000
00000000
,
00001001
00000000
00000000
00000001
00000100
00000000
00000000
00000100
00001000
00000000
00000000
00001000
00010000
00000000
00000000
00010000
,
00100000
00000000
00000000
00100000
01000000
00000000
00000000
01000000
00010000
00000000
00000000
00010000
00100000
00000000
00000000
00100000
,
01000000
00000000
00000000
01000000
10000000
00000000
00000000
10000000
00100000
00000000
00010000
00000000
00001000
00000000
00010000
00000000
,
00001000
00000000
00000100
00000000
00000010
00000000
00001000
00000000
00000001
00000000
00000010
00000100
00000010
00000000
00000000
00000000
,
00001001
00000000
00000000
00000000
00000001
00000000
00000010
00000100
00000010
00000000
00000001
00000000
00001000
00000000
00000010
00010000
,
00000010
00000000
00010000
00000000
00001000
00100000
00001000
00000000
00010000
00000000
00100000
00000000
10000000
00010000
10000000
00000000
,
01000000
00000000
00100000
00000000
00001000
00010000
00001000
00000000
00000100
00000000
00000010
00000000
00001000
00000001
00001000
00000000
,
00000001
00000000
00000010
00000100
00000010
00000000
00001000
00000000
00010000
00001000
00010000
00000000
00001000
01000000
00001000
00000000
,
01001000
00000000
00000000
01000000
00010000
00000000
00000000
00010000
10000000
00000000
00000000
10000000
01000000
00000000
00000000
01000000
,
00010000
00000000
00000000
00010000
00001000
00000000
00000000
00001000
00000100
00000000
00000000
00000100
00000001
00001000
00000001
00000000
,
00001001
00000000
00000000
00000000
00000001
00000000
00000100
00000000
00000001
00000000
00000010
00000100
00000000
00001000
00000100
00000000
,
00000000
00000000
00010000
00000000
00001000
00000000
00010000
00000000
00100000
00000000
01000000
00000000
00010000
10000000
00100000
00000000
,
01000000
00000000
00000000
00000000
00010000
00000000
10000000
00000000
01000000
00000000
00010000
01000000
00000000
00100000
00010000
00000000
,
00000000
00000000
10000000
00000000
01000000
00000000
00010000
00000000
00001000
00000000
00000100
00000000
00000001
00001000
00000001
00001000
,
00000100
00000000
00000000
00000000
00000010
00000000
00000001
00000000
00001000
00000000
00000010
00000100
00000000
00000010
00001000
00000000
,
00000000
00000000
00000001
00000000
00000100
00000000
00000010
00000000
00000100
00000000
00001000
00000000
00010000
00001000
00010000
00000000
,
01000000
00000000
00000000
00100000
00000000
00000000
00010000
00000000
01000000
00000000
00100000
10000000
00100000
00000000
00100000
00000000
,
01000000
00000000
00000000
00001000
00000000
00000000
00010000
00000000
00001000
00000000
00000010
00000000
00000001
00001000
00000001
00001000
,
00000001
00000100
00000010
00000001
00001000
00000100
00000010
00001000
,
00000001
00000000
00000100
00000010
00000100
00000000
00001000
00000000
00010000
00000000
00100000
01000000
00100000
00000000
10000000
00000000
,
00010000
00000000
10000000
00100000
10000000
00000000
00010000
00000000
00100000
00000000
00001000
00010000
00001000
00000000
01000000
00000000
,
00010000
00000000
10000000
00100000
10000000
00000000
00100000
00000000
00010000
00000000
00001000
00010000
00001000
00000000
00000100
00000000
,
00000001
00000000
00000010
00000100
00000010
00000000
00001000
00000000
00010000
00000000
01000000
00100000
01000000
00000000
10000000
00000000
,
00010000
00000000
01000000
00100000
01000000
00000000
00001000
00000000
00010000
00000000
00000100
00000010
00000100
00000000
00001000
00000000
,
00000001
00000000
00000100
00000001
00000100
00000000
00001000
00000000
00010000
00000000
01000000
10000000
01000000
00000000
00100000
00000000
,
00001000
00000000
00010000
00000000
00000100
00000000
00000010
00000001
00000010
00000000
00000100
00000000
00000100
00000000
00000100
00000000
,
00001000
00000001
00001000
00000000
00000001
00000000
00000010
00000000
00000100
00001000
00000100
00000000
00010000
00000000
00001000
01000000
,
00001000
00000000
00010000
00000000
00001000
00100000
00001000
00000000
00100000
00000000
00010000
00000000
00100000
01000000
00100000
00000000
,
01000000
00000000
10000000
00000000
00100000
00010000
00100000
00000000
00010000
00000000
00001000
00000000
00000100
00000001
00000100
00000000
,
00000010
00000000
00001000
00000100
00001000
00000000
00000001
00000000
00000100
00001000
00000100
00000000
00001000
00010000
00001000
00000000
,
00011000
00000000
00000000
00001000
00010000
00000000
00000000
00010000
00100000
00000000
00000000
00100000
10000000
00000000
00000000
10000000
,
01000000
00000000
00000000
01000000
00010000
00000000
00000000
00010000
00001000
00000000
00000000
00001000
00010000
00000000
00000000
00000000
,
00001000
00010000
00000000
00001000
00010000
00000000
00000010
00000000
00001000
00000000
00000001
00000000
00000010
00000000
00000100
00000000
,
00000010
00000001
00000000
00000010
00000001
00000000
00000100
00000000
00001000
00000000
00010000
00000000
00100000
00000000
01000000
00000000
,
00100000
10000000
00000000
00100000
10000000
00000000
01000000
00000000
00100000
00000000
00010000
00000000
01000000
00000000
00100000
00000000
,
00010000
00001000
00000000
00010000
00001000
00000000
00000100
00000000
00000010
00000000
00001000
00000000
00000100
00000000
00001000
00000001
,
00001000
00000100
00000000
00000010
00000001
00000000
00001000
00000000
00000010
00000000
00000100
00000000
00001000
00000000
00010000
00000000
,
00001000
01000000
00000000
00001000
00010000
00000000
00001000
00000000
00010000
00000000
00100000
00000000
10000000
00000000
00010000
00000000
,
00100000
01000000
00000000
00100000
01000000
00000000
10000000
00000000
00100000
00000000
00010000
00000000
00001000
00000000
00010000
00000000
,
00001000
00010000
00000000
00001000
00010000
00000000
00000100
00000000
00001000
00000100
00001000
00000100
00000010
00000001
00000010
00000001
,
00001000
00000001
00000000
00000010
00000100
00000000
00010000
00000000
00001000
00000000
00010000
00000000
00100000
01000000
00100000
00000000
,
10000000
01000000
00000000
00100000
00001000
00000000
00010000
00000000
00001000
00000000
01000000
00000000
00001000
00010000
00001000
00000000
,
00010000
00001000
00000000
00000100
00000001
00000000
00001000
00000000
00000100
00000000
00000010
00000000
00000100
00001000
00000100
00000000
,
00000010
00000001
00000000
00001000
00000001
00000000
00000100
00000000
00001000
00000000
00010000
00000000
00001000
01000000
00001000
01000000
,
00001000
00001000
00010000
00010000
01000000
01000000
10000000
10000000
,
00100000
10000000
00100000
10000000
00100000
10000000
00100000
10000000
00010000
00100000
00010000
00100000
00010000
00100000
00010000
00100000
,
00001000
00000000
00000000
00001000
00000000
00000000
00001000
00000000
00010000
00000000
00001000
00000000
00000100
00000000
00000001
00000000
,
00001000
00000000
00000100
00000010
00000100
00000000
00000010
00000001
00001000
00000001
00000100
00000010
00001000
00000001
00000010
00000000
,
00000110
00000000
00000000
00000000
;
