#TITLE:カゲロウ;
#ARTIST:Des-ROW・組スペシアルr;
#TITLETRANSLIT:Kagerou;
#ARTISTTRANSLIT:Des-ROW・UNITED special+r;
#GENRE:RINSEI;
#BANNER:Kagerou.png;
#BACKGROUND:Kagerou-bg.png;
#CDTITLE:./CDTitles/pnm 11.png;
#MUSIC:Kagerou.ogg;
#SAMPLESTART:49.595;
#SAMPLELENGTH:15;
#BPMS:0=164.5;
#BGSTAGE:4;

//--------------- dance-single - Fred-104 ----------------
#NOTES:
     dance-single:
     Fred-104:
     Beginner:
     4:
     :
0000
0000
0000
0000
,
0000
0000
0000
0000
,
0000
0000
0000
0000
,
0000
0000
0000
0000
,
0000
0000
0000
0000
,
0000
0000
0000
0000
,
2000
0000
3000
0000
,
0002
0000
0003
0000
,
0200
0000
0300
0000
,
0020
0000
0030
0000
,
1000
0000
0010
0000
,
1000
0000
0000
0000
,
0100
0000
1000
0000
,
0001
0000
0000
0000
,
0100
0000
0010
0000
,
0100
0000
0000
0000
,
0001
0000
1000
0000
,
1001
0000
0000
0000
,
1000
0000
0010
0000
,
1000
0000
0100
0100
,
0100
0000
1000
0000
,
0001
0000
1000
1000
,
1000
0000
0001
0000
,
1000
0000
0010
0010
,
0010
0000
0100
0000
,
0001
0000
1000
0000
,
0001
0000
1000
0000
,
0010
0000
1000
1000
,
1000
0000
0001
0000
,
0010
0000
0001
0001
,
0001
0000
0100
0000
,
0010
0000
0100
0100
,
0100
0000
0001
0000
,
1001
0000
0000
0000
,
2000
0000
0000
3000
,
0200
0000
0000
0300
,
0020
0000
0000
0030
,
0002
0000
0000
0003
,
2000
0000
0000
3000
,
0020
0000
0000
0030
,
0200
0000
0000
0300
,
0002
0000
0000
0003
,
1000
0000
0010
0000
,
1000
0000
0100
0100
,
0100
0000
1000
0000
,
0001
0000
1000
1000
,
1000
0000
0010
0000
,
0100
0000
0001
0001
,
0001
0000
1000
0000
,
0001
0000
1000
0000
,
0002
0000
0000
0003
,
0200
0000
0000
0300
,
0020
0000
0000
0030
,
2000
0000
0000
3000
,
0002
0003
0020
0030
,
0200
0300
2000
3000
,
0002
0003
0200
0300
,
0020
0030
2000
3000
,
0001
0001
0001
0000
,
1000
0000
0010
0000
,
1000
1000
1000
0000
,
0100
0000
1000
0000
,
0001
0001
0001
0000
,
1000
0000
0001
0000
,
1000
1000
1000
0000
,
0001
0000
1000
0000
,
2002
0000
0000
0000
,
0000
0000
3003
0000
,
0001
0000
1000
0000
,
0001
0000
0100
0000
,
0010
0000
1000
0000
,
0001
0000
1000
0000
,
0100
0000
1000
0000
,
0010
0000
0100
0000
,
0001
0000
1000
0000
,
1001
0000
0000
0000
,
0001
0001
0001
0000
,
0100
0100
0100
0000
,
0010
0010
0010
0000
,
1000
1000
1000
0000
,
0001
0001
0001
0000
,
1000
1000
1000
1000
,
0001
0001
0001
0001
,
1001
0000
0000
0000
;

//--------------- dance-single - Fred-104 ----------------
#NOTES:
     dance-single:
     Fred-104:
     Easy:
     8:
     :
0000
0000
0000
0000
,
0000
0000
0000
0000
,
0000
0000
0000
0000
,
0000
0000
0000
0000
,
0000
0000
0000
0000
,
0000
0000
0000
0000
,
1000
0010
2000
0000
,
3001
0010
0002
0000
,
1003
0100
1000
0010
,
0100
0001
0100
0000
0001
1000
0001
0000
,
2000
0000
3001
1000
,
0200
0000
1300
0010
,
0200
0000
0301
1000
,
0002
0000
2003
0000
,
3001
0000
0010
0000
0001
0100
0010
0000
,
0100
0010
1000
0100
,
1000
0000
0010
0000
1000
0001
1000
0000
,
2002
0000
0000
3003
,
0001
0010
0001
0100
,
0001
0010
0002
0003
,
1000
0100
1000
0010
,
1000
0100
2000
3000
,
0001
1000
0010
1000
,
0001
1000
0200
0300
,
1000
0001
0010
0001
,
1000
0001
0200
0300
,
0001
0000
0010
0000
0001
0100
0001
0000
,
0010
0100
1000
0000
,
0010
0000
1000
0000
0100
1000
0100
0000
,
1000
0001
0100
0000
,
0001
0000
0010
0000
0100
0010
0100
0000
,
0010
0001
1000
0000
,
0001
0100
1000
0010
,
0001
1000
0001
1000
0000
0000
1001
0000
,
2000
3200
0320
0032
,
0203
0320
0230
0302
,
0023
2030
3200
0302
,
2003
3001
2002
3003
,
0002
2003
3200
0320
,
0032
0203
2300
3020
,
0032
0203
0320
2030
,
3002
2003
3001
1001
,
1000
0000
0100
0000
1000
1000
0010
0000
,
0100
0000
0010
0100
0010
0000
0100
0000
,
0001
0000
0010
0000
0001
0001
0100
0000
,
0001
0000
0010
0100
1000
0000
0001
0000
,
1000
1000
0100
0000
1000
0010
1000
0000
,
0001
0001
0010
0000
0001
0100
0001
0000
,
0100
0010
0100
0001
,
1000
0100
0110
1001
,
0001
0100
1000
0000
,
0001
0010
1000
0000
,
0001
0010
1000
0000
,
0001
0100
1000
0000
,
0001
1000
0010
1000
,
0100
1000
0010
0000
,
0100
0001
0010
0001
,
1000
0001
1001
0000
,
1000
0000
1000
0000
0010
0100
0010
0000
,
1000
0000
1000
0000
0100
0010
0100
0000
,
0010
0001
1000
0000
,
0001
1000
0100
1000
,
0010
1000
0010
0000
1000
0000
0001
0000
,
0100
0010
0100
0000
0001
0000
1000
0000
,
0001
1000
1001
0000
,
0001
0100
1000
0100
,
0002
0000
0000
0000
,
0000
0000
0003
0000
,
1001
0001
0100
0010
,
0100
0001
0100
0000
0001
0000
0000
0000
,
1000
0010
1000
0100
,
0010
0000
0001
0000
0100
0010
0100
0000
,
0001
0010
0001
1000
,
0010
1000
0100
0000
,
1000
0100
0010
0001
,
2000
3020
0230
0302
,
1003
0000
0000
0100
0000
0000
1000
0000
,
0001
0000
0000
0100
0000
0000
0001
0000
,
0100
0000
0010
0000
0100
0010
0100
0000
,
0001
0000
0100
0000
,
1000
0000
0010
0000
,
0001
0010
0001
0000
1000
0100
1000
0000
,
0001
0100
0001
0000
1000
0010
1000
0000
,
1001
0000
0000
0000
;

//--------------- dance-single - Fred-104 ----------------
#NOTES:
     dance-single:
     Fred-104:
     Medium:
     11:
     :
0000
0000
0000
0000
,
0000
0000
0000
0000
,
0000
0000
0000
0000
,
0000
0000
0000
0000
,
0000
0000
0000
0000
,
0000
0000
0000
0000
,
0001
1000
0200
0000
,
0301
0100
2000
0000
,
3001
0000
1000
0000
0010
1000
0010
0000
,
1000
0100
1000
0010
0100
0001
1000
0000
,
0001
0010
0001
0100
0000
0001
0010
0001
,
0000
1000
0010
0100
0000
0010
1000
0000
,
0010
1000
0100
1000
0010
1000
0100
0010
,
0000
0001
1000
0001
0100
0010
1000
0000
,
0001
0010
1000
0000
0001
0100
1000
0000
,
0001
0010
0100
0010
0000
0001
1000
0000
,
0010
0100
0001
0100
0010
1000
0100
0010
,
0002
0000
2000
3003
,
1000
0010
1000
0200
0000
0310
0001
2000
,
0000
3010
1000
0200
0000
0310
0002
0000
,
0103
0010
0100
0002
0000
0013
0100
2000
,
0000
3001
0100
0020
0000
0130
0001
0000
,
1000
0100
1000
0100
1000
0100
1000
0100
,
0010
0001
0010
0001
1000
0001
1000
0000
,
1010
0000
0101
0000
0001
0100
0010
0100
,
0001
0010
0100
1000
0010
0100
0001
0000
,
1000
0100
0001
0200
0000
1300
0010
0100
,
0001
0100
0010
0002
0000
0013
1000
0001
,
1000
0100
0010
0000
0001
0100
0010
0000
,
1000
0010
0100
0010
1000
0001
0010
0000
,
0100
1000
0010
0000
0100
0001
0010
0000
,
0100
1000
0010
1000
0100
0010
0001
0000
,
0011
1010
1100
0101
,
0001
0100
0010
1000
0000
0000
1001
0000
,
0001
0000
0001
0010
0000
0010
0100
0000
0100
1000
0000
1000
,
0010
0000
0010
0100
0000
0100
0001
0000
0001
1000
0000
1000
,
0100
0000
0100
0010
0000
0010
0001
0000
0001
1000
0000
1000
,
0001
1000
0001
0100
0010
0100
0001
0000
0000
0000
0000
0000
,
1000
0000
1000
0100
0000
0100
0010
0000
0010
0001
0000
0001
,
0100
0000
0100
0001
0000
0001
0010
0000
0010
0000
0000
0000
,
0001
0000
0001
0100
0000
0100
0010
0000
0010
1000
0000
1000
,
0001
0100
0001
1000
0100
1000
0001
0000
0000
1001
0000
0000
,
1000
0010
1000
0001
0010
0001
0100
0000
,
0001
0010
0100
1000
0001
1000
0010
0000
,
1000
0100
1000
0001
0010
0100
1000
0001
,
1000
0010
0100
0010
0100
0001
0200
0000
,
0301
0010
1000
0000
0001
0100
1000
0000
,
0001
1000
0010
1000
0002
0000
2003
0000
,
3100
1000
0100
0010
0100
1000
0100
0010
,
0001
0100
0010
1000
0001
0000
1001
0000
,
2000
0000
3100
0000
0001
0100
0001
0000
,
0100
1000
0100
0000
1000
0010
1000
0000
,
0002
0000
0013
0000
1000
0010
1000
0000
,
0010
0001
0010
0000
0001
0100
0001
0000
,
1001
0000
1000
0000
0010
1000
0100
0000
,
0010
0000
0001
0000
0100
0001
0010
0000
,
0001
1000
0100
0010
0001
0100
0010
2000
,
0000
3200
0000
2300
0000
3001
1001
0000
,
1000
1000
0100
0000
0001
0001
0100
0000
,
1000
1000
0010
0000
0001
0001
0010
0000
,
1000
0001
0100
0000
0001
1000
0010
1000
,
0000
1100
0000
0110
0000
0001
1000
0000
,
0001
0010
0100
0000
0010
0100
1000
0000
,
0001
0010
0100
0010
0001
1000
0001
0000
,
1000
0001
0100
0000
0001
0010
0100
2000
,
0000
3020
0000
0230
0000
0301
1000
0100
,
0020
0000
0000
0000
,
0000
0000
0030
0000
,
0002
0000
0203
0000
0301
0010
0001
2000
,
0000
3100
0001
0100
1000
0010
0100
0000
,
0020
0000
2030
0000
3100
1000
0001
2000
,
0000
3100
0010
1000
0010
0001
1000
0000
,
0001
1000
0010
0000
1000
0001
0010
0001
,
0000
0100
0010
1000
0100
0010
0100
0000
,
1000
0100
1000
0100
0010
0001
0010
0001
,
2000
3020
0032
0203
,
1300
0010
0010
1000
0010
0010
1000
0000
,
0011
0000
1001
0000
0001
0010
0001
0200
,
0000
0301
0010
0100
0010
0001
2000
0000
,
3001
0100
0001
0010
0000
0001
0100
0010
,
0100
0001
0010
0000
0100
1000
0001
0000
,
1000
0000
1000
0100
0000
0000
0010
0000
0010
0001
0000
0000
,
0100
0000
0010
0000
0100
0010
0100
0000
,
1001
0000
0000
0000
;

//--------------- dance-single - Fred-104 ----------------
#NOTES:
     dance-single:
     Fred-104:
     Hard:
     16:
     :
0000
0000
0000
0000
,
0000
0000
0000
0000
,
0000
0000
0000
0000
,
0000
0000
0000
0000
,
0000
0000
0000
0000
,
0000
0000
0000
0000
,
2100
3020
0230
0300
,
0102
0023
0230
0300
,
1001
0000
0110
0000
1000
0100
0010
0001
,
1000
0000
0010
0000
0100
0000
0010
0000
1000
0000
0001
0010
0001
1000
0010
1000
,
0001
0000
1000
0000
0100
0000
1000
0010
0100
0010
1000
0000
0100
0000
0010
0000
,
0001
0000
0010
0001
0010
0000
0001
1000
0010
0100
0001
0000
1000
0000
0100
1000
,
0100
0000
0010
0000
0100
0000
1000
0010
0100
0010
1000
0000
0100
0010
0001
0010
,
0100
0010
0001
0000
0010
0000
0001
1000
0010
1000
0001
0000
1000
0000
0100
1000
,
0010
0000
1000
0010
0100
0000
0010
1000
0100
1000
0010
0000
0100
0000
0001
1000
,
0001
0010
0001
0010
0100
0000
1000
0010
1000
0010
0100
0000
0001
0000
1000
0001
,
1000
0000
0100
0000
0010
0000
0001
0100
0001
0010
0001
0100
0001
0010
0100
1000
,
0200
0000
0000
0000
0000
0300
1001
0000
,
1000
0100
0010
0002
0000
0103
0010
0002
,
0000
0013
1000
0002
0000
1003
0001
0100
,
0001
0010
0100
0002
0000
0103
0010
0002
,
0000
1003
0100
0020
0000
0031
1000
0010
,
0100
0000
0010
0000
1000
0000
0001
0000
0010
0000
0100
0000
0010
0000
0001
0010
,
0001
0000
0100
0000
0001
0000
1000
0010
0100
0010
1000
0000
0100
0000
0000
0000
,
1100
0000
0000
0000
0101
0000
0000
0000
1000
0010
1000
0000
0001
0100
0001
0000
,
1000
0100
1000
0000
0001
0010
0001
0000
0010
0100
0010
0100
1000
0001
1000
0001
,
1000
0010
1000
1200
0000
1300
0010
0100
,
0001
1000
0001
0201
0000
0310
0100
0001
,
1000
0100
0010
1000
0001
0100
0010
0001
,
1000
0100
0001
1000
0010
0001
1000
0001
,
1000
0000
0100
0000
0120
0000
0000
0000
0031
0000
0100
0000
0001
0000
0010
0001
,
0010
0000
0100
1000
0100
0000
0010
0001
0010
0001
0010
0000
0001
0000
1000
0000
,
1100
0101
0011
1010
,
1000
0100
0010
0001
0000
0000
1001
0000
,
1000
0010
1000
0100
0010
0100
0010
0001
1000
0010
0100
0001
,
0010
0100
1000
0010
0100
0001
0100
0001
1000
0010
1000
0100
,
0010
0001
0100
0001
0010
0100
1000
0001
0100
1000
0100
0001
,
1000
0100
0010
1000
0010
0100
1000
0000
0000
0000
0000
0000
,
0001
0010
0100
0010
0001
1000
0100
1000
0010
0100
0001
1000
,
0001
0010
1000
0001
0100
1000
0001
1000
0001
0000
0000
0000
,
0001
0010
0100
1000
0100
0010
0001
1000
0010
0100
0001
1000
,
0001
0100
0010
0001
0010
0100
0001
0000
0000
1001
0000
0000
,
1000
0000
0100
1000
0010
0000
1000
0010
0100
0001
0010
0000
0001
0000
0100
0000
,
0001
0000
0010
0001
0010
0000
0100
1000
0100
1000
0010
0000
1000
0000
0001
0100
,
0001
0000
0010
0100
0010
0000
0100
1000
0100
1000
0100
0000
1000
0001
0010
0001
,
1000
0000
0100
0000
0010
0000
0001
1000
0100
1000
0010
0000
0200
0000
0000
0000
,
0301
0000
0001
0000
1000
0000
1000
0000
0010
1000
0100
0000
1000
0001
0010
0000
,
0001
0000
1000
0001
0010
0000
0100
1000
0100
1000
0100
0000
2000
0000
0000
0000
,
3001
0000
0100
0000
1000
0000
0100
0000
0001
0010
0001
0000
1000
0010
1000
0000
,
0001
0000
1000
0000
0010
1000
0010
0000
0110
0000
0000
0000
1001
0000
0000
0000
,
2000
0000
3100
0010
0100
1000
0001
0100
,
0010
0001
0010
1000
0001
0100
1000
0100
,
0010
1000
0001
1000
0100
0010
1000
0020
,
0130
2000
3001
2000
3100
0010
0011
0000
,
1002
0000
0000
0000
0103
0000
1000
0100
0001
0000
0010
0000
0100
0000
0010
0000
,
1000
0001
0100
0010
0001
0100
0010
1000
,
0001
0000
0010
1000
0010
0000
0001
0000
1000
0000
0100
0001
0100
0000
2000
0000
,
3001
0101
0100
0110
0010
1010
1001
0000
,
0001
0000
0000
0000
0010
0000
0000
0000
0100
0000
0000
0000
2000
0000
0000
0000
0000
0000
0000
0000
0000
0000
0000
0000
3001
0000
0000
0010
0000
0000
0001
0000
0000
0000
0000
0000
0100
0000
0000
0010
0000
0000
0100
0000
0000
0000
0000
0000
,
0001
0000
0100
0001
0010
0000
0100
1000
0010
0000
1000
0000
0002
0000
0000
0000
,
1003
0100
2001
0000
3002
0100
0103
0110
,
0000
1010
0000
0101
0000
0110
1001
0000
,
1000
0010
1000
0000
0200
0000
0000
0000
0310
0001
0010
0000
0001
0000
0100
0010
,
1000
0000
0000
0000
0000
0000
0001
0000
0000
0010
0000
0000
0100
0000
0000
0000
0000
0000
1000
0000
0000
0010
0000
0000
0100
0000
0000
0000
0000
0000
0001
0000
1000
0000
0001
0000
1000
0000
0000
0000
0000
0000
0100
0000
0000
0000
0000
0000
,
0010
0000
0001
0000
0012
0000
0000
0000
2003
0000
0000
0000
3001
1000
0100
0000
,
0000
2100
3000
0102
0003
2100
3001
1000
,
0200
0000
0010
0000
,
0010
0000
0310
0000
,
1001
0000
1000
0010
1000
0000
0100
1000
0100
0000
0010
0100
0010
0000
0002
0000
,
0000
0000
1003
0001
0010
0000
0001
0000
0100
0010
0100
0010
0100
0000
0001
0000
,
1000
0000
0001
0010
0001
0000
0100
0010
0100
0000
0001
0100
0001
0000
1000
0000
,
0100
0010
0100
0000
1000
0000
0010
0100
0001
0100
0001
0000
1000
0010
0100
0010
,
1000
0010
0100
0001
0100
0000
0001
0010
0001
0100
0001
0000
1000
0000
0100
0000
,
1000
0000
0100
0000
0010
0000
0001
1000
0100
0010
0001
1000
0100
0010
0001
0000
,
1000
0010
1000
0010
0100
0001
0100
0001
1000
0100
1000
0100
0010
0001
0010
0001
,
2000
3200
0302
0023
,
1030
0100
0100
1000
0100
0100
1100
0000
,
0101
0000
1100
0000
1000
0010
0100
0002
,
0000
0000
0013
0001
0010
0000
0000
0000
0001
1000
0100
1000
0020
0000
0000
0000
,
1030
0010
0100
0000
0010
0000
1000
0100
0010
0100
1000
0000
0001
0000
0100
0010
,
0100
0000
0001
0010
0001
0000
0100
0001
1000
0001
0100
0000
0010
0000
1000
0100
,
1000
0100
0001
0100
0000
0000
1000
0010
0001
0010
1000
0001
,
1000
0000
0001
0010
0100
0000
1000
0010
0100
0001
1000
0000
0001
0100
0001
0000
,
1001
0000
0000
0000
;

//--------------- dance-double - Fred-104 ----------------
#NOTES:
     dance-double:
     Fred-104:
     Easy:
     8:
     :
00000000
00000000
00000000
00000000
,
00000000
00000000
00000000
00000000
,
00000000
00000000
00000000
00000000
,
00000000
00000000
00000000
00000000
,
00000000
00000000
00000000
00000000
,
00000000
00000000
00000000
00000000
,
00010000
00000100
00020000
00000000
,
00031000
00010000
00002000
00000000
,
00013000
00000100
00001000
00000010
,
00001000
00000010
00001000
00000000
00000001
00001000
00000100
00000000
,
00020000
00000000
00031000
00010000
,
02000000
00000000
03010000
00001000
,
00000020
00000000
00001030
00010000
,
00200000
00000000
00320000
00000000
,
00031000
00000000
00010000
00000000
00001000
00100000
00001000
00000000
,
01000000
00010000
10000000
01000000
,
00100000
00000000
00001000
00000000
00010000
00001000
00010000
00000000
,
00022000
00000000
00000000
00033000
,
00010000
00000100
00010000
00000100
,
00001000
00000100
00002000
00003000
,
00000100
00000010
00000100
00000010
,
00000001
00001000
00000002
00000003
,
00001000
00000100
00001000
00000100
,
00010000
00000100
00020000
00030000
,
00001000
01000000
00001000
01000000
,
00001000
00010000
00002000
00003000
,
00100000
00000000
00010000
00000000
01000000
00100000
01000000
00000000
,
00010000
10000000
00010000
00000000
,
10000000
00000000
01000000
00000000
10000000
00100000
10000000
00000000
,
01000000
00100000
00010000
00000000
,
01000000
00000000
00001000
00000000
00010000
00001000
00010000
00000000
,
00001000
00000010
00000001
00000000
,
00001000
00000001
00000100
00000010
,
00001000
00000010
00001000
00000010
00000000
00000000
00001001
00000000
,
00000002
00000023
00002030
00023000
,
00230000
00320000
00032000
00003200
,
00001300
00020000
02030000
03020000
,
00032000
00013000
00022000
00033000
,
00002000
00023000
02030000
23000000
,
32000000
03020000
00032000
00023000
,
00230000
00320000
00032000
00003020
,
00002030
00023000
00031000
00011000
,
00010000
00000000
00001000
00000000
00010000
00001000
00001000
00000000
,
00010000
00000000
00000010
00001000
00000010
00000000
00001000
00000000
,
00000010
00000000
00001000
00000000
00000001
00000001
00000100
00000000
,
00000010
00000000
00000100
00000010
00000100
00000000
00000001
00000000
,
00001000
00000100
00001000
00000000
00000100
00010000
00000100
00000000
,
00010000
00001000
00010000
00000000
00001000
00100000
00001000
00000000
,
00100000
00010000
10000000
01000000
,
00100000
00010000
01100000
10010000
,
10000000
01000000
00010000
00000000
,
00001000
00000010
00000001
00000000
,
00000001
00000100
00001000
00000000
,
00010000
00100000
10000000
00000000
,
00010000
10000000
00010000
10000000
,
01000000
00100000
01000000
00000000
,
00100000
00001000
00100000
00001000
,
00010000
00001000
00011000
00000000
,
00010000
00000000
00001000
00000000
00000010
00000100
00000010
00000000
,
00000001
00000000
00000100
00000000
00000010
00001000
00000010
00000000
,
00001000
00000001
00000100
00000000
,
00000010
00001000
00010000
01000000
,
00010000
00100000
00010000
00000000
00001000
00000000
00000100
00000000
,
00010000
00001000
00010000
00000000
00001000
00000000
00100000
00000000
,
00010000
10000000
01100000
00000000
,
10000000
01000000
00100000
00001000
,
00020000
00000000
00000000
00000000
,
00000000
00000000
00030000
00000000
,
00011000
00010000
00001000
00010000
,
00000100
00010000
00000100
00000000
00001000
00000000
00000000
00000000
,
00000010
00001000
00000100
00001000
,
00000001
00000000
00000100
00000000
00000010
00001000
00000010
00000000
,
00001000
00000100
00010000
00001000
,
00010000
01000000
00100000
00000000
,
00010000
00010000
10000000
00100000
,
02000000
03002000
00023000
00030200
,
00001300
00000000
00000000
00000010
00000000
00000000
00000100
00000000
,
00000001
00000000
00000000
00000010
00000000
00000000
00000100
00000000
,
00000010
00000000
00000001
00000000
00000100
00000010
00000100
00000000
,
00000001
00000000
00000100
00000000
,
00001000
00000000
00010000
00000000
,
00100000
10000000
00100000
00000000
10000000
00010000
10000000
00000000
,
01000000
00100000
01000000
00000000
10000000
00100000
10000000
00000000
,
10010000
00000000
00000000
00000000
;

//--------------- dance-double - Fred-104 ----------------
#NOTES:
     dance-double:
     Fred-104:
     Medium:
     11:
     :
00000000
00000000
00000000
00000000
,
00000000
00000000
00000000
00000000
,
00000000
00000000
00000000
00000000
,
00000000
00000000
00000000
00000000
,
00000000
00000000
00000000
00000000
,
00000000
00000000
00000000
00000000
,
00010000
00000010
00002000
00000000
,
00003010
00010000
00002000
00000000
,
00013000
00000000
00001000
00000000
00010000
00001000
00010000
00000000
,
00000100
00001000
00000100
00001000
00000100
00000010
00000100
00000000
,
00001000
00000001
00000010
00000001
00000000
00000100
00000010
00001000
,
00000000
00000100
00010000
00001000
00000000
00010000
00001000
00000000
,
00010000
01000000
00100000
00010000
10000000
00100000
01000000
00100000
,
00000000
00010000
00001000
00010000
00000010
00001000
00000001
00000000
,
00000010
00000100
00001000
00000000
00010000
00100000
01000000
00000000
,
10000000
00010000
01000000
00100000
00000000
10000000
01000000
00000000
,
00010000
00001000
00010000
00000010
00001000
00000010
00010000
00001000
,
00020000
00000000
00002000
00033000
,
00010000
00001000
00000010
00002000
00000000
00013000
00100000
00020000
,
00000000
00031000
00000010
00002000
00000000
00013000
00002000
00000000
,
00013000
01000000
00010000
00002000
00000000
00003100
00001000
00020000
,
00000000
01030000
00010000
00002000
00000000
00003100
00001000
00000000
,
00010000
00001000
00010000
00100000
10000000
00010000
10000000
00000000
,
00010000
10000000
00100000
00010000
00001000
01000000
00001000
00000000
,
00011000
00000000
00010100
00000000
00000100
00001000
00000100
00000010
,
00000001
00000100
00000010
00000100
00000001
00000010
00001000
00000000
,
00010000
00001000
00010000
02000000
00000000
13000000
00100000
01000000
,
00010000
00100000
01000000
00200000
00000000
00310000
10000000
00100000
,
01000000
00100000
00010000
00000000
00001000
00000100
00000010
00000000
,
00001000
00000100
00000010
00000000
00000001
00000100
00000010
00000000
,
00001000
00000100
00000001
00000000
00001000
00000010
00000001
00000000
,
00000001
00000100
00000010
00000100
00001000
00010000
00001000
00000000
,
00012000
00103000
00021000
00030010
,
00010000
00001000
00010000
00001000
00000000
00000000
00011000
00000000
,
00001000
00000000
00001000
00010000
00000000
00010000
00100000
00000000
00100000
10000000
00000000
10000000
,
00010000
00000000
00010000
10000000
00000000
10000000
01000000
00000000
01000000
00010000
00000000
00010000
,
00001000
00000000
00001000
00000100
00000000
00000100
00000001
00000000
00000001
00001000
00000000
00001000
,
00000001
00000100
00000001
00001000
00000010
00001000
00000001
00000000
00000000
00000000
00000000
00000000
,
00000100
00000000
00000100
00000010
00000000
00000010
00001000
00000000
00001000
00000100
00000000
00000100
,
00010000
00000000
00010000
00001000
00000000
00001000
01000000
00000000
01000000
00000000
00000000
00000000
,
00100000
00000000
00100000
10000000
00000000
10000000
01000000
00000000
01000000
00100000
00000000
00100000
,
00001000
00010000
00001000
00100000
00001000
00010000
00001000
00000000
00000000
00011000
00000000
00000000
,
00020000
00000000
00001000
00000000
00031000
00010000
00010000
00000000
,
00002000
00000000
00010000
00000000
00013000
00001000
00001000
00000000
,
00010000
00001000
00100000
00000000
00010000
10000000
01000000
00000000
,
00100000
00001000
00010000
00001000
00000010
00000100
00002000
00000000
,
00003001
00000100
00000010
00000000
00001000
00000010
00000100
00000000
,
00000001
00000001
00000010
00000100
00002000
00000000
00003200
00000000
,
00010300
00001000
00010000
00100000
01000000
00100000
00010000
00100000
,
01000000
00010000
01000000
00001000
00010000
00000000
00011000
00000000
,
00020000
00000000
00031000
00000000
00000100
00001000
00010000
00000000
,
01000000
00010000
00001000
00000000
00000010
00001000
00010000
00000000
,
00100000
00000000
00010000
00000000
00001000
00000010
00000001
00000000
,
00000010
00001000
00010000
00000000
01000000
10000000
01000000
00000000
,
01010000
00000000
00001000
00000000
00000100
00001000
00010000
00000000
,
00100000
00000000
00010000
00000000
00001000
00000010
00001000
00000000
,
00010000
00001000
01000000
00100000
00010000
00001000
01000000
00200000
,
00000000
20300000
00000000
32000000
00000000
03100000
01100000
00000000
,
10000000
01000000
00010000
00000000
00001000
00010000
01000000
00000000
,
10000000
00100000
00010000
00000000
00001000
00010000
00100000
00000000
,
10000000
00100000
01000000
00000000
00010000
01000000
00001000
00010000
,
00000000
00011000
00000000
00010010
00000000
00000010
00001000
00000000
,
00000010
00000100
00000001
00000000
00000010
00000100
00001000
00000000
,
00000001
00000010
00000100
00000010
00000001
00000100
00001000
00000000
,
00010000
00100000
10000000
00000000
00010000
10000000
00100000
02000000
,
00000000
03020000
00000000
20030000
00000000
31000000
00100000
00001000
,
00020000
00000000
00000000
00000000
,
00000000
00000000
00030000
00000000
,
00002000
00000000
00003200
00000000
00000310
00001000
00000001
00000200
,
00000000
00001300
00010000
00100000
01000000
00010000
10000000
00000000
,
02000000
00000000
03200000
00000000
00310000
01000000
10000000
02000000
,
00000000
03100000
00010000
00100000
10000000
00010000
10000000
00000000
,
01000000
00100000
00001000
00000000
00010000
00001000
00010000
00000010
,
00000000
00001000
00000100
00000010
00000001
00001000
00000010
00000000
,
00001000
00000100
00001000
00000100
00000001
00000100
00001000
00000001
,
00000020
00002030
00023000
00032000
,
00013000
00001000
00001000
00010000
00001000
00001000
00010000
00000000
,
00011000
00000000
00101000
00000000
00001000
00100000
00010000
20000000
,
00000000
30100000
10000000
01000000
10000000
00100000
02000000
00000000
,
03001000
00100000
00001000
00010000
00000000
00000100
00001000
00000010
,
00000200
00000001
00001000
00000301
,
00000100
00000000
00000001
00001000
00000000
00000000
00000100
00000000
00000010
00000001
00000000
00000000
,
00001000
00000010
00010000
00001000
00010000
00000100
00001000
00000000
,
00001001
00000000
00000000
00000000
;

//--------------- dance-double - Fred-104 ----------------
#NOTES:
     dance-double:
     Fred-104:
     Hard:
     16:
     :
00000000
00000000
00000000
00000000
,
00000000
00000000
00000000
00000000
,
00000000
00000000
00000000
00000000
,
00000000
00000000
00000000
00000000
,
00000000
00000000
00000000
00000000
,
00000000
00000000
00000000
00000000
,
00001002
00000203
00002300
00003000
,
00021000
00230000
20300000
30000000
,
10010000
00000000
01100000
00000000
10000000
01000000
00010000
00001000
,
00010000
00000000
01000000
00000000
00010000
00000000
00001000
00000000
00000100
00000000
00000001
00000100
00000001
00001000
00000001
00001000
,
00000001
00000000
00000010
00000000
00000100
00000000
00001000
00000100
00001000
00000010
00000100
00000000
00000010
00000000
00001000
00000000
,
00000100
00000000
00000010
00000000
00000100
00000000
00010000
00001000
00010000
00001000
00010000
00000000
00001000
00100000
00001000
00000000
,
00100000
00000000
00010000
00000000
10000000
00000000
00010000
01000000
00010000
01000000
00010000
00000000
01000000
00100000
01000000
00000000
,
00100000
10000000
00100000
10000000
01000000
00000000
00100000
00010000
00100000
00010000
01000000
00000000
00001000
00000000
00010000
00001000
,
00010000
00000000
00000100
00001000
00000100
00000000
00000010
00000001
00000010
00000001
00000010
00000000
00000001
00000000
00001000
00000000
,
00000010
00001000
00000010
00001000
00000100
00000000
00010000
00001000
00010000
00000010
00001000
00000000
00000001
00000000
00000100
00001000
,
00000100
00000000
00001000
00000000
00010000
00000000
00100000
10000000
00100000
10000000
00010000
10000000
00010000
10000000
01000000
00100000
,
00002000
00000000
00000000
00000000
00000000
00003000
00011000
00000000
,
00010000
00001000
00000010
00002000
00000000
00013000
00100000
00020000
,
00000000
00031000
00000100
00001000
00010000
01000000
00010000
00000000
,
00001000
00000010
00001000
00020000
00000000
00130000
00010000
00002000
,
00000000
00003100
00001000
00010000
01000000
00010000
00001000
00000000
,
00010000
00000000
00001000
00000000
00000010
00000000
00000001
00000000
00001000
00000000
00000001
00000000
00000100
00000000
00000001
00000010
,
00000001
00000000
00001000
00000000
00000100
00000000
00000010
00000001
00000010
00000001
00000010
00000000
00000001
00000000
00000000
00000000
,
00000101
00000000
00001100
00000000
00000001
00000001
00000100
00000010
,
00001000
00000100
00001000
00000000
00000100
00010000
00000100
00000000
00010000
00001000
00010000
00000000
00001000
00100000
00001000
00100000
,
00010000
01000000
00001000
00020000
00000000
00030010
00001000
00000200
,
00000000
00000000
00010300
00000000
00000010
00000000
00001000
00000000
00000100
00010000
00001000
00000000
00010000
00000000
00000000
00000000
,
00100000
01000000
00010000
00200000
00000000
00301000
00010000
00000020
,
00000000
00000000
00010030
00000000
00001000
00000000
00000100
00000000
00000001
00001000
00000100
00000000
00000010
00000000
00000000
00000000
,
00000001
00000100
00000010
00000100
00001000
00010000
00100000
02000000
,
00000000
00000000
03010000
10000000
00010000
00000000
10000000
00100000
01000000
00000000
00001000
00010000
00001000
00000000
00000000
00000000
,
00010010
01001000
00010100
00101000
,
00010000
00001000
00000010
00000001
00000000
00000000
00001001
00000000
,
00000001
00000100
00000010
00000100
00000001
00000010
00000100
00000010
00000001
00001000
00000010
00000100
,
00000010
00001000
00000100
00010000
00001000
00100000
00010000
10000000
00100000
01000000
00010000
10000000
,
01000000
00100000
00001000
00010000
00100000
10000000
00010000
01000000
00100000
10000000
01000000
00100000
,
10000000
00100000
00010000
10000000
00100000
00010000
00001000
00000000
00000000
00000000
00000000
00000000
,
00001000
00010000
00000100
00001000
00000100
00000010
00000001
00000100
00000010
00000001
00000010
00001000
,
00000001
00000100
00001000
00000100
00000001
00000010
00001000
00000010
00000001
00000000
00000000
00000000
,
00001000
00000001
00000010
00000100
00001000
00000100
00010000
00001000
00100000
00010000
00100000
01000000
,
10000000
00010000
00100000
10000000
00010000
01000000
10000000
00000000
00000000
10010000
00000000
00000000
,
00010000
00000000
01000000
10000000
01000000
00000000
00010000
00000000
00100000
00000000
10000000
00100000
00010000
00000000
10000000
00000000
,
00100000
00000000
01000000
00010000
00100000
00000000
00001000
00010000
00001000
00010000
00001000
00000000
00020000
00000000
00000000
00000000
,
00030100
00000000
00001000
00000010
00001000
00000000
00000010
00000100
00000010
00000100
00000010
00000000
00001000
00000000
00000001
00000100
,
00000001
00000000
00000010
00000000
00000100
00000000
00000010
00000001
00001000
00000001
00000100
00000000
00000020
00000000
00000000
00000000
,
00001030
00000000
00000100
00000000
00000010
00000000
00000001
00000000
00001000
00000100
00010000
00000000
00000100
00010000
00001000
00000000
,
00010000
00000000
00001000
00100000
00010000
00000000
10000000
00100000
01000000
00010000
10000000
00000000
02000000
00000000
00000000
00000000
,
13000000
00000000
00010000
01000000
00010000
00000000
01000000
00100000
10000000
01000000
10000000
00000000
00010000
01000000
00010000
00000000
,
10000000
00000000
01000000
00000000
00100000
00000000
00010000
00000000
01000000
00000000
00100000
01000000
00010000
00000000
10000000
00000000
,
20100000
00000000
30010000
10000000
01000000
00010000
00001000
00010000
,
00001000
00000010
00001000
00010000
01000000
00010000
00001000
00000100
,
00000001
00000100
00001000
00010000
00100000
00010000
00001000
00000020
,
00001030
00000000
00020000
00000000
00130000
00000000
20000000
00000000
30100000
00000000
00010000
00001000
00010000
00000000
00000000
00000000
,
00011000
00000000
00010000
00001000
00000100
00000001
00000100
00001000
,
00010000
00001000
00000010
00001000
00010000
00100000
00010000
00001000
,
00010000
00000000
01000000
10000000
01000000
00000000
00010000
00000000
00001000
00000000
00010000
01000000
00010000
00000000
00002000
00000000
,
00003000
00011000
00000000
00001010
00000000
00000011
00001001
00000000
,
00000001
00000000
00000000
00000000
00000100
00000000
00000000
00000000
00000010
00000000
00000000
00000000
00000200
00000000
00000000
00000000
00000000
00000000
00000000
00000000
00000000
00000000
00000000
00000000
00000301
00000000
00000000
00000000
00000000
00000000
00000010
00000000
00000000
00000000
00000000
00000000
00000100
00000000
00000000
00000010
00000000
00000000
00000001
00000000
00000000
00000000
00000000
00000000
,
00001000
00000000
00000010
00000100
00000010
00000000
00001000
00000100
00010000
00001000
00010000
00001000
00020000
00000000
00000000
00000000
,
00031000
00010000
00011000
00000000
00001000
00100000
00010000
01010000
,
00000000
11000000
00000000
01010000
00000000
00010000
10000000
00000000
,
10000000
01000000
00020000
00000000
00031000
00010000
00100000
10000000
,
00010000
00000000
00000000
00000000
00000000
00000000
01000000
00000000
00000000
00100000
00000000
00000000
01000000
00000000
00000000
00000000
00000000
00000000
00100000
00000000
00000000
10000000
00000000
00000000
00100000
00000000
00000000
00000000
00000000
00000000
10000000
00000000
00010000
00000000
10000000
00000000
00010000
00000000
00000000
00000000
00000000
00000000
10000000
00000000
00000000
00000000
00000000
00000000
,
01000000
00100000
00002000
00000000
00013000
00000100
00000010
00000001
,
00000000
00000102
00000003
00002100
00003000
00000102
00001003
00000100
,
00020000
00000000
00000010
00000000
,
00100000
00000000
00030010
00000000
,
00011000
00000000
00001000
00100000
00001000
00000000
00100000
00000000
00010000
00000000
01000000
00100000
01000000
00000000
00020000
00000000
,
00000000
00000000
10030000
00010000
10000000
00000000
01000000
00000000
00100000
00010000
00100000
00001000
00010000
00000000
00000000
00000000
,
00001000
00000000
00010000
00000100
00010000
00000000
00000100
00000000
00001000
00000000
00000001
00000010
00000001
00000000
00000100
00000000
,
00000001
00001000
00000001
00000000
00000010
00000000
00000100
00001000
00000100
00001000
00000100
00000000
00010000
00000000
00001000
00010000
,
00001000
00010000
00001000
00000000
00100000
00000000
00010000
00000000
01000000
00100000
01000000
00000000
00010000
00000000
10000000
01000000
,
10000000
00000000
00100000
00000000
01000000
00000000
00010000
01000000
00010000
00000000
00100000
00001000
00010000
00000000
00001000
00000000
,
00010000
00000100
00010000
00000000
00000100
00001000
00000100
00000000
00000010
00000100
00000010
00000000
00000001
00001000
00000001
00001000
,
00000020
00000230
00000302
00002003
,
00003001
00000000
00000010
00001000
00010000
00000000
00001000
00000000
01000000
00100000
10000000
00010000
10000000
00000000
00000000
00000000
,
10000000
00100000
01000000
00100000
00010000
00001000
00000100
00000020
,
00000000
00000000
00000130
00000001
00001000
00000000
00000001
00000000
00000010
00000100
00001000
00000010
00002000
00000000
00000000
00000000
,
00003001
00001000
00000010
00000000
00010000
00000000
00000100
00001000
00000100
00010000
00001000
00000000
00100000
00010000
10000000
00000000
,
01000000
00000000
00100000
10000000
00100000
00000000
01000000
10000000
00010000
01000000
00100000
00000000
10000000
00000000
00010000
00000000
,
10000000
00000000
01000000
00000000
00010000
00000000
00001000
00000000
00000000
00000000
00000000
00000000
00010000
00000000
00001000
00000000
00000010
00000000
00000001
00000000
00000000
00001000
00000000
00000000
,
00000100
00000000
00000000
00000000
00000010
00000000
00000000
00000000
00001000
00000000
00000000
00000000
00010000
00000000
00000000
00000000
00000000
00000000
00000000
00000000
00000000
01000000
00000000
00000000
00100000
00000000
00000000
00000000
00000000
00000000
00010000
00000000
00000000
10000000
00000000
00000000
00100000
00000000
00000000
01000000
00000000
00000000
00010000
00000000
00000000
00100000
00000000
00000000
,
00001000
00000000
00000000
00000000
;
