#VERSION:0.83;
#TITLE:華蝶風雪;
#ARTIST:白虎;
#TITLETRANSLIT:Kachoufusetsu;
#ARTISTTRANSLIT:Byakko;
#GENRE:ASIAN MIXTURE;
#BANNER:Kachoufusetsu.png;
#BACKGROUND:Kachoufusetsu-bg.png;
#CDTITLE:./CDTitles/bm IIDX 13 DistorteD.png;
#MUSIC:Kachoufusetsu.ogg;
#SAMPLESTART:74.77;
#SAMPLELENGTH:15;
#BPMS:0=199,229=99.5,237=199,350=99.5;
#STOPS:36=0.905,349=0.904;
#TIMESIGNATURES:0=4=4,36=1=4,37=4=4,349=1=4,350=4=4;
#BGSTAGE:30;

//--------------- dance-single - Fred-104 ----------------
#NOTEDATA:;
#STEPSTYPE:dance-single;
#DESCRIPTION:Fred-104;
#DIFFICULTY:Beginner;
#METER:4;
#CREDIT:Fred-104;
#NOTES:
0000
0000
0000
0000
,
0000
0000
0000
0000
,
0000
0000
0000
0000
,
0000
0000
0000
0000
,
0000
0000
0000
0000
,
1000
0000
0000
0000
,
0001
0000
0000
0000
,
1000
0000
0000
0000
,
0001
0001
0001
0001
,
0000
1000
0000
0000
,
1000
0000
0000
0001
,
0000
0100
0000
0000
,
0100
0000
0000
0100
,
0000
0010
0000
0000
,
0010
0000
0000
0010
,
0000
1000
0000
0000
,
0001
0000
0000
1000
,
0000
0001
0000
0000
,
0001
0000
0000
0100
,
0000
0010
0000
0000
,
0010
0000
0000
0100
,
0000
0001
0000
0000
,
1000
0000
0000
1000
,
0000
0001
0000
1000
,
0000
0001
0000
1000
,
0000
0002
0000
0000
,
0000
0003
0000
0000
,
0000
2000
0000
0000
,
0000
3000
0000
0000
,
0000
0002
0000
0000
,
0000
0003
0000
0000
,
0000
2000
0000
0000
,
0000
3000
0000
0000
,
0000
0020
0000
0000
,
0000
0030
0000
0000
,
0000
0200
0000
0000
,
0000
0300
0000
0000
,
0000
1001
0000
0000
,
0000
0001
0000
0100
,
0000
0001
0000
0000
,
0000
0100
0000
0010
,
0000
0100
0000
0000
,
0000
0001
0000
1000
,
0000
0010
0000
0000
,
0000
1000
0000
0001
,
0000
1000
0000
1000
,
0000
0001
0000
0001
,
0000
1001
0000
0000
,
0000
1000
0000
0000
,
0000
0010
0000
0000
,
0000
1000
0000
0000
,
0000
0100
0000
0000
,
0000
1000
0000
0000
,
0000
0001
0000
0000
,
0000
1000
0000
0000
,
0000
0001
0000
1000
,
0000
0001
0001
0001
,
0001
0002
0000
0000
,
0000
0000
0000
0000
,
0003
1000
0000
0001
,
0000
1000
0000
0000
,
0000
0001
0000
0010
,
0000
0001
0000
0000
,
0000
1000
0000
1000
,
0000
0010
0000
0000
,
0000
0100
0000
0001
,
0000
0001
0000
1000
,
0000
0001
0000
0001
,
0000
0010
0000
0010
,
0000
0100
0000
0100
,
0000
1000
0000
1000
,
0000
0001
0000
1000
,
0000
0001
0000
0100
,
0000
0001
0000
0010
,
0000
0100
0000
1000
,
0000
0001
0000
0000
,
0000
1000
0000
0000
,
0000
0010
0000
0000
,
0000
0100
0000
0000
,
0000
0001
0000
0010
,
0000
0001
0000
1000
,
0000
0001
0000
0001
,
0000
1000
1000
1000
,
0000
0001
0001
0001
,
0000
0100
0100
0100
,
0000
0000
0001
0000
0000
0001
0000
0000
,
1000
0000
0000
1000
0000
0000
0001
0000
,
0000
1001
2000
0000
,
3000
0000
0002
0000
,
0003
0000
0100
0000
,
0010
0000
0100
0000
,
0001
1000
0001
0100
,
0010
1000
1001
0000
;

//--------------- dance-single - Fred-104 ----------------
#NOTEDATA:;
#STEPSTYPE:dance-single;
#DESCRIPTION:Fred-104;
#DIFFICULTY:Easy;
#METER:8;
#CREDIT:Fred-104;
#NOTES:
0000
0000
0000
0000
,
0000
0000
0000
0000
,
0000
0000
0000
0000
,
0000
0000
0000
0000
,
0000
0000
0000
0000
,
1000
0000
0001
0000
,
0100
0000
0001
0000
,
1001
0000
0110
0000
,
0001
0001
1000
1001
,
0000
0000
2000
0000
3000
0200
0000
0300
,
2000
0000
3000
0002
0000
0003
0100
0000
,
0010
0000
0200
0000
0300
0002
0000
0003
,
2000
0000
3000
0200
0000
0300
0010
0000
,
0001
0000
2000
0000
3000
0002
0000
0003
,
0020
0000
0030
0002
0000
0003
0100
0000
,
0010
0000
0200
0000
0300
0020
0000
0030
,
0200
0301
1000
1001
,
0000
0000
2000
0000
3000
0002
0000
0003
,
2000
0000
3000
0002
0000
0003
0010
0000
,
0100
0000
2000
0000
3000
0002
0000
0003
,
0200
0000
0300
0020
0000
0030
0100
0000
,
0001
0000
2000
0000
3000
0200
0000
0300
,
0020
0000
0030
0200
0000
0300
0010
0000
,
0001
1000
0100
0001
,
0100
1000
0001
1001
,
0000
0002
0000
0023
,
0000
0230
0000
2300
,
0000
3002
0000
0203
,
0000
0310
1000
0100
,
0010
0200
0000
2300
,
0000
3002
0000
0023
,
0000
0230
0000
2300
,
0000
0000
3001
1000
0001
1000
0001
0000
,
0100
0120
0000
0000
,
0000
0000
0130
0010
0100
0010
0100
0000
,
0001
2000
0000
0000
,
0000
0002
0000
0000
,
3003
1000
0100
1000
,
0100
0001
0100
0001
,
0100
1000
0010
1000
,
0010
0001
0010
0001
,
0010
1000
0100
0010
,
0001
1000
0010
0100
,
0001
0100
0100
0010
,
0010
1000
0100
0110
,
0000
0001
0100
0110
,
0110
0000
1000
1000
0000
0001
0001
0000
,
1001
0001
0010
0100
,
1000
0001
0100
0020
,
0030
0100
0001
1000
,
0001
0010
0100
0020
,
0030
0001
1000
0010
,
0100
0001
0010
0200
,
0300
0010
0001
1000
,
0001
0100
0010
0100
,
0001
1000
0002
0000
0000
0000
0000
0000
,
0000
1003
0100
0010
,
0001
1001
1000
0010
,
0100
0000
0001
0010
0010
0100
0100
1000
,
0001
1000
0001
0000
0000
0000
0100
0000
,
0000
0001
1000
0001
,
0010
0100
0000
1000
,
0000
0010
1000
0001
,
0100
0010
0000
1000
,
0000
0100
1000
0001
,
0100
0010
0000
0100
,
0000
0001
1000
0100
,
0010
0000
0001
0000
0000
0001
0000
0000
,
0100
0000
1000
0000
0000
1000
0000
0000
,
0100
0000
0001
0000
0000
1000
0000
0000
,
0001
0000
0100
0010
0100
0000
0001
0000
,
1000
0000
0001
0000
0000
0001
0000
0000
,
0010
0000
1000
0000
0000
1000
0000
0000
,
0010
0000
0001
0000
0000
1000
0000
0000
,
0001
0000
0100
0000
0010
0100
0010
0000
,
1000
1100
0000
0101
,
0000
1010
0000
0011
,
0000
0001
0010
1000
,
0000
0001
0100
1000
,
0000
0001
0010
0001
,
0010
1000
0010
0001
,
1000
0000
1001
0000
0000
0001
0000
0000
,
0100
0000
0110
0000
0000
0010
0000
0000
,
1000
0000
1001
0000
0000
1000
0000
0000
,
0010
0100
0001
0100
,
0100
0000
0110
0000
0000
0010
0000
0000
,
0100
0000
0000
0100
0000
0000
0010
0000
,
0100
1001
2000
0000
,
3200
0000
0302
0000
,
0023
0000
1030
0001
,
0100
0000
0010
0000
0100
0100
0010
0010
,
1000
1000
0001
0001
1000
0100
0010
0100
,
1000
0001
1000
0000
0010
0100
0010
0000
1001
0000
0000
0000
0000
0000
0000
0000
;

//--------------- dance-single - Fred-104 ----------------
#NOTEDATA:;
#STEPSTYPE:dance-single;
#DESCRIPTION:Fred-104;
#DIFFICULTY:Medium;
#METER:12;
#CREDIT:Fred-104;
#NOTES:
0000
0000
0000
0000
,
0000
0000
0000
0000
,
0000
0000
0000
0000
,
0000
0000
0000
0000
,
0000
0000
0000
0000
,
1000
1000
0010
0010
,
0100
0100
0001
0001
,
1001
0000
0110
0000
,
1010
0101
1100
0022
,
0033
0000
1001
0000
0001
0100
0000
0010
,
0100
0000
0001
0010
0000
0100
1000
0000
,
0001
0000
1000
0000
0010
0100
0000
0010
,
1000
0000
0001
1000
0000
0100
1000
0000
,
0001
0000
0100
0000
0010
1000
0000
0010
,
0100
0000
0010
1000
0000
0001
1000
0000
,
0100
0000
0010
0000
0001
0010
0000
0001
,
1000
0001
0010
0001
,
1000
0000
1001
0000
0001
0010
0000
0001
,
1000
0000
0001
0010
0000
0001
0100
0000
,
0010
0000
1000
0000
0100
1000
0000
0001
,
1000
0000
0100
1000
0000
0010
0100
0000
,
0010
0000
1000
0000
0100
0010
0000
0001
,
1000
0000
0100
0010
0000
0001
0100
0000
,
0010
1000
0100
0001
,
1000
0010
0001
1000
,
0001
0000
1000
0100
1000
0000
0010
0000
,
0100
0000
0001
0010
0001
0000
1000
0000
,
0001
0000
0100
0010
0100
0000
0001
0000
,
0010
0000
0100
1000
0100
0000
1000
0000
,
0001
0000
0100
0010
1000
0000
0010
0000
,
0100
0000
0001
1000
0100
0000
0010
0000
,
0001
0000
0100
0001
0010
0000
0001
0000
,
0100
0000
0001
1000
0001
1000
0001
0000
,
1001
0000
0001
0100
0001
0000
0010
0000
,
0001
0000
0100
0010
0100
0000
0001
0000
,
1000
0000
0010
1000
0010
0000
0100
0000
,
0001
0000
1000
0100
1000
0100
0010
0001
,
0010
0000
0001
0010
1000
0000
0010
0000
,
0001
0000
1000
0010
0001
0000
0010
0000
,
1000
0000
0001
0100
1000
0000
0100
0000
,
0001
0000
1000
0100
0001
0000
0100
1000
,
0001
1000
1100
0001
,
0101
1000
1010
0001
,
0011
0000
1000
0100
1000
0000
0001
0100
,
0001
1001
0110
1001
,
0110
1001
1010
0101
,
1100
0000
0001
0001
0000
1000
1000
0000
,
0010
0000
0100
0010
0100
0000
0001
1000
,
0001
0000
1000
0010
1000
0000
0001
0100
,
0001
0000
1000
0100
1000
0000
0010
1000
,
0010
0000
1000
0100
1000
0000
0001
0010
,
0001
0000
0100
0001
0010
0000
0001
0100
,
0010
0000
1000
0010
0100
0000
0010
1000
,
0100
0000
1000
0001
0010
0000
0001
0100
,
0010
0100
0001
1000
0002
0000
0010
0000
,
0013
0100
2000
0000
0010
0000
0010
0000
,
3010
1000
0001
0100
0010
0000
0100
0010
,
1000
0000
1001
0001
0010
0100
1000
0010
,
0100
0000
0010
0000
1000
0100
1000
0100
0010
0001
0010
0001
1000
0010
0100
0001
,
0010
0100
0010
0000
0001
0000
1000
0000
0010
0000
0000
0000
1000
0000
0000
0000
,
0001
0010
0001
0010
0100
0000
1000
0001
,
0100
0000
0010
1000
0000
0001
1000
0000
,
0001
0100
0010
0100
0000
0001
0010
0000
,
0001
1000
0001
0100
0010
0000
0100
0000
,
0001
1000
0000
1000
0000
1000
0100
0010
,
0001
0000
1000
0010
1000
0000
0001
0100
,
0001
0000
0100
0010
0100
0001
1000
0001
,
0010
0000
0001
0010
0001
0010
0000
0001
,
1000
0000
0010
1000
0010
1000
0000
0100
,
1000
0000
0100
0010
0100
0010
0000
0001
,
1000
0000
0001
0100
0001
0000
1000
0010
,
1000
0000
0001
0100
0010
1000
0000
1000
,
0001
0000
1000
0100
0010
0001
0000
0001
,
0100
0000
0010
0100
0010
1000
0000
1000
,
0001
0000
0100
0000
0010
1000
0001
0100
,
0010
1000
0001
0000
0011
0000
1000
0000
,
1010
0001
0101
1000
,
1100
0000
0001
1000
0010
0000
1000
0001
,
0100
0000
0001
0010
0100
0000
1000
0100
,
0010
0000
0001
1000
0010
1000
0001
1000
,
0100
0000
1000
0010
0100
0000
0010
1000
,
0100
0000
0110
0000
0001
0001
0000
1000
,
0010
0000
1001
0000
1000
1000
0000
0010
,
0100
0000
0101
0000
0001
0001
0000
0010
,
0100
0000
1000
0100
0010
0100
1000
0001
,
0100
0000
0110
0000
0000
1001
0000
0000
,
1010
0000
0000
0101
0000
0000
1001
0000
,
0001
0000
0100
0000
0010
0020
1000
1030
,
0001
0002
0100
0103
0001
0010
0100
1000
,
0001
0000
0100
0000
0010
0000
1000
0000
0002
0000
0103
0001
0100
0000
0010
1000
,
0100
0000
0010
0001
1000
0001
0100
0000
0001
0010
0001
0000
0100
0010
0100
0000
,
0010
1000
0010
0000
1000
0100
1000
0000
0001
0100
0001
0100
0010
1000
0010
1000
,
0100
0010
0100
0010
0001
1000
0001
0000
1001
0000
0000
0000
0000
0000
0000
0000
;

//--------------- dance-single - Fred-104 ----------------
#NOTEDATA:;
#STEPSTYPE:dance-single;
#DESCRIPTION:Fred-104;
#DIFFICULTY:Hard;
#METER:16;
#CREDIT:Fred-104;
#NOTES:
0000
0000
0000
0000
,
0000
0000
0000
0000
,
0000
0000
0000
0000
,
0000
0000
0000
0000
,
0000
0000
0000
0000
,
0000
0010
1000
0001
1000
0100
1000
0010
,
0100
0010
1000
0100
0010
0001
1000
0000
,
0002
0013
0001
1000
0010
0000
0100
0001
,
2000
0000
3020
1030
0200
0310
0002
1003
,
0000
0000
1001
0000
0001
0010
0000
0010
,
1000
0000
0001
0100
0000
0100
1000
0000
,
0001
0000
1001
0000
1000
0010
0000
0010
,
0001
0000
1000
0100
0000
0100
0001
0000
,
1000
0000
1001
0000
0001
0010
0000
0010
,
1000
0000
1000
0100
0000
0100
0001
0000
,
1000
0000
1001
0000
1000
0100
0000
0100
,
0001
0000
0010
0100
1000
0001
0100
0010
,
1000
0001
1000
0100
1000
0001
0100
0001
,
1000
0010
1000
0001
0010
0001
0100
0010
,
1000
0000
0001
0010
0001
1000
0010
1000
,
0001
0100
0001
1000
0100
1000
0100
0010
,
0001
1000
0001
0010
0100
1000
0010
0100
,
0001
0100
0010
1000
0100
0010
0001
0100
,
1000
0100
0001
1000
0100
0010
1000
0000
,
0010
0001
0010
0100
1000
0000
0001
0100
,
0010
0000
1000
0010
0100
0001
0010
1000
,
0010
0100
1000
0001
0100
1000
0100
0010
,
1000
0001
0010
0100
0001
0100
0010
0001
,
1000
0010
0100
0010
1000
0100
0010
1000
,
0010
0001
0010
0100
1000
0001
0100
0010
,
0001
0010
1000
0001
0100
0010
1000
0001
,
0010
0100
0010
0100
1000
0010
0001
0010
,
0100
0010
1000
2000
0001
3002
2003
3001
,
1001
0000
0001
0100
0001
0010
0100
0010
,
0100
1000
0001
0100
1000
0100
0001
0000
,
1000
0001
0010
0001
1000
0001
0100
0001
,
0100
0010
1000
0010
0001
0010
1000
0100
,
0001
0000
0100
0000
1000
0000
0000
0000
0010
1000
0010
0000
0100
0000
0000
0000
,
0001
0010
0001
0000
0100
0000
0010
0000
0001
0000
0010
0000
1000
0000
0001
0000
,
1000
0000
0100
0000
1000
0100
1000
0000
0010
0100
0010
0000
0100
0001
0100
0000
,
0001
0010
0001
0000
1000
0000
0100
0000
1000
0000
0001
0000
0101
0000
0100
0000
,
0110
0000
0010
0000
1000
0010
1000
0000
0010
0100
0010
0000
1000
0100
1000
0000
,
0100
0010
0100
0000
0110
0000
0000
0000
0011
0000
0000
0000
0001
0000
0100
0000
,
0010
0000
0100
0000
0001
0100
0001
0100
0001
0000
0000
0000
1000
0100
1000
0100
,
1000
0011
1010
0101
,
1100
1001
0100
0010
,
0001
0000
1000
0100
0010
0001
0100
0000
,
0110
0000
0001
0100
0001
0100
0010
0100
,
0001
1000
0001
0010
0100
0001
0100
1000
,
0100
0010
0001
0100
0001
1000
0010
1000
,
0100
0010
0001
0100
0010
0001
0010
1000
,
0010
0100
0001
0100
0010
0100
0001
1000
,
0001
0010
0100
1000
0010
0100
1000
0100
,
0010
1000
0001
0100
0010
0100
0001
1000
,
0100
0010
0001
0100
0020
0000
1000
0000
,
0130
0001
2000
0000
0010
0000
0001
0000
,
0100
0000
3001
0100
0010
1000
0100
0010
,
1001
0000
0000
0000
1000
0000
0001
0010
0001
1000
0001
0100
0001
0010
0100
1000
,
0010
0100
0010
1000
0001
0010
0001
0010
1000
0010
1000
0010
0001
0100
0001
0100
,
1000
0100
0001
1000
0001
0000
0010
0000
0100
0000
1000
0000
0010
0000
1000
0000
,
0100
0001
0100
0010
0001
1000
0010
0001
,
0010
0100
0001
1000
0010
1000
0001
0100
,
0001
0010
0100
1000
0001
0100
1000
0001
,
0010
1000
0001
0100
0010
1000
0100
0110
,
0000
0011
0000
1001
0000
0001
0100
0010
,
0100
0001
1000
0100
1000
0100
0001
0100
,
0001
0100
1000
0010
1000
0010
0001
0010
,
0001
0010
1000
0100
0010
0001
0000
1000
,
0100
0010
0001
0010
0100
1000
0000
0001
,
0010
0100
1000
0010
0100
0001
0000
1000
,
0010
0100
0001
0010
0010
0010
0100
1000
,
1000
1000
0001
0100
1000
0100
0000
0001
,
0100
0001
1000
0010
0001
0010
0000
1000
,
0010
1000
0001
0100
1000
0100
0000
0001
,
0010
0000
0001
0000
0100
0000
0000
0000
0010
0000
1000
0000
0001
1000
0001
1000
,
0001
1000
0001
1000
0001
0000
0000
0000
0101
0000
0000
0000
0011
0000
0000
0000
,
1100
1010
0101
1100
,
1001
0000
0001
0010
0001
0010
0100
1000
,
0010
0100
0001
0100
1000
0100
0010
1000
,
0001
0010
0001
1000
0100
0010
0001
1000
,
0010
0000
0100
0000
0001
0000
0010
0000
0001
0000
1000
0000
0100
1000
0100
1000
,
0001
0100
0001
0100
0010
0000
0000
0000
1000
0000
1100
0000
0000
0000
0100
0000
,
0010
0001
0100
0000
0010
1010
0000
1000
,
0001
0100
0010
0000
0100
0101
0000
0001
,
0010
0000
0001
0000
1000
0000
0100
0010
0100
0000
1000
0000
0001
0000
0100
0010
,
0100
0001
0011
0000
0000
1010
0000
0000
,
0101
0000
0000
1100
0000
0000
1001
0000
,
0001
0000
0000
0000
0100
0000
0000
0000
0010
0000
0000
0000
1000
0000
0000
0000
0000
0000
0000
0000
0000
0000
0000
0000
1000
0000
0000
0000
0000
0000
0001
0000
0000
0010
0000
0000
0001
0000
0000
0100
0000
0000
0001
0000
0000
0010
0000
0000
,
0001
1000
0010
1000
0100
0010
0001
1000
0001
0000
0100
0010
0001
0010
1000
0010
,
0100
0001
1000
0100
0010
0001
1000
0010
0100
0000
0001
0100
1000
0100
0001
1000
,
0100
0010
0001
1000
0010
0001
0010
0100
0010
1000
0001
1000
0100
0010
0100
0010
,
0001
0010
0100
0010
0001
1000
0010
1000
0100
0010
0001
1000
0010
1000
0001
1000
,
0010
0100
0010
1000
0100
0010
0001
0000
1001
0000
0000
0000
0000
0000
0000
0000
;

//--------------- dance-single - Fred-104† ----------------
#NOTEDATA:;
#STEPSTYPE:dance-single;
#DESCRIPTION:Fred-104†;
#DIFFICULTY:Challenge;
#METER:17;
#CREDIT:Fred-104†;
#NOTES:
0000
0000
0000
0000
,
0000
0000
0000
0000
,
0000
0000
0000
0000
,
0000
0000
0000
0000
,
0000
0000
0000
0000
,
0001
1000
0001
0100
1000
0100
0010
1000
,
0100
0010
0001
0100
0010
1000
0001
1000
,
0001
0010
1000
0010
0001
0000
0010
0100
,
2000
0000
3020
0130
2000
3100
0002
1003
,
0000
MMMM
0000
0000
0000
0000
0000
0000
0000
0000
0000
0000
0000
0000
0000
0000
0000
0000
0000
0000
0000
0000
0000
0000
0000
0000
0000
0000
0000
0000
0000
0000
0000
0000
0000
0000
0000
0000
0000
0000
0000
0000
0000
0000
0000
0000
0000
0000
1001
0000
0000
0000
0000
0000
0000
0000
0000
0000
0000
0000
0000
0000
0000
0000
0000
0000
0000
0000
0000
0000
0000
0000
0000
0000
0000
0000
0000
0000
0000
0000
0000
0000
0000
0000
0000
0000
0000
0000
0000
0000
0000
0000
0000
0000
0000
0000
1000
0000
0000
0000
0000
0000
0000
0000
0000
0000
0000
0000
0000
0000
0000
0000
0000
0000
0000
0000
0000
0000
0000
0000
1100
0000
0000
0000
0000
0000
0000
0000
0000
0000
0000
0000
0000
0000
0000
0000
0000
0000
0000
0000
0000
0000
0000
0000
0000
0000
0000
0000
0000
0000
0000
0000
0000
0000
0000
0000
0000
0000
0000
0000
0000
0000
0000
0000
0000
0000
0000
0000
0001
0000
0000
0000
0000
0000
0000
0000
0000
0000
0000
0000
0000
0000
0000
0000
0000
0000
0000
0000
0000
0000
0000
0000
,
0011
0000
1000
1010
0000
0001
0101
0000
,
0110
0000
1010
0000
1000
1100
0000
0001
,
0101
0000
1000
1010
0000
0001
0011
0000
,
1001
0000
1001
0000
1000
1010
0000
0010
,
0110
0000
0100
0101
0000
0001
0011
0000
,
1100
0000
0110
0000
0001
0011
0000
1000
,
1010
0000
0001
1000
0100
0001
0100
1000
,
0001
0000
0000
0000
0000
0000
0000
0000
0100
0000
0000
0000
0000
0000
0000
0000
0001
0000
0000
0000
0000
0000
0000
0000
0020
0030
0000
0000
0000
0000
0000
0000
0020
0030
0000
0000
0000
0000
0000
0000
1000
0000
0000
0000
0000
0000
0000
0000
0020
0030
0000
0000
0000
0000
0000
0000
0020
0030
0000
0000
0000
0000
0000
0000
,
0001
0000
0000
0000
0000
0000
0000
0000
0200
0300
0000
0000
0000
0000
0000
0000
0200
0300
0000
0000
0000
0000
0000
0000
1000
0000
0000
0000
0000
0000
0000
0000
0200
0300
0000
0000
0000
0000
0000
0000
0200
0300
0000
0000
0000
0000
0000
0000
0001
0000
0000
0000
0000
0000
0000
0000
0010
0000
0000
0000
0000
0000
0000
0000
,
0100
0000
0000
0000
0000
0000
0000
0000
0000
0000
0000
0000
0000
0000
0000
0000
1000
0000
0000
0000
0000
0000
0000
0000
0020
0030
0000
0000
0000
0000
0000
0000
0020
0030
0000
0000
0000
0000
0000
0000
0001
0000
0000
0000
0000
0000
0000
0000
0020
0030
0000
0000
0000
0000
0000
0000
0020
0030
0000
0000
0000
0000
0000
0000
,
1000
0000
0000
0000
0000
0000
0000
0000
0200
0300
0000
0000
0000
0000
0000
0000
0200
0300
0000
0000
0000
0000
0000
0000
0001
0000
0000
0000
0000
0000
0000
0000
0200
0300
0000
0000
0000
0000
0000
0000
0200
0300
0000
0000
0000
0000
0000
0000
1000
0000
0000
0000
0000
0000
0000
0000
0010
0000
0000
0000
0000
0000
0000
0000
,
0100
0001
1000
0100
0010
1000
0001
0100
,
1000
0010
0100
1000
0001
0010
1000
0001
,
0100
0000
0001
0100
1000
0100
0101
0000
,
1000
0100
0001
0100
1100
0000
0001
0100
,
0110
0000
0000
0000
1000
0010
0100
0000
0010
0000
1000
0000
0100
0010
0001
0000
,
1000
0000
0001
0000
0100
0001
0010
0000
0001
0000
0100
0000
0010
1000
0100
0000
,
1000
0000
0010
0000
0100
0001
0010
0000
0100
0000
1000
0000
0010
1000
0001
0000
,
0100
0000
0010
0000
1000
0001
0010
0000
0001
0000
1000
0000
0100
0010
0001
0000
,
1000
0000
0010
0000
1000
0001
0010
0000
0001
0000
1000
0000
0001
0010
0100
0000
,
1000
0000
0001
0000
0100
0010
0001
0000
0010
0000
0100
0000
0001
1000
0010
0000
,
0100
0000
1000
0000
0100
0010
1000
0000
0001
0000
0100
0000
1000
0100
0001
0000
,
1000
0100
0110
0010
0011
0001
1001
1000
,
0010
0000
0100
0000
0001
1000
0100
0000
0010
0000
0001
0000
0100
0010
0001
0000
,
0010
1000
1010
0010
0110
0100
0101
0001
,
1000
0000
0100
0000
1000
0100
0010
0000
1000
0000
0010
0000
0001
0010
0100
0000
,
1000
0010
1000
0100
0120
0031
1000
0010
,
0210
0000
0301
0000
1001
0000
0000
1000
0100
0010
0100
0010
0001
0000
0000
0100
,
0001
0010
0001
0010
0001
0000
0100
0000
0010
0000
0001
0000
0010
0000
0100
0000
,
0010
0000
1000
0000
0001
0010
0001
0010
0100
0010
0001
0000
1000
0010
1000
0010
,
0100
0010
1000
0000
0001
0100
0001
0000
1000
0010
1000
0000
0100
0000
0010
0000
,
0001
0000
0100
0000
0001
0100
0010
1000
0010
0100
0001
0000
1000
0100
0010
0001
,
0010
0100
1000
0000
1001
0000
0000
0001
0100
0000
0000
0100
0010
0000
1000
0000
,
0100
0000
1000
0000
0001
0100
0001
0010
0100
1000
0100
0000
1000
0100
1000
0010
,
0100
0001
0100
0000
0101
0000
0001
0000
0011
0000
0010
0000
0110
0000
0100
0000
,
1100
1010
0011
0101
,
1100
0000
0000
0000
1001
0000
1000
0000
0001
0100
0001
0100
0010
0000
1000
0000
,
1001
0000
1000
0010
1000
0100
1000
0001
,
0100
0010
1000
0100
0001
1000
0010
0001
,
1000
0010
0100
0001
0010
0001
0100
0010
,
1000
0001
0010
1000
0010
0001
0100
1000
,
0100
0000
0001
0000
0100
0010
1000
0000
0010
0000
0100
0000
0001
0000
1000
0000
,
0100
0010
0001
0100
0010
0001
0010
0100
,
0001
0000
1000
0100
0001
0100
1000
0100
,
0010
0000
0001
0000
0100
0010
0100
0010
2000
0000
0000
0000
0100
0000
0000
0000
,
3010
0000
1000
0000
0100
0010
0002
0000
1000
0000
0000
0000
0010
0000
0000
0000
,
0103
0010
1000
0010
1010
1000
1100
1000
,
0001
0000
0100
0000
0101
0000
1000
0100
1000
0001
0010
0100
1000
0010
0100
0010
,
1000
0100
1000
0010
1000
0100
1000
0100
0001
0100
0001
0100
0010
0001
1000
0010
,
0100
0000
0001
1000
0001
1000
0001
1000
0001
0000
0000
0000
0010
0000
0000
0000
0012
0000
0000
0000
1003
0000
0000
0000
0010
0000
0000
0000
0100
0000
0000
0000
,
0102
0013
0100
1000
0120
1030
0100
0010
,
1002
1003
0010
1000
1200
0310
0001
0100
,
0120
1030
0001
0100
0101
0001
0011
0001
,
1001
0000
1000
0100
0120
0031
1000
0010
,
0100
0101
0000
1100
0000
0101
0001
0010
,
0100
1000
0001
0100
0010
0001
1000
0100
,
0010
1000
0001
0100
1000
0001
0010
0100
,
0001
0000
0000
0000
0000
0000
0000
0000
1000
0000
0000
0000
0000
0000
0000
0000
0001
0000
0000
0000
0000
0000
0000
0000
0020
0030
0000
0000
0000
0000
0000
0000
0020
0030
0000
0000
0000
0000
0000
0000
1000
0000
0000
0000
0000
0000
0000
0000
0020
0030
0000
0000
0000
0000
0000
0000
0020
0030
0000
0000
0000
0000
0000
0000
,
0001
0000
0000
0000
0000
0000
0000
0000
1000
0000
0000
0000
0000
0000
0000
0000
0001
0000
0000
0000
0000
0000
0000
0000
0200
0300
0000
0000
0000
0000
0000
0000
0200
0300
0000
0000
0000
0000
0000
0000
1000
0000
0000
0000
0000
0000
0000
0000
0200
0300
0000
0000
0000
0000
0000
0000
0200
0300
0000
0000
0000
0000
0000
0000
,
0001
0000
0000
0000
0000
0000
0000
0000
0010
0000
0000
0000
0000
0000
0000
0000
0100
0000
0000
0000
0000
0000
0000
0000
2000
3000
0000
0000
0000
0000
0000
0000
2000
3000
0000
0000
0000
0000
0000
0000
0010
0000
0000
0000
0000
0000
0000
0000
2000
3000
0000
0000
0000
0000
0000
0000
2000
3000
0000
0000
0000
0000
0000
0000
,
0001
1000
0100
0010
0010
0010
0001
0100
,
0100
0000
0000
0000
0000
0000
0000
0000
0100
0000
0000
0000
0000
0000
0000
0000
0001
0000
0000
0000
0000
0000
0000
0000
0020
0030
0000
0000
0000
0000
0000
0000
0020
0030
0000
0000
0000
0000
0000
0000
1000
0000
0000
0000
0000
0000
0000
0000
0200
0300
0000
0000
0000
0000
0000
0000
0200
0300
0000
0000
0000
0000
0000
0000
,
0001
0000
0000
0000
0000
0000
0000
0000
1000
0000
0000
0000
0000
0000
0000
0000
0100
0000
0000
0000
0000
0000
0000
0000
2000
3000
0000
0000
0000
0000
0000
0000
2000
3000
0000
0000
0000
0000
0000
0000
0010
0000
0000
0000
0000
0000
0000
0000
0002
0003
0000
0000
0000
0000
0000
0000
0002
0003
0000
0000
0000
0000
0000
0000
,
0100
0000
0000
0000
0000
0000
0000
0000
0010
0000
0000
0000
0000
0000
0000
0000
0001
0000
0000
0000
0000
0000
0000
0000
0200
0300
0000
0000
0000
0000
0000
0000
0200
0300
0000
0000
0000
0000
0000
0000
1000
0000
0000
0000
0000
0000
0000
0000
0020
0030
0000
0000
0000
0000
0000
0000
0020
0030
0000
0000
0000
0000
0000
0000
,
0001
0000
1000
0000
1001
0000
0000
0000
0001
0000
0100
0000
0001
0010
0100
1000
,
0010
0100
0001
1000
0001
0000
0000
0000
0011
0000
0000
0000
1010
0000
0000
0000
,
0101
0000
1100
0000
0100
0010
0011
0000
,
1001
0000
1000
0100
0001
0100
1000
0100
,
0001
0000
0100
0000
0010
0001
1000
0000
0010
0000
0100
0000
0001
0000
0100
0000
,
1000
0000
0100
0000
0001
0010
0100
0000
1000
0000
0010
0000
0001
0000
0010
0000
,
1000
0000
0010
0000
0100
0001
1000
0000
0100
0000
0010
0000
0001
0100
0010
1000
,
0100
0010
0001
1000
0010
0000
0000
0000
1000
0000
1010
0000
0000
0000
0010
0000
,
0100
0001
1000
0001
0010
0000
0000
0000
0110
0000
0000
0000
1000
0010
1000
0010
,
0100
0001
0100
0001
0100
0000
0000
0000
0110
0000
0000
0000
0010
1000
0010
1000
,
0100
0010
0001
1000
0010
0000
1000
0010
0100
0000
0001
0000
1000
0000
0001
0010
,
0100
1000
1010
0000
0000
0101
0000
0000
,
1100
0000
0000
0011
0000
0000
1001
0000
,
0001
0000
0000
0000
0010
0000
0000
0000
0100
0000
0000
0000
1001
0000
0000
0000
0000
0000
0000
0000
0000
0000
0000
0000
1000
0000
0000
0100
0000
0000
0010
0000
0000
0001
0000
0000
0100
0000
0000
0010
0000
0000
0001
0000
0000
0010
0000
0000
,
0100
1000
0100
0010
1000
0100
0010
0001
1000
0000
0001
0010
1000
0010
0001
0100
,
0010
0001
0010
1000
0001
0100
0010
1000
0001
0000
1000
0010
0001
0010
0100
0010
,
1000
0001
0010
0100
0001
0100
1000
0001
0010
0001
1000
0100
0010
0001
0010
0100
,
1000
0001
0010
0100
0010
0100
0010
0001
1000
0001
0100
0010
1000
0010
0100
0001
,
1000
0100
0010
0100
0010
0100
1000
0001
1000
0000
0000
0000
0000
0000
0000
0000
;

//--------------- dance-double - Fred-104 ----------------
#NOTEDATA:;
#STEPSTYPE:dance-double;
#DESCRIPTION:Fred-104;
#DIFFICULTY:Easy;
#METER:8;
#CREDIT:Fred-104;
#NOTES:
00000000
00000000
00000000
00000000
,
00000000
00000000
00000000
00000000
,
00000000
00000000
00000000
00000000
,
00000000
00000000
00000000
00000000
,
00000000
00000000
00000000
00000000
,
00000001
00000000
00001000
00000000
,
00000010
00000000
00010000
00000000
,
00011000
00000000
01100000
00000000
,
10000000
10000000
00010000
10010000
,
00000000
00000000
20000000
00000000
30000000
02000000
00000000
03000000
,
00200000
00000000
00300000
00002000
00000000
00003000
00010000
00000000
,
00001000
00000000
00020000
00000000
00030000
00000020
00000000
00000030
,
00020000
00000000
00030000
00002000
00000000
00003000
00010000
00000000
,
00000100
00000000
00002000
00000000
00003000
00000002
00000000
00000003
,
00002000
00000000
00003000
00000020
00000000
00000030
00000100
00000000
,
00000001
00000000
00002000
00000000
00003000
00000200
00000000
00000300
,
00020000
00031000
00010000
00011000
,
00000000
00000000
00002000
00000000
00003000
00020000
00000000
00030000
,
02000000
00000000
03000000
00200000
00000000
00300000
00010000
00000000
,
10000000
00000000
02000000
00000000
03000000
00200000
00000000
00300000
,
00002000
00000000
00003000
00020000
00000000
00030000
00000010
00000000
,
00001000
00000000
00000020
00000000
00000030
00020000
00000000
00030000
,
00002000
00000000
00003000
00000200
00000000
00000300
00000010
00000000
,
00010000
00001000
00000100
00000001
,
00001000
00000100
00010000
00011000
,
00000000
00002000
00000000
00203000
,
00000000
02300000
00000000
23000000
,
00000000
30020000
00000000
02030000
,
00000000
03100000
10000000
01000000
,
00100000
00002000
00000000
00023000
,
00000000
00030020
00000000
00002030
,
00000000
00003002
00000000
00000203
,
00000000
00000000
00000310
00000100
00000010
00000100
00000010
00000000
,
00010000
00012000
00000000
00000000
,
00000000
00000000
00103000
01000000
00100000
01000000
00100000
00000000
,
00001000
00020000
00000000
00000000
,
00000000
00002000
00000000
00000000
,
00033000
00010000
00001000
00000010
,
00001000
00010000
00001000
00100000
,
00000000
00001000
00010000
00100000
,
00010000
00001000
00100000
00001000
,
00000000
00010000
00001000
00000100
,
00001000
00010000
00000100
00010000
,
00000000
00001000
00010000
01000000
,
00010000
00001000
00010000
00011000
,
00000000
00000010
00000100
00000110
,
00000110
00000000
00001000
00001000
00000000
00000001
00000001
00000000
,
00000110
00001000
00000001
00000100
,
00000010
00000100
00001000
00020000
,
00030000
00100000
01000000
00010000
,
10000000
01000000
00100000
02000000
,
03000000
10000000
00100000
00010000
,
00001000
00010000
00100000
20000000
,
30000000
00010000
10000000
01000000
,
00100000
00010000
00100000
00001000
,
00010000
00001000
00020000
00000000
00000000
00000000
00000000
00000000
,
00000000
00031000
00010000
00000010
,
00001000
00001001
00000001
00001000
,
00000100
00000000
00010000
00010000
00001000
01000000
01000000
00010000
,
00100000
00001000
00010000
00000000
00000000
00000000
00001000
00000000
,
00000000
00010000
00000100
00010000
,
00001000
00010000
00000000
00001000
,
00000000
00000100
00000010
00001000
,
00000010
00001000
00000000
00000001
,
00000000
00001000
00000010
00010000
,
00000010
00010000
00000000
00001000
,
00000000
00100000
00010000
00100000
,
00001000
00000000
00010000
00000000
00000000
00001000
00000000
00000000
,
01000000
00000000
00001000
00000000
00000000
00010000
00000000
00000000
,
00000100
00000000
00010000
00000000
00000000
00001000
00000000
00000000
,
00010000
00001000
00010000
00100000
,
10000000
00000000
00010000
00000000
00000000
10000000
00000000
00000000
,
00100000
00000000
01000000
00000000
00000000
00010000
00000000
00000000
,
00100000
00000000
00001000
00000000
00000000
00010000
00000000
00000000
,
00000010
00000000
00010000
00000000
00001000
00010000
00001000
00000000
,
00010000
00011000
00000000
00001000
,
00000000
00101000
00000000
00001000
,
00000000
00010000
00001000
00000100
,
00000000
00000010
00001000
00000001
,
00000000
00000100
00001000
00010000
,
00100000
01000000
00100000
10000000
,
01000000
00000000
01100000
00000000
00000000
00100000
00000000
00000000
,
00001000
00000000
00010000
00000000
00000000
00000010
00000000
00000000
,
00010000
00000000
00001000
00000000
00000000
00010000
00000000
00000000
,
00000100
00001000
00000001
00000010
,
00000100
00000000
00001100
00000000
00000000
00000100
00000000
00000000
,
00010000
00000000
00000000
00000100
00000000
00000000
00001000
00000000
,
00000001
00001001
00000002
00000000
,
00000203
00000000
00000320
00000000
,
00020030
00000000
00031000
00010000
,
00100000
00000000
01000000
00000000
00010000
10000000
00010000
10000000
,
01000000
00100000
01000000
00100000
00001000
00010000
00000100
00010000
,
00001000
00010000
00001000
00000000
00100000
00010000
00100000
00000000
10010000
00000000
00000000
00000000
00000000
00000000
00000000
00000000
;

//--------------- dance-double - Fred-104 ----------------
#NOTEDATA:;
#STEPSTYPE:dance-double;
#DESCRIPTION:Fred-104;
#DIFFICULTY:Medium;
#METER:12;
#CREDIT:Fred-104;
#NOTES:
00000000
00000000
00000000
00000000
,
00000000
00000000
00000000
00000000
,
00000000
00000000
00000000
00000000
,
00000000
00000000
00000000
00000000
,
00000000
00000000
00000000
00000000
,
00010000
00001000
00000100
00000010
,
00001000
00000001
00000100
00001000
,
00011000
00000000
01100000
00000000
,
10010000
01000000
00100000
00022000
,
00033000
00000000
00010010
00000000
00010000
00001000
00000000
00010000
,
00000010
00000000
00001000
00000010
00000000
00000100
00000001
00000000
,
00001000
00000000
00000001
00000000
00000010
00000100
00000000
00010000
,
00001000
00000000
00100000
00010000
00000000
10000000
00010000
00000000
,
01000000
00000000
00100000
00000000
10000000
00010000
00000000
00100000
,
00010000
00000000
01000000
00001000
00000000
00010000
00001000
00000000
,
00010000
00000000
00000100
00000000
00001000
00000001
00000000
00000100
,
00000010
00000100
00001000
00010000
,
00001000
00000000
00011000
00000000
00001000
01000000
00000000
00001000
,
00010000
00000000
00001000
00100000
00000000
00010000
10000000
00000000
,
00010000
00000000
01000000
00000000
00100000
10000000
00000000
01000000
,
00100000
00000000
01000000
00010000
00000000
00001000
00000010
00000000
,
00000100
00000000
00001000
00000000
00000001
00000010
00000000
00000100
,
00000010
00000000
00000001
00001000
00000000
00000100
00010000
00000000
,
00001000
00010000
00001000
00000010
,
00000100
00001000
00000001
00000100
,
00001000
00000000
00010000
00001000
00010000
00000000
00001000
00000000
,
01000000
00000000
00010000
00100000
00010000
00000000
10000000
00000000
,
01000000
00000000
00100000
00010000
00100000
00000000
00001000
00010000
,
00001000
00000000
00010000
00000010
00010000
00000000
00000010
00001000
,
00000100
00000000
00001000
00000001
00000010
00000000
00000100
00000000
,
00010000
00000000
00001000
00010000
00001000
00000000
00010000
00000000
,
00000010
00000000
00001000
00000010
00010000
00000000
00001000
00100000
,
00010000
00000000
00010000
10000000
00010000
10000000
00010000
00000000
,
10010000
00000000
10000000
00000000
01000000
00000000
00100000
00010000
,
00100000
00000000
00001000
00010000
00000010
00010000
00001000
00000000
,
00010000
00000000
00000100
00001000
00000100
00000000
00000010
00000000
,
00000001
00002000
00000000
00000002
,
00003003
00000000
00000001
00000100
00001000
00000000
00010000
00000000
,
00100000
00000000
01000000
00010000
10000000
00000000
01000000
00100000
,
01000000
00000000
10000000
01000000
00010000
00000000
00001000
00000000
,
00000010
00000000
00000100
00001000
00000001
00000000
00000100
00000010
,
00000100
00000000
00000001
00001000
00000010
00000000
00010000
00000000
,
00001000
00000000
00000010
00000100
00001000
00000000
00000010
00000000
,
00010000
00001000
00101000
00010000
,
00010010
00010000
00001000
00000010
,
00000001
00000100
00001000
00010000
,
00001000
00000000
01000000
01000000
00000000
00100000
00100000
00000000
,
10010000
00000000
10000000
00100000
01000000
00000000
00010000
10000000
,
01000000
00000000
00100000
00010000
00100000
00000000
00001000
00010000
,
00000010
00000000
00001000
00000001
00000010
00000000
00000100
00001000
,
00000010
00000000
00010000
00000010
00001000
00000000
00000010
00010000
,
00001000
00000000
00100000
00010000
10000000
00000000
00010000
00100000
,
01000000
00000000
10000000
01000000
00100000
00000000
00001000
00010000
,
00001000
00000000
00000100
00000010
00001000
00000000
00000001
00001000
,
00000010
00001000
00000200
00000000
00010000
00000000
00010000
00000000
,
00010300
00001000
00020000
00000000
00001000
00000000
00001000
00000000
,
00031000
00100000
00010000
10000000
01000000
00000000
00010000
00001000
,
00010000
00000000
00011000
00010000
00001000
00000100
00000010
00001000
,
00000100
00000000
00000010
00000000
00000001
00000100
00000010
00000000
00000100
00001000
00010000
00000000
00100000
01000000
00100000
10000000
,
00010000
10000000
01000000
00100000
00010000
00000000
00000000
00000000
00011000
00000000
00000000
00000000
00010000
00000000
00001000
00000000
,
00000100
00000000
00000010
00000000
00001000
00000000
00000001
00000010
,
00001000
00000000
00010000
01000000
00000000
00100000
00010000
10000000
,
01000000
00000000
00100000
00010000
00100000
00000000
00001000
00000000
,
00010000
00000010
00010000
00001000
00010000
00000000
00000100
00000000
,
00001000
00000001
00000000
00000010
00000000
00000010
00000000
00000100
,
00010000
00001000
00010000
00000000
00100000
00000000
01000000
00010000
,
10000000
00000000
01000000
00100000
00010000
00000000
00100000
00001000
,
00010000
00000000
00001000
00010000
00000010
00010000
00000000
00001000
,
00010000
00000000
00000100
00001000
00000001
00001000
00000000
00000100
,
00000010
00000000
00000001
00000100
00000010
00001000
00000000
00000100
,
00010000
00000000
00001000
00100000
00010000
00000000
10000000
00010000
,
00100000
00000000
00010000
00100000
01000000
00100000
00000000
00010000
,
10000000
00000000
01000000
00100000
00001000
00010000
00000000
00001000
,
00000010
00000000
00000001
00001000
00000001
00000010
00000000
00000100
,
00010000
00001000
00010000
00000000
00001000
00100000
00010000
10000000
,
01000000
00100000
01000000
00000000
11000000
00000000
00100000
00000000
,
00110000
00001000
00011000
00000010
,
00000110
00000000
00000001
00001000
00000100
00000000
00000010
00000001
,
00001000
00000000
00000100
00010000
00001000
00000000
00010000
00000010
,
00001000
00000000
00000010
00010000
00001000
00010000
00001000
00010000
,
00100000
00000000
01000000
00010000
01000000
00010000
10000000
00010000
,
00100000
00000000
01100000
00000000
10000000
10000000
00000000
01000000
,
00100000
00001000
00010000
00000000
00000100
00000100
00000000
00001000
,
00000001
00000010
00000100
00000000
00000010
00000010
00000000
00000001
,
00001000
00000100
00010000
00000000
00001000
00000000
00000100
00000000
,
00000010
00000000
00001001
00000000
00000000
00000100
00000000
00000000
,
00010000
00000000
00000000
00001000
00000000
00000000
00100000
00000000
,
00001000
00000000
00000000
00000000
00011000
00000000
00000000
00000000
00011000
00000000
00001000
00010000
00100000
00000000
01000000
00000000
,
00010000
10000000
00100000
00000000
10000000
00010000
00100000
00000000
01000000
00000000
00100000
00001000
00010000
00000000
00000100
00000000
,
00001000
00000001
00000010
00000000
00000100
00010000
00001000
00000000
00010000
00000000
00001000
00000100
00000010
00000000
00001000
00000000
,
00000001
00000010
00000100
00000000
00010000
00001000
00010000
00000000
00000010
00001000
00000010
00000000
00010000
00001000
00100000
00000000
,
00010000
10000000
00010000
01000000
00100000
10000000
01000000
00000000
00100000
00010000
00100000
00001000
00010000
00000010
00001000
00000000
,
00000001
00000010
00000100
00001000
00000100
00000010
00000001
00000000
00001001
00000000
00000000
00000000
00000000
00000000
00000000
00000000
;

//--------------- dance-double - Fred-104 ----------------
#NOTEDATA:;
#STEPSTYPE:dance-double;
#DESCRIPTION:Fred-104;
#DIFFICULTY:Hard;
#METER:16;
#CREDIT:Fred-104;
#NOTES:
00000000
00000000
00000000
00000000
,
00000000
00000000
00000000
00000000
,
00000000
00000000
00000000
00000000
,
00000000
00000000
00000000
00000000
,
00000000
00000000
00000000
00000000
,
00000000
00010000
00000100
00001000
00000100
00010000
00001000
00000010
,
00000001
00001000
00000010
00010000
00001000
00010000
01000000
00000000
,
00200000
00310000
10000000
00100000
01000000
00000000
00010000
00100000
,
00002000
00000000
02003000
03001000
00020000
00030100
00002000
00003001
,
00000000
00000000
00001001
00000000
00000001
00000010
00000000
00000100
,
00010000
00000000
00001000
00100000
00000000
00010000
10000000
00000000
,
10010000
00000000
01100000
00000000
10000000
00100000
00000000
00010000
,
00001000
00000000
00000100
00000010
00000000
00001000
00000100
00000010
,
00000100
00000000
00001100
00000000
00001000
00000001
00000000
00000100
,
00001000
00000000
00010000
00100000
00000000
01000000
00010000
00000000
,
10000000
00000000
10010000
00000000
10000000
00100000
00000000
01000000
,
00010000
00000000
10000000
01000000
00100000
00010000
00100000
00001000
,
00010000
00000000
00001000
00000000
00010000
01000000
00000000
00010000
,
00001000
00000000
00010000
00100000
00000000
00010000
00001000
00000000
,
00010000
00000000
00000010
00000000
00010000
00001000
00000000
00000100
,
00001000
00000000
00010000
00001000
00000010
00001000
00010000
00001000
,
00010000
00000000
00000100
00000000
00001000
00000100
00000000
00000010
,
00000100
00000000
00000001
00000100
00000000
00001000
00000001
00000010
,
00000100
00010000
00001000
00010000
01000000
00100000
00010000
00000000
,
10000000
00100000
00010000
00001000
00010000
00000000
00000010
00000100
,
00000010
00000000
00001000
00000100
00000010
00000001
00000100
00001000
,
00010000
00000000
00001000
00010000
00100000
00010000
00001000
01000000
,
00001000
00000000
00010000
00001000
00000100
00000001
00001000
00000100
,
00000010
00000000
00000001
00000100
00000010
00000100
00001000
00010000
,
00100000
00000000
01000000
00010000
10000000
00010000
00100000
01000000
,
00100000
00001000
00010000
00100000
00010000
00001000
00010000
00001000
,
00000100
00000000
00000010
00001000
00000001
00000010
00000100
00000010
,
00001000
00010000
00001000
00001000
00001000
00001000
00011000
00000000
,
01000000
00100000
01000000
00010000
00100000
01000000
10000000
00100000
,
00010000
00001000
00000100
00000010
00010000
00001000
00000100
00000000
,
00000001
00001000
00000100
00000010
00000100
00000001
00000100
00001000
,
00000010
00010000
00001000
00010000
00100000
01000000
00001000
00010000
,
01000000
10000000
00010000
00000000
10000000
00100000
00010000
00001000
,
00010000
00100000
01000000
00001000
00010000
01000000
10000000
01000000
,
00100000
00001000
00010000
00001000
00000100
00000010
00000100
00000001
,
00001000
00000100
00010000
00001000
00000100
00000010
00000100
00001000
,
00010000
00000010
00001000
00000100
00000001
00000100
00001000
00000010
,
00010000
00001000
00011000
00000000
01100000
00000000
00010000
00100000
,
10000000
00100000
00010000
10000000
01000000
00010000
00001000
00000010
,
00000001
00000100
00000010
00001000
00010000
00001000
00000010
00001000
,
00000100
00001100
00101000
00010010
,
00011000
00000000
00001000
00010000
00100000
10000000
00010000
00100000
,
01000000
00000000
00100000
00010000
10000000
00100000
00010000
00001000
,
00010000
01000000
00010000
00001000
00000010
00000001
00001000
00000100
,
00000010
00000000
00010000
00100000
01000000
00100000
00001000
00010000
,
00001000
00000010
00000001
00001000
00000001
00000100
00001000
00010000
,
00100000
00000000
01000000
00010000
00100000
01000000
00100000
00010000
,
10000000
01000000
00010000
00001000
00000100
00001000
00010000
00100000
,
01000000
00001000
00010000
01000000
10000000
00010000
00100000
00001000
,
00100000
00010000
01000000
00100000
00010000
00001000
00000100
00000010
,
00001000
00000001
00000020
00000000
00000001
00000000
00001000
00000000
,
00000031
00000010
00000100
00001000
00000100
00010000
00001000
01000000
,
00010000
00000000
00000000
00000000
10010000
00000000
00010000
00100000
01000000
10000000
00010000
00100000
01000000
00100000
00001000
00010000
,
00000100
00000010
00000100
00001000
00000001
00000100
00000010
00000100
00001000
00010000
00100000
01000000
00100000
10000000
01000000
00010000
,
00001000
00010000
01000000
00000000
10000000
00000000
00010000
00000000
01000000
00000000
00100000
00000000
00010000
00000000
00001000
00000000
,
00010000
00000100
00000010
00000001
00000100
00001000
00000100
00000001
,
00000010
00000100
00000010
00001000
00010000
01000000
00100000
00010000
,
01000000
00001000
00010000
00001000
00100000
01000000
10000000
00010000
,
10000000
00000000
00010000
00100000
10000000
00100000
01000000
10000000
,
00010000
01000000
00000000
01001000
00000000
00011000
00000000
00010000
,
00001000
00000100
00000010
00010000
00001000
00000010
00000100
00001000
,
00000001
00000000
00000100
00000000
00001000
00000000
00010000
00000000
00100000
00000000
01000000
00000000
00010000
00000000
00100000
01000000
,
10000000
00000000
00010000
01000000
10000000
01000000
00000000
00001000
,
00010000
00001000
00010000
00001000
00000100
00001000
00000000
00010000
,
00000010
00001000
00000001
00000010
00001000
00000010
00000001
00000100
,
00001000
00010000
00100000
01000000
00100000
10000000
01000000
00100000
,
00001000
00000000
00010000
00001000
00000010
00000001
00001000
00000100
,
00000010
00000001
00000100
00001000
00010000
00100000
01000000
00010000
,
10000000
01000000
00100000
00001000
00000010
00000100
00001000
00000001
,
00000100
00000000
00001000
00000000
00010000
00000000
00000000
00000000
00100000
00000000
01000000
00000000
00010000
10000000
00010000
10000000
,
00010000
10000000
00010000
10000000
00010000
00000000
00000000
00000000
10010000
00000000
00000000
00000000
00101000
00000000
00000000
00000000
,
01001000
00000000
00010010
00000000
00010100
00000000
00010000
00001000
,
00000100
00000010
00001000
00000100
00000010
00000001
00000100
00001000
,
00010000
00001000
00010000
00100000
01000000
00010000
10000000
01000000
,
00100000
00000000
00001000
00010000
00100000
10000000
00010000
10000000
,
01000000
00000000
00100000
00000000
00001000
00000000
00010000
00000000
00001000
00000000
00000100
00000000
00000001
00001000
00000001
00000000
,
00000100
00000010
00000100
00000000
00000001
00000000
00000000
00000000
00000100
00000000
00000110
00000000
00000000
00000000
00010000
00000000
,
00001000
00100000
00010000
00000000
01000000
01100000
00000000
00100000
,
10000000
01000000
00100000
00000000
00001000
00011000
00000000
00010000
,
00000010
00001000
00000100
00000010
00000001
00000100
00000010
00001000
,
00000001
00000010
00000011
00000000
00000000
00001010
00000000
00000000
,
00011000
00000000
00000000
01010000
00000000
00000000
11000000
00000000
,
00010000
00000000
00000000
00000000
10000000
00000000
00000000
00000000
00010000
00000000
00000000
00000000
10000000
00000000
00000000
00000000
00000000
00000000
00000000
00000000
00000000
00000000
00000000
00000000
00010000
00000000
00000000
00000000
00000000
00000000
10000000
00000000
00000000
01000000
00000000
00000000
00100000
00000000
00000000
01000000
00000000
00000000
10000000
00000000
00000000
01000000
00000000
00000000
,
00100000
00010000
00100000
00001000
00010000
00000100
00001000
00000100
00000010
00000000
00000001
00000100
00001000
00000100
00000001
00000010
,
00001000
00000010
00000001
00000010
00000100
00010000
00001000
00100000
01000000
00000000
10000000
00100000
01000000
00100000
00010000
00001000
,
00000100
00000010
00000100
00000001
00001000
00000100
00000010
00000001
00000100
00000010
00000001
00000010
00001000
00000001
00000010
00001000
,
00010000
00001000
00010000
01000000
00100000
01000000
10000000
00010000
01000000
00100000
10000000
00100000
00010000
00100000
01000000
00001000
,
00010000
00001000
00000100
00000010
00000100
00000001
00000010
00001000
00010000
00000000
00000000
00000000
00000000
00000000
00000000
00000000
;

//--------------- dance-double - Fred-104† ----------------
#NOTEDATA:;
#STEPSTYPE:dance-double;
#DESCRIPTION:Fred-104†;
#DIFFICULTY:Challenge;
#METER:17;
#CREDIT:Fred-104†;
#NOTES:
00000000
00000000
00000000
00000000
,
00000000
00000000
00000000
00000000
,
00000000
00000000
00000000
00000000
,
00000000
00000000
00000000
00000000
,
00000000
00000000
00000000
00000000
,
00010000
10000000
00010000
01000000
00100000
01000000
00010000
00100000
,
00001000
00000010
00001000
00010000
00000100
00010000
00000010
00001000
,
00000001
00000100
00000010
00000100
00001000
00000000
00010000
00100000
,
02000000
03000000
00020000
10030000
02000000
03010000
00002000
00013000
,
00000000
MMMMMMMM
00000000
00000000
00000000
00000000
00000000
00000000
00000000
00000000
00000000
00000000
00000000
00000000
00000000
00000000
00000000
00000000
00000000
00000000
00000000
00000000
00000000
00000000
00000000
00000000
00000000
00000000
00000000
00000000
00000000
00000000
00000000
00000000
00000000
00000000
00000000
00000000
00000000
00000000
00000000
00000000
00000000
00000000
00000000
00000000
00000000
00000000
00011000
00000000
00000000
00000000
00000000
00000000
00000000
00000000
00000000
00000000
00000000
00000000
00000000
00000000
00000000
00000000
00000000
00000000
00000000
00000000
00000000
00000000
00000000
00000000
00000000
00000000
00000000
00000000
00000000
00000000
00000000
00000000
00000000
00000000
00000000
00000000
00000000
00000000
00000000
00000000
00000000
00000000
00000000
00000000
00000000
00000000
00000000
00000000
00010000
00000000
00000000
00000000
00000000
00000000
00000000
00000000
00000000
00000000
00000000
00000000
00000000
00000000
00000000
00000000
00000000
00000000
00000000
00000000
00000000
00000000
00000000
00000000
00010010
00000000
00000000
00000000
00000000
00000000
00000000
00000000
00000000
00000000
00000000
00000000
00000000
00000000
00000000
00000000
00000000
00000000
00000000
00000000
00000000
00000000
00000000
00000000
00000000
00000000
00000000
00000000
00000000
00000000
00000000
00000000
00000000
00000000
00000000
00000000
00000000
00000000
00000000
00000000
00000000
00000000
00000000
00000000
00000000
00000000
00000000
00000000
00001000
00000000
00000000
00000000
00000000
00000000
00000000
00000000
00000000
00000000
00000000
00000000
00000000
00000000
00000000
00000000
00000000
00000000
00000000
00000000
00000000
00000000
00000000
00000000
,
00001100
00000000
00010000
00011000
00000000
01000000
01001000
00000000
,
00011000
00000000
00010100
00000000
00001000
00001010
00000000
00000100
,
00010100
00000000
00010000
00011000
00000000
00001000
01001000
00000000
,
00110000
00000000
10010000
00000000
10000000
11000000
00000000
00010000
,
00110000
00000000
01000000
01100000
00000000
00100000
10010000
00000000
,
10100000
00000000
01010000
00000000
01000000
01001000
00000000
00001000
,
00011000
00000000
00010000
00001000
00000100
00000001
00001000
00000100
,
00000010
00000001
00001000
00000100
00000010
00000001
00000100
00001000
,
00010000
00100000
01000000
00010000
00100000
01000000
10000000
01000000
,
00100000
00000000
00010000
10000000
00100000
00010000
00001000
00000100
,
00000010
00001000
00000100
00000001
00000100
00001000
00000010
00010000
,
00001000
00000000
00000000
00000000
00000000
00000000
00000000
00000000
00100000
00000000
00000000
00000000
00000000
00000000
00000000
00000000
00001000
00000000
00000000
00000000
00000000
00000000
00000000
00000000
00020000
00030000
00000000
00000000
00000000
00000000
00000000
00000000
00020000
00030000
00000000
00000000
00000000
00000000
00000000
00000000
01000000
00000000
00000000
00000000
00000000
00000000
00000000
00000000
00002000
00003000
00000000
00000000
00000000
00000000
00000000
00000000
00002000
00003000
00000000
00000000
00000000
00000000
00000000
00000000
,
00000100
00000000
00000000
00000000
00000000
00000000
00000000
00000000
00020000
00030000
00000000
00000000
00000000
00000000
00000000
00000000
00020000
00030000
00000000
00000000
00000000
00000000
00000000
00000000
00100000
00000000
00000000
00000000
00000000
00000000
00000000
00000000
00002000
00003000
00000000
00000000
00000000
00000000
00000000
00000000
00002000
00003000
00000000
00000000
00000000
00000000
00000000
00000000
00000010
00000000
00000000
00000000
00000000
00000000
00000000
00000000
00020000
00030000
00000000
00000000
00000000
00000000
00000000
00000000
,
00020000
00030000
00000000
00000000
00000000
00000000
00000000
00000000
00001000
00000000
00000000
00000000
00000000
00000000
00000000
00000000
00100000
00000000
00000000
00000000
00000000
00000000
00000000
00000000
00001000
00000000
00000000
00000000
00000000
00000000
00000000
00000000
00010000
00000000
00000000
00000000
00000000
00000000
00000000
00000000
00001000
00000000
00000000
00000000
00000000
00000000
00000000
00000000
00000010
00000000
00000000
00000000
00000000
00000000
00000000
00000000
00000000
00000000
00000000
00000000
00000000
00000000
00000000
00000000
,
00000001
00000100
00001000
00010000
00001000
00000000
01000000
00100000
,
10000000
00000000
00010000
00100000
01000000
00010000
01000000
10000000
,
00010000
10000000
00100000
00001000
00000010
00000100
00000001
00001000
,
00000100
00001000
01000000
10000000
00010000
01000000
00100000
10000000
,
01000000
00001000
00000100
00000010
00000001
00000100
00000010
00001000
,
00100000
10000000
00010000
00100000
00001000
00010000
00001000
00000100
,
00000010
00001000
00000001
00000100
00001000
00010000
00100000
00010000
,
00001000
00000100
00000010
00001000
00000001
00000010
00001000
00010000
,
01000000
00100000
00010000
00001000
00010000
00100000
01000000
10000000
,
00100000
00010000
00001000
00000100
00000010
00000100
00001000
00010000
,
00100000
01000000
00001000
00010000
01000000
10000000
00010000
10000000
,
00100000
00010000
00001000
00000100
00000001
00001000
00000001
00000010
,
00001000
00010000
01000000
10000000
00100000
00010000
00001000
00000100
,
00000001
00000000
00001000
00000000
00000100
00000000
00000000
00000010
00000001
00001000
00000001
00000010
00000100
00000000
00000000
00010000
,
00001000
00100000
00001000
00010000
00001000
00000000
01000000
00000000
00001000
00000000
00010000
00000000
00100000
00000000
10000000
00000000
,
00010000
00000000
01000000
00000000
00100000
10000000
00010000
10000000
01000000
00100000
01000000
00000000
10000000
00010000
10000000
01000000
,
00100000
00010000
00100000
00000000
00001000
00000000
00010000
00000000
00000010
00000000
00001000
00000000
00010000
00000000
00001000
00000000
,
00000010
00000000
00010000
00000000
00001000
00010000
00000100
00001000
00000100
00000010
00000001
00000000
00001000
00000001
00000100
00000001
,
00000010
00000100
00000010
00000000
00000001
00000000
00000000
00000001
00000100
00000000
00000000
00000100
00001000
00000000
00010000
00000000
,
00001000
00000000
01000000
00000000
00100000
10000000
00100000
10000000
00010000
10000000
01000000
00000000
00100000
00001000
00010000
00001000
,
00100000
00001000
00010000
00000000
00001000
00000000
00010000
00000000
00100000
00000000
01000000
00000000
00010000
00000000
00001000
00000000
,
00000010
00000110
00001010
00000011
,
00001001
00000000
00000000
00000000
00000001
00000000
00000010
00000000
00001000
00010000
00001000
00010000
01000000
00000000
10000000
00000000
,
00010000
00000000
10000000
00100000
01000000
10000000
00010000
00100000
,
01000000
00010000
10000000
00100000
00010000
00001000
00010000
00100000
,
01000000
00001000
00010000
00001000
00000010
00000001
00001000
00000100
,
00000010
00001000
00000001
00000100
00001000
00000001
00000010
00001000
,
00010000
01000000
00100000
00010000
01000000
00001000
00000100
00000010
,
00001000
00000001
00000010
00000100
00000010
00001000
00010000
01000000
,
00100000
00010000
10000000
00100000
00010000
00001000
00100000
00001000
,
00000010
00000000
00000100
00000000
00001000
00000100
00001000
00000100
00000020
00000000
00000000
00000000
00000001
00000000
00000000
00000000
,
00000130
00000000
00000100
00000000
00010000
00001000
00020000
00000000
00000010
00000000
00000000
00000000
00001000
00000000
00000000
00000000
,
00030100
00010000
00001000
00100000
10010000
00000000
00101000
00000000
,
00010010
00000000
00000000
00000000
00011000
00000000
00010000
00001000
00000100
00000001
00000010
00000100
00000010
00001000
00010000
01000000
,
00100000
00010000
00100000
01000000
10000000
00100000
00010000
00001000
00010000
00001000
00000100
00000010
00001000
00000010
00000001
00000010
,
00001000
00000000
00000100
00000010
00000100
00000010
00000100
00000010
00000001
00000000
00000000
00000000
00000100
00000000
00000000
00000000
00001000
00000000
00000000
00000000
00010000
00000000
00000000
00000000
01000000
00000000
00000000
00000000
00100000
00000000
00000000
00000000
,
01000000
00010000
00001000
00010000
00100000
01000000
00001000
00010000
,
01000000
10000000
00010000
10000000
00100000
00010000
00001000
00000100
,
00000010
00010000
00001000
00000100
00000001
00000010
00001000
00010000
,
01000000
10000000
00100000
01000000
00100000
00010000
00001000
00000100
,
00000010
00001000
00000000
00001001
00000000
00000001
00000010
00010000
,
00100000
01000000
10000000
00100000
01000000
00100000
00010000
00100000
,
01000000
00001000
00010000
00001000
00000010
00001000
00010000
00001000
,
00000100
00000000
00000001
00000000
00001000
00000000
00000001
00000100
00000001
00000000
00001000
00000000
00000010
00010000
00000010
00000000
,
00010000
00000000
00001000
00000000
01000000
00000000
00010000
00100000
00010000
00000000
10000000
00000000
01000000
00100000
01000000
00000000
,
10000000
00000000
00010000
00000000
01000000
00000000
00010000
00100000
01000000
00000000
10000000
00000000
00010000
00100000
01000000
00000000
,
10000000
00010000
01000000
00100000
00100000
00100000
00001000
00010000
,
00010000
00000000
00010000
00000000
00000010
00000000
00001000
00000001
00000010
00000000
00000100
00000000
00000010
00000001
00001000
00000000
,
00000100
00000000
00010000
00000000
00000010
00000000
00010000
00001000
00100000
00000000
00010000
00000000
10000000
00010000
00100000
00000000
,
01000000
00100000
00001000
00010000
00100000
00001000
00000010
00000100
,
00000001
00000000
00001000
00000000
00000100
00000000
00000000
00000000
00000010
00000000
00000100
00000000
00010000
00001000
00010000
00001000
,
00100000
01000000
00100000
01000000
00100000
00000000
00000000
00000000
00110000
00000000
00000000
00000000
10100000
00000000
00000000
00000000
,
01010000
00001010
00000101
00000011
,
00001001
00000000
00000001
00000010
00000100
00010000
00001000
00000100
,
00000010
00001000
00010000
01000000
00100000
10000000
00100000
00010000
,
00001000
00010000
01000000
00100000
00001000
00010000
01000000
00100000
,
00001000
00000000
00010000
00000000
00001000
00000000
00000010
00000000
00000100
00000000
00001000
00000000
00000001
00000100
00000001
00000100
,
00001000
00010000
00001000
00000000
00010000
00000000
00000000
00000000
00010000
00000000
00011000
00000000
00000000
00000000
00101000
00000000
,
00001000
00000000
00010000
00000000
00010010
00000000
00000000
00000000
00011000
00000000
00000000
00000000
00010000
00000100
00001000
00000100
,
00010000
00000100
00001000
00000000
00001100
00000000
00000000
00000000
00000110
00000000
00000000
00000000
00000010
00000001
00001000
00000001
,
00000100
00000010
00001000
00000000
00000001
00000000
00000100
00000010
00000100
00000000
00001000
00000000
00010000
00000000
00100000
01000000
,
00100000
10000000
10010000
00000000
00000000
11000000
00000000
00000000
,
00110000
00000000
00000000
00001100
00000000
00000000
00000011
00000000
,
00000001
00000000
00000000
00000000
00000100
00000000
00000000
00000000
00001000
00000000
00000000
00000000
00010000
00000000
00000000
00000000
00000000
00000000
00000000
00000000
00000000
00000000
00000000
00000000
00011000
00000000
00000000
00000000
00000000
00000000
00001000
00000000
00000000
00010000
00000000
00000000
00100000
00000000
00000000
00010000
00000000
00000000
00001000
00000000
00000000
00010000
00000000
00000000
,
00100000
10000000
00010000
00100000
10000000
00100000
00010000
10000000
01000000
00000000
00010000
00001000
00000010
00000100
00001000
00000001
,
00000100
00000010
00000001
00000010
00000100
00000001
00001000
00000100
00000001
00000000
00000100
00000010
00000100
00001000
00000001
00000100
,
00001000
00010000
00100000
00010000
00001000
00000100
00000010
00001000
00000001
00000010
00000100
00000010
00001000
00100000
01000000
00100000
,
00010000
10000000
00100000
00010000
00001000
00010000
00100000
00010000
00001000
00000100
00000010
00001000
00000001
00000010
00001000
00010000
,
01000000
10000000
00100000
00010000
00001000
00000100
00000001
00000010
00000100
00000000
00000000
00000000
00000000
00000000
00000000
00000000
;
