#VERSION:0.83;
#TITLE:ジュピターガンズノベル;
#ARTIST:工藤吉三(ベイシスケイプ);
#TITLETRANSLIT:Jupiter guns novel;
#ARTISTTRANSLIT:Yoshimi Kudo (Basiscape);
#BANNER:Jupiter guns novel.png;
#BACKGROUND:Jupiter guns novel-bg.png;
#CDTITLE:./CDTitles/GITADORA OverDrive.png;
#MUSIC:Jupiter guns novel.ogg;
#SAMPLESTART:78.429;
#SAMPLELENGTH:15;
#BPMS:0=156;
#TIMESIGNATURES:0=4=4,32=6=4,38=4=4,310=2=4,312=4=4;

//--------------- dance-single - Fred-104 ----------------
#NOTEDATA:;
#STEPSTYPE:dance-single;
#DESCRIPTION:Fred-104;
#DIFFICULTY:Beginner;
#METER:3;
#CREDIT:Fred-104;
#NOTES:
0000
0000
0000
0000
,
0000
0000
0000
0000
,
0000
0000
0000
0000
,
1000
0000
0000
0000
,
0000
0000
0000
0000
,
0001
0000
0000
0000
,
0010
0000
0000
0000
,
0100
0000
0000
0000
,
0100
0000
0000
0000
,
0000
0000
1000
0000
,
1000
0000
0010
0000
,
0000
0000
0001
0000
,
0001
0000
0010
0000
,
0000
0000
1000
0000
,
1000
0000
0001
0000
,
0000
0000
0100
0000
,
0100
0000
1000
0000
,
0100
0000
0002
0000
,
0000
0003
2000
0000
,
0000
3000
0002
0000
,
0000
0003
2000
0000
,
0000
3000
0001
0000
,
0100
0000
0100
0000
,
0001
0000
0001
0000
,
1000
0000
0100
0000
,
0100
0000
0200
0000
,
0000
0300
0010
0000
,
0010
0000
0001
0000
,
0000
0000
1000
0000
,
0010
0000
1000
0000
,
0000
0000
0001
0000
,
1000
0000
0001
0000
,
0000
0000
0100
0000
,
0010
0000
0100
0000
,
0000
0000
0001
0000
,
0001
0000
1000
0000
,
1000
0000
0100
0000
,
0100
0000
0010
0000
,
0010
0000
0001
0000
,
1000
0000
1001
0000
,
0000
0000
1000
0000
,
0001
0000
1001
0000
,
0000
0000
0001
0000
,
0100
0000
1000
0000
,
0000
0000
1000
0000
,
0100
0000
0001
0000
,
0000
0000
1000
0000
,
0100
0000
0100
0000
,
0010
0000
0010
0000
,
0001
0000
1000
0000
,
0001
0000
2002
3003
,
0000
0000
1000
0000
,
0001
0000
1000
0000
,
0010
0010
0010
0000
,
0001
0000
0001
0000
,
0010
0010
0010
0000
,
1000
0000
1000
0000
,
0001
0000
2000
0000
,
3000
0002
0000
0003
,
1001
0000
0001
0000
,
0100
0000
0100
0000
,
0100
0000
1000
0000
,
1000
0000
0100
0000
,
0100
0000
0001
0000
,
0000
0000
1000
0000
,
0100
0000
0010
0000
,
0010
0000
0001
0001
,
0001
0000
1000
1000
,
1000
0000
0000
1001
,
0000
0000
0001
0000
,
0000
0100
0000
0000
,
0010
0000
1000
0000
,
0001
0000
1000
0000
,
1000
0000
0001
0000
,
0001
0000
0100
0100
,
0100
0000
0010
0000
,
1000
0000
0001
0000
,
0001
0000
0001
0000
,
1001
0000
0000
0000
;

//--------------- dance-single - Fred-104 ----------------
#NOTEDATA:;
#STEPSTYPE:dance-single;
#DESCRIPTION:Fred-104;
#DIFFICULTY:Easy;
#METER:7;
#CREDIT:Fred-104;
#NOTES:
0000
0000
0000
0000
,
0000
0000
0000
0000
,
0000
0000
0000
0000
,
0000
0000
0000
0000
,
0000
0000
0000
0000
,
1000
0000
0000
0100
0000
0000
1000
0000
,
0001
0000
0000
0100
0000
0000
0001
0000
,
1000
0000
0000
0100
0000
0000
0010
0000
,
0000
0000
0001
0000
0000
0001
0000
0000
1000
0000
0000
1000
0000
0000
1001
0000
,
0000
0000
0000
0000
0000
0000
0000
0000
1000
0000
0100
0000
0000
0100
0000
0000
,
0100
0000
0000
0100
0000
0000
0010
0000
0000
0000
0001
0000
1000
0000
0000
0000
,
0001
0000
0000
0000
0100
0000
0000
0000
0010
0000
0100
0000
0000
0100
0000
0000
,
0100
0000
0000
0100
0000
0000
0100
0000
0001
0000
0000
0000
1000
0000
0000
0000
,
0010
0000
1000
0000
0010
0000
0000
0000
1000
0000
0100
0000
0000
0100
0000
0000
,
0010
0000
0000
0010
0000
0000
0001
0000
0000
0000
1000
0000
0010
0000
0000
0000
,
1000
0000
0001
0000
0010
0000
0000
0000
0100
0000
0010
0000
0000
0010
0000
0000
,
0010
0000
0000
0010
0000
0000
0001
0000
1000
0000
0000
0000
0010
0000
0000
0000
,
1000
0000
0000
0000
0001
0000
0000
0000
1000
0000
0000
1000
0000
0000
1000
0000
,
0000
1000
0000
0000
0001
0000
0000
0001
0000
0000
0001
0000
0000
0001
0000
0000
,
0100
0000
0000
0010
0000
0000
0100
0000
0001
0000
0000
0000
1000
0000
0000
0000
,
0100
0000
0000
0000
0010
0000
0000
0000
0001
0000
0000
0001
0000
0000
1000
0000
,
0000
1000
0000
0000
1001
0000
0000
0000
1000
0000
0000
0000
0100
0000
0000
0000
,
0010
0010
0001
1000
,
0020
0030
0100
0100
,
0001
0000
0000
0000
1000
0000
0000
0000
0100
0000
0000
0100
0000
0000
0100
0000
,
0010
0000
0000
0010
0000
0000
2002
0000
0000
0000
0000
0000
0000
0000
0000
0000
,
0000
3003
0002
0000
,
2003
0000
3020
0000
,
0130
0100
0001
2000
,
3100
0000
0010
0100
,
1000
0001
0200
0000
,
0302
0000
2003
0000
,
3001
0000
0020
0000
,
0000
0130
1000
0001
,
1001
0000
1000
0100
,
0010
0100
0010
0001
,
2000
3000
0010
1000
,
0010
0100
0010
1000
,
0002
0003
1001
0000
,
0110
0000
1001
0000
,
0000
0000
1001
0000
,
0110
0000
1001
0000
,
0000
0000
1000
0100
,
0002
0003
0001
0100
,
2000
3000
0001
0100
,
0010
0000
0100
0001
,
1000
0000
0001
0010
,
2000
3000
1000
0010
,
0002
0003
1000
0010
,
1000
0000
0000
0000
0001
0000
0000
0000
0000
0000
1000
0000
0000
1000
0000
0000
,
0001
0000
0000
0001
0000
0000
2002
0000
0000
0000
0000
0000
3003
0000
0000
0000
,
0000
0000
1000
0100
,
0010
0100
0001
0100
,
2000
3000
0001
1000
,
0010
1000
0001
0010
,
0200
0300
0010
0001
,
1000
0010
0001
0010
,
2000
3000
0001
0010
,
0100
0000
0000
0000
1000
0000
0000
1000
0000
0000
1000
0000
0001
0000
0000
0000
,
1001
0000
1000
0010
,
0001
0010
0100
0010
,
1000
0000
0001
0010
,
0200
0300
1000
0010
,
0200
0000
0300
0000
0001
0000
0000
1000
,
0000
0001
0000
0000
1000
0000
0100
0000
,
0110
0000
0001
0100
,
1000
0000
1000
0100
,
0001
0000
1000
0100
,
0010
0001
0000
1000
,
2002
0000
0000
0000
3003
0000
0000
0000
0001
0000
0000
0001
0000
0000
0010
0000
,
0000
0010
0000
0000
0100
0000
0000
0100
0000
0000
1000
0000
0000
1000
0000
0000
,
0001
0000
0000
1000
0000
0000
0001
0000
0100
0000
0000
0000
0010
0000
0000
0000
,
0100
0001
1000
0100
,
0110
0000
0001
0010
,
0001
1000
0010
1000
,
0001
1000
0100
0010
,
0001
0000
1000
0000
0220
0000
0000
0330
,
2002
0000
0000
3003
,
1001
0000
0000
0000
;

//--------------- dance-single - Fred-104 ----------------
#NOTEDATA:;
#STEPSTYPE:dance-single;
#DESCRIPTION:Fred-104;
#DIFFICULTY:Medium;
#METER:12;
#CREDIT:Fred-104;
#NOTES:
0000
0000
0000
0000
,
0000
0000
0000
0000
,
0000
0000
0000
0000
,
0000
0000
0000
0000
,
0000
0000
0000
0000
,
0001
0100
0001
1000
0100
1000
0010
0100
,
0001
0010
0001
1000
0010
1000
0100
0010
,
0001
0100
0010
1000
0100
0010
0001
1000
,
0000
0000
1010
0000
0000
0101
0000
0000
1100
0000
0000
0011
0000
0000
1001
0000
,
0000
0000
0000
0000
0000
0000
0000
0000
0001
0000
0010
0000
0000
0010
0000
0000
,
0100
0000
0000
0100
0000
0000
1000
0000
0000
0000
0001
0000
0100
0000
0000
0010
,
0000
0010
0000
0010
0000
0000
0100
0000
0001
0000
1000
0000
0000
0100
0000
0000
,
0010
0000
0000
0100
0000
0000
1000
0000
0001
0000
0100
0000
1000
0000
0100
0000
,
0001
0000
0000
0000
0000
0000
1000
0000
0000
0000
0000
0000
0001
0000
0000
0000
1000
0000
0000
0000
0001
0000
0000
0000
1000
0000
0000
0000
0000
0000
0100
0000
0000
0000
0000
0000
0000
0000
0000
0010
0000
0000
0000
0000
0000
0000
0000
0000
,
0001
0000
0000
0100
0000
0000
0010
0000
0000
0000
0100
0000
0001
0000
0000
1000
,
0000
1000
0000
1000
0000
0000
0100
0000
0010
0000
0001
0000
0000
0100
0000
0000
,
0010
0000
0000
1000
0000
0000
0001
0000
0010
0000
0100
0000
1000
0000
0010
0000
,
0100
0000
0010
0000
1000
0000
0000
0000
0001
0000
0010
0000
0100
0000
0000
1000
,
0000
1000
0000
1000
0001
0000
0000
0000
0100
0000
0010
0000
0100
0000
0000
0001
,
0000
0001
0000
0001
1000
0000
0000
0000
0100
0000
0010
0000
0001
0000
0000
1000
,
0000
1000
0000
1000
0010
0000
0000
0000
0100
0000
0000
0101
0000
0000
0010
0000
,
0000
1010
0000
0000
1001
0000
0000
0000
1000
0000
0100
0000
1100
0000
1000
0000
,
0001
0100
0010
0000
0100
0001
1001
1000
,
0100
1000
0001
0000
0100
0010
1010
1000
,
0001
0000
0010
0000
0100
0000
0000
0000
0010
0000
0000
0001
0000
0000
0100
0000
,
0010
0000
0000
1000
0000
0000
2002
0000
0000
0000
0000
0000
0000
0000
0000
0000
,
3003
0001
1000
0000
0001
1000
0000
0001
1000
0000
0000
0100
0000
0000
0001
0000
,
0200
0000
0320
0000
0001
0000
0130
1000
,
0001
0000
0000
1000
0000
0000
0010
0000
0100
0000
0001
0000
0020
0000
0000
0000
,
0130
1000
0010
1000
0001
0010
0100
0001
,
0100
0000
0000
0010
0000
0000
0001
0000
1000
0000
0000
0010
0000
0000
0002
0000
,
0000
0000
1003
0000
0000
0100
0000
0000
0002
0000
0000
0000
0000
0000
0013
0100
,
0010
0000
0000
0001
0000
0000
1000
0000
0010
0000
0000
2000
0000
0000
0000
0000
,
0000
0000
0000
0000
3100
0000
0020
0000
0000
0000
0031
0010
0000
0001
0010
0000
,
0001
1000
0010
0000
1000
0001
0011
0010
,
0100
1000
0001
1000
0010
0100
0101
0001
,
1000
0000
0000
0100
0000
0000
0010
0000
1000
0000
0010
0000
0001
0000
2000
0000
,
0000
3100
0010
0001
1000
0100
1000
0001
,
0100
0000
0000
0010
0000
0000
1000
0000
1001
0000
0000
0100
0000
0000
0100
0000
,
1001
0000
0000
0100
0000
0000
0100
0000
1001
0000
0000
1001
0000
0000
0000
0000
,
0001
0000
0000
0000
1000
0000
0000
0000
1001
0000
0000
0010
0000
0000
0010
0000
,
1001
0000
0000
0010
0000
0000
0010
0000
1001
0000
0000
1001
0000
0000
0000
0000
,
1000
0000
0001
0000
1000
0100
0001
0000
,
0001
0100
2000
0000
3001
0100
1000
0000
,
1000
0100
0002
0000
1003
0000
0010
0000
,
0001
0010
0100
1000
,
0100
0000
0001
0000
1000
0010
0001
0000
,
0001
0010
2000
0000
3001
0010
1000
0000
,
1000
0010
0001
1000
0000
1010
0000
0101
,
0000
0000
1100
0000
0000
0000
0011
0000
0000
0000
1001
0000
0000
1001
0000
0000
,
1001
0000
0000
1001
0000
0000
2002
0000
0000
0000
0000
0000
3003
0000
0000
0000
,
0000
0000
0000
0000
0000
0000
0000
0000
1000
0000
0000
0000
0100
0000
0010
0001
,
0000
0001
0010
0000
0100
0000
1000
0000
0000
0000
0001
0000
0100
0000
0000
0000
,
0010
0000
0000
1000
0000
0000
0001
0000
0010
0000
0000
0000
0100
0000
1000
0000
,
0010
0000
0100
0100
0000
0001
1000
0100
,
1000
0000
0000
0001
0000
0000
0100
0000
0010
0000
0000
1000
0000
0000
0010
0000
,
0000
1000
0100
0010
0000
0001
1000
0010
,
0100
0000
0000
0001
0000
0000
0001
0000
1001
0000
0000
0000
0010
0000
0100
0000
,
0010
0000
0000
0000
0001
1000
0000
0001
0000
0000
0100
0000
0100
0000
0000
0000
,
0220
0000
0000
0000
0330
0000
0000
0000
0001
0000
0000
0000
1000
0000
0001
0100
,
0000
0100
0010
0000
0100
0000
0001
0000
0000
0000
1000
0000
0100
0000
0010
0000
,
0100
0000
0000
1000
0000
0000
1000
0000
0001
0000
0100
0000
0020
0000
0000
0000
,
0100
0000
1030
0000
0001
0010
0200
0000
,
0010
0000
0000
0000
1300
0000
0000
0000
0001
0000
0000
0010
0000
0000
1000
0000
,
0000
0000
0010
0000
0000
0100
0000
0000
0010
0000
0000
0000
0001
0000
0000
0000
,
1001
0000
1001
0000
1000
0100
1000
0100
,
0010
0001
1000
0000
0001
0100
0001
0100
,
0010
0000
1000
0000
0001
0000
0000
0000
0100
0000
0010
0000
0100
0000
0000
0001
,
0000
0001
0000
0001
1000
0000
0001
0000
0000
0000
0010
0000
0100
0000
0000
0000
,
2002
0000
0000
0000
3003
0000
0000
0000
1000
0000
0100
0000
0010
0000
0000
0001
,
0000
0001
0000
0001
1000
0000
0000
0000
0010
0000
0100
0000
0001
0000
0000
1000
,
0000
1000
0000
1000
0100
0000
0000
0000
0010
0000
0100
0000
1000
0000
0000
0010
,
0000
0010
0000
0010
0100
0000
0000
0000
0001
0000
1000
0000
0100
0000
0001
0000
,
0100
1000
0001
0000
1000
0100
0010
0001
,
1000
0010
0100
0001
1000
0100
0010
0100
,
1000
0001
0100
0010
0100
0001
1000
0100
,
0010
0000
0001
0000
1000
0000
0010
0000
1000
0000
0000
0001
0000
0000
0010
0000
,
0100
0000
1000
0000
2002
0000
0000
0000
0000
3003
0000
0000
,
1001
0000
0000
0000
;

//--------------- dance-single - Fred-104 ----------------
#NOTEDATA:;
#STEPSTYPE:dance-single;
#DESCRIPTION:Fred-104;
#DIFFICULTY:Hard;
#METER:16;
#CREDIT:Fred-104;
#NOTES:
0000
0000
0000
0000
,
0000
0000
0000
0000
,
0000
0000
0000
0000
,
0000
0000
0000
0000
,
0000
0000
0000
0000
,
1000
0100
1000
0100
1000
0000
0001
0100
0001
0100
0001
0000
1000
0100
0010
0001
,
1000
0010
1000
0010
1000
0000
0001
0010
0001
0010
0001
0000
1000
0010
0100
0001
,
1000
0100
1000
0100
0010
0000
0001
0100
0001
0100
0010
0000
1000
0001
0010
0001
,
1000
0000
1100
0000
0000
0101
0000
0000
1000
0100
0010
0001
0000
0001
1000
0000
,
0000
0000
0000
0000
0000
0000
0000
0000
0001
0000
1000
0000
0010
0100
0000
0100
,
0001
0000
0001
1000
0000
1000
0100
0000
0000
0000
0010
0000
0001
1000
0000
0010
,
0000
0001
0000
0010
0000
0100
0001
0000
1000
0000
0001
0000
1000
0010
0000
0010
,
0100
0000
0100
0001
0000
0001
1000
0000
0001
0000
0010
0100
0010
0001
0010
0100
,
1000
0000
0000
0001
0000
0000
1000
0000
0000
0001
0000
0000
1000
0000
0000
0000
0010
0000
0000
0000
0100
0000
0000
0000
0001
0000
0000
0000
0000
0000
1000
0000
0000
0000
0000
0000
0100
0000
0000
0010
0000
0000
0000
0000
0000
0010
0000
0000
,
0001
0000
0001
1000
0000
1000
0010
0000
0100
0000
0001
0000
1000
0100
0000
0010
,
0000
1000
0000
0010
0000
0001
1000
0000
0001
0000
0100
0000
0010
1000
0000
1000
,
0001
0000
0001
0010
0000
0010
0100
0000
0001
0000
0100
0010
0100
1000
0001
1000
,
0001
0100
0010
0000
1000
0100
0010
0000
0001
0000
1000
0000
0010
0000
1000
0001
,
0000
0001
0000
0001
0010
0000
0100
0000
1000
0000
0001
0000
0100
0000
0010
1000
,
0000
1000
0000
1000
0001
0000
0010
0000
0100
0000
1000
0000
0001
0000
0100
0001
,
0000
1000
0000
0001
0100
0000
0010
0000
0100
0001
0000
1000
0001
0000
0010
0001
,
0000
1000
0001
0000
1001
0000
0000
0000
0001
0000
0010
0000
0100
0000
1000
0001
,
0000
0101
0000
0001
1000
0000
0001
0000
0010
0000
0100
0000
1000
0000
0001
0100
,
0000
0110
0000
0100
0001
0000
1000
0000
0100
0000
0010
0000
0001
0000
1000
0001
,
0000
0101
0000
0001
1000
0000
0100
0000
1100
0000
0000
0010
0000
0000
0001
0000
,
0101
0000
0000
0010
0000
0000
2001
0000
0000
0000
0000
0000
0000
0000
0000
0000
,
3000
0001
0010
0000
0010
0100
0000
0100
1000
0000
0000
0001
0000
0000
0100
1000
,
0200
0000
0000
0000
0320
0000
0000
0000
0000
0000
0000
0000
0000
0000
1030
0001
,
0010
0000
0000
0100
0000
0000
1000
0000
0001
0000
0100
0000
2000
0000
0000
0000
,
3100
0000
0001
1000
0001
0100
0001
1000
0100
0010
0001
1000
0001
1000
0010
1000
,
0001
0000
0000
1000
0000
0000
0100
0000
0001
0000
0000
0100
0000
0000
2000
0000
,
0000
0000
3001
0000
0000
0010
0000
0000
2000
0000
0000
0000
0000
0000
3010
0001
,
0010
0000
0000
0100
0000
0000
1000
0000
0001
0000
0000
0200
0000
0000
0000
0000
,
0000
0000
0000
0310
1000
0000
0002
0000
0000
0013
0100
0010
0000
0010
0100
0000
,
1000
0001
0100
0001
1000
0100
0010
0000
0001
0000
1000
0000
0010
0000
1000
0001
,
0000
0001
0010
0000
0100
0000
0010
0000
0001
0000
1000
0000
0010
0000
1000
0001
,
0010
0000
0100
0001
0000
0100
1000
0000
0001
0000
0100
0000
1000
0000
0200
0000
,
0000
0000
0310
0001
0010
0000
1000
0000
0001
0010
0100
0000
1000
0001
0100
0000
,
0110
0000
0000
1010
0000
0000
0101
0000
1001
0000
1000
0100
0000
0010
0001
0000
,
1001
0000
0001
0100
0000
0010
1000
0000
1001
0000
0000
0110
0000
0000
0000
0000
,
1000
0001
0100
0010
1000
0001
1000
0000
1001
0000
0001
0010
0000
0100
1000
0000
,
1001
0000
1000
0010
0000
0100
0001
0000
1001
0000
0000
0110
0000
0000
0000
0000
,
0001
0010
0100
1000
0001
0100
0010
1000
0001
0000
1000
0100
0010
0100
0010
0000
,
0001
0100
0010
0100
0020
0000
0000
0000
1030
0000
0001
0010
0100
0010
0100
0000
,
1000
0010
0100
0010
0100
0000
0001
0000
1000
0010
0100
0000
0010
1000
0100
0000
,
0010
0001
0100
0000
0010
0100
0001
0000
0010
0100
1000
0000
0010
0100
0001
0000
,
0100
0010
1000
0000
0100
0010
0001
0000
1000
0000
0100
0010
0001
0100
0010
0000
,
0100
0001
0010
0100
2000
0000
0000
0000
3001
0000
0100
0010
1000
0100
0010
0000
,
0100
1000
0010
0100
0001
0000
0011
0000
0000
0000
1010
0000
0000
0000
1100
0000
,
0000
0000
0101
0000
0000
0000
1001
0000
0000
0000
0110
0000
0000
1001
0000
0000
,
1010
0000
0000
0000
0000
0000
0000
0000
0000
0101
0000
0000
0000
0000
0000
0000
0000
0000
1100
0000
0000
0000
0000
0000
0000
0000
0000
0000
0000
0000
0010
0000
0001
0000
0010
0000
0001
0000
0000
0000
0000
0000
0000
0000
0000
0000
0000
0000
,
0000
0000
0000
0000
0000
0000
0000
0000
1000
0000
0001
0000
0010
0000
0100
0010
,
0000
0001
1000
0000
0010
0000
0210
0000
0000
0000
0301
0000
1000
0000
0100
1000
,
0001
1000
0100
0000
0010
0001
1000
0000
0002
0000
0100
0000
0100
0000
0103
0010
,
1000
0000
0100
0010
0001
0000
2001
0000
0000
0000
3010
0000
1000
0000
0001
1000
,
0100
0000
0001
0100
0000
0010
0001
0000
1000
0000
0010
1000
0001
0000
0010
0100
,
0010
0001
1000
0000
0010
0000
0210
0000
0000
0000
1300
0000
0100
0000
0001
1000
,
0100
0000
0010
0001
1000
0000
0001
0000
0100
0000
0010
0000
0100
0000
0001
1000
,
0100
0000
0010
0001
1000
0001
0000
1001
0000
0000
0100
0010
0100
0000
0000
0000
,
0100
0000
0100
0000
1001
0000
0000
0000
0001
0000
1000
0000
0100
0000
0010
0001
,
0000
1000
0010
0000
1000
0000
1002
0000
0000
0000
0013
0000
0100
0000
0001
0100
,
0010
0000
0001
1000
0000
0010
1000
0000
0001
0000
1000
0100
1000
0100
0010
0100
,
0000
0100
0000
0100
2000
0000
0000
0000
3001
0000
1000
0010
0100
0010
1000
0010
,
0000
0010
1000
0001
1000
0000
0100
0000
0010
0000
0000
0001
0000
0000
1000
0000
,
1001
0000
0001
0000
0000
1000
0000
0000
0110
0000
0000
0000
1001
0000
0000
0000
,
1010
0000
0000
0000
0101
0000
0000
0000
1000
0100
0010
0001
0010
0100
1000
0000
,
0001
0100
0010
1000
0010
0100
0001
0000
1000
0100
0010
0001
1000
0100
0010
0001
,
1000
0000
1000
0000
1001
0000
0000
0000
0001
0000
0010
0000
0100
0000
0001
0100
,
0000
1000
0000
0001
0100
0000
0110
0000
0000
0000
1000
0001
1000
0000
0000
0000
,
2002
0000
3000
0000
0003
0000
0000
0000
1000
0000
0100
0000
0010
0000
0001
1000
,
0000
0010
0000
1000
0001
0000
0010
0000
0100
0000
0010
0000
0001
0000
0100
0010
,
0000
1000
0000
0010
0100
0000
0001
0000
1000
0000
0100
0000
0010
0000
0001
0100
,
0000
0010
0000
1000
0001
0000
0010
0000
0100
1000
0100
0000
0010
0001
0010
0000
,
0001
1000
0010
0100
0001
1000
0001
0000
1000
0100
0010
0100
1000
0100
0010
0100
,
0000
0100
1000
0100
1000
0000
0001
0000
0100
0001
1000
0001
0100
0001
1000
0001
,
0000
0001
0010
0100
0010
0000
0001
0000
1000
0010
1000
0001
1000
0010
1000
0001
,
0000
0001
0010
0100
0010
0000
0001
0000
0011
0000
0000
1010
0000
0000
1100
0000
,
0101
0000
0110
0000
2002
0000
0000
0000
0000
3003
0000
0000
,
0110
0000
0000
0000
;

//--------------- dance-single - Fred-104† ----------------
#NOTEDATA:;
#STEPSTYPE:dance-single;
#DESCRIPTION:Fred-104†;
#DIFFICULTY:Challenge;
#METER:17;
#CREDIT:Fred-104;
#NOTES:
0000
0000
0000
0000
,
0000
0000
0000
0000
,
0000
0000
0000
0000
,
0000
0000
0000
0000
,
0000
0000
0000
0000
,
0001
0010
0001
1000
0010
1000
0001
0100
0001
1000
0100
1000
0001
0010
0100
1000
,
0001
0100
0001
1000
0100
1000
0001
0010
0001
1000
0010
1000
0001
0100
0010
1000
,
0001
0010
0100
1000
0001
1000
0001
0100
0010
1000
0001
1000
0100
0010
0001
1000
,
0001
0000
1001
0000
0000
1010
0000
0000
0010
0100
1000
0100
0000
0001
1000
0000
,
0000
0000
0000
0000
0000
0000
0000
0000
1001
0000
1000
0000
0100
0010
0000
0001
,
0010
0000
0100
0010
0000
0002
0010
0000
0000
0000
1003
0000
0010
1000
0000
1001
,
0000
1100
0000
0100
0010
0001
0010
0000
0001
0000
1000
0000
0010
0100
0000
0010
,
1000
0000
0010
0100
0000
0010
1000
0001
1000
0010
0100
0001
1000
0100
0010
0100
,
1000
0000
0000
0010
0000
0000
0100
0000
0000
0001
0000
0000
1000
0000
0000
0000
0100
0000
0000
0000
0010
0000
0000
0000
0001
0000
0000
0000
0000
0000
1000
0000
0000
0000
0000
0000
0010
0000
0000
0100
0000
0000
0000
0000
0000
0001
0000
0000
,
0100
0000
0010
0100
0000
0002
0100
0000
0000
0000
1003
0000
0100
0010
0000
0011
,
0000
1001
0000
0001
0100
0010
1000
0000
0001
0000
1000
0000
0100
0010
0000
0001
,
0010
0000
0100
0010
0000
0001
1000
0001
0100
0001
0100
0010
1000
0010
0100
0001
,
1000
0100
0010
0001
1000
0100
0010
0001
1000
0010
0000
0001
0010
0000
0100
1000
,
0000
0100
0010
0000
0001
0010
0000
0100
1000
0000
0100
0010
0000
0001
0010
0000
,
0100
0000
0000
0000
1000
0000
0000
0000
0000
0000
0000
0000
0100
0000
0000
0000
0001
0000
0000
0000
0000
0000
0000
0000
1001
0000
0000
0000
0000
0000
0000
0000
1000
0000
0000
0000
0100
0000
0000
0000
0010
0000
0000
0000
0001
0000
0000
0000
1000
0000
0000
0000
0000
0000
0000
0000
0001
0000
0000
0000
0200
0300
0000
0000
,
0000
0000
0000
0000
0200
0300
0000
0000
0000
0000
0000
0000
1000
0000
0000
0000
0001
0000
0000
0000
0000
0000
0000
0000
0100
0000
0000
0000
0000
0000
0000
0000
0110
0000
0000
0000
0000
0000
0000
0000
0000
0000
0000
0000
1010
0000
0000
0000
0000
0000
0000
0000
0000
0000
0000
0000
0101
0000
0000
0000
0000
0000
0000
0000
,
0000
1100
0000
0000
0010
0001
0010
0001
1000
0000
0001
0000
1000
0000
0100
0010
,
0000
0110
0000
0001
0100
0000
1000
0000
0001
0000
1000
0000
0010
0000
0100
0010
,
0000
0011
0000
0010
1000
0000
0001
0000
0010
0000
0100
0000
0001
0000
0100
0010
,
0000
0011
0000
1000
0010
0000
1000
0000
0002
0000
0000
0010
0000
0000
1003
0000
,
2000
0000
0000
0000
0000
0000
0000
0000
0000
0100
0000
0000
0000
0000
0000
0000
0000
0000
3002
0000
0000
0000
0000
0000
0000
0000
0000
0000
0000
0000
1003
0000
0100
0000
1000
0000
0100
0000
0010
0000
0001
0000
1000
0000
0000
0000
0000
0000
,
0001
1000
0100
0000
0001
0100
0000
1000
0001
0000
0100
1000
0100
0000
0001
1000
,
0200
0000
0000
0000
0320
0000
0000
0000
0000
0000
0000
0000
0000
0000
0031
1000
,
0001
0000
0000
0100
0000
0000
1000
0000
0001
0000
0010
0000
0200
0000
0000
0000
,
0301
0000
1000
0100
0010
0001
1000
0010
1000
0001
0010
0001
0100
0010
1000
0001
,
0010
0000
0000
0100
0000
0000
0001
0000
0100
0000
0000
1000
0000
0000
0020
0000
,
0000
0000
1000
0000
0000
0001
0000
0000
2030
0000
0000
0000
3001
0000
0010
0100
,
1000
0000
0000
0001
0000
0000
0100
0000
2000
0000
0000
3200
0000
0000
0000
0000
,
0000
0000
0000
0000
0310
0000
2000
0000
0000
3001
1000
0100
0000
0010
0001
0000
,
1000
0010
0100
1000
0100
0000
0001
0000
1000
0000
0100
0000
0110
0000
0010
0001
,
0000
1000
0001
0100
0001
0000
1000
0001
0010
0000
0100
0000
1100
0000
0001
1000
,
0010
0100
0001
1000
0100
0010
0001
0000
0011
0000
0001
0000
1000
0000
0010
0100
,
1000
0100
0010
1000
0001
0010
0001
1000
0010
0001
0010
0100
0001
0000
1000
0100
,
1000
0000
0000
1100
0000
0000
0011
0000
1001
0000
1000
0100
0000
0100
0001
0000
,
1001
0000
0001
0100
0000
0100
1000
0000
1001
0000
0000
1010
0000
0000
0000
0000
,
0001
1000
0100
0010
0001
1000
0001
0000
1001
0000
0001
0010
0000
0010
1000
0000
,
1001
0000
1000
0010
0000
0010
0001
0000
1001
0000
0000
1100
0000
0000
0000
0000
,
0001
0000
0000
0100
0000
0000
0010
0000
0000
1000
0000
0000
0001
0000
1000
0000
0001
0000
1000
0000
0001
0000
1000
0000
0001
0000
0000
0000
0000
0000
1000
0000
0000
0100
0000
0000
0010
0000
0000
0001
0000
0000
1000
0000
0000
0000
0000
0000
,
0001
0100
0010
1000
0002
0000
0000
0000
1003
0000
0001
0010
0100
0010
0001
0000
,
1000
0010
0100
0010
1000
0000
0001
0000
0010
0100
1000
0100
0010
0100
1000
0001
,
0100
0010
1000
0010
0100
0010
1000
0001
0010
0100
0010
0100
0010
0000
0001
1000
,
0010
0100
0001
1000
0100
0010
0001
0000
1000
0000
0001
0100
0010
1000
0001
0000
,
1000
0100
0010
0001
2000
0000
0000
0000
3001
0000
0100
0001
1000
0001
0010
0000
,
0100
1000
0001
1000
0020
0000
0001
0000
0230
0000
1000
0000
0320
0000
0001
0000
,
0230
0000
1000
0000
0301
0000
1001
0000
0000
0000
0110
0000
0000
1001
0000
0000
,
1000
0000
0000
0100
0000
0000
0010
0000
0000
0001
0000
0000
0100
0000
0000
0010
0000
0000
1000
0000
0000
0000
0000
0000
0000
0000
0000
0000
0000
0000
0001
0000
1000
0000
0001
0000
1000
0000
0000
0000
0000
0000
0000
0000
0000
0000
0000
0000
,
0000
0000
0000
0000
0000
0000
0000
0000
0001
0000
1000
0000
0010
0000
0100
0001
,
0000
1000
0100
0000
0010
0000
0012
0000
0000
0000
1003
0000
0001
0000
1000
0100
,
0010
0001
1000
0010
0100
0001
0010
0000
0100
0000
1000
0000
0001
0000
1000
0010
,
0100
0001
1000
0000
0100
0000
2100
0000
0000
0000
3100
0000
0001
0000
0100
1000
,
0100
0010
0001
1000
0010
0100
0001
0010
0100
0000
1000
0000
0001
0000
0100
1000
,
0000
0100
0010
0000
0100
0000
0102
0000
0000
0000
0013
0000
1000
0000
0001
0100
,
1000
0001
0010
0000
0100
0000
1000
0000
0001
0000
0100
0000
0120
0000
1030
0001
,
1000
0000
0000
0010
0000
0000
0100
0000
0000
0001
0000
0000
0010
0000
0000
0100
0000
0000
0000
0000
0000
1100
0000
0000
0000
0000
0000
0000
0000
0000
0001
0000
1000
0000
0001
0000
1000
0000
0000
0000
0000
0000
0000
0000
0000
0000
0000
0000
,
0010
0000
0010
0000
0100
0010
0000
0000
1001
0000
0001
0000
1000
0000
0001
0010
,
0000
0100
0001
0000
0100
1000
0002
0000
0000
0000
1003
0000
0010
0000
0001
1000
,
0100
0010
1000
0001
0100
0010
1000
0000
0001
0000
0010
0100
0010
0100
1000
0010
,
0000
0100
0001
1000
0001
0000
0010
0000
0100
0000
1000
0001
0100
0001
1000
0100
,
0000
0010
0100
1000
0010
0000
1000
0000
1001
0000
0000
0100
0010
0000
0100
0000
,
1001
0000
0100
0000
0010
0100
0000
0000
1001
0000
0100
0000
0110
0000
0010
0000
,
1001
0000
0000
0001
1001
0000
0000
0000
0001
0010
0100
0010
0001
1000
0010
1000
,
0001
0100
0010
0100
0001
1000
0100
1000
0001
0100
0010
1000
0100
0010
0001
0100
,
0010
0000
0010
0000
1001
0000
0000
0000
1000
0000
0001
0000
2100
0000
3001
0100
,
0000
1000
0000
0100
0001
0000
0011
0000
0000
0000
0010
0100
0110
0000
0000
0000
,
2002
0000
0003
0000
3000
0000
0000
0000
0001
0100
0000
1000
0100
0000
0010
0001
,
0000
0010
0100
0000
1000
0100
0000
0010
0001
0000
0010
0100
0000
1000
0100
0000
,
0010
0001
0000
0010
1000
0000
1001
0000
0001
0010
0001
1000
0010
0000
0001
0010
,
0000
0110
0000
0010
1000
0000
0001
0000
1000
0100
0010
0001
0100
0010
1000
0100
,
0010
0000
0000
0100
0000
0000
1000
0000
0000
0010
0000
0000
0100
0000
0001
0000
0100
0000
0001
0000
0000
0000
0000
0000
1000
0000
0000
0100
0000
0000
0010
0000
0000
0100
0000
0000
1000
0000
0000
0100
0000
0000
0010
0000
0000
0100
0000
0000
,
0000
0100
1000
0001
0100
0010
0100
0001
0010
0100
1000
0100
0010
0100
1000
0100
,
0000
0100
0010
0001
1000
0010
1000
0001
0010
0100
0001
1000
0010
0100
1000
0001
,
0000
0000
0000
0001
0000
0000
1000
0000
0000
0010
0000
0000
1000
0000
0001
0000
1000
0000
0001
0000
1000
0000
0001
0000
1000
0000
0000
0000
0000
0000
0000
0000
0000
1100
0000
0000
0000
0000
0000
0000
0000
0000
0101
0000
0000
0000
0000
0000
,
0011
0000
0000
0000
1010
0000
0000
0000
1001
0000
0000
0000
0000
0001
0010
0100
1000
0100
0010
0001
0010
0100
1000
0001
,
1000
0000
0000
0000
;

//--------------- dance-double - Fred-104 ----------------
#NOTEDATA:;
#STEPSTYPE:dance-double;
#DESCRIPTION:Fred-104;
#DIFFICULTY:Easy;
#METER:7;
#CREDIT:Fred-104;
#NOTES:
00000000
00000000
00000000
00000000
,
00000000
00000000
00000000
00000000
,
00000000
00000000
00000000
00000000
,
00000000
00000000
00000000
00000000
,
00000000
00000000
00000000
00000000
,
00001000
00000000
00000000
01000000
00000000
00000000
00010000
00000000
,
10000000
00000000
00000000
01000000
00000000
00000000
00100000
00000000
,
00001000
00000000
00000000
00010000
00000000
00000000
00001000
00000000
,
00000000
00000000
00010000
00000000
00000000
00001000
00000000
00000000
00000100
00000000
00000000
00000001
00000000
00000000
00001001
00000000
,
00000000
00000000
00000000
00000000
00000000
00000000
00000000
00000000
00000001
00000000
00000100
00000000
00000000
00000001
00000000
00000000
,
00000010
00000000
00000000
00000100
00000000
00000000
00010000
00000000
00000000
00000000
00001000
00000000
00100000
00000000
00000000
00000000
,
01000000
00000000
00000000
00000000
00100000
00000000
00000000
00000000
00010000
00000000
01000000
00000000
00000000
01000000
00000000
00000000
,
01000000
00000000
00000000
01000000
00000000
00000000
01000000
00000000
00100000
00000000
00000000
00000000
10000000
00000000
00000000
00000000
,
01000000
00000000
00100000
00000000
00001000
00000000
00000000
00000000
00010000
00000000
00001000
00000000
00000000
00001000
00000000
00000000
,
00000010
00000000
00000000
00000010
00000000
00000000
00000001
00000000
00000000
00000000
00001000
00000000
00000010
00000000
00000000
00000000
,
00010000
00000000
00001000
00000000
00010000
00000000
00000000
00000000
00001000
00000000
00100000
00000000
00000000
00100000
00000000
00000000
,
00100000
00000000
00000000
00100000
00000000
00000000
00010000
00000000
01000000
00000000
00000000
00000000
00100000
00000000
00000000
00000000
,
10000000
00010000
10000000
01000000
,
00010000
00001000
00010000
00000000
00001000
00000000
00000100
00000000
,
00000010
00001000
00000010
00000000
00000100
00000000
00000001
00000000
,
00000010
00000100
00001000
00000000
00000100
00000000
00010000
00000000
,
00001000
00011000
00001000
00010000
,
00100000
01000000
00010000
00100000
,
01000000
10000000
01000000
00000000
10000000
00000000
00010000
00000000
,
10000000
00000000
00000000
00000000
01000000
00000000
00000000
00000000
00100000
00000000
00000000
00100000
00000000
00000000
00100000
00000000
,
00001000
00000000
00000000
00010000
00000000
00000000
00022000
00000000
00000000
00000000
00000000
00000000
00000000
00000000
00000000
00000000
,
00000000
00033000
00010000
00001000
,
00010000
00002000
00000000
00000000
,
00003100
00000001
00001000
00000100
,
00000020
00000030
00000001
00000100
,
00001000
00010000
00002000
00000000
,
00203000
00000000
02300000
00000000
,
03100000
00010000
20000000
00000000
,
00000000
30100000
00010000
00001000
,
00011000
00000000
00010000
00001000
,
00010000
00000100
00010000
00001000
,
02000000
03000000
00001000
00010000
,
00001000
00100000
00010000
10000000
,
00020000
00030000
11000000
00000000
,
01010000
00000000
00011000
00000000
,
00000000
00000000
00011000
00000000
,
00001100
00000000
00000101
00000000
,
00000000
00000000
00000001
00000010
,
00002000
00003000
00010000
01000000
,
20000000
30000000
00010000
01000000
,
00100000
01000000
00010000
10000000
,
00010000
00000000
10000000
00100000
,
00020000
00030000
00001000
00000100
,
00000002
00000003
00000010
00000100
,
00010000
00000000
00000000
00000000
00001000
00000000
00000000
00000000
00000000
00000000
00010000
00000000
00000000
01000000
00000000
00000000
,
00100000
00000000
00000000
00010000
00000000
00000000
20020000
00000000
00000000
00000000
00000000
00000000
30030000
00000000
00000000
00000000
,
00000000
00000000
10000000
01000000
,
00100000
01000000
00010000
00001000
,
00020000
00030000
00001000
00010000
,
00000010
00010000
00001000
00010000
,
00000200
00000300
00001000
00000100
,
00000010
00000001
00001000
00000010
,
00020000
00030000
00001000
00100000
,
00001000
00000000
00000000
00000000
00010000
00000000
00000000
00000010
00000000
00000000
00001000
00000000
00000001
00000000
00000000
00000000
,
00001001
00000000
00000001
00001000
,
00000010
00000100
00001000
00010000
,
00001000
00000000
00100000
00001000
,
00200000
00300000
00010000
01000000
,
00200000
00300000
10000000
00000000
,
01000000
00100000
00001000
00010000
,
00011000
00000000
00010000
00001000
,
00000010
00000000
00000010
00001000
,
00010000
00000000
00001000
00010000
,
00000100
00010000
00000000
00001000
,
00022000
00033000
00001000
01000000
,
00010000
10000000
00010000
00000000
01000000
00000000
00100000
00000000
,
00010000
00001000
00010000
00000000
00000010
00000000
00001000
00000000
,
00000010
00010000
00000010
00000000
00010000
00000000
00001000
00000000
,
00011000
00000000
00010000
00001000
,
00000100
00000001
00001000
00000100
,
00000010
00000001
00000100
00001000
,
00010000
00000000
00100000
00000000
20200000
00000000
00000000
30300000
,
20020000
00000000
00000000
30030000
,
10010000
00000000
00000000
00000000
;

//--------------- dance-double - Fred-104 ----------------
#NOTEDATA:;
#STEPSTYPE:dance-double;
#DESCRIPTION:Fred-104;
#DIFFICULTY:Medium;
#METER:12;
#CREDIT:Fred-104;
#NOTES:
00000000
00000000
00000000
00000000
,
00000000
00000000
00000000
00000000
,
00000000
00000000
00000000
00000000
,
00000000
00000000
00000000
00000000
,
00000000
00000000
00000000
00000000
,
10000000
01000000
00010000
00001000
00000100
00000001
00001000
00000000
,
00000001
00000010
00001000
00010000
00100000
10000000
00010000
00000000
,
10000000
01000000
00010000
00001000
00000010
00000001
00001000
00000010
,
00000000
00000000
00010010
00000000
00000000
00011000
00000000
00000000
00101000
00000000
00000000
00011000
00000000
00000000
00010100
00000000
,
00000000
00000000
00000000
00000000
00000000
00000000
00000000
00000000
00001000
00000000
00000001
00000000
00000000
00000010
00000000
00000000
,
00000100
00000000
00000000
00010000
00000000
00000000
00001000
00000000
00000000
00000000
00010000
00000000
00100000
00000000
00000000
01000000
,
00000000
01000000
00000000
01000000
00000000
01000000
00010000
00000000
10000000
00000000
01000000
00000000
00000000
00010000
00000000
00000000
,
01000000
00000000
00000000
10000000
00000000
00000000
00010000
00000000
01000000
00000000
00100000
00000000
00010000
00000000
00001000
00000000
,
00010000
00000000
00000000
00000000
00000000
00000000
00000000
00000000
00000000
00000000
00000000
00000000
00001000
00000000
00000000
00000000
00010000
00000000
00000000
00000000
00001000
00000000
00000000
00000000
00010000
00000000
00000000
00000000
00000000
00000000
00000100
00000000
00000000
00000000
00000000
00000000
00000000
00000000
00000000
00000010
00000000
00000000
00000000
00000000
00000000
00000000
00000000
00000000
,
00000001
00000000
00000000
00001000
00000000
00000000
00000010
00000000
00000000
00000000
00000100
00000000
00001000
00000000
00000000
00010000
,
00000000
00010000
00000000
00010000
00000000
00010000
00001000
00000000
00100000
00000000
00001000
00000000
00000000
00010000
00000000
00000000
,
00001000
00000000
00000000
00000010
00000000
00000000
00000100
00000000
00001000
00000000
00000001
00000000
00001000
00000000
00000100
00000000
,
00000010
00000000
00001000
00000000
00010000
00000000
00000000
00000000
00001000
00000000
00000000
00010000
00000000
00000000
00100000
00000000
,
00000000
01000000
00000000
00000000
00100000
00000000
00000000
00010000
00000000
00000000
00001000
00000000
00000000
00000100
00000000
00000000
,
00000010
00000000
00000000
00000100
00000000
00000000
00001000
00000000
00010000
00000000
00001000
00000000
01000000
00000000
00000000
00010000
,
00000000
00010000
00000000
00010000
10000000
00000000
01000000
00000000
10000000
00000000
00000000
00100000
00000000
00000000
00010000
00000000
,
00000000
00001000
00000000
00000000
00011000
00000000
00000000
00000000
00010000
00000000
00000100
00000000
00001000
00000000
00000001
00000000
,
00000100
00000010
00001000
00000001
00000010
00000100
00001000
00000100
,
00010000
00001000
00100000
00001000
00010000
00001000
01000000
00010000
,
00100000
00000000
00010000
00000000
01000000
00000000
00100000
00000000
10000000
00000000
00000000
01000000
00000000
00000000
00100000
00000000
,
00001000
00000000
00000000
00010000
00000000
00000000
00022000
00000000
00000000
00000000
00000000
00000000
00000000
00000000
00000000
00000000
,
00033000
00010000
00001000
00000000
00010000
00001000
00000000
00001000
00010000
00000000
00000000
00001000
00000000
00000000
01000000
00010000
,
02000000
00000000
03200000
00000000
10000000
00000000
00310000
00100000
,
01000000
00000000
00000000
00010000
00000000
00000000
10000000
00000000
01000000
00000000
00100000
00000000
00002000
00000000
00000000
00000000
,
00013000
00000100
00000020
00000000
00000031
00000100
00001000
00010000
,
00001000
00000000
00000000
00010000
00000000
00000000
00001000
00000000
00100000
00000000
00000000
00010000
00000000
00000000
20000000
00000000
,
00000000
00000000
30100000
00000000
00000000
00010000
00000000
00000000
00002000
00000000
00000000
00000000
00000000
00000000
00013000
00001000
,
00010000
00000000
00000000
00000100
00000000
00000000
00001000
00000000
00000001
00000000
00000000
00002000
00000000
00000000
00000000
00000000
,
00000000
00000000
00000000
00000000
00003100
00000000
00000020
00000000
00000000
00000000
00000031
00001000
00000000
00000001
00001000
00000000
,
00000010
00000100
00001000
00010000
00001000
01000000
00010000
10000000
,
00010000
00100000
00010000
00000000
10000000
00100000
00010000
00001000
,
00010000
00000000
00000000
01000000
00000000
00000000
00010000
00000000
00001000
00000000
00010000
00000000
00001000
00000000
00000100
00000000
,
00000000
00000010
00001000
00000001
00000010
00000100
00000001
00000100
,
00000010
00000000
00000000
00000001
00000000
00000000
00001000
00000000
00000001
00000000
00000000
00000100
00000000
00000000
00001000
00000000
,
00010000
00000000
00000000
01000000
00000000
00000000
10000000
00000000
00010000
00000000
00000000
10010000
00000000
00000000
00000000
00000000
,
10000000
00000000
00000000
00000000
00010000
00000000
00000000
00000000
10000000
00000000
00000000
01000000
00000000
00000000
00010000
00000000
,
00001000
00000000
00000000
00000100
00000000
00000000
00000001
00000000
00001000
00000000
00000000
00001001
00000000
00000000
00000000
00000000
,
00000001
00000000
00001000
00000000
00000001
00000010
00001000
00000000
,
00010000
01000000
10000000
00000000
10000000
00100000
00010000
00000000
,
00001000
00000100
00000001
00000000
00000010
00000100
00001000
00000000
,
00000010
00000100
00001000
00000000
00010000
00100000
01000000
00000000
,
00010000
00100000
01000000
00000000
10000000
01000000
00010000
00000000
,
00001000
00000010
00000001
00000000
00000001
00000100
00001000
00000000
,
00010000
00100000
10000000
00010000
00000000
11000000
00000000
00110000
,
00000000
00000000
00101000
00000000
00000000
00000000
00011000
00000000
00000000
00000000
00010000
00000000
00000000
00010000
00000000
00000000
,
00001000
00000000
00000000
00001000
00000000
00000000
00022000
00000000
00000000
00000000
00000000
00000000
00033000
00000000
00000000
00000000
,
00000000
00000000
00000000
00000000
00000000
00000000
00000000
00000000
00010000
00000000
00000000
00000000
00001000
00000000
00000010
00000100
,
00000000
00000100
00001000
00000000
00000001
00000000
00000100
00000000
00000000
00000000
00000001
00000000
00000010
00000000
00000100
00000000
,
00010000
00000000
00000000
00001000
00000000
00000000
00010000
00000000
00001000
00000000
00000000
00000000
00010000
00000000
00100000
01000000
,
00000000
01000000
00010000
00000000
00100000
00000000
01000000
00000000
00000000
00000000
00100000
00000000
00010000
00000000
10000000
00000000
,
00100000
00000000
00000000
01000000
00000000
00000000
00100000
00000000
10000000
00000000
00000000
01000000
00000000
00000000
00100000
00000000
,
00000000
00001000
00010000
00000100
00000000
00010000
00000100
00001000
,
00000100
00000000
00000000
00000010
00000000
00000000
00000001
00000000
00001001
00000000
00000000
00000000
00000100
00000000
00000010
00000000
,
00000100
00000000
00000000
00000000
00001000
00000001
00000000
00001000
00000000
00000000
00000010
00000000
00010000
00000000
00000000
00000000
,
00022000
00000000
00000000
00000000
00033000
00000000
00000000
00000000
00001000
00000000
00000000
00000000
01000000
00000000
00010000
10000000
,
00000000
10000000
00010000
00000000
00100000
00000000
01000000
00000000
00000000
00000000
10000000
00000000
00010000
00000000
10000000
00000000
,
00100000
00000000
00000000
00010000
00000000
00000000
00001000
00000000
00010000
00000000
00000000
00000000
00001000
00000000
00000000
00000100
,
00000000
00000000
00000010
00000000
00001000
00000000
00000000
00000000
00000001
00000000
00000000
00000000
00000010
00000000
00000000
00000100
,
00000000
00000000
00001000
00000000
00000001
00000000
00000000
00000000
00000100
00000000
00000000
00001000
00000000
00000000
00010000
00000000
,
00000000
00000000
00001000
00000000
00000000
00010000
00000000
00000000
01000000
00000000
00000000
00000000
00100000
00000000
00000000
00000000
,
00110000
00000000
00011000
00000000
00001000
00010000
00001000
01000000
,
00010000
01000000
00001000
00000000
00010000
00000100
00001000
00000010
,
00000100
00000000
00000001
00000000
00001000
00000000
00000000
00000000
00000100
00000000
00000010
00000000
00001000
00000000
00000000
00010000
,
00000000
00010000
00000000
00010000
00001000
00000000
01000000
00000000
00000000
00000000
00010000
00000000
10000000
00000000
00000000
00000000
,
20020000
00000000
30000000
00000000
00030000
00000000
00000000
00000000
10000000
00000000
00000000
01000000
00000000
00000000
00010000
00000000
,
00000000
00001000
00000000
00000000
00010000
00000000
00000000
00100000
00000000
00000000
00010000
00000000
00000000
00001000
00000000
00000000
,
00000100
00000000
00000000
00000001
00000000
00000000
00000010
00000000
00000100
00000000
00001000
00000000
00000001
00000000
00000000
00000100
,
00000000
00000100
00000000
00000100
00000010
00000000
00001000
00000000
00000001
00000000
00000010
00000000
00000100
00000000
00000000
00000000
,
00010000
00001000
00010000
00000000
00001000
00100000
00010000
10000000
,
00100000
01000000
00010000
00000000
10000000
01000000
00100000
00001000
,
00010000
00000100
00000010
00000000
00000001
00001000
00000010
00000100
,
00001000
00000000
00010000
00000000
00001000
00000000
00000000
00000000
00010000
00000000
00000000
00001000
00000000
00000000
00000010
00000000
,
00000001
00000000
00001000
00000000
00002002
00000000
00000000
00000000
00000000
00003003
00000000
00000000
,
00001001
00000000
00000000
00000000
;

//--------------- dance-double - Fred-104 ----------------
#NOTEDATA:;
#STEPSTYPE:dance-double;
#DESCRIPTION:Fred-104;
#DIFFICULTY:Hard;
#METER:16;
#CREDIT:Fred-104;
#NOTES:
00000000
00000000
00000000
00000000
,
00000000
00000000
00000000
00000000
,
00000000
00000000
00000000
00000000
,
00000000
00000000
00000000
00000000
,
00000000
00000000
00000000
00000000
,
00000001
00000100
00000001
00000100
00000001
00000000
00000100
00001000
00000100
00001000
00000100
00000000
00001000
00010000
00001000
00000000
,
00010000
00100000
00010000
00100000
00010000
00000000
00100000
10000000
00100000
10000000
00100000
00000000
10000000
00010000
10000000
00000000
,
01000000
00010000
01000000
00010000
01000000
00000000
00010000
00001000
00010000
00001000
00010000
00000000
00001000
00000010
00001000
00000000
,
00000010
00000000
00000011
00000000
00000000
00001001
00000000
00000000
00000001
00000010
00000100
00001000
00000000
00000100
00010000
00000000
,
00000000
00000000
00000000
00000000
00000000
00000000
00000000
00000000
00001000
00000000
00010000
00000000
00001000
01000000
00000000
01000000
,
00010000
00000000
00010000
10000000
00000000
10000000
01000000
00000000
00000000
00000000
00100000
00000000
00001000
00010000
00000000
00000100
,
00000000
00000001
00000000
00000100
00000000
00000010
00000001
00000000
00001000
00000000
00000001
00000000
00000010
00000100
00000000
00000100
,
00010000
00000000
00010000
00001000
00000000
00001000
01000000
00000000
00010000
00000000
10000000
00010000
01000000
00010000
10000000
00010000
,
10000000
00000000
00000000
01000000
00000000
00000000
00100000
00000000
00000000
00010000
00000000
00000000
00100000
00000000
00000000
00000000
00001000
00000000
00000000
00000000
00010000
00000000
00000000
00000000
00001000
00000000
00000000
00000000
00000000
00000000
00000100
00000000
00000000
00000000
00000000
00000000
00000001
00000000
00000000
00000010
00000000
00000000
00000000
00000000
00000000
00000100
00000000
00000000
,
00001000
00000000
00000001
00000100
00000000
00001000
00010000
00000000
00000000
00000000
00001000
00000000
01000000
00100000
00000000
00010000
,
00000000
00100000
00000000
01000000
00000000
00010000
10000000
00000000
01000000
00000000
00100000
00000000
00001000
00010000
00000000
00010000
,
00000100
00000000
00000100
00000010
00000000
00000010
00001000
00000000
00010000
00000000
00001000
00100000
00001000
00010000
00000100
00001000
,
00000001
00000100
00000010
00000000
00001000
00000100
00000010
00000000
00000001
00001000
00000000
00000010
00010000
00000000
00001000
01000000
,
00000000
00010000
10000000
00000000
01000000
00100000
00000000
00001000
00010000
00000000
00000100
00000010
00000000
00000001
00001000
00000000
,
00000010
00010000
00000000
00001000
01000000
00000000
00010000
00000000
10000000
01000000
10000000
01000000
00100000
00000000
00001000
00010000
,
00000000
00000010
00000000
00010000
00001000
00000000
00010000
00000000
00000100
00001000
00000000
00000001
00000100
00000000
00000010
00010000
,
00000000
00001000
00010000
00000000
00001000
00010000
00001000
00000000
01000000
00000000
00010000
00000000
10000000
00000000
01000000
00100000
,
00000000
00110000
00000000
00100000
01000000
00000000
10000000
00000000
00010000
00000000
01000000
00000000
00100000
00000000
00010000
00001000
,
00000000
00011000
00000000
00001000
00010000
00000000
00000100
00000000
00000010
00000000
00000100
00000000
00000001
00000000
00000100
00001000
,
00000000
00001001
00000000
00001000
00000010
00000000
00000100
00000000
00000001
00000000
00000000
00000010
00000000
00000000
00001000
00000000
,
00010000
00000000
00000000
01000000
00000000
00000000
21000000
00000000
00000000
00000000
00000000
00000000
00000000
00000000
00000000
00000000
,
30000000
00010000
10000000
00000000
01000000
00100000
00000000
00100000
00001000
00000000
00000000
00000010
00000000
00000000
00000100
00001000
,
00000002
00000000
00000000
00000000
00000203
00000000
00000000
00000000
00000000
00000000
00000000
00000000
00000000
00000000
00001300
00010000
,
00001000
00000000
00000000
01000000
00000000
00000000
00001000
00000000
00010000
00000000
00001000
00000000
00000020
00000000
00000000
00000000
,
00000130
00000000
00001000
00000001
00000100
00000001
00001000
00000000
00000001
00000010
00000100
00001000
00000100
00010000
00001000
00010000
,
00001000
00000000
00000000
00010000
00000000
00000000
00100000
00000000
01000000
00000000
00000000
00010000
00000000
00000000
00200000
00000000
,
00000000
00000000
01300000
00000000
00000000
00010000
00000000
00000000
00002000
00000000
00000000
00000000
00000000
00000000
00013000
01000000
,
00010000
00000000
00000000
00001000
00000000
00000000
00000100
00000000
00000001
00000000
00000000
00000020
00000000
00000000
00000000
00000000
,
00000000
00000000
00000000
00000130
00010000
00000000
00002000
00000000
00000000
00103000
00010000
00100000
00000000
00100000
01000000
00000000
,
10000000
00010000
01000000
00010000
10000000
01000000
00100000
00000000
00001000
00000000
00010000
00000000
00001000
00000000
00000100
00000010
,
00000000
00001000
00000100
00000000
00000010
00000001
00001000
00000000
00000001
00000000
00000100
00000000
00000001
00000000
00000010
00000100
,
00001000
00000000
00000010
00000100
00000000
00001000
00010000
00000000
00001000
00000000
00010000
00000000
00100000
00000000
02000000
00000000
,
00000000
00000000
13000000
01000000
00010000
00000000
00100000
00000000
10000000
00100000
00010000
10000000
00010000
00000000
01000000
00100000
,
00010000
00000000
00000000
00001000
00000000
00000000
00010000
00000000
00011000
00000000
00010000
00001000
00000000
00000100
00000001
00000000
,
00001001
00000000
00000001
00000010
00000000
00001000
00010000
00000000
00011000
00000000
00000000
00011000
00000000
00000000
00000000
00000000
,
00001000
00100000
00010000
00100000
00001000
00010000
00001000
00000000
00011000
00000000
00001000
00010000
00000000
01000000
10000000
00000000
,
10010000
00000000
10000000
00100000
00000000
00010000
00001000
00000000
00011000
00000000
00000000
00011000
00000000
00000000
00000000
00000000
,
00010000
00000100
00001000
00000100
00000010
00000001
00001000
00000000
00000001
00000000
00000100
00000010
00000100
00001000
00010000
00000000
,
00001000
00010000
00100000
01000000
00020000
00000000
00000000
00000000
10030000
00000000
01000000
00100000
01000000
00010000
00001000
00000000
,
00010000
00001000
00000010
00000100
00000010
00000000
00000001
00000000
00001000
00000010
00001000
00000000
00000001
00000010
00000001
00000000
,
00000010
00000100
00001000
00000000
00000100
00010000
00001000
00000000
00100000
00010000
01000000
00000000
00100000
10000000
00010000
00000000
,
00100000
01000000
00100000
00000000
00010000
10000000
00010000
00000000
10000000
00000000
00100000
01000000
00100000
00010000
00001000
00000000
,
00010000
00001000
00000100
00000010
00002000
00000000
00000000
00000000
00003001
00000000
00000010
00000100
00000010
00001000
00010000
00000000
,
00001000
00010000
01000000
00100000
01000000
00000000
10000000
00000000
00010000
00000000
10000000
00000000
00100000
00000000
00001000
00000000
,
00010000
00000000
00000100
00000000
00000001
00000000
00001001
00000000
00000000
00000000
00000011
00000000
00000000
00001001
00000000
00000000
,
00010010
00000000
00000000
00000000
00000000
00000000
00000000
00000000
00000000
00001010
00000000
00000000
00000000
00000000
00000000
00000000
00000000
00000000
00000101
00000000
00000000
00000000
00000000
00000000
00000000
00000000
00000000
00000000
00000000
00000000
00001000
00000000
00000100
00000000
00001000
00000000
00000100
00000000
00000000
00000000
00000000
00000000
00000000
00000000
00000000
00000000
00000000
00000000
,
00000000
00000000
00000000
00000000
00000000
00000000
00000000
00000000
00010000
00000000
00001000
00000000
00000010
00000000
00000100
00001000
,
00000000
00000010
00000100
00000000
00001000
00000000
00021000
00000000
00000000
00000000
00031000
00000000
01000000
00000000
00010000
00100000
,
00001000
00000000
01000000
00100000
00000000
00010000
00001000
00000000
00010000
00000000
00001000
00000000
00000010
00000000
00001000
00010000
,
00001000
00000000
00100000
00010000
00100000
00000000
00102000
00000000
00000000
00000000
00013000
00000000
00001000
00000000
00000100
00000010
,
00001000
00000000
00000100
00000010
00000000
00001000
00010000
00000000
00001000
00000000
00010000
00000000
00100000
00000000
10000000
00010000
,
00000000
00100000
01000000
00000000
00010000
00000000
00012000
00000000
00000000
00000000
00013000
00000000
00000100
00000000
00000010
00000100
,
00000001
00000000
00000100
00001000
00000000
00000001
00000100
00000000
00000001
00000000
00000010
00000000
00000001
00000000
00001000
00000010
,
00010000
00000000
00001000
00010000
00001000
00010000
00000000
00011000
00000000
00000000
00001000
00010000
00001000
00000000
00000000
00000000
,
00010000
00000000
00010000
00000000
00011000
00000000
00000000
00000000
00010000
00000000
00001000
00000000
00000010
00000000
00000100
00000010
,
00000000
00000001
00001000
00000000
00000010
00000000
00020010
00000000
00000000
00000000
00031000
00000000
00010000
00000000
01000000
00100000
,
00010000
01000000
00100000
00000000
00010000
00000000
00100000
00000000
10000000
00000000
00010000
10000000
00010000
10000000
01000000
00100000
,
00000000
00100000
00000000
00100000
00001000
00000000
00010000
00000000
00000100
00000000
00001000
00000001
00001000
00000100
00000010
00000100
,
00000000
00000100
00001000
00000100
00001000
00000000
00000001
00000000
00001000
00000000
00000000
00000001
00000000
00000000
00000100
00000000
,
00001100
00000000
00001000
00000000
00000000
00010000
00000000
00000000
00011000
00000000
00000000
00000000
00010100
00000000
00000000
00000000
,
00000110
00000000
00000000
00000000
00001001
00000000
00000000
00000000
00000001
00000010
00000100
00000000
00001000
00000010
00000100
00000000
,
00001000
00010000
00100000
00000000
01000000
00010000
00100000
00000000
01000000
10000000
00010000
01000000
00100000
10000000
01000000
00100000
,
00001000
00000000
00001000
00000000
00011000
00000000
00000000
00000000
00010000
00000000
00001000
00000000
00000100
00000000
00000001
00001000
,
00000000
00000100
00000000
00001000
00000001
00000000
00000101
00000000
00000000
00000000
00001000
00000001
00001000
00000000
00000000
00000000
,
00002002
00000000
00003000
00000000
00000003
00000000
00000000
00000000
00001000
00000001
00000000
00001000
00000010
00000000
00010000
00001000
,
00000000
01000000
00010000
00000000
10000000
00010000
00000000
01000000
00001000
00000000
00010000
00000010
00000000
00001000
00000001
00000000
,
00000010
00000100
00000000
00010000
00001000
00000000
00011000
00000000
00010000
00001000
00010000
00001000
01000000
00000000
00010000
10000000
,
00000000
10000000
00000000
10000000
01000000
00000000
00100000
00000000
00001000
00000000
00001000
00000000
00010000
00000000
00010000
00000000
,
00000100
00001000
00000100
00000010
00000001
00001000
00000010
00000000
00001000
00000001
00000010
00000001
00001000
00000001
00000010
00000001
,
00000000
00000001
00001000
00000010
00010000
00000000
00001000
00000000
01000000
00010000
10000000
00010000
01000000
00010000
10000000
00010000
,
00000000
00010000
10000000
01000000
00100000
00000000
00001000
00000000
00010000
00000100
00001000
00000100
00010000
00000100
00001000
00000100
,
00000000
00000100
00000010
00000001
00001000
00000000
00000010
00000000
00010010
00000000
00000000
00011000
00000000
00000000
00101000
00000000
,
00011000
00000000
00010100
00000000
02002000
00000000
00000000
00000000
00000000
03003000
00000000
00000000
,
00011000
00000000
00000000
00000000
;

//--------------- dance-double - Fred-104† ----------------
#NOTEDATA:;
#STEPSTYPE:dance-double;
#DESCRIPTION:Fred-104†;
#DIFFICULTY:Challenge;
#METER:17;
#CREDIT:Fred-104;
#NOTES:
00000000
00000000
00000000
00000000
,
00000000
00000000
00000000
00000000
,
00000000
00000000
00000000
00000000
,
00000000
00000000
00000000
00000000
,
00000000
00000000
00000000
00000000
,
00010000
00001000
00010000
00000010
00001000
00000010
00010000
00001000
00010000
00000100
00001000
00000100
00010000
00001000
01000000
00001000
,
00010000
00001000
00010000
00000010
00001000
00000010
00010000
00001000
00010000
00000100
00001000
00000100
00010000
00001000
00100000
00001000
,
00100000
00010000
00100000
00001000
00010000
00001000
01000000
00010000
01000000
00001000
00010000
00001000
00100000
00010000
00100000
00001000
,
00010000
00000000
00011000
00000000
00000000
00010010
00000000
00000000
00000010
00010000
00001000
00010000
00000000
00100000
01000000
00000000
,
00000000
00000000
00000000
00000000
00000000
00000000
00000000
00000000
10010000
00000000
10000000
00000000
01000000
00100000
00000000
00001000
,
00010000
00000000
00000100
00000010
00000000
00000001
00002000
00000000
00000000
00000000
00003001
00000000
00000100
00000010
00000000
00000100
,
00000000
00001000
00000000
00010000
00001000
01000000
00001000
00000000
00010000
00000000
00001000
00000000
00010000
00100000
00000000
01000000
,
00010000
00000000
00100000
01000000
00000000
10000000
00010000
00000000
10000000
00000000
00100000
01000000
00100000
00010000
00001000
00010000
,
00000100
00000000
00000000
00001000
00000000
00000000
00000001
00000000
00000000
00000100
00000000
00000000
00000010
00000000
00000000
00000000
00001000
00000000
00000000
00000000
00000100
00000000
00000000
00000000
00000010
00000000
00000000
00000000
00000000
00000000
00000001
00000000
00000000
00000000
00000000
00000000
00001000
00000000
00000000
00000001
00000000
00000000
00000000
00000000
00000000
00000100
00000000
00000000
,
00000010
00000000
00000100
00001000
00000000
00010000
00200000
00000000
00000000
00000000
01300000
00000000
00010000
00100000
00000000
10100000
,
00000000
00110000
00000000
00100000
01000000
10000000
00010000
00000000
10000000
00000000
00100000
00000000
10000000
01000000
00000000
00100000
,
00001000
00000000
00010000
00000010
00000000
00001000
00000200
00000000
00000000
00010300
00000100
00001000
00000100
00000010
00000001
00001000
,
00000010
00001000
00000001
00000010
00000100
00001000
00000100
00010000
00001000
00000000
00010000
00000000
00100000
00000000
10000000
00010000
,
00000000
00000000
00000000
00000000
00200000
00300000
00000000
00000000
00000000
00000000
00000000
00000000
00200000
00300000
00000000
00000000
10000000
00000000
00000000
00000000
00000000
00000000
00000000
00000000
00010000
00000000
00000000
00000000
00000000
00000000
00000000
00000000
01000000
00000000
00000000
00000000
00000000
00000000
00000000
00000000
00100000
00000000
00000000
00000000
00000000
00000000
00000000
00000000
00010000
00000000
00000000
00000000
00000000
00000000
00000000
00000000
00001000
00000000
00000000
00000000
00010000
00000000
00000000
00000000
,
00000000
00000000
00000000
00000000
00000200
00000300
00000000
00000000
00000000
00000000
00000000
00000000
00000200
00000300
00000000
00000000
00000001
00000000
00000000
00000000
00000000
00000000
00000000
00000000
00000010
00000000
00000000
00000000
00000000
00000000
00000000
00000000
00000100
00000000
00000000
00000000
00000000
00000000
00000000
00000000
00001000
00000000
00000000
00000000
00000000
00000000
00000000
00000000
00000001
00000000
00000000
00000000
00000000
00000000
00000000
00000000
00000100
00000000
00000000
00000000
00001000
00000000
00000000
00000000
,
00000000
00000000
00000000
00000000
00020000
00030000
00000000
00000000
00000000
00000000
00000000
00000000
00020000
00030000
00000000
00000000
00100000
00000000
00000000
00000000
00000000
00000000
00000000
00000000
01000000
00000000
00000000
00000000
00000000
00000000
00000000
00000000
10000000
00000000
00000000
00000000
00010000
00000000
00000000
00000000
01000000
00000000
00000000
00000000
00010000
00000000
00000000
00000000
10000000
00000000
00000000
00000000
01000000
00000000
00000000
00000000
00100000
00000000
00000000
00000000
00010000
00000000
00000000
00000000
,
00100000
00001000
00010000
00000010
00001000
00000001
00000010
00000100
00001000
00000000
00000001
00000000
00001001
00000000
00000001
00000100
,
00000000
00000110
00000000
00000100
00001000
00000000
00010000
00000000
00001000
00000000
01000000
00000000
00010000
00000000
00100000
10000000
,
00000000
10100000
00000000
00100000
01000000
00000000
10000000
00000000
00010000
00000000
10000000
00000000
01000000
00000000
00010000
00001000
,
00000000
00001100
00000000
00000100
00000001
00000000
00000010
00000000
00000100
00010000
00001000
00010000
00100000
01000000
00010000
10000000
,
01000000
00000000
00000000
00100000
00000000
00000000
00001000
00000000
00000000
00010000
00000000
00000000
00000010
00000000
00000000
00001000
00000000
00000000
00000001
00000000
00000000
00000000
00000000
00000000
00000000
00000000
00000000
00000000
00000000
00000000
00001000
00000000
00000010
00000000
00001000
00000000
00000010
00000000
00001000
00000000
00000010
00000000
00001000
00000000
00000000
00000000
00000000
00000000
,
00000001
00001000
00000001
00000000
00000010
00000100
00000000
00000100
00000010
00000000
00000001
00000100
00000010
00000000
00000100
00001000
,
00020000
00000000
00000000
00000000
00032000
00000000
00000000
00000000
00000000
00000000
00000000
00000000
00000000
00000000
01003000
00010000
,
10000000
00000000
00000000
01000000
00000000
00000000
00010000
00000000
00001000
00000000
00000100
00000000
00000002
00000000
00000000
00000000
,
00000013
00000000
00000100
00001000
00000001
00000100
00000001
00000100
00001000
00010000
00001000
00010000
00100000
01000000
00010000
01000000
,
00100000
00000000
00000000
10000000
00000000
00000000
01000000
00000000
00010000
00000000
00000000
00001000
00000000
00000000
00020000
00000000
,
00000000
00000000
00000010
00000000
00000000
00100000
00000000
00000000
00032000
00000000
00000000
00000000
00013000
00000000
00001000
00000100
,
00000010
00000000
00000000
00001000
00000000
00000000
00010000
00000000
01000000
00000000
00000000
00020000
00000000
00000000
00000000
00000000
,
00000000
00000000
00000000
00000000
10030000
00000000
02000000
00000000
00000000
03100000
00001000
00010000
00000000
00001000
00000100
00000000
,
00000010
00001000
00000001
00001000
00000100
00000000
00010000
00000000
00001000
00000000
00010000
00100000
01000000
00000000
00010000
00100000
,
01000000
00000000
10000000
00010000
10000000
00000000
00100000
01000000
00100000
00000000
10000000
01000000
00100000
00000000
00001000
00010000
,
00001000
00010000
00000100
00001000
00000010
00000100
00000001
00000000
00001000
00000000
00000010
00000000
00010000
00000000
00200000
00000000
,
00000000
00000000
01300000
00010000
01000000
00010000
10000000
01000000
00100000
00010000
00100000
00010000
01000000
00000000
00001000
00010000
,
00001000
00000000
00000000
00001000
00000000
00000000
00001000
00000000
00011000
00000000
00001000
00000010
00000000
00001000
00010000
00000000
,
00011000
00000000
00010000
00100000
00000000
00010000
00001000
00000000
00011000
00000000
00000000
00011000
00000000
00000000
00000000
00000000
,
00010000
00000010
00001000
00000010
00010000
00001000
00010000
00000000
00011000
00000000
00001000
00010000
00000000
01000000
00010000
00000000
,
00011000
00000000
00001000
00000100
00000000
00001000
00010000
00000000
00011000
00000000
00000000
00011000
00000000
00000000
00000000
00000000
,
00001000
00010000
00100000
10000000
00010000
10000000
01000000
00100000
00010000
00000000
10000000
00100000
01000000
00100000
00010000
00000000
,
00001000
00000100
00000010
00000100
00000002
00000000
00000000
00000000
00001003
00000000
00000001
00000010
00000100
00000010
00001000
00000000
,
00010000
01000000
00100000
01000000
10000000
00000000
00010000
00000000
01000000
00010000
20000000
00000000
31000000
00100000
00002000
00000000
,
00013000
00000100
00000020
00000000
00000031
00001000
00000020
00000000
00000130
00000001
00000100
00000001
00001000
00000000
00000001
00000010
,
00000100
00001000
00000100
00000000
00010000
00001000
01000000
00000000
00010000
00000000
10000000
00010000
01000000
00100000
00010000
00000000
,
00001000
00000100
00000010
00001000
00000002
00000000
00000000
00000000
00001003
00000000
00000001
00001000
00000100
00000010
00001000
00000000
,
00010000
01000000
00100000
00010000
10000000
00000000
11000000
00000000
00100000
00000000
00110000
00000000
00001000
00000000
00011000
00000000
,
00000100
00000000
00000110
00000000
00000001
00000000
00001001
00000000
00000000
00000000
00000101
00000000
00000000
00001100
00000000
00000000
,
00001000
00000000
00000000
00010000
00000000
00000000
00001000
00000000
00000000
00100000
00000000
00000000
00010000
00000000
00000000
01000000
00000000
00000000
00100000
00000000
00000000
00000000
00000000
00000000
00000000
00000000
00000000
00000000
00000000
00000000
10000000
00000000
00010000
00000000
10000000
00000000
00010000
00000000
00000000
00000000
00000000
00000000
00000000
00000000
00000000
00000000
00000000
00000000
,
00000000
00000000
00000000
00000000
00000000
00000000
00000000
00000000
10000000
00000000
00100000
00000000
01000000
00000000
00100000
00010000
,
00000000
00001000
00000100
00000000
00000001
00000000
00002001
00000000
00000000
00000000
00003100
00000000
00001000
00000000
00000001
00000010
,
00000100
00000010
00001000
00010000
01000000
00100000
00010000
00000000
10000000
00000000
00010000
00000000
10000000
00000000
00100000
01000000
,
00100000
00010000
00001000
00000000
00010000
00000000
00010200
00000000
00000000
00000000
00010300
00000000
00001000
00000000
00000010
00000100
,
00001000
00000010
00000100
00001000
00010000
00001000
00100000
00010000
01000000
00000000
00100000
00000000
00010000
00000000
00100000
01000000
,
00000000
00010000
00100000
00000000
01000000
00000000
21000000
00000000
00000000
00000000
30100000
00000000
10000000
00000000
00010000
00100000
,
01000000
00010000
00001000
00000000
00010000
00000000
00000010
00000000
00000001
00000000
00000010
00000000
00001000
00000000
00000001
00000010
,
00000100
00000000
00000000
00000000
00000000
00000000
00001000
00000000
00000000
00000010
00000000
00000000
00000100
00000000
00000000
00001000
00000000
00000000
00000000
00000000
00000000
00011000
00000000
00000000
00000000
00000000
00000000
00000000
00000000
00000000
00100000
00000000
01000000
00000000
00100000
00000000
01000000
00000000
00000000
00000000
00000000
00000000
00000000
00000000
00000000
00000000
00000000
00000000
,
00010000
00000000
00010000
00000000
00010000
10000000
00000000
00000000
11000000
00000000
01000000
00000000
00100000
00000000
10000000
00100000
,
00000000
00010000
10000000
00000000
00100000
00010000
00002000
00000000
00000000
00000000
00013000
00000000
00000100
00000000
00000001
00001000
,
00000010
00000001
00001000
00000010
00001000
00000001
00000010
00000000
00000100
00000000
00001000
00000100
00010000
00001000
00010000
00001000
,
00000000
00010000
00100000
01000000
00100000
00000000
10000000
00000000
00010000
00000000
10000000
01000000
00100000
01000000
00100000
00001000
,
00000000
00010000
00000100
00000010
00000100
00000000
00001000
00000000
00001001
00000000
00000000
00000001
00000100
00000000
00001000
00000000
,
00011000
00000000
00010000
00000000
00100000
10000000
00000000
00000000
11000000
00000000
00010000
00000000
10100000
00000000
00010000
00000000
,
01100000
00000000
00000000
00010000
10010000
00000000
00000000
00000000
10000000
00010000
10000000
00010000
10000000
01000000
00100000
00001000
,
00010000
00000100
00010000
00000100
00001000
00000001
00000100
00000010
00001000
00000001
00001000
00000001
00000010
00000100
00001000
00000100
,
00010000
00000000
00010000
00000000
00011000
00000000
00000000
00000000
00010000
00000000
00001000
00000000
00210000
00000000
00301000
00010000
,
00000000
01000000
00000000
00100000
00010000
00000000
10010000
00000000
00000000
00000000
01000000
00100000
01100000
00000000
00000000
00000000
,
00022000
00000000
00000000
00000000
00000000
00000000
00000000
00000000
00003000
00000000
00000000
00000000
00000000
00000000
00000000
00000000
00030000
00000000
00000000
00000000
00000000
00000000
00000000
00000000
00000000
00000000
00000000
00000000
00000000
00000000
00000000
00000000
00001000
00000000
00000000
00000000
00000000
00000000
00000000
00000000
00010000
00000000
00000000
00000000
00000000
00000000
00000000
00000000
00100000
00000000
00000000
00000000
00000000
00000000
00000000
00000000
10000000
00000000
00000000
00000000
02000000
03000000
00000000
00000000
,
00000000
00000000
00000000
00000000
02000000
03000000
00000000
00000000
00000000
00000000
00000000
00000000
00010000
00000000
00000000
00000000
00100000
00000000
00000000
00000000
00000000
00000000
00000000
00000000
01000000
00000000
00000000
00000000
00000000
00000000
00000000
00000000
10000000
00000000
00000000
00000000
00000000
00000000
00000000
00000000
00100000
00000000
00000000
00000000
00000000
00000000
00000000
00000000
00001000
00000000
00000000
00000000
00000000
00000000
00000000
00000000
00000010
00000000
00000000
00000000
00000200
00000300
00000000
00000000
,
00000000
00000000
00000000
00000000
00000200
00000300
00000000
00000000
00000000
00000000
00000000
00000000
00001000
00000000
00000000
00000000
00000001
00000000
00000000
00000000
00000000
00000000
00000000
00000000
00001001
00000000
00000000
00000000
00000000
00000000
00000000
00000000
00000001
00000000
00000000
00000000
00000100
00000000
00000000
00000000
00000010
00000000
00000000
00000000
00000001
00000000
00000000
00000000
00000010
00000000
00000000
00000000
00000000
00000000
00000000
00000000
00000100
00000000
00000000
00000000
00000001
00000000
00000000
00000000
,
00000000
00000010
00000100
00010000
00001000
00000000
01000000
00000000
00010000
01000000
00100000
10000000
01000000
00100000
00010000
10000000
,
00100000
00010000
00001000
00010000
00000100
00000010
00000001
00000000
00001000
00000010
00000100
00000010
00001000
00000010
00000100
00000010
,
00000000
00000010
00001000
00000001
00000010
00000100
00010000
00001000
01000000
00010000
01000000
00001000
01000000
00010000
01000000
00001000
,
00000000
00001000
00010000
00100000
10000000
00010000
00100000
01000000
10000000
00010000
01000000
00001000
00010000
00001000
00000100
00000010
,
00000000
00000000
00000000
00000100
00000000
00000000
00000001
00000000
00000000
00001000
00000000
00000000
00000100
00000000
00000010
00000000
00000100
00000000
00000010
00000000
00000100
00000000
00000010
00000000
00000001
00000000
00000000
00000000
00000000
00000000
00000000
00000000
00000000
00000011
00000000
00000000
00000000
00000000
00000000
00000000
00000000
00000000
00001010
00000000
00000000
00000000
00000000
00000000
,
00011000
00000000
00000000
00000000
00110000
00000000
00000000
00000000
10100000
00000000
00000000
00000000
00000000
10000000
00010000
10000000
00010000
00100000
01000000
10000000
00010000
10000000
00000000
00000000
,
10010000
00000000
00000000
00000000
;
