#TITLE:純白レジエンド -冬-;
#ARTIST:Des-NOW;
#TITLETRANSLIT:Junpaku rejiendo -fuyu-;
#BANNER:Junpaku rejiendo -fuyu-.png;
#BACKGROUND:Junpaku rejiendo -fuyu--bg.png;
#CDTITLE:./CDTitles/RB colette -Winter-.png;
#MUSIC:Junpaku rejiendo -fuyu-.ogg;
#SAMPLESTART:41.011;
#SAMPLELENGTH:15;
#BPMS:0=158;
#BGSTAGE:3;

//--------------- dance-single - Fred-104 -冬- ----------------
#NOTES:
     dance-single:
     Fred-104 -冬-:
     Beginner:
     1:
     :
0000
0000
0000
0000
,
0000
0000
0000
0000
,
0000
0000
0000
0000
,
1000
0000
0000
0000
,
0000
0000
0000
0000
,
0000
0000
0000
0000
,
0000
0000
0000
0000
,
0001
0000
0000
0000
,
0000
0000
0000
0000
,
0001
0000
0000
0000
,
0000
0000
0000
0000
,
1000
0000
0000
0000
,
1000
0000
0000
0000
,
0001
0000
0000
0000
,
0000
0000
0000
0000
,
0010
0000
0000
0000
,
0010
0000
0000
0000
,
0100
0000
0000
0000
,
0000
0000
0000
0000
,
1000
0000
0000
0000
,
1000
0000
0000
0000
,
1000
0000
0000
0000
,
0000
0000
0000
0000
,
0001
0000
0000
0000
,
0001
0000
0000
0000
,
0001
0000
0000
0000
,
0000
0000
0000
0000
,
1000
0000
0000
0000
,
1000
0000
0000
0000
,
0010
0000
0000
0000
,
0000
0000
0000
0000
,
1000
0000
0000
0000
,
1000
0000
0000
0000
,
0001
0000
0000
0000
,
0000
0000
0000
0000
,
0010
0000
0000
0000
,
0000
0000
0000
0000
,
0010
0000
0000
0000
,
0000
0000
0000
0000
,
0100
0000
0000
0000
,
0000
0000
0000
0000
,
0100
0000
0000
0000
,
0000
0000
0000
0000
,
1000
0000
0000
0000
,
0000
0000
0000
0000
,
0001
0000
0000
0000
,
0000
0000
0000
0000
,
1000
0000
0000
0000
,
0000
0000
0000
0000
,
1000
0000
0000
0000
,
0001
0000
0000
0000
,
1000
0000
0000
0000
,
0000
0000
0000
0000
,
0001
0000
0000
0000
,
0000
0000
0000
0000
,
0000
0000
0000
0000
,
0000
0000
0000
0000
,
1000
0000
0000
0000
,
1000
0000
0000
0000
,
0001
0000
0000
0000
,
0001
0000
0000
0000
,
1000
0000
0000
0000
,
1000
0000
0000
0000
,
0001
0000
0000
0000
,
0000
0000
0000
0000
,
1000
0000
0000
0000
,
0001
0000
0000
0000
,
0001
0000
0000
0000
,
2000
0000
0000
0000
0000
0000
0000
0000
0000
0000
0000
0000
0000
0000
0000
3000
;

//--------------- dance-single - Fred-104 -冬- ----------------
#NOTES:
     dance-single:
     Fred-104 -冬-:
     Easy:
     5:
     :
0000
0000
0000
0000
,
0000
0000
0000
0000
,
0000
0000
0000
0000
,
0001
0000
0001
0000
0001
0000
0000
2000
,
0000
0000
0000
0000
,
0000
0000
0000
0000
,
0000
0000
3000
1000
,
0100
0000
0000
0000
0100
0000
0000
0010
,
0000
0010
0001
0000
,
1000
0000
0000
0000
0001
0000
0000
0001
,
0000
0001
1000
0000
,
0001
0000
0000
0000
0010
0000
0000
0010
,
0000
0010
0100
0000
,
1000
0000
0000
0000
0001
0000
0000
0001
,
0000
0000
0000
0001
0000
0000
0100
0000
,
0010
0000
0000
0000
0010
0000
0000
0100
,
0000
0000
0000
0100
0000
0000
0001
0000
,
1000
0000
0000
0000
1000
0000
0000
0001
,
0000
0020
0000
0000
0000
0000
0030
0000
,
0001
1000
0001
0000
,
1000
0000
0000
0010
0000
0000
1000
0000
,
0001
0000
0000
0001
0000
0000
0100
0000
,
0100
0000
1001
0000
,
0001
0010
0100
0000
,
0100
0000
0000
0200
0000
0000
0300
0000
,
1000
0000
0001
0000
1000
0000
0000
1000
,
0000
0002
0000
2000
0003
0000
3000
0000
,
0001
0000
1000
0000
0010
0000
0000
0100
,
0000
0100
0000
0000
0010
0000
1000
0000
,
0001
0000
1000
0000
0100
0000
0000
0010
,
0000
0010
0000
0000
0002
0000
0003
0000
,
1000
0010
1000
0000
,
0001
1000
0001
0000
,
2000
3000
0002
0003
,
0010
0100
1000
0001
,
2002
0000
3003
1000
,
0001
0001
0200
0300
,
2000
3000
0020
0030
,
0002
0003
1000
0001
,
2000
3000
0100
0100
,
0001
0001
0100
0100
,
0020
0030
0100
0100
,
2000
3000
0002
0003
,
2002
0000
3003
1000
,
1000
0010
0020
0030
,
0002
0003
0100
0100
,
1000
1000
0001
0001
,
2002
0000
3003
1000
,
1000
0010
0010
0001
,
0020
0030
0200
0300
,
0020
0030
2000
3000
,
1001
0000
0000
0000
,
0000
0000
0000
0000
,
0001
0000
0001
0000
0001
0000
0000
2000
,
0000
0000
0000
0000
,
0000
0000
0000
0000
,
0000
0000
3000
1000
,
0010
0000
0010
0000
0010
0000
0000
0100
,
0000
0100
0001
0000
,
1000
0000
0001
0000
,
1000
0001
1001
0000
,
1000
0000
0000
0000
0100
0000
0000
0100
,
0000
1000
0000
1000
0000
0000
0001
0000
,
1000
0000
0000
0000
0001
0000
0000
0100
,
0000
0100
0000
0010
0000
0010
0000
0200
,
0000
0000
0000
0000
0301
0000
0000
0001
,
0000
0000
1000
1000
,
0002
0000
0003
0000
2000
0000
3000
0001
,
0000
0000
0001
0000
0000
0000
0000
0000
2002
0000
0000
0000
0000
0000
0000
3003
;

//--------------- dance-single - Fred-104 -冬- ----------------
#NOTES:
     dance-single:
     Fred-104 -冬-:
     Medium:
     9:
     :
0000
0000
0000
0000
,
0000
0000
0000
0000
,
0000
0000
0000
0000
,
0001
0000
1000
0000
0001
0000
0000
0200
,
0000
0000
0000
0000
,
0000
0000
0000
0000
,
0000
0000
0300
0100
,
0110
0000
0110
0000
1000
0000
0000
1001
,
0000
0000
0001
0000
0010
0100
0010
0000
,
0100
0000
0100
0000
1000
0001
0000
1001
,
0000
0001
0100
0010
0100
0000
1001
0000
,
0001
0001
1000
0000
0100
0010
0000
0110
,
0000
0100
0010
0001
0000
0100
0100
0000
,
0010
0000
1001
0000
1000
0000
0100
0100
,
0000
1100
0000
0011
0000
0001
0100
0010
,
0100
0000
1010
0000
0001
1000
0000
1001
,
0000
1000
0100
1000
0000
0010
0010
0000
,
0110
0000
0101
0000
1001
0000
0001
0100
,
0000
0020
0000
0000
0100
0000
0130
0000
,
1001
0001
1000
0001
,
1000
0100
1000
0100
0020
0000
0031
1000
,
0001
0100
0001
1000
0000
0001
1000
0000
,
1100
1001
0022
0033
,
0001
0000
0100
0000
0010
0010
0100
0010
,
0000
0100
0001
1000
0000
0100
0010
0000
,
0100
1000
0100
0000
0010
0100
0010
0100
,
0000
0010
0000
0001
0002
0000
2003
0000
,
3020
0000
0230
0000
0301
1000
0001
1000
,
0000
0100
0000
0110
0000
0010
0001
0010
,
0001
0000
1000
0000
0001
0100
0001
0100
,
0000
0010
0100
0000
0002
0003
0002
0003
,
1000
0000
0100
0010
0100
0000
1000
0001
,
0000
0100
0000
0010
0000
0100
0100
0000
,
0002
0000
0003
0000
2000
0000
3000
0100
,
0000
0100
0000
0010
0000
0010
0001
1000
,
0002
0000
0000
0000
0000
0000
0000
0000
0000
0000
0000
0000
0000
0000
0000
0000
0000
0000
0000
0000
0000
0000
0000
0000
0000
0000
0000
0000
0000
0000
0000
0000
0000
0000
0000
0000
0000
0000
0000
0000
0000
0000
0000
0000
0000
0000
0000
0000
0100
0000
0000
0000
0000
0003
0000
0000
0000
0000
0000
0000
0000
0000
0000
0000
,
0020
0230
0320
2030
,
3002
0013
2000
3010
,
0002
0000
0203
0000
0310
1000
0001
0000
,
0020
0000
0230
0000
1300
0010
0200
0000
,
0320
2030
3002
0023
,
0230
0000
0320
0000
0031
1000
0001
0000
,
1100
0001
0101
1000
,
0002
0000
0103
0000
0001
0010
0200
0000
,
2300
0000
3020
0000
2030
0000
3001
1000
,
0200
0000
0010
0000
0310
0001
2000
0000
,
3002
0000
0203
0000
2300
0000
3100
0001
,
0200
0000
0010
0000
0310
1000
0002
0000
,
0023
0230
2300
3001
,
0100
1001
0010
1001
,
1000
0100
0001
0000
1000
0010
0001
0000
,
1001
0000
0000
0000
,
0000
0000
0000
0000
,
1000
0000
0001
0000
1000
0000
0000
0200
,
0000
0000
0000
0000
,
0000
0000
0000
0000
,
0000
0000
0300
0100
,
0110
0000
0110
0000
0001
0000
0000
1001
,
0000
0000
1000
0000
0010
0100
0010
0000
,
0100
0000
0100
0000
0001
1000
0001
0000
,
0010
0100
0010
0001
0010
0000
1001
0000
,
1000
0000
0100
1000
0000
0001
1000
0001
,
0000
0100
0010
0100
0000
0001
0001
0000
,
1000
0000
0100
0000
0010
0001
0000
0011
,
0000
0001
0000
1000
0000
0010
0000
0100
,
0100
0000
0010
0000
0100
0100
0000
1001
,
0000
0001
1000
0001
0010
0000
0100
0000
,
2000
0000
3010
0000
0002
0000
0013
1000
,
0000
0000
1000
0000
0001
0000
0000
0000
0010
0000
0100
0000
0010
0000
0000
0110
;

//--------------- dance-single - Fred-104 -冬- ----------------
#NOTES:
     dance-single:
     Fred-104 -冬-:
     Hard:
     12:
     :
0000
0000
0000
0000
,
0000
0000
0000
0000
,
0000
0000
0000
0000
,
1000
0000
0100
0000
0010
0000
0000
0020
,
0000
0000
0000
0000
,
0000
0000
0000
0000
,
0000
0000
0030
0010
,
0011
0000
0011
0000
0001
1000
0000
1010
,
0000
0000
0010
0000
0100
0000
0001
0000
1000
0001
1000
0000
0100
0000
0010
0000
,
0100
0000
0010
0000
0100
0000
0001
0000
0100
0000
1000
0001
1000
0000
1001
0000
,
0000
0000
0101
0000
0100
0001
0100
0000
0010
0000
1000
0001
1000
0000
0001
0000
,
0010
0100
0010
0000
0010
0001
1000
1010
,
0000
1000
0001
1000
0010
0100
0001
1000
,
0100
0000
0011
0000
0100
1000
0001
0100
,
0000
1100
0000
0110
0000
0010
1000
0001
,
0100
0000
1010
0000
0100
0001
0000
1001
,
0000
0000
1000
0000
0010
0000
1000
0000
0001
0000
0010
0100
0010
0000
0001
0000
,
1000
0010
0100
0000
0100
0001
1000
0001
,
0000
0000
1001
0000
0000
0000
0001
0000
0010
0000
0100
1000
0100
0000
1000
0000
,
0001
0100
0010
0100
0001
0100
0010
0100
,
1000
0100
0010
0100
0000
0100
0001
0001
,
1000
0100
0010
0100
0001
0100
0010
0001
,
1000
0000
0010
0000
0100
0000
0001
1000
0001
0000
1000
0000
0002
0000
0000
0000
,
0013
0100
0010
0100
0001
0100
0010
0100
,
1000
0001
0100
0010
0000
0010
1000
1000
,
0001
1000
0100
0010
0100
1000
0100
0001
,
0000
0101
0000
2200
0300
0000
3000
0000
,
0002
0000
2003
0000
3010
0100
0001
1000
,
0000
1100
0000
0011
0000
0001
1000
0001
,
0100
0010
0100
0000
0100
1000
0100
0001
,
0000
0001
0010
0100
2000
3001
2000
3001
,
1000
0000
1000
0010
0100
0001
1000
0001
,
0000
0000
0110
0000
0000
0000
1001
0000
0000
0000
0001
0000
1000
0000
0100
0010
,
0200
0000
0320
0000
1030
0010
0001
1000
,
1010
0011
1100
0101
,
2001
0000
0001
3002
,
0023
0000
0230
0000
2300
0000
3001
1000
,
0020
0001
0230
1000
,
0302
0000
0000
0000
0103
0000
0001
1000
0002
0000
0010
0000
0023
0000
0000
0000
,
0230
0000
1000
0000
0310
0100
2000
0000
,
3020
0230
0302
2003
,
3002
0000
0000
0000
0023
0000
0000
0000
0130
0000
1000
0000
0001
0000
1000
0001
,
1000
0100
0110
0000
0001
0100
0110
0000
,
2000
0000
0100
0000
3001
1000
0020
0000
,
0100
0000
0000
0000
0001
0000
0000
0000
1030
0000
0001
0000
0010
0100
0010
0100
,
0020
0100
1000
0032
,
1003
0001
0100
0000
0110
0000
1001
0000
,
0002
0000
1000
0000
1003
0010
0200
0000
,
0302
2003
3200
0320
,
0032
0100
2003
0010
,
3001
0000
0100
0000
0010
1000
0010
0000
1000
0001
1000
0000
0001
0000
0010
0000
,
0110
0000
0000
0000
,
0000
0000
0000
0000
,
0001
0000
0100
0000
0010
0000
0000
0020
,
0000
0000
0000
0000
,
0000
0000
0000
0000
,
0000
0000
0030
0010
,
1000
0001
1000
0000
0001
0010
0100
0110
,
0000
0000
0010
0000
0011
0000
0001
0000
1000
0001
1000
0001
1000
0000
0000
0000
,
0010
0100
0010
0000
0010
1000
1000
0001
,
0010
0000
0100
0000
0010
0000
0100
0000
0010
0000
0001
1000
0001
0000
1000
0000
,
0010
1000
0100
0000
0100
1000
0001
0011
,
0000
0010
0100
0010
0001
1000
0010
0000
,
0010
0100
0001
0000
0001
1000
0100
0110
,
0000
0011
0000
1001
0000
0001
1000
0010
,
0100
0000
1001
0000
0001
0010
0100
1100
,
0000
1000
0001
0100
0010
0100
1000
0100
,
0001
0000
0000
0000
1001
0000
0000
0000
1000
0000
0100
0010
0100
0010
0001
0000
,
0000
0000
1000
0000
0001
0000
1000
0000
0010
0100
0010
0000
1000
0000
0001
0010
;

//--------------- dance-double - Fred-104 -冬- ----------------
#NOTES:
     dance-double:
     Fred-104 -冬-:
     Easy:
     5:
     :
00000000
00000000
00000000
00000000
,
00000000
00000000
00000000
00000000
,
00000000
00000000
00000000
00000000
,
00001000
00000000
00010000
00000000
00001000
00000000
00000000
00002000
,
00000000
00000000
00000000
00000000
,
00000000
00000000
00000000
00000000
,
00000000
00000000
00003000
00001000
,
00010000
00000000
00000000
00000000
00000100
00000000
00000000
00000100
,
00000000
00000010
00000001
00000000
,
00001000
00000000
00000000
00000000
00000001
00000000
00000000
00000100
,
00000000
00001000
00010000
00000000
,
00001000
00000000
00000000
00000000
00010000
00000000
00000000
00010000
,
00000000
00001000
01000000
00000000
,
00010000
00000000
00000000
00000000
10000000
00000000
00000000
01000000
,
00000000
00000000
00000000
01000000
00000000
00000000
00100000
00000000
,
00001000
00000000
00000000
00000000
00001000
00000000
00000000
00010000
,
00000000
00000000
00000000
00010000
00000000
00000000
00000100
00000000
,
00000010
00000000
00000000
00000000
00000001
00000000
00000000
00001000
,
00000000
00000020
00000000
00000000
00000000
00000000
00000030
00000000
,
00010000
00001000
00010000
00000000
,
00000100
00000000
00000000
00000010
00000000
00000000
00000100
00000000
,
00001000
00000000
00000000
00001000
00000000
00000000
00000001
00000000
,
00000001
00000000
00001001
00000000
,
00001000
00000010
00010000
00000000
,
00001000
00000000
00000000
00002000
00000000
00000000
00003000
00000000
,
00010000
00000000
00100000
00000000
01000000
00000000
00000000
00100000
,
00000000
00020000
00000000
00002000
00030000
00000000
00003000
00000000
,
00010000
00000000
00001000
00000000
00010000
00000000
00000000
01000000
,
00000000
01000000
00000000
00000000
00100000
00000000
00010000
00000000
,
10000000
00000000
00100000
00000000
01000000
00000000
00000000
00100000
,
00000000
00100000
00000000
00000000
00020000
00000000
00030000
00000000
,
00001000
00010000
00000100
00000000
,
00000010
00000001
00001000
00000000
,
00000020
00000030
00020000
00030000
,
00001000
00001000
00010000
00010000
,
00022000
00000000
00033000
00001000
,
00100000
00001000
00200000
00300000
,
02000000
03000000
20000000
30000000
,
00200000
00300000
00010000
00001000
,
00020000
00030000
00001000
00001000
,
00000100
00000100
00000001
00000001
,
00000020
00000030
00001000
00001000
,
00020000
00030000
00002000
00003000
,
00022000
00000000
00033000
00010000
,
00001000
00001000
00000200
00000300
,
00000002
00000003
00001000
00001000
,
00000001
00000010
00000010
00001000
,
00022000
00000000
00033000
00001000
,
00010000
00010000
02000000
03000000
,
20000000
30000000
00200000
00300000
,
00020000
00030000
00002000
00003000
,
00011000
00000000
00000000
00000000
,
00000000
00000000
00000000
00000000
,
00010000
00000000
00001000
00000000
00010000
00000000
00000000
00020000
,
00000000
00000000
00000000
00000000
,
00000000
00000000
00000000
00000000
,
00000000
00000000
00030000
00010000
,
00001000
00000000
00001000
00000000
01000000
00000000
00000000
01000000
,
00000000
00100000
10000000
10000000
,
00010000
00000000
10000000
00000000
,
01000000
00010000
00001000
00001000
,
00010000
00000000
00001000
00000000
00010000
00000000
00000000
00000100
,
00000000
00000100
00000000
00000010
00000000
00000000
00000001
00000000
,
00001000
00000000
00000001
00000000
00000100
00000000
00000000
00000010
,
00000000
00000010
00000000
00010000
00000000
00001000
00000000
00020000
,
00000000
00000000
00000000
00000000
00031000
00000000
00000000
00001000
,
00000000
00100000
01000000
10000000
,
00020000
00000000
00030000
00000000
20000000
00000000
30000000
00010000
,
00000000
00000000
00010000
00000000
00000000
00000000
00000000
00000000
20000000
00000000
00000000
00000000
00010000
00000000
00000000
30000000
;

//--------------- dance-double - Fred-104 -冬- ----------------
#NOTES:
     dance-double:
     Fred-104 -冬-:
     Medium:
     9:
     :
00000000
00000000
00000000
00000000
,
00000000
00000000
00000000
00000000
,
00000000
00000000
00000000
00000000
,
00010000
00000000
00001000
00000000
01000000
00000000
00000000
00200000
,
00000000
00000000
00000000
00000000
,
00000000
00000000
00000000
00000000
,
00000000
00000000
00300000
00100000
,
01100000
00000000
01100000
00000000
01000000
00000000
00000000
00011000
,
00000000
00000000
00001000
00000000
00010000
00000010
00001000
00000000
,
00000001
00000000
00000010
00000000
00001000
00010000
00000000
00011000
,
00000000
00010000
00100000
10000000
00100000
00000000
10010000
00000000
,
10000000
10000000
01000000
00000000
00100000
00001000
00000000
00011000
,
00000000
00010000
00001000
00000010
00000000
00000001
00000001
00000000
,
00000100
00000000
00001001
00000000
00000001
00000000
00000010
00000010
,
00000000
00001010
00000000
00011000
00000000
00010000
00001000
00100000
,
00001000
00000000
00011000
00000000
00001000
01000000
00000000
10010000
,
00000000
10000000
01000000
00100000
00000000
00001000
00001000
00000000
,
00011000
00000000
00010100
00000000
00001100
00000000
00000001
00000100
,
00000000
00000020
00000000
00000000
00000100
00000000
00000130
00000000
,
00001001
00000001
00000010
00000100
,
00010000
00001000
00010000
00001000
02000000
00000000
03100000
10000000
,
00100000
01000000
00100000
01000000
00000000
00100000
00010000
00000000
,
00011000
00010100
00002002
00003003
,
00001000
00000000
00000100
00000000
00000010
00000010
00000100
00000010
,
00000000
00000001
00001000
00000001
00000000
00000100
00001000
00000000
,
00010000
00001000
00010000
00000000
01000000
00100000
01000000
00100000
,
00000000
00010000
00000000
10000000
20000000
00000000
30200000
00000000
,
20300000
00000000
32000000
00000000
03100000
00001000
00010000
00001000
,
00000000
00010000
00000000
00010100
00000000
00000100
00000010
00000001
,
00001000
00000000
00000010
00000000
00010000
00001000
00010000
00001000
,
00000000
00100000
00001000
00000000
00020000
00030000
00020000
00030000
,
00001000
00000000
01000000
00010000
01000000
00000000
00100000
10000000
,
00000000
01000000
00000000
00010000
00000000
00001000
00001000
00000000
,
00020000
00000000
00030000
00000000
00002000
00000000
00003000
00100000
,
00000000
00001000
00000000
00010000
00000000
00000010
00010000
00001000
,
00020000
00000000
00000000
00031000
,
00200000
00320000
20030000
30020000
,
02030000
03100000
00020000
00031000
,
00020000
00000000
00030020
00000000
00001030
00000100
00000010
00000000
,
00000002
00000000
00002003
00000000
00003010
00010000
00002000
00000000
,
00023000
00230000
20300000
30020000
,
20030000
00000000
32000000
00000000
03010000
00001000
00010000
00000000
,
00001010
00010000
00001100
00010000
,
00002000
00000000
00013000
00000000
00000100
00000010
00000002
00000000
,
00002003
00000000
00003020
00000000
00000130
00001000
00020000
00000000
,
00032000
00000000
00010000
00000000
00013000
00001000
02000000
00000000
,
03002000
00000000
00023000
00000000
00030200
00000000
00000310
00000001
,
00002000
00000000
00000100
00000000
00003100
00000010
00000002
00000000
,
00000203
00002300
00023000
00031000
,
00110000
00001000
01010000
00001000
,
00010000
00001000
00000010
00000000
00000010
00001000
00010000
00000000
,
00011000
00000000
00000000
00000000
,
00000000
00000000
00000000
00000000
,
00001000
00000000
00010000
00000000
00000100
00000000
00000000
00000020
,
00000000
00000000
00000000
00000000
,
00000000
00000000
00000000
00000000
,
00000000
00000000
00000030
00000010
,
00000110
00000000
00000110
00000000
00000100
00000000
00000000
00011000
,
00000000
00000000
00010000
00000000
00001000
00100000
00001000
00000000
,
00010000
00000000
00001000
00000000
00010000
00000010
00000100
00000000
,
00000001
00000010
00000100
00001000
00000100
00000000
00011000
00000000
,
00010000
00000000
00001000
00100000
00000000
00010000
01000000
00100000
,
00000000
10000000
00010000
00100000
00000000
00001000
00001000
00000000
,
00010000
00000000
00000100
00000000
00000010
00000001
00000000
00001001
,
00000000
00001000
00000000
00000010
00000000
00000100
00000000
00001000
,
00001000
00000000
00010000
00000000
00001000
00001000
00000000
00011000
,
00000000
00010000
01000000
00100000
00010000
00000000
00100000
00000000
,
00002000
00000000
00013000
00000000
00000020
00000000
00001030
00000100
,
00000000
00000000
00000100
00000000
00000010
00000000
00000000
00000000
00000001
00000000
00001000
00000000
00000001
00000000
00000000
00001001
;

//--------------- dance-double - Fred-104 -冬- ----------------
#NOTES:
     dance-double:
     Fred-104 -冬-:
     Hard:
     12:
     :
00000000
00000000
00000000
00000000
,
00000000
00000000
00000000
00000000
,
00000000
00000000
00000000
00000000
,
00001000
00000000
00010000
00000000
00000010
00000000
00010000
00020000
,
00000000
00000000
00000000
00000000
,
00000000
00000000
00000000
00000000
,
00000000
00000000
00030000
00010000
,
00011000
00000000
00011000
00000000
00001000
01000000
00000000
10010000
,
00000000
00000000
00010000
00000000
10000000
00000000
01000000
00000000
00100000
00010000
00100000
00000000
00001000
00000000
00010000
00000000
,
00001000
00000000
00010000
00000000
00001000
00000000
00000100
00000000
00000010
00000000
00001000
00000001
00001000
00000000
00001010
00000000
,
00000000
00000000
00000110
00000000
00000010
00000100
00000010
00000000
00010000
00000000
00001000
00010000
00001000
00000000
00010000
00000000
,
00001000
00100000
00010000
00000000
00010000
10000000
00100000
00010000
,
00000000
00010000
00001000
00000100
00000001
00000010
00000100
00001000
,
00000010
00000000
00011000
00000000
00010000
00001000
00000100
00000001
,
00000000
00000011
00000000
00000110
00000000
00000100
00010000
00001000
,
00010000
00000000
00011000
00000000
00001000
01000000
00100000
01100000
,
00000000
00000000
00100000
00000000
10000000
00000000
01000000
00000000
00100000
00000000
00010000
10000000
00010000
00000000
01000000
00000000
,
00001000
00000000
00011000
00000000
00010000
00000100
00000010
00000100
,
00000000
00000000
00000110
00000000
00000000
00000000
00000010
00000000
00000001
00000000
00001000
00000001
00001000
00000000
00000010
00000000
,
00010000
00001000
00010000
00001000
00000100
00000010
00000100
00001000
,
00010000
00001000
00000010
00000100
00000000
00000100
00000010
00001000
,
00010000
00001000
01000000
00001000
00010000
00001000
00100000
00001000
,
00010000
00000000
00001000
00000000
01000000
00000000
00010000
01000000
00010000
00000000
01000000
00000000
00002000
00000000
00000000
00000000
,
00013000
00001000
00010000
00001000
00100000
01000000
00100000
00001000
,
00010000
00001000
01000000
00010000
00000000
00010000
01000000
00001000
,
00010000
00000100
00001000
00000100
00010000
00000100
00010000
00001000
,
00000000
00101000
00000000
00020020
00030000
00000000
00000030
00000000
,
00020000
00000000
00032000
00000000
00003100
00000001
00001000
00000100
,
00000000
00000110
00000000
00000011
00000000
00000001
00001000
00000010
,
00000100
00001000
00010000
00000000
00010000
00001000
01000000
00010000
,
00000000
00010000
00100000
01000000
00020000
00031000
00020000
00031000
,
00010000
00000000
00010000
00100000
10000000
00010000
00100000
01000000
,
00000000
00000000
11000000
00000000
00000000
00000000
01010000
00000000
00000000
00000000
00010000
00000000
00001000
00000000
00010000
00000010
,
00020000
00000000
00032000
00000000
00103000
00001000
00010000
00001000
,
01001000
00010100
00101000
00010010
,
00012000
00000000
00010000
00023000
,
00032000
00000000
00003200
00000000
00000302
00000000
00000013
00000100
,
00002000
00000010
00003020
00010000
,
00020030
00000000
00000000
00000000
00031000
00000000
00100000
00010000
00200000
00000000
00001000
00000000
00302000
00000000
00000000
00000000
,
02003000
00100000
10000000
03020000
,
20030000
32000000
03020000
00032000
,
00023000
00000000
00000000
00000000
00030200
00000000
00000000
00000000
00000310
00000000
00000001
00000000
00001000
00000000
00000100
00010000
,
00001000
00010000
00010010
00000000
00010000
00001000
01001000
00000000
,
00020000
00000000
00001000
00000000
00031000
00010000
00000200
00000000
,
00000001
00000000
00000000
00000000
00000010
00000000
00000000
00000000
00001000
00000000
00000000
00000000
00010300
00001000
00010000
00001000
,
00020000
00000100
01000000
00032000
,
00013000
00001000
00100000
00000000
01100000
00000000
10010000
00000000
,
00020000
01000000
10000000
00230000
,
02300000
03020000
00032000
02003000
,
03002000
00010000
00003200
00000010
,
00000301
00001000
00000100
00001000
00010000
00100000
01000000
00000000
,
10010000
00000000
00000000
00000000
,
00000000
00000000
00000000
00000000
,
00001000
00000000
00010000
00000000
00000100
00000000
00010000
00020000
,
00000000
00000000
00000000
00000000
,
00000000
00000000
00000000
00000000
,
00000000
00000000
00030000
00010000
,
00001000
00010000
00001000
00000000
00010000
00001000
01000000
01010000
,
00000000
00000000
00010000
00000000
10010000
00000000
10000000
00000000
01000000
00100000
01000000
00100000
01000000
00000000
00000000
00000000
,
00100000
00001000
00010000
00000000
00010000
00010000
00001000
00000100
,
00000001
00001000
00000001
00001000
00000100
00000010
00001000
00010000
,
00001000
00100000
00010000
10000000
00010000
01000000
00100000
00110000
,
00000000
00010000
00001000
00010000
00000100
00000010
00000100
00000000
,
00000100
00001000
00000010
00000100
00000001
00000010
00001000
00011000
,
00000000
01010000
00000000
00011000
00000000
00001000
00010000
00100000
,
10000000
00010000
00100000
00001000
00000010
00000100
00001000
00001001
,
00000000
00000001
00000100
00000010
00010000
00001000
01000000
00010000
,
01000000
00000000
00000000
00000000
00100000
00000000
10000000
00000000
00010000
00000000
01000000
00010000
01000000
00010000
10000000
00000000
,
00000000
00000000
10000000
00000000
01000000
00000000
00010000
00000000
00001000
00010000
00001000
00000000
00001000
00000000
00010000
00001000
;
