#TITLE:Journey;
#ARTIST:猫叉Master;
#ARTISTTRANSLIT:Nekomata Master;
#GENRE:WORLD/ELECTRONICA;
#BANNER:Journey.png;
#BACKGROUND:Journey-bg.png;
#CDTITLE:./CDTitles/RB VOLZZA.png;
#MUSIC:Journey.ogg;
#SAMPLESTART:79.285;
#SAMPLELENGTH:15;
#BPMS:0=112;
#BGSTAGE:16;

//--------------- dance-single - Fred-104 ----------------
#NOTES:
     dance-single:
     Fred-104:
     Beginner:
     2:
     :
0000
0000
0000
0000
,
0000
0000
0000
0000
,
0000
0000
0000
0000
,
0000
0000
0000
0000
,
0000
0000
0000
0000
,
1000
0000
0000
0000
,
0000
0000
0000
0000
,
0001
0000
0000
0000
,
0000
0000
0000
0000
,
1000
0000
0000
0000
,
0100
0000
0000
0000
,
0010
0000
0000
0000
,
0001
0000
0000
0000
,
1000
0000
0000
0000
,
0001
0000
0000
0000
,
1000
0000
0000
0000
,
0010
0000
0000
0000
,
1000
0000
0000
0000
,
0001
0000
0000
0000
,
1000
0000
0000
0000
,
0001
0000
0000
0000
,
0010
0000
0000
0000
,
0001
0000
0000
0000
,
1000
0000
0000
0000
,
0001
0000
0000
0000
,
1000
0000
0000
0000
,
1000
0000
0000
0000
,
0001
0000
0000
0000
,
0001
0000
0000
0000
,
0100
0000
0000
0000
,
0100
0000
0000
0000
,
0010
0000
0000
0000
,
0010
0000
0000
0000
,
0100
0000
0000
0000
,
0100
0000
0000
0000
,
0001
0000
0000
0000
,
1000
0000
0000
0000
,
0001
0000
0000
0000
,
0010
0000
0000
0000
,
0100
0000
0000
0000
,
1000
0000
0000
0000
,
0001
0000
0000
0000
,
1000
0000
0000
0000
,
0001
0000
0000
0000
,
1000
0000
0000
0000
,
1000
0000
0000
0000
,
0100
0000
0000
0000
,
0010
0000
0000
0000
,
0001
0000
0000
0000
,
1000
0000
0000
0000
,
0010
0000
0000
0000
,
1000
0000
0000
0000
,
0001
0000
0000
0000
,
1000
0000
0000
0000
,
0001
0000
0000
0000
;

//--------------- dance-single - Fred-104 ----------------
#NOTES:
     dance-single:
     Fred-104:
     Easy:
     4:
     :
0000
0000
0000
0000
,
0000
0000
0000
0000
,
0000
0000
0000
0000
,
0000
0000
0000
0000
,
0000
0000
0000
0000
,
2000
0000
3000
0000
,
0020
0000
0030
0000
,
2000
0000
3000
0000
,
0002
0000
0003
0000
,
2000
0000
3200
0000
,
0320
0000
0032
0000
,
2003
0000
3002
0000
,
0203
0000
0000
0300
,
0020
0000
0230
0000
,
0302
0000
2003
3000
,
0001
0000
0100
0000
,
0002
0000
0000
0003
,
1001
0000
0001
0000
,
0100
0000
0001
0000
,
1000
0000
0001
0000
,
0100
0000
0001
0000
,
1000
0000
0100
0000
,
1000
0000
0001
0000
,
1000
0000
0001
0000
,
0100
0000
0001
0000
,
2000
3000
0200
0300
,
0020
0000
0032
0000
,
2003
3000
0020
0030
,
0200
0000
0302
0000
,
2003
3000
0002
0003
,
0020
0000
0230
0000
,
2300
0000
3002
0003
,
0010
0000
0010
0000
,
0002
0000
0013
0000
,
0001
0000
0002
0003
,
0100
0000
0001
0000
,
1000
0000
0001
0000
,
2000
3002
2003
3000
,
1000
0100
2000
3000
,
0001
0100
0002
0003
,
2000
0000
0000
3000
,
2000
3002
2003
3000
,
1000
0010
0200
0300
,
0010
1000
0002
0003
,
0002
0000
0000
0003
,
0002
2003
3002
0003
,
0001
0100
0020
0030
,
0100
0000
0001
0000
,
1000
0000
0100
0000
,
0020
0230
0320
0030
,
0010
0000
0001
0000
,
2000
3000
0000
0000
,
0002
0003
0000
0000
,
1000
0000
0001
0000
,
1001
0000
0000
0000
;

//--------------- dance-single - Fred-104 ----------------
#NOTES:
     dance-single:
     Fred-104:
     Medium:
     9:
     :
0000
0000
0000
0000
,
0000
0000
0000
0000
,
0000
0000
0000
0000
,
0000
0000
0000
0000
,
0000
0000
0000
0000
,
1000
0010
0000
0010
0000
1000
0000
0001
,
0010
0100
0000
0100
0000
0010
0000
0010
,
0001
1000
0000
1000
0000
0001
0000
0001
,
0100
0010
0100
0001
1000
0000
1001
0000
,
1000
0000
0100
0000
1000
0100
0001
0000
,
0100
0000
0001
0000
0100
1000
0001
0000
,
1000
0000
0001
0000
0010
0100
0010
0100
,
2000
3020
0032
0203
,
1300
0000
0010
0000
1000
0010
0001
0000
,
0010
0000
0001
0000
0010
1000
0001
0000
,
0010
0000
0100
0000
1000
0001
0100
0010
,
0100
0000
0110
0000
1000
1000
0001
0001
,
1000
0100
1000
0100
0010
0001
1000
0000
,
0001
0100
0001
0000
0010
0100
1000
0000
,
0001
1000
0100
1000
0001
1000
0010
0000
,
0200
0000
0302
0000
1003
0100
0110
0000
,
0001
0010
0001
1000
0001
0010
0100
0000
,
1000
0001
0100
0000
0010
0100
0001
0000
,
0010
0100
0010
0100
1000
0100
1000
0000
,
0001
0010
0100
1000
0001
0100
0010
0000
,
0200
0302
2003
3200
,
1300
0100
0001
0100
1000
0000
0001
0000
,
2000
3002
0203
0320
,
1030
0000
0000
0001
0000
0000
0010
0000
0200
0000
0000
0000
1300
0000
0000
0000
,
0002
0203
2300
3200
,
0301
1000
0100
0010
0200
0000
1300
0000
,
0001
0101
1000
1100
,
0001
0011
1000
1010
,
0001
0010
0001
0010
0001
1000
0010
0100
,
0001
1000
0100
0001
0100
1000
0001
0000
,
0001
0010
0010
0100
1000
0001
0001
0100
,
0010
0010
0100
0100
0110
0000
1001
0000
,
0002
0000
0023
0000
2030
0000
3100
0001
,
1000
0010
0100
0001
2000
0000
3001
0010
,
0100
1000
0001
0100
0020
0000
0130
0100
,
0002
0100
0103
1010
,
2000
0000
3200
0000
0302
0000
0013
1000
,
0010
0100
0001
0010
0200
0000
0310
0001
,
1000
0010
0100
0010
2000
0000
3001
0010
,
0200
0000
0320
0000
0032
0000
1003
0001
,
2000
0000
3200
0000
0302
0000
0103
1000
,
0001
0100
0001
0100
0002
0000
0103
0010
,
0100
0000
0001
0000
0010
0100
1000
0000
,
0010
0100
0010
0000
1000
0001
0010
0000
,
0002
0000
0023
0000
2030
0000
3010
0001
,
1000
0010
1000
0010
2000
0000
3001
0001
,
0100
0010
0100
0000
0001
1000
0100
0000
,
1000
1000
0100
0100
0001
0001
0010
0010
,
1000
1000
0010
0010
0001
0001
0100
0100
,
1000
0000
0000
0000
;

//--------------- dance-single - Fred-104 ----------------
#NOTES:
     dance-single:
     Fred-104:
     Hard:
     13:
     :
0000
0000
0000
0000
,
0000
0000
0000
0000
,
0000
0000
0000
0000
,
0000
0000
0000
0000
,
0000
0000
0000
0000
,
0002
0100
0000
0100
0000
0103
0010
1000
,
0002
1000
0000
1000
0000
1003
0100
0010
,
0002
0010
0000
0010
0000
0013
0001
1000
,
0001
0100
0001
1000
0010
1000
0001
0010
0100
0000
0000
0100
1000
0000
1000
0000
,
0001
0100
0000
0001
0000
0010
0000
0001
0000
0100
0000
0002
0000
0000
0003
0000
,
1000
0100
0000
0010
0000
0100
0000
1000
0001
0100
0001
0100
0002
0000
0000
0000
,
1003
0001
0000
0010
0000
0001
0000
1000
0000
0001
0000
0100
0000
0001
0000
0010
,
0100
0000
0000
0100
1000
0000
0000
1000
0001
0000
0000
0001
0100
0000
0010
0000
,
1000
0100
0000
0010
0000
0100
0000
1000
0000
0010
0000
2000
0000
0000
3000
0000
,
0001
0100
0000
0010
0000
0100
0000
0001
0010
0100
0010
0100
0020
0000
0000
0000
,
0031
1000
0000
0010
0000
1000
0000
0001
0000
0010
0001
1000
0010
0100
0010
0100
,
0001
0000
0000
1000
0100
0000
0000
0010
0001
0000
0011
0000
1000
0000
1010
0000
,
0001
0100
0001
0100
0001
1000
0001
0000
1000
0100
1000
0000
0001
0100
0001
1000
,
0000
0010
1000
0010
1000
0001
1000
0000
0100
0010
0100
0000
1000
0001
1000
0000
,
0001
0010
0001
0010
0100
0010
0100
0000
1000
0001
1000
0000
0010
1000
0010
1000
,
0000
0001
1000
0001
0010
0100
0010
0000
0001
1000
0001
0000
1000
0010
1000
0000
,
0001
0100
0001
0100
0010
0100
0010
0000
1000
0001
1000
0000
0001
0010
0001
1000
,
0000
0010
1000
0010
0100
0010
0100
0000
0001
0100
0001
0000
1000
0001
1000
0001
,
0000
0100
0001
0100
0010
1000
0001
0000
1000
0100
1000
0100
0010
0001
0010
0000
,
0001
1000
0001
1000
0010
0100
0010
0100
0001
1000
0100
0010
0001
0000
1000
0000
,
0001
0000
0000
1000
0100
0000
0000
0010
0001
0000
0000
1000
0001
0000
0000
0100
,
0010
1000
0001
0010
0200
0000
1300
0001
,
0100
0000
0000
0010
0100
0000
0000
0001
1000
0000
0000
0100
0010
0000
0000
0001
,
2000
0000
0000
3200
0000
0000
0302
0000
0203
0000
0000
0000
0310
0000
0001
0000
,
1001
0000
0000
0001
0100
0000
0000
0010
1000
0000
0000
0001
0010
0000
0000
0100
,
1000
0010
1000
0100
0020
0000
0130
1000
,
0001
0000
0000
0001
0010
0000
0100
0000
1000
0000
0000
1000
0010
0000
0100
0000
,
0001
0000
1000
0100
1000
0000
0001
0000
0100
0010
1000
0000
0010
0100
0001
0000
,
1000
0000
0100
0010
0001
0000
1000
0000
0001
0000
0010
0100
1000
0000
0001
0000
,
0100
0000
0010
1000
0001
0000
0010
0000
0100
0010
0001
0000
0100
0001
1000
0000
,
1100
0100
0110
0010
0011
0001
0101
0100
,
0110
0000
0010
0000
1010
0000
1000
0000
1001
0000
0001
0010
0100
0000
1000
0000
,
1100
0000
0000
0100
0010
0000
0000
0010
0001
0000
0000
0001
1000
0000
0010
0100
,
0010
0000
1000
0000
0001
0000
0100
0001
0200
0000
0000
0000
0310
0000
1000
0000
,
0100
0000
0010
0000
0001
0000
1000
0010
2000
0000
0000
0000
3001
0000
1000
0000
,
0100
0000
0010
0001
0010
0000
0001
1000
0001
0000
0100
0010
0100
0000
0001
0000
,
0010
0000
0000
0010
0100
0000
0000
0100
0010
0000
0000
0010
0001
0000
1000
0001
,
1000
0000
0001
0000
0100
0000
0010
1000
0020
0000
0000
0000
0130
0000
0001
0000
,
1000
0000
0100
0000
0010
0000
0001
1000
0002
0000
0000
0000
0103
0000
0010
0000
,
0100
0000
0000
0001
0010
0000
0000
0100
1000
0000
0001
1000
0010
0100
0010
0000
,
1000
0000
0000
0100
0010
0000
0000
0001
1000
0000
0000
0010
0100
0000
0001
0010
,
0100
0000
1000
0000
0001
0000
0100
0010
2000
0000
0000
0000
3001
0000
0010
0000
,
0100
0000
1000
0001
1000
0100
1000
0000
0001
0100
0001
0000
1000
0100
1000
0100
,
0000
0010
0001
0010
0001
1000
0001
0100
0010
1000
0010
0100
0001
1000
0100
0000
,
1100
0000
0000
0001
0010
0000
0000
0100
1000
0000
0000
0001
0100
0000
0010
0000
,
0100
0001
0010
0100
0020
0000
0031
0100
,
0010
0000
1000
0010
1000
0001
1000
0000
0100
1000
0100
0000
0010
0001
0010
0001
,
1000
1000
0100
0100
0001
0001
0100
0100
,
1000
0000
0100
0010
0001
0000
0100
0010
1000
0000
0010
0100
0001
1000
0001
2000
,
3000
0000
0000
0000
;

//--------------- dance-single - Fred-104† ----------------
#NOTES:
     dance-single:
     Fred-104†:
     Challenge:
     15:
     :
0000
0000
0000
0000
,
0000
0000
0000
0000
,
0000
0000
0000
0000
,
0000
0000
0000
0000
,
0000
0000
0000
0000
,
0001
0000
0010
0000
0100
0000
1000
0000
0001
0100
0001
0100
0010
1000
0010
1000
,
0010
0000
0100
0000
0001
0000
1000
0000
0100
0010
0100
0010
0001
0010
0001
0010
,
0001
0000
1000
0000
0010
0000
0100
0000
0001
1000
0001
1000
0100
0010
0100
0010
,
0100
1000
0001
1000
0100
1000
0001
1000
0100
0000
0000
0100
0010
0000
0001
0000
,
1000
0010
1000
0010
0000
0001
0000
0010
0000
0100
0000
0002
0000
0000
0000
0000
,
1003
0100
1000
0100
0000
0010
0000
0001
1000
0010
0100
0001
0020
0000
0000
0000
,
0031
0010
0001
0010
0000
0100
0000
0001
0000
0100
0000
0010
0000
0100
0000
1000
,
0001
0000
0100
0001
1000
0000
0100
0010
0001
0000
1000
0100
1000
0000
0001
0000
,
0100
0010
0100
0010
0000
0001
0000
1000
0000
0100
0000
0020
0000
0000
0000
0000
,
1030
0100
1000
0100
0000
0001
0000
0100
0010
0001
0010
0001
0010
0000
0100
0000
,
1000
0001
0100
0001
0000
1000
0000
0100
0000
0010
0100
0010
0100
1000
0001
0100
,
0010
0000
1000
0100
0010
0000
0001
0100
0010
0000
0100
0000
0010
0000
1001
0000
,
1000
0000
0100
0000
1000
0000
0100
0000
0010
0000
0001
0000
0010
0000
0001
0000
1000
0010
1000
0000
0001
0000
1000
0000
0100
0000
0010
0000
0001
0000
1000
0000
,
0000
0000
0001
0000
0100
0000
0010
0000
1000
0000
0001
0000
0010
0000
0100
0000
0010
0100
0010
0000
0100
0000
1000
0000
0001
0000
1000
0000
0010
0000
0000
0000
,
1000
0000
0001
0000
1000
0000
0001
0000
0010
0000
0100
0000
0010
0000
0100
0000
1000
0001
1000
0000
0001
0000
0100
0000
0010
0000
1000
0000
0001
0000
0010
0000
,
0000
0000
0100
0000
0010
0000
0001
0000
1000
0000
0010
0000
0100
0000
0001
0000
1000
0100
1000
0000
0100
0000
0010
0000
0001
0000
1000
0000
0001
0000
0000
0000
,
0100
0000
0010
0000
0100
0000
0010
0000
1000
0000
0001
0000
1000
0000
0001
0000
0010
0100
0010
0000
0100
0000
1000
0000
0001
0000
0100
0000
0010
0000
1000
0000
,
0000
0000
0001
0000
0010
0000
0001
0000
0010
0000
0100
0000
1000
0000
0001
0000
0100
0010
0100
0000
0010
0000
1000
0000
0001
0000
1000
0000
0100
0000
0010
0000
,
0000
0000
0100
0000
0010
0000
0001
0000
1000
0000
0010
0000
1000
0000
0001
0000
1000
0001
1000
0000
0100
0000
0010
0000
0001
0000
1000
0000
0010
0000
0100
0000
,
0001
1000
0001
1000
0100
0010
0100
0010
0001
1000
0010
0100
0001
0000
1000
0000
,
0020
0000
0000
0000
0001
0000
0000
0000
0100
0000
0000
0000
1030
0000
0000
0001
,
0010
0100
1100
0110
0011
0000
1000
0001
,
0200
0000
0000
0000
1000
0000
0000
0000
0010
0000
0000
0000
0301
0000
0000
1000
,
0001
0000
0010
0100
0000
1000
0010
0000
0110
0000
0000
0000
1000
0000
0001
0000
,
0020
0000
0000
0000
0100
0000
0000
0000
1000
0000
0000
0000
0031
0000
0000
1000
,
0100
0010
0001
1000
1001
0000
0110
1001
,
0001
0010
0100
1000
0010
0100
0000
0100
0000
0001
0010
0100
1000
0010
0000
0010
,
0000
0000
0100
0000
0001
0000
1000
0000
0100
0000
0010
0000
0100
0000
1000
0000
0001
0000
1000
0001
1000
0000
0001
0000
0100
0000
0010
0000
1000
0000
0000
0000
,
0001
0100
0010
1000
0100
0010
0000
0010
0000
0001
0100
0010
1000
0100
0000
0100
,
0000
0000
0010
0000
0001
0000
1000
0000
0010
0000
0100
0000
0001
0000
1000
0000
0100
0000
0010
0001
0010
0000
0100
0000
1000
0000
0001
0000
1000
0000
0000
0000
,
0110
0000
0001
0010
0000
0100
1000
0000
0110
0000
1000
0010
0000
0100
0001
0000
,
1001
0000
0001
0010
0000
0100
1000
0000
0010
0100
0010
0100
0010
1000
0100
0010
,
0001
0000
0000
0000
0000
0000
0001
0000
0100
0000
0000
0000
0000
0000
0100
0000
0010
0000
0000
0000
0000
0000
0010
0000
1000
0000
0000
0000
0001
0000
0010
0001
,
0010
0000
0000
0000
0100
0000
0000
0000
1000
0000
0000
0000
0001
1000
0001
1000
0001
0000
0000
0000
0000
0000
0000
0000
1000
0000
0000
0000
0001
0000
0000
0000
,
0100
0000
0000
0000
0010
0000
0000
0000
1000
0000
0000
0000
0001
0010
0001
0010
0001
0000
0000
0000
0000
0000
0010
0000
0100
0000
0000
0000
1000
0000
0000
0000
,
0001
0000
0000
1000
0010
0000
0000
0001
0010
0000
0000
0100
0001
0000
1000
0000
,
0001
0000
0000
0000
0000
0000
1000
0000
0100
0000
0000
0000
0000
0000
0010
0000
0001
0000
0000
0000
0000
0000
1000
0000
0010
0000
0000
0000
0100
0000
0001
1000
,
0001
0000
0000
0000
0010
0000
0000
0000
0100
0000
0000
0000
1000
0001
1000
0001
1000
0000
0000
0000
0000
0000
0000
0000
0001
0000
0000
0000
1000
0000
0000
0000
,
0010
0000
0000
0000
0100
0000
0000
0000
0001
0000
0000
0000
1000
0100
1000
0100
1000
0000
0000
0000
0000
0000
0000
0000
0100
0000
0000
0000
0010
0000
0000
0000
,
0001
0000
0100
0001
1000
0000
0001
1000
0100
0010
0001
1000
0010
0100
0001
0000
,
1001
0000
0000
0000
0000
0000
1000
0000
0100
0000
0000
0000
0000
0000
0100
0000
0010
0000
0000
0000
0000
0000
0010
0000
0001
0000
0000
0000
1000
0000
0001
0100
,
0001
0000
0000
0000
1000
0000
0000
0000
0100
0000
0000
0000
0010
0001
0010
0001
0010
0000
0000
0000
0000
0000
0001
0000
1000
0000
0000
0000
0001
0000
0000
0000
,
1000
0000
0100
0000
1000
0000
0100
0000
0010
0000
0001
0000
1000
0000
0001
0000
0100
0010
0100
0000
0001
0000
1000
0000
0100
0000
0010
0000
0100
0000
1000
0000
,
0000
0000
0001
0000
0100
0000
0010
0000
1000
0000
0001
0000
0010
0000
0100
0000
1000
0100
1000
0000
0001
0000
0100
0000
0010
0000
1000
0000
0020
0000
0000
0000
,
0130
0000
0000
0001
1000
0000
0000
0100
0010
0000
0000
0001
1000
0000
0010
0100
,
0001
0000
1000
0000
0100
0000
0010
0001
1000
0000
0010
1000
0100
0000
1000
0000
,
0001
0000
0100
0000
0010
0000
1000
0000
0001
0000
0010
0000
0001
0000
1000
0000
0001
0100
0001
0000
1000
0000
0100
0000
0010
0001
0010
0000
0100
0000
1000
0000
,
0001
0000
0100
0000
0001
0000
1000
0000
0100
0000
1000
0000
0001
0000
0100
0000
0010
1000
0010
0000
0100
0000
0001
0000
1000
0100
1000
0000
0100
0000
0010
0000
,
0001
0000
0100
0000
0010
0000
1000
0000
0100
0000
0010
0000
0001
0000
0010
0000
0001
1000
0001
0000
0010
0000
0100
0000
1000
0100
1000
0000
0001
0000
0200
0000
,
0300
0000
0000
0000
;

//--------------- dance-double - Fred-104 ----------------
#NOTES:
     dance-double:
     Fred-104:
     Easy:
     4:
     :
00000000
00000000
00000000
00000000
,
00000000
00000000
00000000
00000000
,
00000000
00000000
00000000
00000000
,
00000000
00000000
00000000
00000000
,
00000000
00000000
00000000
00000000
,
20000000
00000000
30000000
00000000
,
00020000
00000000
00030000
00000000
,
02000000
00000000
03000000
00000000
,
00002000
00000000
00003000
00000000
,
00020000
00000000
00032000
00000000
,
00003200
00000000
00000320
00000000
,
00000230
00000000
00000320
00000000
,
00002030
00000000
00000000
00003000
,
00000002
00000000
00000203
00000000
,
00002300
00000000
00023000
00030000
,
00001000
00000000
00010000
00000000
,
02000000
00000000
00000000
03000000
,
10010000
00000000
10000000
00000000
,
01000000
00000000
10000000
00000000
,
00100000
00000000
00010000
00000000
,
00100000
00000000
00010000
00000000
,
00001000
00000000
00010000
00000000
,
00001000
00000000
00000010
00000000
,
00000001
00000000
00000010
00000000
,
00000001
00000000
00001000
00000000
,
00000002
00000003
00002000
00003000
,
00000200
00000000
00020300
00000000
,
00032000
00003000
00200000
00300000
,
00002000
00000000
00023000
00000000
,
02030000
03000000
20000000
30000000
,
00020000
00000000
20030000
00000000
,
32000000
00000000
03200000
00300000
,
00001000
00000000
00010000
00000000
,
00002000
00000000
00013000
00000000
,
00000010
00000000
00020000
00030000
,
00000010
00000000
00001000
00000000
,
00000001
00000000
00000010
00000000
,
00000200
00002300
00003200
00000300
,
00010000
00001000
00020000
00030000
,
00001000
01000000
00002000
00003000
,
00020000
00000000
00000000
00030000
,
00002000
00023000
00032000
00003000
,
00100000
00010000
00200000
00300000
,
01000000
10000000
02000000
03000000
,
20000000
00000000
00000000
30000000
,
00200000
20300000
30200000
00300000
,
01000000
00010000
02000000
03000000
,
00001000
00000000
01000000
00000000
,
00001000
00000000
00010000
00000000
,
00002000
00023000
00032000
00003000
,
00010000
00000000
00000100
00000000
,
00020000
00030000
00000000
00000000
,
00002000
00003000
00000000
00000000
,
01000000
00000000
00100000
00000000
,
10010000
00000000
00000000
00000000
;

//--------------- dance-double - Fred-104 ----------------
#NOTES:
     dance-double:
     Fred-104:
     Medium:
     9:
     :
00000000
00000000
00000000
00000000
,
00000000
00000000
00000000
00000000
,
00000000
00000000
00000000
00000000
,
00000000
00000000
00000000
00000000
,
00000000
00000000
00000000
00000000
,
00001000
00010000
00000000
00010000
00000000
00010000
00100000
00000000
,
01000000
00010000
00000000
00010000
00000000
10000000
01000000
00000000
,
00100000
00001000
00000000
00001000
00000000
00010000
00000010
00000000
,
00010000
00001000
00000010
00000001
00000010
00000000
00000110
00000000
,
00001000
00000000
00000100
00000000
00000001
00000100
00001000
00000000
,
00000001
00000000
00000100
00000000
00001000
00010000
01000000
00000000
,
10000000
00000000
01000000
00000000
00010000
01000000
10000000
00010000
,
20000000
30200000
00320000
00032000
,
00013000
00000000
00001000
00000000
00000010
00000001
00001000
00000000
,
00000001
00000000
00000010
00000000
00001000
00000010
00000001
00000000
,
00000010
00000000
00001000
00000000
00010000
00100000
10000000
00010000
,
10000000
00000000
01100000
00000000
00100000
00100000
00001000
00001000
,
00010000
00001000
00010000
00000010
00001000
00000010
00000100
00000000
,
00000001
00000010
00000100
00000000
00010000
00001000
00000100
00000000
,
00000001
00000100
00001000
00010000
00100000
01000000
00010000
00000000
,
20000000
00000000
32000000
00000000
03100000
00001000
00011000
00000000
,
00001000
00100000
00010000
00100000
00010000
00100000
01000000
00000000
,
10000000
00100000
00010000
00000000
00001000
00010000
00001000
00000000
,
00010000
00001000
00000010
00000100
00000010
00000100
00001000
00000000
,
00000100
00000010
00000001
00001000
00000001
00000100
00002000
00000000
,
00023000
00032000
00023000
02030000
,
03100000
00010000
00100000
00010000
10000000
00000000
01000000
00000000
,
00200000
00302000
00023000
00032000
,
00013000
00000000
00000000
00001000
00000000
00000000
00000100
00000000
00000020
00000000
00000000
00000000
00010030
00000000
00000000
00000000
,
00002000
00023000
00230000
00320000
,
00031000
00010000
01000000
00100000
00020000
00000000
10030000
00000000
,
00100000
00010000
00001000
00000000
00010000
00000000
00011000
00000000
,
00001000
00010000
01000000
00000000
00100000
00000000
01100000
00000000
,
10000000
00100000
10000000
00100000
00010000
00001000
00010000
00001000
,
00000100
00000001
00000100
00000001
00001000
00000100
00000010
00000000
,
00000001
00000001
00000100
00001000
00010000
00010000
01000000
10000000
,
00010000
00010000
10000000
10000000
11000000
00000000
01010000
00000000
,
20010000
00000000
30020000
00000000
02030000
00000000
03001000
00010000
,
00100000
01000000
00100000
00010000
00002000
00000000
00013000
00001000
,
00000100
00000010
00000100
00001000
00020000
00000000
00031000
00001000
,
00020000
00000100
00030100
00011000
,
00020000
00000000
00032000
00000000
00003020
00000000
00000031
00000010
,
00000100
00001000
00000100
00000010
00000002
00000000
00000103
00001000
,
00010000
00100000
01000000
00100000
00020000
00000000
00031000
00000100
,
00000020
00000000
00020030
00000000
00032000
00000000
00013000
00001000
,
00200000
00000000
00320000
00000000
20030000
00000000
30010000
01000000
,
00010000
00001000
00010000
01000000
00020000
00000000
10030000
01000000
,
00010000
00000000
00001000
00000000
00010000
00001000
00000100
00000000
,
00000001
00000100
00000010
00000000
00001000
00000010
00010000
00000000
,
00002000
00000000
00023000
00000000
00230000
00000000
01300000
00100000
,
00010000
00001000
00000100
00001000
00020000
00000000
00130000
01000000
,
00010000
10000000
01000000
00000000
00100000
00010000
00100000
00000000
,
00001000
00001000
00010000
00010000
01000000
01000000
10000000
10000000
,
00100000
00100000
00010000
00010000
00001000
00001000
00010000
00022000
,
00033000
00000000
00000000
00000000
;

//--------------- dance-double - Fred-104 ----------------
#NOTES:
     dance-double:
     Fred-104:
     Hard:
     14:
     :
00000000
00000000
00000000
00000000
,
00000000
00000000
00000000
00000000
,
00000000
00000000
00000000
00000000
,
00000000
00000000
00000000
00000000
,
00000000
00000000
00000000
00000000
,
00000001
00001000
00000010
00010000
00001000
00100000
00001000
00000000
,
00010000
00001000
00000100
00000010
00001000
00000001
00000100
00000000
,
00000001
00000010
00001000
00010000
00100000
01000000
00100000
10000000
,
00010000
00100000
00010000
00100000
00001000
00010000
00001000
00010000
00001000
00000000
00000000
00010000
00000010
00000000
00001000
00000000
,
00000001
00000010
00000000
00000100
00000000
00001000
00000000
00000100
00000000
00010000
00000000
00002000
00000000
00000000
00003000
00000000
,
00010000
00001000
00000000
01000000
00000000
00001000
00000000
00010000
00000100
00001000
00000100
00001000
00000200
00000000
00000000
00000000
,
00000310
00000001
00000000
00001000
00000000
00000001
00000000
00000100
00000000
00001000
00000000
00010000
00000000
00001000
00000000
00010000
,
01000000
00000000
00000000
10000000
00010000
00000000
00000000
10000000
01000000
00000000
00000000
00100000
00001000
00000000
00010000
00000000
,
00001000
00010000
00000000
00100000
00000000
01000000
00000000
00001000
00000000
00010000
00000000
00200000
00000000
00000000
00300000
00000000
,
01000000
00010000
00000000
10000000
00000000
01000000
00000000
00100000
00001000
00010000
00001000
00010000
00002000
00000000
00000000
00000000
,
00013000
00001000
00000000
00000010
00000000
00000001
00000000
00000010
00000000
00000100
00001000
00000100
00001000
00000100
00010000
00001000
,
00010000
00010000
00001000
00001000
00010000
01001000
00001000
00010010
,
00010000
00001000
00010000
00000100
00001000
00000100
00010000
00000000
00000100
00001000
00000100
00000000
00000010
00000001
00000010
00000001
,
00000000
00001000
00000010
00001000
00000010
00010000
00001000
00000000
00100000
00001000
00010000
00000000
00001000
00100000
00010000
00000000
,
00100000
01000000
10000000
01000000
10000000
01000000
00100000
00000000
00001000
00010000
00001000
00000000
00010000
00000010
00001000
00000010
,
00000000
00001000
00000001
00000010
00000100
00001000
00000100
00000000
00010000
00001000
00010000
00000000
00001000
00000000
00011000
00000000
,
00001000
00100000
00001000
00100000
00010000
10000000
00100000
00000000
01000000
00010000
10000000
00000000
01000000
00100000
00010000
00100000
,
00000000
00001000
00010000
00001000
00010000
00000010
00001000
00000000
00000001
00000010
00000100
00000000
00001000
00000001
00000100
00000010
,
00000000
00001000
00000001
00000010
00000100
00001000
00000100
00010000
00001000
00100000
00001000
00000000
00010000
00001000
00010000
00000000
,
00001000
00100000
00001000
00100000
00010000
10000000
00010000
10000000
01000000
00100000
00010000
00100000
00001000
00000000
00010000
00000000
,
00002000
00000000
00000000
00003000
20000000
00000000
00000000
30000000
00002000
00000000
00000000
00003000
00020000
00000000
00000000
00030000
,
00000001
00001000
00000100
00010000
00001000
00000000
00010000
00001000
,
00020000
00000000
00000000
00030000
00000002
00000000
00000000
00000003
00020000
00000000
00000000
00030000
00002000
00000000
00000000
00003000
,
20000000
00000000
00000000
30020000
00000000
00000000
00230000
00000000
00302000
00000000
00000000
00000000
00013000
00000000
00001000
00000000
,
00011000
00001001
00011000
10010000
,
10000000
01000000
00010000
00001000
00020000
00000000
00031000
00010000
,
00000010
00000000
00001000
00000100
00000010
00000000
00000001
00000000
00001000
00000000
00000001
00000010
00000100
00000000
00010000
00000000
,
00001000
00000000
01000000
00010000
10000000
00000000
00010000
00000000
00100000
01000000
00100000
00000000
00001000
00010000
00001000
00000000
,
00100000
00000000
00001000
00010000
00001000
00000000
00000010
00000000
00000001
00000000
00000010
00000100
00001000
00000000
00000100
00000000
,
00010000
00000000
00001000
01000000
00010000
00000000
10000000
00000000
00010000
00100000
01000000
00000000
10000000
01000000
00100000
00000000
,
00110000
00100000
00101000
00001000
00011000
00010000
00010010
00000010
,
00001010
00000000
00001000
00000000
00001001
00000000
00000001
00000000
00000101
00000000
00000100
00000010
00001000
00000000
00000001
00000000
,
00001001
00000000
00011000
00000000
10010000
00000000
10000000
01000000
,
00010000
00001000
00000100
00000001
00001001
00000000
00000001
00000010
,
00000100
00000000
00010000
00000000
00001000
00000000
01000000
00010000
02000000
00000000
00000000
00000000
03100000
00000000
10000000
00000000
,
00010000
10000000
00100000
00010000
00001000
00000010
00000001
00001000
,
00001001
00000000
00011000
00000000
10010000
00000000
10000000
00100000
,
00010000
00001000
00000010
00000001
00002001
00000000
00003001
00000100
,
00001000
00000000
00010000
00000000
00100000
00000000
01000000
00010000
02000000
00000000
00000000
00000000
03010000
00000000
10000000
00000000
,
01000000
00000000
00100000
00010000
00100000
00000000
00001000
00010000
00001000
00000000
00010000
00000010
00001000
00000000
00000001
00000000
,
00001001
00000000
00011000
00000000
10010000
00000000
10000000
01000000
,
00010000
00000000
00001000
00000000
00000010
00000000
00000001
00001000
00000002
00000000
00000000
00000000
00000103
00000000
00000010
00000000
,
00001000
00000000
00000001
00000010
00000100
00001000
00000100
00000000
00010000
00001000
00010000
00000000
00000010
00001000
00000010
00001000
,
00000000
00000010
00010000
00001000
00100000
00010000
00100000
00000000
00010000
10000000
00010000
00000000
01000000
00100000
10000000
00000000
,
10010000
00011000
00001001
00011000
,
00001000
00010000
00100000
10000000
02000000
00000000
03100000
00001000
,
00010000
00000000
00000010
00001000
00000010
00010000
00001000
00000000
00100000
00010000
00100000
00000000
01000000
10000000
01000000
10000000
,
00010000
00010000
10000000
10000000
01000000
01000000
00010000
00010000
,
00001000
00000000
00010000
00000010
00001000
00000000
00000001
00000010
00000100
00000000
00010000
00001000
00010000
00000010
00010000
00002000
,
00003000
00000000
00000000
00000000
;

//--------------- dance-double - Fred-104† ----------------
#NOTES:
     dance-double:
     Fred-104†:
     Challenge:
     15:
     :
00000000
00000000
00000000
00000000
,
00000000
00000000
00000000
00000000
,
00000000
00000000
00000000
00000000
,
00000000
00000000
00000000
00000000
,
00000000
00000000
00000000
00000000
,
00010000
00000000
00001000
00000000
00000100
00000000
00000001
00000000
00001000
00000100
00001000
00000100
00000010
00000100
00000010
00000100
,
00001000
00000000
00000001
00000000
00000100
00000000
00001000
00000000
00010000
00001000
00010000
00001000
01000000
00010000
01000000
00010000
,
01000000
00000000
00100000
00000000
10000000
00000000
01000000
00000000
00100000
00010000
00100000
00010000
00100000
00001000
00100000
00001000
,
00010000
00000010
00010000
00000010
00001000
00000010
00001000
00000010
00010000
00000000
00000000
00001000
00000100
00000000
00000010
00000000
,
00001000
00000100
00000010
00000001
00000000
00000100
00000000
00001000
00000000
00010000
00000000
00002000
00000000
00000000
00000000
00000000
,
01003000
00010000
10000000
00100000
00000000
01000000
00000000
00010000
10000000
01000000
00010000
01000000
20000000
00000000
00000000
00000000
,
31000000
00100000
01000000
00100000
00000000
00001000
00000000
00010000
00000000
00001000
00000000
00000100
00000000
00000001
00000000
00001000
,
00000100
00000000
00000000
00000010
00000001
00000000
00000000
00000100
00001000
00010000
00001000
00010000
00001000
00000000
01000000
00000000
,
00001000
00010000
00001000
00010000
00000000
00100000
00000000
01000000
00000000
00010000
00000000
20000000
00000000
00000000
00000000
00000000
,
31000000
00100000
00010000
00100000
00000000
00001000
00000000
00010000
00000010
00001000
00000001
00000010
00000200
00000000
00000000
00000000
,
00001300
00000001
00000100
00000001
00000000
00001000
00000000
00000100
00000000
00000010
00000001
00000100
00001000
00010000
00001000
01000000
,
00001000
00000000
00000000
00010000
00001000
00000000
00000000
00000100
00000010
00000000
00001000
00000000
00000100
00000000
00001001
00000000
,
00000001
00000000
00000010
00000000
00000001
00000000
00000010
00000000
00000100
00000000
00001000
00000000
00000100
00000000
00010000
00000000
00001000
00010000
00001000
00000000
01000000
00000000
00010000
00000000
10000000
00000000
00010000
00000000
00100000
00000000
01000000
00000000
,
00000000
00000000
10000000
00000000
00100000
00000000
01000000
00000000
00100000
00000000
00010000
00000000
00001000
00000000
00010000
00000000
00000010
00001000
00000010
00000000
00000100
00000000
00000001
00000000
00001000
00000000
00000100
00000000
00000010
00000000
00000000
00000000
,
00000001
00000000
00001000
00000000
00000010
00000000
00000100
00000000
00001000
00000000
00010000
00000000
00001000
00000000
01000000
00000000
00010000
00100000
00010000
00000000
00100000
00000000
01000000
00000000
10000000
00000000
00010000
00000000
00100000
00000000
00001000
00000000
,
00000000
00000000
00010000
00000000
00000010
00000000
00001000
00000000
00000100
00000000
00010000
00000000
00001000
00000000
01000000
00000000
00100000
10000000
00100000
00000000
10000000
00000000
01000000
00000000
00100000
00000000
00010000
00000000
00100000
00000000
00000000
00000000
,
00001000
00000000
00010000
00000000
00000010
00000000
00001000
00000000
00000010
00000000
00010000
00000000
00001000
00000000
00010000
00000000
00000100
00001000
00000100
00000000
00001000
00000000
00000100
00000000
00000010
00000000
00000001
00000000
00001000
00000000
00000010
00000000
,
00000000
00000000
00000100
00000000
00001000
00000000
00010000
00000000
00100000
00000000
01000000
00000000
00100000
00000000
10000000
00000000
00010000
00100000
00010000
00000000
10000000
00000000
00100000
00000000
01000000
00000000
00100000
00000000
00010000
00000000
00001000
00000000
,
00000000
00010000
00001000
00000010
00000100
00001000
00000001
00000100
00001000
00010000
00001000
00000100
00000010
00001000
00000001
00000010
,
00000100
00001000
00000100
00010000
00001000
00100000
00010000
10000000
00100000
01000000
00010000
10000000
01000000
00000000
00010000
00000000
,
00011000
00000000
00000000
00000000
00001001
00000000
00000000
00000000
00011000
00000000
00000000
00000000
10010000
00000000
00000000
10000000
,
01000000
00010000
00001000
00000100
00000101
00000000
00000110
00000110
,
00001001
00000000
00000000
00000000
00011000
00000000
00000000
00000000
10010000
00000000
00000000
00000000
00011000
00000000
00000000
00001000
,
00010000
00000000
00100000
10000000
00000000
01000000
00100000
00000000
00101000
00000000
00000000
00000000
00011000
00000000
00010010
00000000
,
00011000
00000000
00000000
00000000
10010000
00000000
00000000
00000000
00011000
00000000
00000000
00000000
00001001
00000000
00000000
00001000
,
00000100
00000010
00000001
00000100
00002000
00000000
00013000
00001000
,
00010000
00001000
00010000
00001000
00000010
00000100
00000000
00000010
00000000
00000001
00000100
00001000
00010000
00001000
00000000
00100000
,
00000000
00000000
00010000
00000000
10000000
00000000
00100000
00000000
01000000
00000000
00010000
00000000
10000000
00000000
01000000
00000000
00100000
00000000
00001000
00010000
00001000
00000000
01000000
00000000
00001000
00000000
00010000
00000000
00001000
00000000
00000000
00000000
,
00010000
00001000
00010000
00100000
01000000
00010000
00000000
00100000
00000000
01000000
10000000
00100000
10000000
01000000
00000000
00010000
,
00000000
00000000
00001000
00000000
00010000
00000000
00000100
00000000
00001000
00000000
00000100
00000000
00000010
00000000
00000001
00000000
00001000
00000000
00000010
00000100
00000010
00000000
00001000
00000000
00000001
00000000
00000010
00000000
00000100
00000000
00000000
00000000
,
00001000
00000010
00000100
00001000
00010000
00100000
01000000
00000000
00010000
00100000
01000000
00010000
00001000
00000010
00000100
00000000
,
00001000
00000001
00000100
00001000
00010000
00100000
10000000
00010000
00100000
01000000
10000000
01000000
00100000
00001000
00010000
00001000
,
00010000
00000000
00000000
00000000
00000000
00000000
00000010
00000000
00001000
00000000
00000000
00000000
00000000
00000000
00000001
00000000
00000010
00000000
00000000
00000000
00000000
00000000
00000100
00000000
00010000
00000000
00000000
00000000
00001000
00000000
00010000
00001000
,
00010000
00000000
00000000
00000000
00100000
00000000
00000000
00000000
01000000
00000000
00000000
00000000
00010000
10000000
00010000
10000000
00010000
00000000
00000000
00000000
00000000
00000000
00000000
00000000
10000000
00000000
00000000
00000000
01000000
00000000
00000000
00000000
,
00010000
00000000
00000000
00000000
00001000
00000000
00000000
00000000
00000010
00000000
00000000
00000000
00000100
00001000
00000100
00001000
00000100
00000000
00000000
00000000
00000000
00000000
00000010
00000000
00000001
00000000
00000000
00000000
00001000
00000000
00000000
00000000
,
00000001
00000000
00000000
00000001
00001000
00000000
00000000
00001000
00010000
00000000
00000000
00010000
10000000
00000000
01000000
00000000
,
00100000
00000000
00000000
00000000
00000000
00000000
00001000
00000000
00010000
00000000
00000000
00000000
00000000
00000000
00001000
00000000
00000010
00000000
00000000
00000000
00000000
00000000
00001000
00000000
00010000
00000000
00000000
00000000
00000100
00000000
00001000
00000001
,
00001000
00000000
00000000
00000000
00000010
00000000
00000000
00000000
00000100
00000000
00000000
00000000
00001000
00010000
00001000
00010000
00001000
00000000
00000000
00000000
00000000
00000000
00000000
00000000
00010000
00000000
00000000
00000000
01000000
00000000
00000000
00000000
,
10000000
00000000
00000000
00000000
01000000
00000000
00000000
00000000
00010000
00000000
00000000
00000000
00001000
00010000
00001000
00010000
00001000
00000000
00000000
00000000
00000000
00000000
00010000
00000000
00000100
00000000
00000000
00000000
00001000
00000000
00000000
00000000
,
00001100
00000000
00000100
00000000
00000110
00000000
00000010
00000000
00000001
00000100
00000010
00001000
00000001
00000010
00000100
00000000
,
00011000
00000000
00000000
00000000
00000000
00000000
00001000
00000000
00010000
00000000
00000000
00000000
00000000
00000000
00010000
00000000
00100000
00000000
00000000
00000000
00000000
00000000
00100000
00000000
10000000
00000000
00000000
00000000
00010000
00000000
10000000
00010000
,
10000000
00000000
00000000
00000000
01000000
00000000
00000000
00000000
00100000
00000000
00000000
00000000
00001000
00010000
00001000
00010000
00001000
00000000
00000000
00000000
00000000
00000000
00010000
00000000
00000100
00000000
00000000
00000000
00001000
00000000
00000000
00000000
,
00000010
00000000
00010000
00000000
00001000
00000000
00010000
00000000
00100000
00000000
01000000
00000000
00010000
00000000
10000000
00000000
00010000
01000000
00010000
00000000
10000000
00000000
01000000
00000000
00100000
00000000
00001000
00000000
00010000
00000000
00000010
00000000
,
00000000
00000000
00001000
00000000
00000010
00000000
00000100
00000000
00000010
00000000
00001000
00000000
00000001
00000000
00000010
00000000
00000100
00001000
00000100
00000000
00010000
00000000
00001000
00000000
01000000
00000000
00010000
00000000
00200000
00000000
00000000
00000000
,
01300000
00000000
00000000
10000000
00100000
00000000
00000000
00010000
00001000
00000000
00000000
00010000
00000010
00000000
00000000
00001000
,
00000001
00000000
00000010
00000000
00000100
00000000
00001000
00000001
00000100
00000000
00001000
00010000
01000000
00000000
10000000
00000000
,
00010000
00000000
00100000
00000000
01000000
00000000
00100000
00000000
00010000
00000000
10000000
00000000
00100000
00000000
00010000
00000000
00001000
00010000
00001000
00000000
00010000
00000000
00000010
00000000
00001000
00000001
00001000
00000000
00000100
00000000
00000010
00000000
,
00000001
00000000
00001000
00000000
00000100
00000000
00000010
00000000
00001000
00000000
00010000
00000000
01000000
00000000
00100000
00000000
00010000
10000000
00010000
00000000
01000000
00000000
00100000
00000000
10000000
00010000
10000000
00000000
01000000
00000000
00100000
00000000
,
00001000
00000000
00010000
00000000
00000010
00000000
00001000
00000000
00000010
00000000
00010000
00000000
00001000
00000000
01000000
00000000
00010000
10000000
00010000
00000000
00100000
00000000
01000000
00000000
00010000
00000000
00001000
00000000
00000010
00000000
00000002
00000000
,
00000003
00000000
00000000
00000000
;
