#TITLE:JUST AFTER DARK -零-;
#ARTIST:SOUND HOLIC feat. Nana Takahashi;
#TITLETRANSLIT:JUST AFTER DARK -zero-;
#BANNER:JUST AFTER DARK -zero-.png;
#BACKGROUND:JUST AFTER DARK -zero--bg.png;
#CDTITLE:./CDTitles/RB VOLZZA.png;
#MUSIC:JUST AFTER DARK -zero-.ogg;
#SAMPLESTART:59.397;
#SAMPLELENGTH:15;
#BPMS:0=199;
#BGSTAGE:15;

//--------------- dance-single - Fred-104 ----------------
#NOTES:
     dance-single:
     Fred-104:
     Beginner:
     4:
     :
0000
0000
0000
0000
,
0000
0000
0000
0000
,
0000
0000
0000
0000
,
0000
0000
0000
0000
,
0000
0000
0000
0000
,
0000
0000
0000
0000
,
0000
0000
0000
0000
,
0000
0000
0000
0000
,
0000
0000
0000
0000
,
1000
0000
0000
0000
,
0001
0000
0000
0000
,
1000
0000
0000
0000
,
0000
0000
0000
0000
,
0002
0003
1000
0000
,
0002
0003
1000
0000
,
0200
0300
1000
0000
,
0000
0000
0000
0000
,
0001
0000
1000
0000
,
0010
0000
1000
0000
,
1000
0000
0001
0000
,
0010
0000
0100
0000
,
0100
0000
0010
0000
,
0001
0000
0100
0000
,
0100
0000
0010
0000
,
0100
0000
0001
0000
,
2002
0000
0000
3003
,
1000
0000
0001
0000
,
1000
0000
0100
0000
,
0100
0000
0010
0000
,
0001
0000
1000
0000
,
2000
0000
0000
3000
,
0002
0003
1000
0000
,
0001
0000
0100
0000
,
0001
0000
1000
0000
,
1000
0000
0100
0000
,
0010
0000
0100
0000
,
0100
0000
0010
0000
,
0001
0000
0100
0000
,
0200
0000
0000
0300
,
0020
0030
2000
3000
,
1000
0000
0001
0000
,
1000
0000
0002
0003
,
1000
0000
0100
0000
,
0020
0000
0030
0000
,
0001
0000
0100
0000
,
0020
0000
0030
0000
,
1000
0000
0001
0000
,
1000
0000
0001
0000
,
1000
0000
0000
0001
,
0000
0000
2002
3003
,
0000
1000
0000
0010
,
0000
1000
0000
0001
,
0000
0100
0000
0010
,
0000
0100
0000
0001
,
0000
1000
0000
0001
,
0000
1000
0000
0001
,
0000
1000
0000
2002
,
0000
0000
0000
3003
,
1000
0000
0001
0000
,
0100
0000
0010
0000
,
0100
0000
0001
0000
,
1000
0000
1001
0000
,
0000
0001
0000
1000
,
0000
0001
0000
0100
,
0000
0010
0000
0100
,
0000
0001
0000
0001
,
0000
0100
0000
0100
,
0000
0010
0000
0100
,
0000
0001
0000
2002
,
0000
0000
0000
3003
,
0000
1000
0000
0010
,
0000
1000
0000
1000
,
0000
0001
0000
0001
,
1001
0000
0000
0000
,
0001
0000
1000
0000
,
0002
0000
0000
0003
,
1000
0000
0001
0000
,
0200
0000
0000
0300
,
0010
0000
0100
0000
,
0020
0000
0000
0030
,
1000
0000
0001
2002
,
0000
0000
0000
3003
,
1000
0000
0001
0000
,
1000
0000
0100
0000
,
1000
0000
1000
0000
,
0001
0000
0001
0000
,
0010
0000
0001
0000
,
1000
0000
0001
0000
,
0100
0000
0100
0000
,
0110
0000
0000
0000
,
2002
0000
0000
0000
,
0000
0000
0000
3003
;

//--------------- dance-single - Fred-104 ----------------
#NOTES:
     dance-single:
     Fred-104:
     Easy:
     8:
     :
0000
0000
0000
0000
,
0000
0000
0000
0000
,
0000
0000
0000
0000
,
0000
0000
0000
0000
,
0000
0000
0000
0000
,
0000
0000
0000
0000
,
0000
0000
0000
0000
,
0000
0000
0000
0000
,
0000
0000
0000
0000
0000
0000
0000
1000
,
0000
0000
0001
0000
0100
0000
0000
0100
,
0000
0000
0010
0000
0100
0000
0000
0100
,
0000
0000
0010
0000
1000
0000
0000
1000
,
0000
1000
0000
0001
0000
0001
0000
1001
,
0000
0000
0002
0000
0013
0000
0000
0001
,
0000
0000
2000
0000
3010
0000
0000
0100
,
0000
0000
0002
0000
1003
0000
0000
0001
,
0000
0001
0000
1000
0000
1000
0000
1001
,
0000
0000
0001
0000
0100
0000
0000
0020
,
0000
0000
0130
0000
0001
0000
0000
1000
,
0000
0000
0100
0000
1000
0000
0000
0002
,
0000
0000
0103
0000
0010
0000
0000
0100
,
0000
0000
0001
0000
1000
0000
0000
0200
,
0000
0000
0310
0000
0001
0000
0000
0100
,
0000
0000
0010
0000
0100
0000
0000
0002
,
0000
0000
1003
0000
0100
0000
0000
2002
,
0000
0000
0000
3003
0001
1000
0001
0000
,
1001
1000
0010
0000
,
1000
0100
0001
0100
,
0010
0001
0010
0000
,
0001
1000
0010
0001
,
0010
0000
0100
0001
,
1000
0000
0100
0010
,
0100
0000
0000
1000
0000
0000
0001
0000
,
0100
0000
0100
0000
0010
0010
0010
0000
,
1001
1000
0010
0000
,
1000
0100
0010
1000
,
0010
0001
0100
0000
,
0010
1000
0001
0010
,
0001
0000
1000
0010
,
0100
0000
0010
1000
,
0001
0000
0000
1000
0000
0000
0001
0000
,
0100
0000
0010
0000
1000
1000
1000
0000
,
1001
0000
0001
0000
0100
0000
0000
0010
,
0000
0010
0100
0000
0001
0000
1000
0000
,
0100
0000
1000
0000
0001
0000
0000
0010
,
0000
0010
0100
0000
0010
0000
0000
1001
,
0000
0000
1000
0000
0010
0000
0000
0100
,
0000
0100
0000
0100
0000
0000
0001
0000
,
1001
0000
0000
0110
0000
0000
1001
0000
,
0000
0000
0000
0000
0000
0000
0000
1001
,
0000
0000
0001
0000
1000
0000
0000
0100
,
0000
0000
1000
0000
0001
0000
0000
0010
,
0000
0000
0001
0000
0100
0000
0000
0010
,
0000
0000
1000
0000
0100
0000
0000
1000
,
0000
0000
0001
0000
0100
0000
0000
0010
,
0000
0000
1000
0000
0010
0000
0000
0100
,
0000
0000
0001
0000
1000
0000
0000
0001
,
0000
0001
0000
1000
0000
1000
0000
1001
,
0000
0000
0001
0000
0100
0000
0000
0010
,
0000
0010
0000
0100
0000
0100
0000
1001
,
0000
0000
0001
0000
0100
0000
0000
0010
,
0000
0000
0100
0000
0001
0000
0000
1000
,
0000
0000
0100
0000
0010
0000
0000
0001
,
0000
0000
1000
0000
0010
0000
0000
0100
,
0000
0000
0010
0000
1000
0000
0000
0001
,
0000
0000
0010
0000
0100
0000
0000
1000
,
0000
0000
0010
0000
0100
0000
0000
0001
,
0000
1000
0000
0001
0000
0100
0000
0110
,
0000
0000
0010
0000
1000
0000
0000
0001
,
0000
1000
0000
0001
0000
0100
0000
0010
,
0000
0000
0100
0000
0001
0000
0000
1000
,
0000
0000
0100
0000
0010
0000
0000
0001
,
0000
0000
1000
0000
0001
0000
0000
0100
,
0000
0000
0010
0000
0100
0000
0001
1000
,
0000
0000
0100
0000
1000
0000
0001
0100
,
0000
0000
0010
0000
1000
0000
0000
0100
,
0000
0000
0010
0000
0100
0000
1000
0001
,
0000
0000
0100
0000
0001
0000
0000
1001
,
0000
0000
0001
0000
0100
0000
0010
0100
,
0000
0000
0010
0000
1000
0000
0000
1001
,
0000
0000
0001
0000
1000
0000
0000
0001
,
0000
1000
0000
0100
0000
0010
0000
1001
,
0000
0000
0001
0000
0100
0000
0010
0100
,
0000
0000
0010
0000
1000
0000
0000
1001
,
0000
0000
0001
0000
0010
0000
0100
0010
,
0000
0000
0001
0000
1000
0000
0000
1010
,
0000
0000
1000
0000
0001
0000
0100
0010
,
0000
0000
0100
0000
0001
0000
0000
1001
,
0000
0000
1000
0000
0001
0000
0010
0100
,
0000
1000
0000
0001
0000
0100
0000
1001
,
0000
0001
0100
0000
0010
0000
1000
0001
,
0000
1000
0001
2002
0000
0000
3003
0000
;

//--------------- dance-single - Fred-104 ----------------
#NOTES:
     dance-single:
     Fred-104:
     Medium:
     11:
     :
0000
0000
0000
0000
,
0000
0000
0000
0000
,
0000
0000
0000
0000
,
0000
0000
0000
0000
,
0000
0000
0000
0000
,
0000
0000
0000
0000
,
0000
0000
0000
0000
,
0000
0000
0000
0000
,
0000
0000
0000
0000
0000
0000
0000
1001
,
0000
0001
0100
0000
0001
1000
0000
0100
,
0000
1000
0001
0000
0100
0010
0000
1000
,
0000
0010
0100
0000
0001
1000
0000
1100
,
0000
0010
0000
0101
0000
0010
0000
1001
,
0000
0001
2000
0000
3001
0100
0001
0100
,
0000
0010
2000
0000
3001
1000
0100
1000
,
0000
0100
0020
0000
0031
1000
0001
0100
,
0000
0101
0000
1010
0000
0011
0000
1100
,
0000
0001
1000
0001
0100
0000
0010
0100
,
0000
0001
0100
0000
0001
0000
1000
0100
,
0000
0010
0100
1000
0001
0000
0100
0010
,
0000
1000
0010
0000
0100
0000
0001
1000
,
0000
0001
0010
0001
1000
0000
0001
0100
,
0000
0010
1000
0000
0010
0000
0100
0001
,
0000
1000
0100
0010
0001
0000
1000
0001
,
0000
0100
0010
0100
0001
0000
2000
0002
,
0000
0000
0000
3003
1000
0001
1000
0000
,
1001
0000
0001
1000
0001
0000
0100
0010
,
0000
1000
0000
0001
0000
0010
0100
0010
,
0001
0000
1000
0001
0100
0000
0010
1000
,
0000
0010
0000
0100
0000
0001
1000
0100
,
2000
0000
0100
0000
0100
0000
3100
1000
,
0001
0100
0110
1001
,
1100
0000
0001
0100
0000
0010
0000
1000
,
0000
0001
1000
0000
0100
0010
0001
0000
,
1001
0000
1000
0100
1000
0000
0001
1000
,
0000
0010
0000
0100
0000
0001
1000
0100
,
0010
0000
0100
1000
0001
0000
0100
0010
,
0000
0100
0000
0001
0000
0010
0100
0010
,
0002
0000
1000
0000
1000
0000
1003
0010
,
0100
0001
0011
1100
,
1001
0000
0001
0100
0000
0001
0000
1000
,
0000
0100
0010
0000
0001
1000
0001
0000
,
1000
0100
1000
0000
0001
0000
0001
0100
,
0000
0010
0100
0000
0001
0000
1000
0000
,
0100
1000
0100
0000
0010
0000
0010
0100
,
0000
0010
0001
0000
1000
0001
0000
0001
,
0000
1000
0001
0000
0010
0000
0010
0100
,
0000
1000
0000
0001
0000
0100
0010
0000
,
1000
1000
0000
0001
0001
0000
1000
1000
,
0000
0000
0000
0000
0000
0000
0000
1001
,
0000
0001
0100
0000
0001
0000
1000
0100
,
0000
0010
0001
0000
1000
0001
0000
0100
,
0000
0010
0100
0000
0001
0000
1000
0010
,
0000
0100
0010
0000
1000
0000
0100
0010
,
0000
0001
1000
0000
0001
0000
0100
0010
,
0000
0100
0001
0000
1000
0000
0001
0010
,
0000
0100
1000
0000
0001
0000
0100
0010
,
0000
1010
0000
0101
0000
1100
0000
0011
,
0000
0001
1000
0000
1001
0000
0000
0001
,
0000
0100
0000
0010
0000
0100
0000
0001
,
0000
1000
0100
0000
0010
0100
0010
0001
,
0000
1000
0001
0000
0100
0010
0000
1001
,
0000
0001
0010
0000
0100
0000
1000
0001
,
0000
0100
0000
0010
0000
1000
0001
0010
,
0000
0100
0010
0000
0001
0000
1000
0001
,
0000
0100
0001
0000
1000
0000
0001
0010
,
0000
0100
0010
0000
0001
0000
0100
0010
,
0000
1000
0010
0000
0100
0000
0001
1000
,
0000
0100
0010
0000
0100
0000
1000
0001
,
0000
0011
0000
1010
0000
0101
0000
1100
,
0000
0001
0100
0000
0010
0000
0100
0001
,
0000
1000
0100
0000
0010
0000
0001
0100
,
0000
0010
0100
0000
0001
1000
0001
0100
,
0000
0001
0010
0000
0100
1000
0001
1000
,
0000
0001
1000
0001
0100
0000
0010
0200
,
0000
0000
0301
0000
1000
0000
0100
0010
,
0000
0001
1000
0001
0010
0000
0001
0200
,
0000
0000
0310
0000
0100
0000
0001
0010
,
0000
0001
1000
0001
0010
0000
0100
2000
,
0000
0000
3010
0000
1000
0000
0001
1000
,
0000
0100
1000
0100
0010
0000
0100
1000
,
0000
1010
0000
0110
0000
0101
0000
1001
,
0000
0001
1000
0001
0100
0000
0001
0010
,
0000
0100
0000
1000
0000
0001
0000
1000
,
0000
0001
0100
0001
1000
0000
0010
0100
,
0000
0001
0000
1000
0000
0001
0000
1000
,
0000
0100
0010
0100
1000
0000
0010
0100
,
0000
0001
0000
1000
0000
0100
0000
1000
,
0000
0001
0010
0001
0010
0000
0100
0010
,
0000
0001
0000
1000
0000
0001
0000
1001
,
0000
1000
0100
0000
1000
0001
0100
0010
,
0000
1000
0000
2002
0000
0000
3003
0000
;

//--------------- dance-single - Fred-104 ----------------
#NOTES:
     dance-single:
     Fred-104:
     Hard:
     14:
     :
0000
0000
0000
0000
,
0000
0000
0000
0000
,
0000
0000
0000
0000
,
0000
0000
0000
0000
,
0000
0000
0000
0000
,
0000
0000
0000
0000
,
0000
0000
0000
0000
,
0000
0000
0000
0000
,
0000
0000
0000
0000
0000
0000
0000
1001
,
0000
0001
1000
0001
0100
0010
1000
0100
,
0000
1000
0001
0010
0100
0010
0001
1000
,
0000
0001
0010
0100
1000
0001
0100
0110
,
0000
1010
0000
0101
0000
1100
0000
0011
,
0000
0001
2000
3001
0100
0010
0100
0100
,
0000
0001
2000
3001
1000
0100
0010
0010
,
0000
0001
2000
3001
0100
0010
1000
1100
,
0000
0101
0000
0110
0000
1000
0001
1001
,
0000
0001
0010
0100
0001
0100
1000
0002
,
0000
2003
0010
0000
0100
0000
3001
0200
,
0000
0301
0100
0010
0001
0010
0100
0002
,
0000
1003
0100
0010
0001
0001
1000
1001
,
0000
1000
0100
0010
1000
0010
0001
0200
,
0000
0302
0010
0000
1000
0000
0103
0020
,
0000
1030
0001
0100
1000
0100
0010
2000
,
0000
3001
0010
0100
0010
0000
0001
2002
,
0000
0000
0000
3003
0100
0100
0110
0000
,
0001
0010
0001
0100
0010
1000
0100
1000
,
0100
0001
0100
0001
0100
1000
0001
0000
,
1000
0010
1000
0100
0010
0001
0100
0001
,
0100
1000
0100
1000
0100
0001
0010
0100
,
2000
0000
0010
0000
0001
0000
3100
0010
,
0002
0100
1003
1001
,
1000
0010
0100
1000
0100
0010
0100
0010
,
1000
0100
0010
0001
0100
0010
0100
0100
,
0001
0000
1000
0010
0001
0010
0100
1000
,
0100
0001
0100
0010
0001
0010
0100
0001
,
1000
0000
0001
0010
1000
0010
0100
0001
,
0100
1000
0100
0010
1000
0010
0100
1000
,
0002
0000
1000
0000
0010
0000
1003
0001
,
0200
0010
0301
1001
,
1000
0100
0001
0100
0000
1100
0000
1001
,
0000
0001
0010
1000
0001
0100
1000
0000
,
0001
0001
1000
1000
0010
0100
0001
1001
,
0000
0001
0010
0100
1000
0000
0010
1000
,
0001
0001
0100
0010
0100
0100
0001
1001
,
0000
1000
0010
0100
1000
0100
0001
2000
,
0000
3100
0020
0000
0031
0100
0010
0002
,
0000
0023
0000
2030
0000
3001
0010
0100
,
1000
1000
0000
0001
0001
0000
0100
0100
,
0000
0010
0010
0000
1000
0001
0000
1001
,
0000
1000
0001
1000
0100
0010
0100
1000
,
0000
0100
0010
0001
0100
0010
1000
0001
,
0000
1000
0001
0100
0010
1000
0010
0100
,
0000
0001
1000
0100
0010
0001
1000
0001
,
0000
1000
0001
0100
0001
0100
0010
0100
,
0000
0001
0010
0100
1000
0010
1000
0010
,
0000
0100
0010
1000
0001
0010
0001
1001
,
0000
1100
0000
0101
0000
0011
0000
1010
,
0000
1000
0010
0000
0110
0001
1000
0002
,
0000
0023
0000
0230
0000
2300
0000
3001
,
0000
0100
0001
0100
1000
0100
1000
0100
,
0000
0001
0010
0001
1000
1001
0000
0110
,
0000
1000
0100
1000
0100
0001
0100
1000
,
0000
0001
0100
1000
0100
0001
0100
0001
,
0000
0010
0100
0001
0100
0010
0001
1000
,
0000
0010
0100
1000
0100
0010
0100
0010
,
0000
1000
0100
0010
1000
0001
0100
1000
,
0000
0001
0100
0010
0001
1000
0100
0001
,
0000
1000
0001
0100
1000
0100
0010
1010
,
0000
0101
0000
1100
0000
0011
0000
1001
,
0000
1000
0100
1000
0001
0100
0010
1010
,
0000
1000
0001
0010
0001
1000
0001
0101
,
0000
0100
0010
0100
1000
0100
0001
0011
,
0000
0001
0100
1000
0001
0010
1000
1100
,
0000
1000
0100
0010
0100
1000
0001
0100
,
0000
0010
0100
0001
0100
0010
1000
0001
,
0000
1000
0010
0001
0010
0100
0010
1000
,
0000
0001
0010
0100
0010
1000
0010
0001
,
0000
1000
0001
0100
1000
0100
0001
0010
,
0000
0001
1000
0100
0001
0100
1000
0001
,
0000
0100
0010
0100
0001
1000
0100
1100
,
0000
0101
0000
1010
0000
0011
0000
1001
,
0000
0001
0010
0100
0001
0100
0010
0001
,
1000
0010
0100
1000
0100
0001
0100
0010
,
1000
0100
0010
0001
0100
0010
0001
0010
,
0100
0001
1000
0100
0001
0100
0010
0100
,
0000
1000
0100
0010
1000
0001
0100
1000
,
0001
1000
0010
0100
0001
0010
0001
1000
,
0010
0100
1000
0001
0010
1000
0001
1000
,
0000
1100
0000
0101
0000
1010
0000
1001
,
0000
0001
0100
1000
0001
0010
1000
0001
,
0000
1000
0001
2002
0000
0000
3003
0000
;

//--------------- dance-single - Fred-104† ----------------
#NOTES:
     dance-single:
     Fred-104†:
     Challenge:
     17:
     :
0000
0000
0000
0000
,
0000
0000
0000
0000
,
0000
0000
0000
0000
,
0000
0000
0000
0000
,
0000
0000
0000
0000
,
0000
0000
0000
0000
,
0000
0000
0000
0000
,
0000
0000
0000
0000
,
0000
0000
0000
0000
0000
0000
0000
2000
,
0000
0000
0000
0000
0000
0000
0000
3200
,
0000
0000
0000
0000
0000
0000
0000
0320
,
0000
0000
0000
0000
0031
0001
0010
0011
,
0000
1010
0000
1100
0000
0101
0000
1001
,
0000
0000
0001
0000
0011
0000
0000
0000
1000
0100
0010
0001
1000
0000
1100
0000
,
0000
0000
0000
0001
0000
0000
0101
0000
0000
0000
0000
0000
1000
0000
0010
0000
1000
0000
0001
0000
0000
0011
0000
0000
,
0000
0000
1000
0000
1010
0000
0010
0000
0100
0001
1000
0001
0010
0100
1000
0000
,
0000
0000
1100
0000
0000
0000
0101
0000
0000
0000
1000
0001
0100
0010
1000
0000
,
0000
0000
0001
0100
0001
0000
0010
0000
0001
0100
0001
0000
0010
0000
0100
0000
,
0000
0000
1000
0100
1000
0000
0010
0000
1000
0100
1000
0000
0010
0000
0100
0000
,
0000
0000
0001
0010
0001
0000
0100
0000
0001
0010
0001
0000
0100
0000
0010
0000
,
0000
0000
1000
0010
1000
0000
0100
0000
1000
0010
0100
0001
1000
0100
0010
0000
,
0000
0000
0001
1000
0001
0000
0100
0000
0010
1000
0010
0000
0100
0000
0001
0000
,
0000
0000
1000
0001
1000
0000
0100
0000
0010
0001
0010
0000
0100
0000
1000
0000
,
0000
0000
0001
0100
0001
0000
1000
0000
0100
0010
0100
0000
1000
0000
0001
0000
,
0000
0000
0100
1000
0100
0000
0001
0000
1000
0100
1000
0001
0100
0000
0010
0000
,
0100
0000
0100
0000
1001
1001
1001
0000
,
0001
0000
1000
0000
0100
0000
0001
0000
0100
0000
0010
0000
1000
0000
0010
0001
,
0010
0000
0100
1000
0100
0000
0010
0001
0010
0000
0100
1000
0100
0000
1000
0000
,
0001
0000
0100
0000
1000
0000
0100
0000
0010
0000
0001
0000
0010
0000
0100
0001
,
0100
0000
0010
1000
0010
0000
0100
0001
0100
0000
0010
1000
0010
0000
1000
0000
,
1001
0000
1000
0001
0010
0001
0010
0100
,
1000
0000
0001
0000
0100
0000
1000
0100
0010
0000
0100
0010
0100
0000
0001
0000
,
1000
0001
0010
0100
0001
1000
0010
0001
,
1000
0000
0010
0000
0001
0000
1000
0000
0100
0010
0100
0010
1000
0000
0100
0000
,
0110
0000
0000
0000
0001
0000
0100
0000
1000
0000
0100
0000
0001
0000
1000
0100
,
1000
0000
0100
0010
0100
0000
0010
0001
0010
0000
0001
1000
0001
0000
0100
0000
,
0110
0000
0000
0000
0010
0000
1000
0000
0100
0000
0010
0000
0001
0000
0100
0010
,
0100
0000
0010
1000
0010
0000
1000
0100
1000
0000
0010
0100
0010
0000
1000
0000
,
0200
0000
0301
1000
0010
0100
1000
1000
,
0001
0000
0100
0000
1000
0000
0100
0000
0010
1000
0010
1000
0001
0000
1000
0000
,
0100
0001
1000
0010
0100
0001
0100
1000
,
0001
0000
0100
0000
1000
0000
0100
0000
0001
1000
0001
1000
0100
0010
0001
0000
,
0011
0001
1000
0010
0110
0100
0001
1001
,
0000
0000
1100
0000
0100
0010
0100
0010
0001
0000
1000
0000
0010
0000
0100
0000
,
0101
0001
1000
0100
0110
0010
0001
1001
,
0000
0000
0001
0100
0001
0000
1000
0000
0100
0010
0001
1000
0010
0000
0110
0000
,
0000
0000
0101
0000
0101
0000
0000
0000
0001
1000
0010
1000
0001
0000
0011
0000
,
0000
0000
1010
0000
0000
0000
0101
0000
0000
0000
1000
0100
1000
0100
0010
0001
,
1000
1010
1000
0001
0011
0001
1000
1100
,
1000
0001
0101
0000
0100
0110
0000
1001
,
0000
0000
0001
0100
0001
0000
0010
0000
0100
1000
0100
0000
0010
0000
0001
0000
,
0000
0000
1000
0100
1000
0000
0010
0000
0100
0001
0100
0000
0010
0000
1000
0000
,
0000
0000
0001
0010
0001
0000
0100
0000
0010
1000
0010
0000
0100
0000
0001
0000
,
0000
0000
1000
0010
1000
0000
0100
0000
0010
0001
0010
0000
0100
0000
1000
0000
,
0000
0000
0001
0100
0010
0000
0100
0000
0010
0100
0001
0000
0010
0000
0100
0000
,
0000
0000
1000
0100
0010
0000
0100
0000
1000
0010
0100
0000
0010
0000
1000
0000
,
0000
0000
0100
0010
0001
0000
1000
0000
0010
0100
0001
1000
0100
0010
0001
0000
,
0000
0011
0000
1010
0000
0101
0000
1100
,
0000
0100
0010
0001
1001
1000
0010
0110
,
0000
0101
0000
1100
0000
0011
0000
1001
,
0000
0001
0100
1000
0001
0010
0100
0101
,
0000
0000
0001
0000
0100
0010
1000
0100
0010
0000
0011
0000
0000
0000
1001
0000
,
0000
0000
0001
0100
0010
0000
0001
0000
0010
0100
0001
0000
1000
0000
0001
0000
,
0000
0000
1000
0100
0010
0000
1000
0000
0010
0100
1000
0000
0001
0000
1000
0000
,
0000
0000
0001
0010
0100
0000
0001
0000
0100
0010
0001
0000
1000
0000
0001
0000
,
0000
0000
1000
0010
0100
0000
1000
0000
0100
0010
1000
0000
0001
0000
1000
0000
,
0000
0000
0001
0010
0100
0000
0001
0000
0100
0010
0100
0000
1000
0000
0001
0000
,
0000
0000
1000
0010
0100
0000
1000
0000
0100
0010
0100
0000
0001
0000
1000
0000
,
0000
0000
0001
0010
0100
0000
0010
0000
1000
0010
0100
0010
0100
0010
0001
0000
,
0000
0011
0000
1010
0000
0101
0000
1100
,
0000
0000
0001
1000
0100
0000
0010
0000
0001
1000
0010
0100
0001
0000
0101
0000
,
0000
0000
1000
0100
0010
0000
0001
0000
1000
0010
1000
0001
0010
0000
0011
0000
,
0000
0000
0001
1000
0010
0000
0100
0000
0001
0100
0010
1000
0100
0000
1100
0000
,
0000
0101
0000
0011
0010
1010
0000
1001
,
0000
0000
0001
0100
0001
0000
0010
0000
0100
1000
0001
0100
0010
0000
1010
0000
,
0000
0000
1000
0010
0100
0000
0001
0000
1000
0100
0010
0100
1000
0000
1001
0000
,
0000
0000
0001
1000
0010
0000
0100
0000
0010
1000
0100
0010
0001
0000
0011
0000
,
0000
0000
1000
0001
1000
0000
0010
0000
0100
0001
0010
0100
1000
0001
0100
0000
,
0000
0000
0001
0010
0100
0000
0010
0000
0001
0100
0010
1000
0001
0000
1001
0000
,
0000
0000
1000
0001
0010
0000
0100
0000
0010
0001
0100
0010
0100
0000
0101
0000
,
0000
0000
0001
1000
0001
0000
0100
0000
0010
1000
0100
0010
0001
1000
0001
0000
,
0000
0011
0000
1010
0000
1100
0000
0101
,
0000
0000
0001
0100
0010
0000
1000
0000
0001
0010
0100
1000
0001
0000
0100
0000
,
0010
1000
0010
0000
0100
0001
0100
0000
0001
0010
0001
0000
1000
0100
1000
0000
,
0010
0000
0100
0001
1000
0000
0100
0000
0010
0100
1000
0001
0100
0000
0010
0000
,
0100
0001
0100
0000
0010
1000
0010
0000
1000
0100
0010
0001
1000
0100
0010
0000
,
0001
0000
0100
0001
1000
0000
0100
0000
0010
0100
1000
0001
0100
0010
1000
0000
,
0001
0010
0001
0000
0010
0100
0010
0000
0100
1000
0100
0000
1000
0001
1000
0000
,
0010
0000
0100
0001
1000
0000
0100
0000
0010
0001
1000
0010
0100
0001
0010
0000
,
0001
1000
0001
0000
0100
0010
0100
0000
0010
1000
0010
0100
0001
1000
0001
0000
,
0000
0000
1000
0100
1000
0100
0010
0001
0010
0001
1000
0100
0010
0001
1000
0000
,
0000
0000
0001
0100
0010
1000
0002
0000
0000
0000
0000
0000
0003
0000
0000
0000
;

//--------------- dance-double - Fred-104 ----------------
#NOTES:
     dance-double:
     Fred-104:
     Easy:
     8:
     :
00000000
00000000
00000000
00000000
,
00000000
00000000
00000000
00000000
,
00000000
00000000
00000000
00000000
,
00000000
00000000
00000000
00000000
,
00000000
00000000
00000000
00000000
,
00000000
00000000
00000000
00000000
,
00000000
00000000
00000000
00000000
,
00000000
00000000
00000000
00000000
,
00000000
00000000
00000000
00000000
00000000
00000000
00000000
10000000
,
00000000
00000000
00010000
00000000
10000000
00000000
00000000
01000000
,
00000000
00000000
00100000
00000000
01000000
00000000
00000000
00100000
,
00000000
00000000
00001000
00000000
00010000
00000000
00000000
00000010
,
00000000
00010000
00000000
00000100
00000000
00010000
00000000
00011000
,
00000000
00000000
00020000
00000000
00031000
00000000
00000000
00000100
,
00000000
00000000
00000020
00000000
00001030
00000000
00000000
00000001
,
00000000
00000000
00000020
00000000
00001030
00000000
00000000
00010000
,
00000000
01000000
00000000
00100000
00000000
00010000
00000000
10010000
,
00000000
00000000
10000000
00000000
01000000
00000000
00000000
00200000
,
00000000
00000000
00301000
00000000
00010000
00000000
00000000
00001000
,
00000000
00000000
00000010
00000000
00000100
00000000
00000000
00002000
,
00000000
00000000
00003001
00000000
00001000
00000000
00000000
00000010
,
00000000
00000000
00001000
00000000
00000100
00000000
00000000
00020000
,
00000000
00000000
00031000
00000000
01000000
00000000
00000000
00001000
,
00000000
00000000
00010000
00000000
00100000
00000000
00000000
02000000
,
00000000
00000000
03001000
00000000
00010000
00000000
00000000
00022000
,
00000000
00000000
00000000
00033000
00001000
00010000
00001000
00000000
,
00011000
00001000
00010000
00000000
,
01000000
00100000
00001000
00010000
,
00100000
10000000
00010000
00000000
,
10000000
00100000
00010000
00001000
,
00010000
00000000
01000000
00100000
,
00001000
00000000
00010000
00000010
,
00010000
00000000
00000000
00001000
00000000
00000000
00010000
00000000
,
00000010
00000000
00010000
00000000
00001000
00001000
00001000
00000000
,
00011000
00010000
00001000
00000000
,
00000100
00000010
00010000
00001000
,
00000010
00000100
00001000
00000000
,
00000001
00000010
00001000
00010000
,
01000000
00000000
10000000
00010000
,
01000000
00000000
00100000
10000000
,
01000000
00000000
00000000
00100000
00000000
00000000
00001000
00000000
,
00010000
00000000
00001000
00000000
00001000
00001000
00001000
00000000
,
00011000
00000000
00001000
00000000
01000000
00000000
00000000
00001000
,
00000000
00001000
00010000
00000000
00000100
00000000
00010000
00000000
,
00001000
00000000
00010000
00000000
00000010
00000000
00000000
00010000
,
00000000
00010000
00001000
00000000
00100000
00000000
00000000
00011000
,
00000000
00000000
00001000
00000000
00100000
00000000
00000000
00010000
,
00000000
01000000
00000000
00100000
00000000
00000000
10000000
00000000
,
01100000
00000000
00000000
00011000
00000000
00000000
00000110
00000000
,
00000000
00000000
00000000
00000000
00000000
00000000
00000000
00001001
,
00000000
00000000
00000001
00000000
00000100
00000000
00000000
00000010
,
00000000
00000000
00000100
00000000
00000001
00000000
00000000
00000010
,
00000000
00000000
00001000
00000000
00010000
00000000
00000000
01000000
,
00000000
00000000
00100000
00000000
01000000
00000000
00000000
10000000
,
00000000
00000000
00010000
00000000
01000000
00000000
00000000
00001000
,
00000000
00000000
00010000
00000000
00000100
00000000
00000000
00010000
,
00000000
00000000
00001000
00000000
00010000
00000000
00000000
00010000
,
00000000
00001000
00000000
00000010
00000000
00000100
00000000
00001100
,
00000000
00000000
00000001
00000000
00000100
00000000
00000000
00001000
,
00000000
00010000
00000000
00100000
00000000
01000000
00000000
01010000
,
00000000
00000000
00010000
00000000
10000000
00000000
00000000
01000000
,
00000000
00000000
00100000
00000000
00001000
00000000
00000000
00010000
,
00000000
00000000
00001000
00000000
01000000
00000000
00000000
00001000
,
00000000
00000000
00010000
00000000
00001000
00000000
00000000
00000100
,
00000000
00000000
00000010
00000000
00001000
00000000
00000000
00000001
,
00000000
00000000
00000010
00000000
00000100
00000000
00000000
00000010
,
00000000
00000000
00001000
00000000
00010000
00000000
00000000
01000000
,
00000000
00100000
00000000
00010000
00000000
01000000
00000000
01100000
,
00000000
00000000
00001000
00000000
00010000
00000000
00000000
00001000
,
00000000
01000000
00000000
00001000
00000000
00010000
00000000
00001000
,
00000000
00000000
00100000
00000000
00001000
00000000
00000000
00010000
,
00000000
00000000
00000010
00000000
00010000
00000000
00000000
00001000
,
00000000
00000000
00010000
00000000
00000100
00000000
00000000
00001000
,
00000000
00000000
00000001
00000000
00000100
00000000
00000010
00001000
,
00000000
00000000
00000100
00000000
00001000
00000000
00000100
00000010
,
00000000
00000000
00000001
00000000
00000100
00000000
00000000
00001000
,
00000000
00000000
00010000
00000000
00100000
00000000
01000000
00100000
,
00000000
00000000
10000000
00000000
01000000
00000000
00000000
01100000
,
00000000
00000000
00100000
00000000
00001000
00000000
00010000
00001000
,
00000000
00000000
01000000
00000000
00001000
00000000
00000000
00011000
,
00000000
00000000
00010000
00000000
00001000
00000000
00000000
00010000
,
00000000
00001000
00000000
00000100
00000000
00000010
00000000
00011000
,
00000000
00000000
00010000
00000000
00001000
00000000
00000100
00000010
,
00000000
00000000
00010000
00000000
00001000
00000000
00000000
00011000
,
00000000
00000000
00010000
00000000
00000010
00000000
00001000
00000001
,
00000000
00000000
00000100
00000000
00000010
00000000
00000000
00001001
,
00000000
00000000
00000001
00000000
00000100
00000000
00001000
00010000
,
00000000
00000000
00001000
00000000
01000000
00000000
00000000
01100000
,
00000000
00000000
00100000
00000000
10000000
00000000
01000000
00100000
,
00000000
00001000
00000000
00010000
00000000
00001000
00000000
00011000
,
00000000
00010000
00000010
00000000
00010000
00000000
00000100
00010000
,
00000000
00001000
00010000
00022000
00000000
00000000
00033000
00000000
;

//--------------- dance-double - Fred-104 ----------------
#NOTES:
     dance-double:
     Fred-104:
     Medium:
     11:
     :
00000000
00000000
00000000
00000000
,
00000000
00000000
00000000
00000000
,
00000000
00000000
00000000
00000000
,
00000000
00000000
00000000
00000000
,
00000000
00000000
00000000
00000000
,
00000000
00000000
00000000
00000000
,
00000000
00000000
00000000
00000000
,
00000000
00000000
00000000
00000000
,
00000000
00000000
00000000
00000000
00000000
00000000
00000000
00001001
,
00000000
00000001
00000100
00000000
00000010
00001000
00000000
00000001
,
00000000
00000010
00000100
00000000
00001000
00000100
00000000
00010000
,
00000000
00001000
00010000
00000000
00000010
00010000
00000000
00010010
,
00000000
00010000
00000000
00011000
00000000
00010000
00000000
00010100
,
00000000
00001000
00020000
00000000
01030000
00100000
00010000
00100000
,
00000000
00010000
20000000
00000000
30100000
10000000
00010000
10000000
,
00000000
01000000
00200000
00000000
00310000
00100000
00001000
00010000
,
00000000
00011000
00000000
01001000
00000000
00011000
00000000
00010100
,
00000000
00010000
00000100
00001000
00000100
00000000
00000010
00000001
,
00000000
00001000
00000001
00000000
00000100
00000000
00000010
00001000
,
00000000
00000010
00010000
00001000
00010000
00000000
00000100
00010000
,
00000000
00000100
00010000
00000000
00001000
00000000
00010000
00001000
,
00000000
00100000
00001000
00100000
00001000
00000000
00010000
00100000
,
00000000
01000000
00010000
00000000
10000000
00000000
01000000
10000000
,
00000000
01000000
00100000
00010000
00100000
00000000
00001000
00010000
,
00000000
00000010
00010000
00001000
00010000
00000000
00002000
00020000
,
00000000
00000000
00000000
00033000
00010000
00001000
00010000
00000000
,
00011000
00000000
00010000
00001000
00000100
00000000
00000001
00001000
,
00000000
00000100
00000000
00000010
00000000
00000001
00000010
00000100
,
00000010
00000000
00001000
00010000
00001000
00000000
00010000
01000000
,
00000000
00100000
00000000
00010000
00000000
10000000
00100000
01000000
,
00020000
00000000
00000000
00000000
00000000
00000000
00130000
00001000
,
00010000
00001000
00011000
00010010
,
00011000
00000000
00010000
00001000
00000000
00000010
00000000
00000100
,
00000000
00001000
00000010
00000000
00000100
00000001
00001000
00000000
,
00001001
00000000
00000001
00000010
00000100
00000000
00010000
00000100
,
00000000
00001000
00000000
00000100
00000000
00010000
00001000
01000000
,
00001000
00000000
00010000
00001000
00010000
00000000
00001000
00010000
,
00000000
00100000
00000000
01000000
00000000
00010000
10000000
00100000
,
02000000
00000000
00000000
00000000
00000000
00000000
03010000
01000000
,
00001000
00010000
00011000
01001000
,
00011000
00000000
00010000
00001000
00000000
00010000
00000000
00000010
,
00000000
00001000
00000001
00000000
00000100
00000010
00000100
00000000
,
00000001
00000010
00000100
00000000
00010000
00000000
00010000
00001000
,
00000000
00001000
00100000
00000000
00010000
00000000
10000000
00000000
,
00100000
10000000
00100000
00000000
01000000
00000000
01000000
00001000
,
00000000
00001000
00010000
00000000
00001000
00100000
00000000
00010000
,
00000000
01000000
00001000
00000000
00010000
00000000
00000100
00010000
,
00000000
00001000
00000000
00010000
00000000
00000010
00010000
00000000
,
00011000
00000000
00000000
00010100
00000000
00000000
00011000
00000000
,
00000000
00000000
00000000
00000000
00000000
00000000
00000000
00011000
,
00000000
00010000
00000100
00000000
00001000
00000000
00000001
00000010
,
00000000
00000100
00000010
00000000
00000001
00001000
00000000
00000010
,
00000000
00010000
00001000
00000000
00010000
00000000
00000100
00010000
,
00000000
00001000
00010000
00000000
00000010
00000000
00001000
00000100
,
00000000
00010000
00000100
00000000
00010000
00000000
00001000
00000100
,
00000000
00000010
00010000
00000000
00001000
00000000
00000100
00000010
,
00000000
00010000
00001000
00000000
00010000
00000000
01000000
00100000
,
00000000
00110000
00000000
00010000
00000000
10100000
00000000
10000000
,
00000000
01000000
00100000
00000000
00011000
00000000
00000000
00001000
,
00000000
00010000
00000000
00100000
00000000
00010000
00000000
00001000
,
00000000
00100000
00001000
00000000
00010000
00000010
00001000
00000100
,
00000000
00010000
00001000
00000000
00010000
00001000
00000000
00011000
,
00000000
00001000
00010000
00000000
00100000
00000000
01000000
00001000
,
00000000
00010000
00000000
00001000
00000000
00100000
00001000
00100000
,
00000000
00001000
00010000
00000000
01000000
00000000
00100000
00001000
,
00000000
00010000
00001000
00000000
00010000
00000000
00001000
00010000
,
00000000
00000010
00010000
00000000
00001000
00000000
00010000
00001000
,
00000000
00000100
00000010
00000000
00001000
00000000
00000100
00010000
,
00000000
00000010
00010000
00000000
00001000
00000000
00010000
00001000
,
00000000
00101000
00000000
00010000
00000000
00010010
00000000
00001000
,
00000000
00010000
00001000
00000000
01000000
00000000
00010000
00100000
,
00000000
01000000
10000000
00000000
00010000
00000000
01000000
00100000
,
00000000
10000000
00010000
00000000
10000000
01000000
00100000
01000000
,
00000000
00100000
00001000
00000000
00010000
00001000
00010000
00001000
,
00000000
00010000
00001000
00010000
00000100
00000000
00001000
00000002
,
00000000
00000000
00000103
00000000
00000010
00000000
00000100
00000001
,
00000000
00001000
00000010
00010000
00001000
00000000
00010000
02000000
,
00000000
00000000
03100000
00000000
00010000
00000000
10000000
00100000
,
00000000
10000000
01000000
00100000
00001000
00000000
00010000
00000200
,
00000000
00000000
00001300
00000000
00000001
00000000
00000100
00000010
,
00000000
00000100
00001000
00010000
00100000
00000000
01000000
00010000
,
00000000
01010000
00000000
10010000
00000000
10100000
00000000
10010000
,
00000000
10000000
01000000
00100000
01000000
00000000
00100000
00001000
,
00000000
00010000
00000000
00001000
00000000
01000000
00000000
00001000
,
00000000
00010000
00001000
00010000
00000010
00000000
00010000
00001000
,
00000000
00010000
00000000
00001000
00000000
00000100
00000000
00000010
,
00000000
00010000
00001000
00000100
00000001
00000000
00001000
00000010
,
00000000
00000100
00000000
00000001
00000000
00001000
00000000
00000010
,
00000000
00010000
00001000
00010000
01000000
00000000
00100000
00010000
,
00000000
10000000
00000000
01000000
00000000
00100000
00000000
00110000
,
00000000
00001000
00010000
00000000
00001000
00000100
00000010
00010000
,
00000000
00001000
00000000
00022000
00000000
00000000
00033000
00000000
;

//--------------- dance-double - Fred-104 ----------------
#NOTES:
     dance-double:
     Fred-104:
     Hard:
     14:
     :
00000000
00000000
00000000
00000000
,
00000000
00000000
00000000
00000000
,
00000000
00000000
00000000
00000000
,
00000000
00000000
00000000
00000000
,
00000000
00000000
00000000
00000000
,
00000000
00000000
00000000
00000000
,
00000000
00000000
00000000
00000000
,
00000000
00000000
00000000
00000000
,
00000000
00000000
00000000
00000000
00000000
00000000
00000000
00011000
,
00000000
00010000
00001000
00000010
00000100
00001000
00000001
00000100
,
00000000
00000010
00000100
00001000
00010000
00100000
01000000
00100000
,
00000000
10000000
01000000
00010000
00001000
00000010
00000100
00001100
,
00000000
00000101
00000000
00001010
00000000
00010010
00000000
00011000
,
00000000
00010000
00000200
00010300
00000100
00001000
00000001
00000001
,
00000000
00000010
00000200
00000310
00000100
00010000
00001000
00001000
,
00000000
00100000
00020000
10030000
00010000
01000000
00100000
10100000
,
00000000
01010000
00000000
00001010
00000000
00000101
00000000
00001001
,
00000000
00000001
00000010
00000100
00000001
00000100
00001000
00000010
,
00000000
00010000
00002000
00000000
00010000
00000000
01003000
00001000
,
00000000
00010000
00001000
00000100
00001000
00010000
00000010
00002000
,
00000000
00003100
00020000
00000000
00031000
00010000
00001000
01001000
,
00000000
00001000
00010000
00100000
00010000
00001000
00100000
00020000
,
00000000
10030000
00020000
00000000
01000000
00000000
00130000
00001000
,
00000000
00010000
00001000
00000010
00001000
00010000
00000100
00001000
,
00000000
00000001
00000100
00001000
00010000
00000000
00001000
00022000
,
00000000
00000000
00000000
00033000
00010000
00010000
00011000
00000000
,
00001000
00100000
00001000
00100000
00001000
00010000
00000010
00001000
,
00000001
00000010
00001000
00010000
01000000
10000000
00010000
00000000
,
00100000
00001000
00100000
00001000
00010000
00000010
00001000
00000010
,
00001000
00000001
00000010
00001000
00010000
01000000
00100000
00010000
,
02000000
00000000
00100000
00000000
00010000
00000000
03100000
10000000
,
00010000
00000000
00100000
00001000
00010000
00000000
00011000
00000000
,
00010000
00001000
00000100
00000010
00001000
00000100
00000010
00000001
,
00000100
00001000
00010000
00100000
01000000
00010000
10000000
00000000
,
10000000
00000000
00010000
01000000
10000000
01000000
00010000
01000000
,
00001000
00010000
00000100
00010000
00001000
00010000
00000010
00000000
,
00001000
00000000
00000001
00000010
00001000
00000010
00000001
00001000
,
00000010
00010000
00001000
00010000
00000100
00010000
00001000
00100000
,
00002000
00000000
00010000
00000000
00100000
00000000
00013000
00001000
,
01000000
00000000
00100000
10000000
00010000
00000000
10010000
00000000
,
10000000
01000000
00100000
00001000
00000000
00101000
00000000
00010010
,
00000000
00010000
00001000
00000100
00000001
00001000
00000100
00000000
,
00001000
00000010
00001000
00000010
00000100
00000001
00000010
00000100
,
00000000
00010000
00001000
00000000
00010000
00001000
00010000
00001000
,
00100000
00001000
00100000
00010000
10000000
00100000
00010000
00001000
,
00000000
00010000
00001000
00000000
00010000
00001000
00000010
00000200
,
00000000
00001300
00000002
00000000
00000103
00000010
00010000
00002000
,
00000000
00203000
00000000
00320000
00000000
00130000
01000000
00010000
,
00001000
00001000
00000000
00010000
00010000
00000000
00000010
00000010
,
00000000
00010000
00010000
00000000
00001000
00010000
00000000
00011000
,
00000000
00001000
00010000
00100000
10000000
00010000
00100000
01000000
,
00000000
10000000
00100000
00010000
00100000
01000000
00100000
10000000
,
00000000
01000000
00010000
00001000
00010000
00000100
00000010
00000001
,
00000000
00001000
00000001
00000100
00001000
00000100
00000001
00000010
,
00000000
00000100
00001000
00000100
00010000
00001000
01000000
00010000
,
00000000
00100000
00001000
00010000
00100000
10000000
00010000
10000000
,
00000000
01000000
00100000
00010000
01000000
00001000
00000100
00000001
,
00000000
00000011
00000000
00001100
00000000
00110000
00000000
11000000
,
00000000
10000000
01000000
00000000
00100000
00001000
00010000
00002000
,
00000000
00003200
00000000
00000320
00000000
00002030
00000000
00003001
,
00000000
00001000
00000001
00000100
00001000
00010000
00001000
00010000
,
00000000
01000000
10000000
00010000
10000000
00010000
00000000
10010000
,
00000000
10000000
00100000
00010000
00100000
10000000
01000000
00100000
,
00000000
00001000
00010000
00100000
00010000
00001000
00100000
00001000
,
00000000
00010000
00001000
00000010
00001000
00010000
00000010
00010000
,
00000000
00001000
00000100
00000010
00001000
00000100
00000010
00000100
,
00000000
00001000
00000001
00000100
00001000
00010000
00001000
00000010
,
00000000
00001000
00010000
00001000
01000000
00100000
10000000
00010000
,
00000000
10000000
01000000
00010000
01000000
00100000
01000000
11000000
,
00000000
00110000
00000000
00001100
00000000
00000011
00000000
00001001
,
00000000
00000001
00000100
00000010
00001000
00000100
00001000
00001100
,
00000000
00010000
00000010
00001000
00000010
00010000
00001000
00101000
,
00000000
00001000
00010000
00100000
01000000
00010000
10000000
11000000
,
00000000
10010000
00000000
10000000
01000000
00100000
00000000
00011000
,
00000000
00010000
00001000
00000010
00000100
00010000
00001000
00000100
,
00000000
00000001
00000010
00000100
00000010
00001000
00010000
01000000
,
00000000
00100000
00010000
10000000
00100000
00010000
00001000
00010000
,
00000000
01000000
00100000
00001000
00010000
00100000
01000000
00001000
,
00000000
00010000
00001000
00000100
00000010
00010000
00001000
00000010
,
00000000
00000001
00000100
00000010
00000100
00001000
00010000
00100000
,
00000000
01000000
00010000
10000000
01000000
00100000
00001000
00010000
,
00000000
01001000
00000000
00010010
00000000
00101000
00000000
00010100
,
00000000
00010000
00001000
00000100
00000001
00001000
00000100
00000010
,
00000001
00000100
00000010
00000100
00001000
00010000
00100000
01000000
,
00000000
00010000
10000000
01000000
00010000
00001000
00010000
01000000
,
00100000
00001000
00010000
00100000
00010000
00001000
00100000
00001000
,
00000000
00010000
00001000
00000010
00001000
00010000
00000100
00001000
,
00000010
00001000
00000100
00010000
00001000
00000100
00000001
00000010
,
00000000
00001000
00010000
01000000
00100000
00010000
01000000
00001000
,
00000000
00011000
00000000
00010010
00000000
01001000
00000000
00011000
,
00000000
00010000
00001000
00000100
00000010
00000100
00001000
00010000
,
00000000
00001000
00010000
00022000
00000000
00000000
00033000
00000000
;

//--------------- dance-double - Fred-104† ----------------
#NOTES:
     dance-double:
     Fred-104†:
     Challenge:
     17:
     :
00000000
00000000
00000000
00000000
,
00000000
00000000
00000000
00000000
,
00000000
00000000
00000000
00000000
,
00000000
00000000
00000000
00000000
,
00000000
00000000
00000000
00000000
,
00000000
00000000
00000000
00000000
,
00000000
00000000
00000000
00000000
,
00000000
00000000
00000000
00000000
,
00000000
00000000
00000000
00000000
00000000
00000000
00000000
00020000
,
00000000
00000000
00000000
00000000
00000000
00000000
00000000
00032000
,
00000000
00000000
00000000
00000000
00000000
00000000
00000000
00023000
,
00000000
00000000
00000000
00000000
00031000
00001000
00010000
00011000
,
00000000
00101000
00000000
00010010
00000000
01001000
00000000
00010100
,
00000000
00000000
00001000
00000000
00001001
00000000
00000000
00000000
00000001
00000100
00000001
00000100
00000010
00000000
00000110
00000000
,
00000000
00000000
00000000
00010000
00000000
00000000
00011000
00000000
00000000
00000000
00000000
00000000
00001000
00000000
00010000
00000000
00100000
00000000
01000000
00000000
00000000
01010000
00000000
00000000
,
00000000
00000000
00010000
00000000
10010000
00000000
00000000
00000000
10000000
01000000
00100000
00010000
00100000
00001000
00010000
00000000
,
00000000
00000000
00011000
00000000
00000000
00000000
00001100
00000000
00000000
00000000
00000100
00000001
00000100
00000001
00001000
00000000
,
00000000
00000000
00000001
00000010
00000001
00000000
00001000
00000000
00000001
00000010
00000001
00000000
00000100
00000000
00001000
00000000
,
00000000
01000000
00010000
10000000
01000000
00100000
00001000
00000010
,
00000000
00000000
00000100
00001000
00000100
00000000
00000010
00000000
00000001
00001000
00000001
00000000
00000100
00000000
00001000
00000000
,
00000000
00000000
01000000
00000000
00010000
00000000
00000100
00000000
00001000
00000000
00010000
00001000
00010000
00001000
00010000
00000000
,
00000000
00000000
00001000
00100000
00001000
00000000
00010000
00000000
00001000
01000000
00001000
00000000
00010000
00000000
00100000
00000000
,
00000000
10000000
01000000
00010000
00001000
00000100
00000001
00000010
,
00000000
00000000
00000100
00000010
00000100
00000000
00001000
00000000
00000001
00000100
00000001
00000000
00000010
00000000
00001000
00000000
,
00000000
00000000
00010000
00001000
00010000
00000000
00001000
00000000
01000000
00010000
01000000
00010000
10000000
00000000
01000000
00000000
,
00010000
00000000
00001000
00000000
00011000
00011000
00011000
00000000
,
00010000
00000000
00001000
00000000
00000100
00000000
00000010
00000000
00000001
00000000
00000010
00000000
00000100
00000000
00000010
00001000
,
00000010
00000000
00000100
00000001
00000100
00000000
00000010
00001000
00000010
00000000
00000100
00000001
00000100
00000000
00000001
00000000
,
00001000
00000000
00000100
00000000
00000010
00000000
00001000
00000000
00010000
00000000
01000000
00000000
00100000
00000000
00010000
00100000
,
00010000
00000000
10000000
01000000
10000000
00000000
00010000
00100000
00010000
00000000
10000000
01000000
10000000
00000000
01000000
00000000
,
00010000
00000000
00000010
00001000
00000001
00000010
00000100
00001000
,
00000010
00000000
00000100
00000000
00001000
00000000
00010000
00001000
00100000
00000000
00001000
00100000
00010000
00000000
10000000
00000000
,
00010000
01000000
00100000
00010000
00001000
00000100
00000001
00001000
,
00000100
00000000
00000010
00000000
00001000
00000000
00010000
00000000
00001000
01000000
00001000
01000000
00010000
00000000
10000000
00000000
,
10010000
00000000
00000000
00000000
10000000
00000000
01000000
00000000
00010000
00000000
01000000
00000000
10000000
00000000
00010000
01000000
,
00010000
00000000
00100000
00001000
00100000
00000000
00001000
00010000
00001000
00000000
00010000
00000100
00010000
00000000
00000100
00000000
,
00000110
00000000
00000000
00000000
00000001
00000000
00000100
00000000
00000010
00000000
00000100
00000000
00001000
00000000
00010000
00001000
,
00010000
00000000
00001000
01000000
00001000
00000000
00010000
00001000
00010000
00000000
00000100
00001000
00000100
00000000
00010000
00000000
,
00002000
00000000
00013000
00100000
01000000
00010000
00100000
10000000
,
00100000
00000000
00010000
00000000
01000000
00000000
00100000
00000000
00010000
00001000
00010000
00001000
00010000
00000000
00000100
00000000
,
00000010
00000100
00001000
00000010
00000100
00001000
00010000
00011000
,
00000000
00000000
00001000
00000000
01000000
00000000
00010000
00000000
00100000
01000000
00100000
01000000
10000000
00010000
10000000
00000000
,
10100000
00100000
00010000
00001000
00011000
00010000
00000100
00001100
,
00000000
00000000
00000001
00000000
00000010
00000000
00000100
00000000
00010000
00001000
00010000
00001000
00010000
00000000
00001000
00000000
,
00011000
00001000
01000000
00010000
00110000
00100000
01000000
11000000
,
00000000
00000000
10000000
00010000
10000000
00000000
01000000
00000000
00100000
00010000
00100000
00001000
00010000
00000000
00011000
00000000
,
00000000
00000000
00000010
00000000
00001010
00000000
00000000
00000000
00000001
00001000
00000100
00000010
00000001
00000000
00000011
00000000
,
00000000
00000000
00001010
00000000
00000000
00000000
00011000
00000000
00000000
00000000
00001000
00010000
00001000
00100000
00010000
00100000
,
01000000
01100000
00000000
00001000
00011000
00000000
00000010
00000110
,
00000000
00010000
00011000
00000000
00001000
00010000
00000000
00011000
,
00000000
00000000
00001000
01000000
00001000
00000000
00010000
00000000
00001000
00100000
00001000
00000000
00010000
00000000
00001000
00000000
,
00000000
00000000
00010000
00000100
00010000
00000000
00001000
00000000
00010000
00000010
00010000
00000000
00001000
00000000
00010000
00000000
,
00000000
00000000
00001000
00100000
00001000
00000000
00010000
00000000
00001000
01000000
00001000
00000000
00010000
00000000
00001000
00000000
,
00000000
00000000
00010000
00000010
00010000
00000000
00001000
00000000
00010000
00000100
00010000
00000000
00001000
00000000
00010000
00000000
,
00000000
00000000
00001000
00010000
00001000
00000000
00010000
00000000
00100000
10000000
00100000
00000000
10000000
00000000
01000000
00000000
,
00000000
00000000
00010000
00001000
00010000
00000000
00001000
00000000
00000100
00000001
00000100
00000000
00000001
00000000
00000010
00000000
,
00000000
00000000
00000100
00001000
00000100
00000000
00010000
00000000
00001000
00010000
00000100
00001000
00000100
00000010
00000001
00000000
,
00000000
00000011
00000000
00001100
00000000
00110000
00000000
11000000
,
00000000
01000000
01100000
00000000
10000000
01000000
00010000
00011000
,
00000000
00001100
00000000
00000101
00000000
00000110
00000000
00001001
,
00000000
00000001
00000100
00001000
00010000
00001000
00100000
00101000
,
00000000
00000000
00001000
00000000
00010000
00001000
00100000
00010000
01000000
00000000
01100000
00000000
00000000
00000000
10010000
00000000
,
00000000
00000000
00010000
01000000
10000000
00000000
01000000
00000000
00010000
01000000
10000000
00000000
01000000
00000000
00010000
00000000
,
00000000
00000000
10000000
00100000
00010000
00000000
00001000
00000000
00010000
00001000
00010000
00000000
00001000
00000000
00000010
00000000
,
00000000
00000000
00000001
00000100
00001000
00000000
00000100
00000000
00000001
00000100
00001000
00000000
00000100
00000000
00000001
00000000
,
00000000
00000000
00001000
00000001
00000010
00000000
00001000
00000000
00010000
00001000
00010000
00000000
00100000
00000000
10000000
00000000
,
00000000
00000000
00010000
00100000
10000000
00000000
00100000
00000000
00010000
10000000
00100000
00000000
00010000
00000000
00100000
00000000
,
00000000
00000000
10000000
01000000
00010000
00000000
00001000
00000000
00010000
00001000
00010000
00000000
00001000
00000000
00000100
00000000
,
00000000
00000000
00000001
00001000
00000100
00000000
00000001
00000000
00000100
00001000
00000100
00010000
00001000
00010000
00001000
00000000
,
00000000
00010100
00000000
01001000
00000000
00010010
00000000
00101000
,
00000000
00000000
00001000
00010000
00001000
00000000
01000000
00000000
00100000
10000000
00100000
10000000
00010000
00000000
10010000
00000000
,
00000000
00000000
10000000
01000000
00100000
00000000
00001000
00000000
00010000
00000100
00010000
00000100
00001000
00000000
00001001
00000000
,
00000000
00000000
00000001
00000100
00000010
00000000
00000100
00000000
00001000
00010000
00001000
00010000
00001000
00000000
00011000
00000000
,
00000000
00000000
01000000
00010000
01000000
00000000
00010000
00000000
00100000
00000000
01000000
00000000
10000000
00000000
10010000
00000000
,
00000000
00000000
10000000
01000000
00100000
00000000
00001000
00000000
00010000
00001000
00010000
00001000
00010000
00000000
00011000
00000000
,
00000000
00000000
00001000
00010000
00001000
00000000
00000100
00000000
00000010
00001000
00000010
00001000
00000001
00000000
00001001
00000000
,
00000000
00000000
00001000
00000001
00000010
00000000
00000100
00000000
00010000
00001000
00010000
00001000
00010000
00000000
00011000
00000000
,
00000000
00000000
00001000
00100000
00010000
00000000
10000000
00000000
01000000
00100000
00010000
00100000
00001000
00010000
00001000
00000000
,
00000000
00000000
00010000
00000010
00001000
00000000
00000001
00000000
00000010
00000100
00001000
00000100
00000010
00000000
00000011
00000000
,
00000000
00000000
00000001
00001000
00000010
00000000
00010000
00000000
00001000
00100000
00010000
00100000
01000000
00000000
11000000
00000000
,
00000000
00000000
10000000
00010000
01000000
00000000
00010000
00000000
10000000
00010000
10000000
01000000
00100000
00010000
10000000
00000000
,
00000000
10100000
00000000
01010000
00000000
00001010
00000000
00000101
,
00000000
00000000
00000001
00001000
00000001
00000000
00000010
00000000
00000100
00001000
00000100
00010000
00001000
00000000
00010000
00000000
,
00001000
00010000
00100000
01000000
10000000
00010000
00002000
00010000
,
00000000
00000000
00013000
01000000
00100000
00000000
00010000
00000000
10000000
00100000
01000000
00010000
10000000
00000000
00010000
00000000
,
00100000
00000000
00001000
00000000
00000010
00000000
00001000
00000000
00010000
00001000
00010000
00000010
00001000
00000020
00001000
00000000
,
00000000
00000000
00001030
00000001
00000010
00000000
00000100
00000000
00010000
00001000
00100000
00001000
00010000
00000000
00001000
00000000
,
00010000
00001000
00000010
00000100
00000001
00001000
00020000
00001000
,
00000000
00000000
00031000
01000000
00010000
00000000
10000000
00000000
01000000
00100000
00010000
00100000
00001000
00010000
00001000
00000000
,
00010000
00000000
00001000
00000000
00000100
00000000
00000001
00000000
00001000
00000100
00000010
00000001
00000100
00000010
00001000
00000000
,
00000000
00000000
00000001
00000010
00000100
00001000
00000100
00010000
00001000
00100000
00010000
00100000
01000000
10000000
00010000
00000000
,
00000000
00000000
10000000
01000000
00100000
00001000
00020000
00000000
00000000
00000000
00000000
00000000
00030000
00000000
00000000
00000000
;
