#TITLE:JOK3R;
#ARTIST:Yuta Imai;
#TITLETRANSLIT:JOKER;
#BANNER:JOK3R.png;
#BACKGROUND:JOK3R-bg.png;
#CDTITLE:./CDTitles/DANCERUSH STARDOM.png;
#MUSIC:JOK3R.ogg;
#SAMPLESTART:84.798;
#SAMPLELENGTH:15;
#BPMS:0=150,65=75,66=150,96=75,97=150,113=75,117=150,121=300,127=75,139=150,143=75,148.5=150,179=75,184=150,216=75,220=150,226=300,228=150,243=300,244=150;
#STOPS:62=0.067,62.166667=0.066,62.333333=0.067,62.5=0.067,62.666667=0.066,62.833333=0.067,121=0.15,121.75=0.15,122.5=0.1,148.5=0.1,148.75=0.1,226=0.1,226.5=0.1,227=0.1,227.5=0.1,243=0.1,243.5=0.1;
#TIMESIGNATURES:0=4=4,60=3=4,66=4=4,94=3=4,97=4=4,121=6=4,127=4=4,143=2=4,145=4=4,177=3=4,180=4=4;
#BGSTAGE:29;

//--------------- dance-single - Fred-104 ----------------
#NOTES:
     dance-single:
     Fred-104:
     Beginner:
     5:
     :
0000
0000
0000
0000
,
0000
0000
0000
0000
,
0000
0000
0000
0000
,
0000
0000
0000
0000
,
0000
0000
0000
0000
,
0000
0000
0000
0000
,
0000
0000
0000
0000
,
0000
0000
0000
0000
,
0000
0000
0000
0000
,
1000
0000
1000
0000
,
0100
0000
0100
0000
,
0001
0000
0001
0000
,
0010
0000
0010
0000
,
1000
0000
0100
0000
,
0001
0000
0100
0000
,
1000
1000
1000
0001
,
0000
0001
0100
0000
,
0100
0000
1000
0000
,
0010
0010
0001
0000
,
0001
0000
1000
0000
,
1000
1000
0010
0000
,
0010
0000
0100
0000
,
0100
0001
1000
0000
,
0001
0000
1000
1000
,
1000
0100
0000
0100
,
0000
0001
0000
0100
,
0000
0100
0000
1000
,
0000
0001
0000
1000
,
0001
2000
0000
0000
,
3000
0001
0000
1000
,
0000
0002
0000
0000
,
0000
0000
0003
1000
,
1000
1000
1001
0100
,
0100
0100
0110
0001
,
0001
1000
1000
0002
,
0000
0000
0003
1000
,
0000
1001
0000
0000
,
0000
0002
0000
0000
,
0000
0000
0000
0000
,
0003
2000
0000
0000
,
0000
0000
0000
0000
,
3000
0001
0000
0001
,
0000
0100
0000
0100
,
0000
1000
0000
0100
,
0000
0001
0001
0001
,
1001
0000
0000
0000
,
1000
0000
0100
0000
,
1000
0000
0100
0010
,
0100
0000
0010
0000
,
0001
0000
1000
0001
,
0100
0000
0001
0000
,
0100
0000
0010
1000
,
0010
0000
1000
0000
,
0001
0001
0001
0000
,
1001
0000
0000
0000
,
1000
0000
0010
0000
,
1000
0000
0001
0000
,
0001
0000
0001
0000
,
0010
0000
0100
0000
,
1000
0000
0001
0000
,
1000
0000
0000
0000
,
2002
0000
0000
0000
,
3003
0000
0000
0000
;

//--------------- dance-single - Fred-104 ----------------
#NOTES:
     dance-single:
     Fred-104:
     Easy:
     9:
     :
0000
0000
0000
0000
,
0000
0000
0000
0000
,
0000
0000
0000
0000
,
0000
0000
0000
0000
,
0000
0000
0000
0000
,
0000
0000
0000
0000
,
0000
0000
0000
0000
,
0000
0000
0000
0000
,
0000
0000
0000
0000
,
0001
0001
0010
0010
,
0100
0000
0100
0000
1000
0001
1000
0000
,
0010
0010
0100
0100
,
0001
0000
0001
0000
0010
0100
0010
0000
,
1100
0000
0101
0000
,
0011
0000
1010
0000
,
1000
0000
0001
0000
0100
0110
0020
0000
,
0000
0000
1030
1000
1100
0000
1001
0000
,
0101
1001
1010
1001
,
0011
0002
0103
1001
,
0110
1001
1010
0101
,
1100
0020
0031
0101
,
1000
0001
1000
0000
0001
0000
0011
0000
,
1000
0001
1000
0000
0100
0000
0110
0000
,
0001
1000
0001
0000
0200
0000
0000
0000
,
0310
0010
0110
0000
0100
0000
0001
1000
,
0001
0000
0010
0000
0100
0000
1000
0001
,
1000
0000
0010
0000
0100
0000
0001
1000
,
0001
0000
1000
0100
1000
0000
0001
0000
,
1000
0001
0110
1000
,
0110
0000
0001
0100
1000
0000
1000
0100
,
0001
2000
0000
3001
,
0000
1000
0000
1001
,
0110
0000
1000
0100
0010
0000
1001
0000
,
0110
0000
0001
0100
0010
0000
1010
0000
,
0001
0011
1000
0001
,
1000
0000
0010
0100
0010
0000
0200
0000
,
0000
0300
2002
0000
0000
0000
0000
0000
,
0000
3003
0002
0000
0000
0000
2003
0000
,
0000
3200
0302
0023
,
2030
3002
0000
2003
,
0000
3020
0032
0203
,
2300
3001
0100
0001
,
0100
1000
0010
1000
,
0010
0000
0001
1000
0001
0000
0100
0010
,
0100
0000
0020
0000
0000
0000
0130
0100
,
2002
0000
0000
0000
0000
0000
0000
3003
,
1100
1100
0101
0101
,
0011
0011
1010
1010
,
1001
1001
0110
0110
,
1000
0000
0100
0100
0010
0010
0011
0000
,
0011
0011
1010
1010
,
0101
0101
1100
1100
,
0100
0010
0100
0010
0100
0000
1001
0000
,
0001
0000
0010
0100
1000
0000
0001
0000
,
1010
0001
1100
0001
,
0110
0000
0110
0000
0001
1000
0001
0000
,
1100
0101
2000
0000
,
3001
0100
1000
0100
,
0001
1000
0001
0000
0100
0010
0100
0000
,
0010
1000
0100
0000
0010
0001
1000
0000
,
0100
0000
0100
0000
0200
0000
0000
0300
,
2002
0000
0000
0000
,
3003
0000
0000
0000
;

//--------------- dance-single - Fred-104 ----------------
#NOTES:
     dance-single:
     Fred-104:
     Medium:
     12:
     :
0000
0000
0000
0000
,
0000
0000
0000
0000
,
0000
0000
0000
0000
,
0000
0000
0000
0000
,
0000
0000
0000
0000
,
0000
0000
0000
0000
,
0000
0000
0000
0000
,
0000
0000
0000
0000
,
0000
0000
0000
0000
,
1000
0000
0100
0000
0010
0001
1000
0000
,
0001
0000
0100
0000
0010
1000
0001
0000
,
0010
0000
0100
0000
1000
0010
0100
0000
,
0010
0000
1000
0000
0100
0010
0001
0000
,
1000
0100
0001
0000
0001
0100
1000
0000
,
1000
0010
0001
0000
0001
0010
1000
0000
,
0001
0000
0000
0000
0001
0000
1000
0000
0000
0000
1000
0000
0020
0000
0000
0230
0000
0000
0302
0000
0000
0000
0000
0000
,
0000
0000
0000
0000
1003
0001
1000
0001
1000
0000
0000
0000
1100
0000
0000
0000
,
0001
0101
1000
1010
,
0001
0010
0200
2300
3001
0000
0011
0000
,
1000
1010
0001
1001
,
1000
0100
0020
0032
1003
0010
0100
0000
,
0010
1000
0100
0000
0010
0001
0100
0000
,
0001
0100
0010
0000
0100
0001
0010
0000
,
0100
1000
0010
0000
0200
0000
0000
0000
,
0301
1000
0001
1000
0001
0000
0000
1000
0000
0000
0010
0000
1000
0000
0100
0000
,
0010
0001
0000
0010
0001
0000
0000
1000
0000
0000
0001
0000
0100
0000
0010
1000
,
0000
0001
0000
1000
0001
0000
0000
0010
0000
0000
0100
0000
1000
0000
0001
0000
,
0100
0010
0000
0100
0010
0000
0010
0000
0110
0000
0000
0000
2000
0000
3200
0000
,
0320
0000
0000
0000
0032
0000
0000
0000
1003
0000
0000
0001
0000
0000
0100
0000
0110
0000
0000
0000
1001
0000
0000
0000
0001
0000
0000
0010
0000
0000
0100
0000
,
1000
0001
0101
0000
1000
0000
0100
0000
0001
0000
0100
0000
0010
0000
1000
0000
,
0010
0000
0001
0000
1000
0000
0000
1000
0000
0000
1000
0000
0001
0000
0000
0000
,
0010
0000
0200
0000
0300
0000
0110
0001
,
1000
0010
0100
0000
0010
1000
0100
1000
0001
0100
0010
0000
0110
0000
1000
0000
,
0001
0010
0100
0000
0010
0001
0100
0001
0010
0100
1000
0000
0110
0000
1000
0100
,
1000
0100
0010
0000
0110
0000
0001
0100
0001
0100
0010
0000
0100
0000
0100
0000
,
0010
0010
1000
0100
0010
0001
2002
0000
,
0000
0000
3003
0000
0110
0000
0000
0000
0000
0000
0000
0000
0000
1000
0001
1000
,
0200
0000
0000
0300
0120
0000
0000
0000
0000
0000
0031
1000
0002
0000
0000
0000
,
0000
2003
3002
0203
,
0320
0000
0000
0000
2030
0000
0000
0000
0000
0000
3100
0010
0200
0000
0000
0000
,
0000
2300
3002
0203
,
0302
0000
0000
0000
1003
0000
0000
1000
0100
0000
0000
0000
0001
0000
0000
0001
,
0100
0000
0000
0000
1000
0000
0000
1000
0010
0000
0000
0000
0001
0000
0000
0001
,
0010
0000
0000
0000
1000
0000
0001
0000
0010
0000
0100
0000
1000
0001
1000
0001
,
1000
0000
0000
0000
0020
0000
0000
0000
0000
0000
0000
0000
0130
0001
0100
0001
,
0101
0000
0000
0100
0000
0000
0100
0000
0010
0000
0000
0000
0110
0000
0000
0000
1001
0000
0000
0000
0110
0000
0000
0000
1000
0000
0001
0000
1001
0000
0000
0000
,
1000
0000
0000
0001
0000
0000
0100
0000
0110
0000
0000
0000
1010
0000
0000
0000
,
0101
0000
1100
0000
0011
0000
1000
0100
,
0110
0000
0010
0000
0001
0000
0000
0000
1010
0000
0000
0000
0101
0000
0000
0001
,
0010
0000
0100
0100
1000
1001
1001
0000
,
0110
1000
0001
0000
0101
0000
1100
0000
,
1010
0000
0000
0000
0011
0000
0000
0000
1001
0000
0000
0001
0010
0000
0010
0100
,
0010
0000
0100
0000
1000
0000
0001
0000
0101
0000
0000
0001
1000
0000
0000
1000
,
0100
0000
0000
0000
0010
0000
0100
0000
1000
0001
1000
0001
2000
0000
0000
0000
,
3001
0000
0000
1000
0000
0000
0010
0000
0110
0000
0000
0000
0101
0000
0000
0000
1000
0000
0000
0100
0000
0000
0010
0000
0011
0000
0000
0000
1001
0000
0000
0000
,
0001
0100
1000
0100
0001
1000
0100
0010
,
0001
1000
0010
0100
0001
0001
1000
1000
,
0001
0100
0010
1000
0100
0010
0100
1000
,
0001
0000
1000
0000
0010
0000
0100
0000
0010
0000
1000
0000
0001
0000
0000
0001
,
0010
0000
0100
1000
0100
0000
1000
0000
0001
0000
0100
0000
0110
0000
0000
0001
,
0100
0100
0010
0010
0110
0000
0001
1000
,
2002
0000
0000
0000
,
3003
0000
0000
0000
;

//--------------- dance-single - Fred-104 ----------------
#NOTES:
     dance-single:
     Fred-104:
     Hard:
     16:
     :
0000
0000
0000
0000
,
0000
0000
0000
0000
,
0000
0000
0000
0000
,
0000
0000
0000
0000
,
0000
0000
0000
0000
,
0000
0000
0000
0000
,
0000
0000
0000
0000
,
0000
0000
0000
0000
,
0000
0000
0000
0000
,
0001
0010
0001
0100
0001
0010
0100
1000
,
0010
0000
1000
0000
0100
0000
1000
0000
0010
0000
0100
0000
0001
0000
1000
0001
,
1000
0100
0010
0001
0100
0001
0010
0100
,
1000
0000
0010
0000
0100
0000
0001
0000
1000
0001
1000
0001
1000
0000
0001
0010
,
0001
0010
1000
0010
0001
0010
1000
0010
,
0100
0001
0100
1000
0100
0001
0100
1000
,
0001
0000
0000
0000
0100
0000
0000
0000
0010
0000
0000
0000
1000
0000
0000
0000
0010
0000
0000
0000
0100
0000
0000
0000
0001
0000
0010
0000
1000
0000
0001
0000
0100
0000
1000
0000
0002
0000
0000
0000
0000
0000
1003
0000
0000
0010
0000
0000
,
2000
0000
3002
0000
0013
0010
0010
0010
0100
1000
0100
0000
0010
0001
0010
0000
,
0100
1000
0100
0000
0010
0001
0010
0000
0001
0100
0001
0000
1000
0010
1000
0000
,
0001
0100
0001
0100
0002
0000
2003
0000
3100
0010
0100
0000
1000
0001
1000
0000
,
0100
0010
0100
0000
1000
0001
1000
0000
0001
0100
0001
0000
1000
0010
1000
0000
,
0001
0100
0001
0000
2000
0000
3200
0000
0310
0001
0010
0000
0100
1000
0100
0000
,
1000
0010
1000
0000
0001
0100
0001
0000
1000
0001
1000
0000
0100
0010
0100
0000
,
1000
0001
1000
0000
0010
0100
0000
0100
0001
0010
0200
0000
1300
0010
0200
0000
,
0301
0100
0020
0000
1030
0100
0020
0000
0032
0000
1003
0010
2000
0000
3002
0000
,
0013
0010
0010
0010
0110
0000
1000
0001
0100
0000
0010
0000
1000
0100
0010
0000
,
1000
0010
0001
0000
0110
0000
1000
0001
0100
0000
0010
0000
0100
0001
1000
0100
,
0010
0100
0000
0100
1000
0000
0001
1000
0010
0000
0100
0000
0001
1000
0100
0000
,
0001
1000
0010
0000
0011
0000
1010
0000
0011
0000
1000
0001
0200
0000
0320
0000
,
2030
0000
0000
0000
3002
0000
0000
0000
0013
0000
0000
0010
0000
0000
0100
0000
1100
0000
1000
0000
0001
0100
0000
0100
0001
0000
0000
1000
0000
0000
0100
0000
,
0110
0000
0010
0001
0010
0000
0001
1000
0001
0000
0000
0000
1000
0000
0010
0000
0100
0000
0000
0000
1000
0000
0000
0000
0001
0000
0000
0000
0010
0000
0100
0000
,
0001
0000
1000
0000
1100
0000
0000
0101
0000
0000
1010
0000
0011
0000
0000
0000
,
0001
0000
0000
0000
1000
0000
0000
0000
0020
0000
0000
0000
0000
0000
0000
0000
0030
0000
0000
0000
0000
0000
0000
0000
0110
0000
0000
0001
1000
0000
0001
0000
,
1001
0000
1000
0000
0001
0100
0001
0100
0020
0000
1000
0000
1000
0000
1030
0000
0110
0000
0001
0000
2000
0000
3000
0000
0101
0000
0000
0010
0000
0000
1000
0000
,
1200
0000
0310
0000
0001
0100
0001
0100
0002
0000
0010
0000
0010
0000
0013
0000
1002
0000
1003
0000
0020
0000
1030
0001
1000
0000
0000
0000
2100
0000
3100
0000
,
0102
0103
2200
3300
0012
0013
2010
3010
0012
0013
0220
0330
1001
0000
1000
0000
,
0100
0000
0110
0000
0010
0001
0100
0010
1000
0000
0001
0000
0020
0000
0100
0000
,
0100
0000
0130
0000
0110
0000
0000
0000
1001
0000
0000
0000
0000
0000
0000
0000
0000
0000
0000
0000
0000
0000
0000
0000
0000
0000
0001
0010
0100
0000
1000
0000
,
0001
0000
0000
0000
1000
0000
0000
0000
0020
0030
0000
0000
0020
0030
0000
0000
0001
0000
0000
0000
0000
0000
0000
0000
0010
0000
0000
0000
0000
0000
0000
0000
0100
0000
0000
0000
0000
0000
0000
0000
0001
0000
0000
0000
0100
0000
0000
0000
0010
0000
0000
0000
0000
0000
0000
0000
0001
0000
0000
0000
0000
0000
0000
0000
,
1000
0010
2000
0100
3002
0010
2003
0001
,
3001
0000
0000
0000
1000
0000
0001
0000
0010
0000
1000
0010
0100
0000
0010
0000
,
0001
1000
0020
1000
0230
0001
0320
0100
,
0130
0000
0010
1000
0001
0000
0000
0010
0100
0000
1000
0001
0100
0000
0000
1000
,
0100
0000
0001
1000
0100
0000
0000
0010
1000
0000
0010
0001
1000
0000
0000
0010
,
0100
0000
1000
0100
0001
1000
0100
0010
0001
1000
0010
0100
0001
1000
0100
0010
,
0001
1000
0001
0000
2001
0000
3010
1000
0002
0000
0023
0000
0130
0100
0100
0100
,
2001
0000
0000
0000
0000
0000
0000
0000
0000
0001
0000
0000
0000
0000
0000
0000
0000
0000
0001
0000
0000
0000
0000
0000
3001
0000
0000
0000
0000
0000
0000
0000
0000
1000
0000
0000
0100
0000
0000
0000
0000
0000
0000
0000
0000
0010
0000
0000
0001
0000
0000
0000
0000
0000
0000
0000
1000
0000
0001
0000
1000
0000
0000
0000
0000
0000
0001
0000
0000
0000
0000
0000
0100
0000
0000
0000
0000
0000
0100
0000
0000
0000
0000
0000
0110
0000
0000
0000
0000
0000
0000
0000
0000
0000
0000
0000
,
1001
0000
1000
0100
0000
0010
0001
0000
2100
0000
3001
0000
2010
0000
3001
0000
,
0120
1030
0210
0301
2100
3001
0102
1003
,
1002
0000
1003
0001
0100
0000
0010
0000
2010
0000
3001
0000
1200
0000
0301
1000
,
0100
0000
0010
0000
0011
0000
0011
0000
1010
0000
0011
0000
1001
0000
1000
0100
,
1000
0000
0001
1000
0010
0000
0100
0000
0102
0000
1003
0000
0012
0000
1003
0000
,
0210
0000
0301
0000
0120
0000
1030
0000
1002
0000
0003
1000
0100
0000
0001
0100
,
1000
0000
1000
0000
0001
0000
0001
0000
0110
0000
0000
1000
0100
0000
0000
0010
,
0001
0000
0000
0000
0100
0000
0001
0000
1000
0100
0010
0001
2000
0000
3001
1000
,
0001
0000
1000
0100
0000
0100
0010
0000
0012
0000
1003
0000
0010
1000
0000
1000
0001
0000
0000
1000
0100
0000
0010
0000
1002
0000
1003
0000
0001
0000
0100
1000
,
0100
0000
0001
1000
0001
0100
0010
0000
2010
0000
3001
0000
2100
0000
3000
0001
,
1000
0000
0000
0000
0000
0000
0000
0000
0001
0000
0000
0000
0000
0000
0000
0000
0100
0000
0000
0000
0000
0000
0000
0000
0010
0000
0000
0000
0000
0000
0000
0000
2020
3030
0000
0000
0000
0000
0000
0000
2020
3030
0000
0000
0000
0000
0000
0000
0202
0303
0000
0000
0000
0000
0000
0000
0202
0303
0000
0000
0000
0000
0000
0000
,
1001
0000
1000
0100
0010
0001
1000
0000
0012
0000
1003
0000
0102
0000
0003
1000
,
0200
0000
0310
0000
0012
0000
1003
0000
2010
0000
3001
0000
1002
0000
0003
0100
,
0001
0000
1000
0100
0010
0000
0001
0000
1010
0000
0101
0000
1100
0000
0000
0001
,
0100
0000
0000
0000
0000
0000
0000
0000
0101
0000
0000
0000
0000
0000
0000
0000
0010
0000
0000
0000
0000
0000
0000
0000
1010
0000
0000
0000
0000
0000
0000
0000
0110
0000
0000
0000
0000
0000
0000
0000
0000
0000
0000
0000
0000
0000
0000
0000
0200
0300
0000
0000
0000
0000
0000
0000
0200
0300
0000
0000
0000
0000
0000
0000
,
2002
0000
0000
0000
,
3003
0000
0000
0000
;

//--------------- dance-double - Fred-104 ----------------
#NOTES:
     dance-double:
     Fred-104:
     Easy:
     9:
     :
00000000
00000000
00000000
00000000
,
00000000
00000000
00000000
00000000
,
00000000
00000000
00000000
00000000
,
00000000
00000000
00000000
00000000
,
00000000
00000000
00000000
00000000
,
00000000
00000000
00000000
00000000
,
00000000
00000000
00000000
00000000
,
00000000
00000000
00000000
00000000
,
00000000
00000000
00000000
00000000
,
00001000
00001000
00010000
00010000
,
01000000
01000000
00100000
00010000
,
10000000
10000000
00100000
00100000
,
00010000
00010000
00001000
00010000
,
00010000
00001000
00000010
00001000
,
00010000
00001000
00000100
00001000
,
00010000
00000000
00001000
00000000
00010000
00011000
00000020
00000000
,
00000000
00000000
00010030
00010000
00001010
00000000
00010000
00000000
,
00001000
00110000
00001000
00010000
,
00001010
00020000
00031000
01010000
,
00001000
00010000
00001100
00010000
,
00001000
02010000
03001000
00011000
,
00010000
00001000
00010000
00000000
00000100
00000000
00001001
00000000
,
00001000
00000001
00001000
00000000
00000001
00000000
00000100
00000000
,
00001000
00010000
00001000
00000000
00020000
00000000
00000000
00000000
,
00031000
00001000
00010000
00000000
00001000
00000000
01000000
00010000
,
01000000
00000000
00100000
00000000
10000000
00000000
01000000
00010000
,
00001000
00000000
00010000
00000000
00000100
00000000
00001000
00000001
,
00001000
00000000
00000010
00000000
00000100
00000000
00001000
00010000
,
00001000
00101000
00001000
00010010
,
00010000
00000000
00001000
00010000
00001000
00000000
01000000
00010000
,
01000000
00200000
00000000
01300000
,
00000000
00010000
00000000
10010000
,
10000000
01000000
00100000
00010000
00100000
00001000
00011000
00000000
,
00010000
00000010
00001000
00000010
00010000
00001000
00010000
00010000
,
00001000
00000000
00000100
00000100
00000001
00000000
00000010
00000000
,
00000100
00001000
00000100
00022000
,
00000000
00033000
02200000
00000000
00000000
00000000
00000000
00000000
,
00000000
03300000
00002000
00000000
00000000
00000000
00023000
00000000
,
00000000
00230000
20300000
32000000
,
03200000
00302000
00000000
00003020
,
00000000
00000230
00002300
00003002
,
00000203
00000301
00000100
00001000
,
00010000
00100000
10000000
01000000
,
00010000
00000000
00001000
00010000
00001000
00000000
00010000
00000010
,
00010000
00000000
00000020
00000000
00000000
00000000
00000130
00000100
,
00000220
00000000
00000000
00000000
00000000
00000000
00000000
00000330
,
00001100
00001100
00001001
00001001
,
00000101
00001100
00011000
00011000
,
00101000
00101000
00010010
00010010
,
00011000
00000000
00001000
00001000
01000000
01000000
01010000
00000000
,
10010000
01100000
10010000
10100000
,
01010000
11000000
01100000
00110000
,
00100000
00001000
00010000
00001000
00010000
00000000
00000010
00000000
,
00000110
00000000
00001000
00000000
00000001
00001000
00000001
00000000
,
00000100
00011000
01000000
00011000
,
00001000
00100000
00010000
00000000
00100000
01000000
10000000
00000000
,
00010000
01000000
00200000
00000000
,
01300000
00000000
00010000
00000000
10000000
01000000
00100000
00000000
,
00001000
00010000
00000100
00000000
00010000
00001000
00010000
00000000
,
00001000
00000100
00000010
00000000
00001000
00000100
00000010
00000000
,
00000001
00000000
00001000
00000000
00000020
00000000
00000000
00000030
,
00002002
00000000
00000000
00000000
,
00003003
00000000
00000000
00000000
;

//--------------- dance-double - Fred-104 ----------------
#NOTES:
     dance-double:
     Fred-104:
     Medium:
     12:
     :
00000000
00000000
00000000
00000000
,
00000000
00000000
00000000
00000000
,
00000000
00000000
00000000
00000000
,
00000000
00000000
00000000
00000000
,
00000000
00000000
00000000
00000000
,
00000000
00000000
00000000
00000000
,
00000000
00000000
00000000
00000000
,
00000000
00000000
00000000
00000000
,
00000000
00000000
00000000
00000000
,
00010000
00000000
00000010
00000000
00010000
00001000
00010000
00000000
,
00001000
00000000
00010000
00000000
00100000
10000000
01000000
00000000
,
00100000
00000000
00010000
00000000
10000000
00100000
00010000
00000000
,
00001000
00000000
00000010
00000000
00000001
00001000
00000001
00001000
,
00000001
00000010
00001000
00000000
00010000
01000000
10000000
00000000
,
10000000
00100000
00010000
00000000
00001000
00000100
00000001
00000000
,
00000010
00000000
00000000
00000000
00000010
00000000
00000100
00000000
00000000
00000000
00000100
00000000
00020000
00000000
00000000
00032000
00000000
00000000
00023000
00000000
00000000
00000000
00000000
00000000
,
00000000
00000000
00000000
00000000
00031000
00010000
00001000
00010000
00001000
00000000
00000000
00000000
01010000
00000000
00000000
00000000
,
00001000
00110000
00001000
01010000
,
00001000
00010000
00200000
20300000
30010000
00000000
11000000
00000000
,
00010000
10100000
00010000
01100000
,
10000000
00100000
00020000
00032000
00013000
00000100
00001000
00000000
,
00000100
00000010
00000001
00000000
00000100
00000010
00000100
00000000
,
00001000
00010000
00100000
00000000
10000000
01000000
00100000
00000000
,
00001000
00010000
00001000
00000000
02000000
00000000
00000000
00000000
,
03100000
10000000
00100000
10000000
01000000
00000000
00000000
00010000
00000000
00000000
00001000
00000000
00010000
00000000
00000010
00000000
,
00010000
00001000
00000000
00010000
00001000
00000000
00000000
00000010
00000000
00000000
00000100
00000000
00000010
00000000
00000001
00001000
,
00000000
00000010
00000000
00010000
00001000
00000000
00000000
01000000
00000000
00000000
00001000
00000000
00100000
00000000
00010000
00000000
,
10000000
00100000
00000000
10000000
00100000
00000000
00010000
00000000
00011000
00000000
00000000
00000000
00020000
00000000
00032000
00000000
,
00003020
00000000
00000000
00000000
00000032
00000000
00000000
00000000
00001003
00000000
00000000
00000001
00000000
00000000
00000100
00000000
00000110
00000000
00000000
00000000
00011000
00000000
00000000
00000000
00001000
00000000
00000000
00010000
00000000
00000000
00100000
00000000
,
10100000
01100000
10000000
01000000
00010000
00000000
00001000
00000010
,
00000001
00000000
00000000
00000000
00001000
00000000
00000000
00001000
00000000
00000000
00001000
00000000
00000010
00000000
00000000
00000000
,
00000100
00000000
00000002
00000000
00000003
00000000
00001001
00000100
,
00001000
00000001
00000100
00000000
00001000
00010000
00100000
01000000
10000000
01000000
00010000
00000000
10010000
00000000
01000000
00000000
,
10000000
00100000
00010000
00000000
00001000
00000100
00000001
00001000
00000100
00000010
00000001
00000000
00000011
00000000
00000001
00000100
,
00000010
00000100
00001000
00000000
00011000
00000000
00010000
00100000
01000000
00100000
10000000
00000000
00010000
00000000
00010000
00000000
,
10000000
10000000
01000000
00010000
00001000
00000100
00000002
00000000
,
00000000
00000000
00000003
00000000
00001001
00000000
00000000
00000000
00000000
00000000
00000000
00000000
00000000
00000001
00000100
00001000
,
00010000
00000000
00000000
00000000
20010000
00000000
00000000
00000000
00000000
00000000
31000000
00100000
02000000
00000000
00000000
00000000
,
00000000
03020000
00032000
00023000
,
00030020
00000000
00000000
00000000
00002030
00000000
00000000
00000000
00000000
00000000
00003001
00000010
00000002
00000000
00000000
00000000
,
00000000
00000203
00002300
00023000
,
00032000
00000000
00000000
00000000
00013000
00000000
00000000
00001000
00000010
00000000
00000000
00000000
00000010
00000000
00000000
00001000
,
00010000
00000000
00000000
00000000
00010000
00000000
00000000
00001000
00000100
00000000
00000000
00000000
00000100
00000000
00000000
00001000
,
00010000
00000000
00010000
00001000
01000000
00010000
00100000
01000000
,
10000000
00000000
00010000
00000000
02000000
00000000
00000000
00000000
00000000
00000000
00000000
00000000
03100000
10000000
01000000
00010000
,
00001000
00000000
00000000
00001000
00000000
00000000
00001000
00000000
00011000
00000000
00000000
00000000
00001010
00000000
00000000
00000000
00000011
00000000
00000000
00000000
00001100
00000000
00000000
00000000
00010000
00000000
00001000
00000000
00011000
00000000
00000000
00000000
,
00001000
00000000
00000000
00010000
00000000
00000000
00100000
00000000
01100000
00000000
00000000
00000000
11000000
00000000
00000000
00000000
,
01010000
00000000
00011000
00000000
00001100
00000000
00000100
00000001
,
00001001
00000000
00001000
00000000
00000100
00000000
00000000
00000000
00000110
00000000
00000000
00000000
00000011
00000000
00000000
00000001
,
00000100
00000000
00001000
00001000
00010000
00010000
00011000
00000000
,
01001000
01000000
00010000
00000000
10100000
00000000
00110000
00000000
,
11000000
00000000
00000000
00000000
01010000
00000000
00000000
00000000
00011000
00000000
00000000
00010000
00001000
00000000
00001000
00010000
,
00001000
00000000
00000010
00000000
00000100
00000000
00000010
00000000
00000011
00000000
00000000
00000001
00000100
00000000
00000000
00000100
,
00001000
00000000
00000000
00000000
00010000
00000000
00001000
00000000
00010000
00001000
00010000
00001000
00020000
00000000
00000000
00000000
,
00030010
00000000
00000000
00001000
00000000
00000000
00000100
00000000
00000110
00000000
00000000
00000000
00000011
00000000
00000000
00000000
00000001
00000000
00000000
00000100
00000000
00000000
00001000
00000000
00011000
00000000
00000000
00000000
01001000
00000000
00000000
00000000
,
00001000
00000000
00010000
00000000
00100000
00000000
01000000
00000000
00010000
00000000
00100000
00000000
01000000
00000000
00000000
01000000
,
10000000
00100000
00010000
00001000
00000100
00000100
00000001
00000001
,
00000010
00000000
00000100
00000000
00001000
00000000
00000001
00000000
00000100
00000000
00001000
00000000
01000000
00000000
00000000
01000000
,
00010000
00000000
10000000
00000000
01000000
00000000
00100000
00000000
00010000
00000000
01000000
00000000
00100000
00000000
00000000
00100000
,
00010000
00000000
00000010
00000000
00001000
00000000
00000001
00000000
00000010
00000000
00000100
00000000
00010000
00000000
00000000
00001000
,
00010000
00100000
10000000
01000000
00100000
00000000
00010000
00010000
,
20020000
00000000
00000000
00000000
,
30030000
00000000
00000000
00000000
;

//--------------- dance-double - Fred-104 ----------------
#NOTES:
     dance-double:
     Fred-104:
     Hard:
     16:
     :
00000000
00000000
00000000
00000000
,
00000000
00000000
00000000
00000000
,
00000000
00000000
00000000
00000000
,
00000000
00000000
00000000
00000000
,
00000000
00000000
00000000
00000000
,
00000000
00000000
00000000
00000000
,
00000000
00000000
00000000
00000000
,
00000000
00000000
00000000
00000000
,
00000000
00000000
00000000
00000000
,
00001000
00010000
00100000
01000000
00001000
00010000
01000000
00100000
,
00010000
00000000
01000000
00000000
00100000
00000000
00010000
00000000
00001000
00000000
00000010
00000000
00001000
00000000
00010000
00001000
,
00010000
00001000
01000000
00010000
00000100
00000010
00001000
00010000
,
01000000
00000000
00010000
00000000
00000100
00000000
00001000
00000000
00010000
00001000
00010000
00001000
00010000
00000000
00000010
00001000
,
00000100
00000010
00000001
00001000
00000100
00010000
01000000
10000000
,
00010000
01000000
00100000
00010000
00000010
00001000
00000001
00000010
,
00001000
00000000
00000000
00000000
00010000
00000000
00000000
00000000
00100000
00000000
00000000
00000000
01000000
00000000
00000000
00000000
00100000
00000000
00000000
00000000
10000000
00000000
00000000
00000000
00010000
00000000
00100000
00000000
01000000
00000000
10000000
00000000
01000000
00000000
00100000
00000000
00020000
00000000
00000000
00000000
00000000
00000000
10030000
00000000
00000000
01000000
00000000
00000000
,
00200000
00000000
02300000
00000000
03010000
00010000
00010000
00010000
00001000
00100000
00001000
00000000
00010000
00000100
00010000
00000000
,
00001000
00100000
00001000
00000000
00010000
00000100
00010000
00000000
00001000
01000000
00001000
00000000
00010000
00000010
00010000
00000000
,
00001000
01000000
00001000
01000000
00002000
00000000
00023000
00000000
00031000
00100000
00001000
00000000
00010000
00000100
00010000
00000000
,
00001000
00100000
00001000
00000000
00010000
00000100
00010000
00000000
00001000
01000000
00001000
00000000
00010000
00000010
00010000
00000000
,
00001000
00000000
00010000
00000000
00022000
00000000
00033000
00000000
00010000
00001000
00010000
00000000
00000010
00001000
00000010
00000000
,
00010000
00001000
00010000
00000000
00000100
00001000
00000100
00000000
00010000
00001000
00010000
00000000
00001000
01000000
00001000
00000000
,
00010000
00001000
00010000
00000000
00001000
00100000
00000000
00100000
00010000
00100000
02000000
00000000
13000000
00010000
02000000
00000000
,
03100000
10000000
00020000
00000000
00130000
01000000
00020000
00000000
00032000
00000000
00013000
00000100
00020000
00000000
00032000
00000000
,
00003100
00000100
00000001
00000001
00000101
00000000
00001000
00000001
00000010
00000000
00000100
00000000
00000010
00000000
00001000
00000000
,
00010000
00001000
00010000
00000000
00011000
00000000
00001000
00010000
00100000
00000000
01000000
00000000
00100000
10000000
00010000
00100000
,
00010000
10000000
00000000
10000000
01000000
00000000
00100000
00001000
00010000
00000000
00001000
00000000
00000100
00000000
00000010
00000000
,
00000001
00000010
00001000
00000000
00001100
00000000
00000110
00000000
00000011
00000000
00001000
00000001
00000200
00000000
00002300
00000000
,
00023000
00000000
00000000
00000000
00032000
00000000
00000000
00000000
01003000
00000000
00000000
00010000
00000000
00000000
00010000
00000000
10010000
00000000
10000000
00000000
01000000
00100000
00000000
00100000
00001000
00000000
00000000
00010000
00000000
00000000
00000010
00000000
,
00001010
00000000
00001000
00000001
00001000
00000000
00000100
00000010
00000001
00000000
00000000
00000000
00000100
00000000
00000010
00000000
00000100
00000000
00000000
00000000
00001000
00000000
00000000
00000000
00010000
00000000
00000000
00000000
01000000
00000000
00100000
00000000
,
01000000
00000000
10000000
00000000
10100000
00000000
00000000
01010000
00000000
00000000
11000000
00000000
01100000
00000000
00000000
00000000
,
10000000
00000000
00000000
00000000
01000000
00000000
00000000
00000000
00200000
00000000
00000000
00000000
00000000
00000000
00000000
00000000
00300000
00000000
00000000
00000000
00000000
00000000
00000000
00000000
00011000
00000000
00000000
00000010
00001000
00000000
00001000
00000000
,
00001100
00000000
00000100
00000000
00000010
00000001
00000010
00000001
00001000
00000000
00000010
00000000
00000100
00000000
00001000
00000000
00011000
00000000
00010000
00000000
00022000
00000000
00033000
00000000
00011000
00000000
00000000
01000000
00000000
00000000
00010000
00000000
,
00110000
00000000
00100000
00000000
01000000
10000000
01000000
10000000
00010000
00000000
01000000
00000000
00100000
00000000
00010000
00000000
00011000
00000000
00001000
00000000
00020000
00000000
00031000
00010000
00001000
00000000
00000000
00000000
00021000
00000000
00031000
00000000
,
00001020
00001030
00022000
00033000
00012000
00013000
00210000
00310000
00021000
00031000
00022000
00033000
00010100
00000000
00000100
00000000
,
00001000
00000000
00001001
00000000
00000001
00001000
00000010
00010000
00001000
00000000
00010000
00000000
00002000
00000000
00000000
00000000
,
00000000
00000000
00000000
00000000
00013000
00000000
00000000
00000000
00011000
00000000
00000000
00000000
00000000
00000000
00000000
00000000
00000000
00000000
00000000
00000000
00000000
00000000
00000000
00000000
00000000
00000000
10000000
00010000
01000000
00000000
00001000
00000000
,
00000100
00000000
00000000
00000000
00000001
00000000
00000000
00000000
00000020
00000030
00000000
00000000
00000020
00000030
00000000
00000000
00001000
00000000
00000000
00000000
00000000
00000000
00000000
00000000
00000100
00000000
00000000
00000000
00000000
00000000
00000000
00000000
00000001
00000000
00000000
00000000
00000000
00000000
00000000
00000000
00000100
00000000
00000000
00000000
00000010
00000000
00000000
00000000
00001000
00000000
00000000
00000000
00000000
00000000
00000000
00000000
00010000
00000000
00000000
00000000
00000000
00000000
00000000
00000000
,
01000000
00100000
00010000
10000000
00200000
00000000
02300000
00000000
,
03002000
00000000
00000000
00000000
01003000
00000000
00010000
00000000
00100000
00000000
01000000
00010000
00001000
00000000
00000010
00000000
,
00000001
00001000
00000010
00000100
00002000
00000000
00023000
00000000
,
02030000
00000000
03100000
00010000
10000000
00000000
00000000
00100000
01000000
00000000
00100000
00010000
00001000
00000000
00000000
00000100
,
00000010
00000000
00000100
00000001
00001000
00000000
00000000
00000100
00000010
00000000
00001000
00010000
01000000
00000000
00000000
00100000
,
00010000
00000000
01000000
00100000
10000000
00010000
10000000
00010000
00100000
01000000
00100000
01000000
00010000
00001000
00010000
00001000
,
00010000
00000010
00010000
00000000
00012000
00000000
00013000
00000100
00020000
00000000
00032000
00000000
00003010
00000010
00000001
00000001
,
00002001
00000000
00000000
00000000
00000000
00000000
00000000
00000000
00000000
00000001
00000000
00000000
00000000
00000000
00000000
00000000
00000000
00000000
00000010
00000000
00000000
00000000
00000000
00000000
00003010
00000000
00000000
00000000
00000000
00000000
00000000
00000000
00000000
00001000
00000000
00000000
00000001
00000000
00000000
00000000
00000000
00000000
00000000
00000000
00000000
00000100
00000000
00000000
00001000
00000000
00000000
00000000
00000000
00000000
00000000
00000000
00010000
00000000
00001000
00000000
00010000
00000000
00000000
00000000
00000000
00000000
01000000
00000000
00000000
00000000
00000000
00000000
00100000
00000000
00000000
00000000
00000000
00000000
00010000
00000000
00000000
00000000
00000000
00000000
10010000
00000000
00000000
00000000
00000000
00000000
00000000
00000000
00000000
00000000
00000000
00000000
,
01100000
00000000
10000000
00100000
01000000
00000000
00001000
00000000
00021000
00000000
00030100
00000000
00012000
00000000
01003000
00000000
,
00021000
00030010
00012000
00103000
00021000
00031000
00201000
00301000
,
00012000
00000000
00013000
00000000
00000100
00001000
00000010
00000000
00000210
00000000
00000301
00000000
00002001
00000000
00003001
00000100
,
00000010
00000000
00010000
00000000
00001000
00000000
00010000
00000000
00011000
00000000
00110000
00000000
00011000
00000000
00001000
00010000
,
00100000
00000000
01000000
00010000
10000000
00000000
00010000
00000000
00210000
00000000
00301000
00000000
00120000
00000000
10030000
00000000
,
00210000
00000000
00301000
00000000
00120000
00000000
10030000
00000000
00210000
00000000
00300000
00001000
00010000
00000000
00000100
00001000
,
00000001
00000000
00000001
00000000
00001000
00000000
00001000
00000000
00001001
00000000
00000000
00000001
00000100
00000000
00000000
00000100
,
00001000
00000000
00000000
00000000
00010000
00000000
00100000
00000000
01000000
00010000
01000000
00010000
20000000
00000000
31000000
00100000
,
01000000
00000000
00000000
10000000
00000000
00000000
00100000
00000000
01100000
00000000
01000000
00000000
00001000
00010000
00000000
00010000
00000100
00000000
00000000
00001000
00000010
00000000
00000000
00000000
00001001
00000000
00001000
00000000
00000100
00000000
00000001
00000100
,
00001000
00000000
00000001
00000100
00000010
00001000
00000010
00000000
00010020
00000000
00010030
00000000
00201000
00000000
00300000
00001000
,
00010000
00000000
00000000
00000000
00000000
00000000
00000000
00000000
00001000
00000000
00000000
00000000
00000000
00000000
00000000
00000000
01000000
00000000
00000000
00000000
00000000
00000000
00000000
00000000
00100000
00000000
00000000
00000000
00000000
00000000
00000000
00000000
20200000
30300000
00000000
00000000
00000000
00000000
00000000
00000000
20200000
30300000
00000000
00000000
00000000
00000000
00000000
00000000
02020000
03030000
00000000
00000000
00000000
00000000
00000000
00000000
02020000
03030000
00000000
00000000
00000000
00000000
00000000
00000000
,
10010000
00000000
10000000
01000000
00100000
01000000
00010000
00000000
00012000
00000000
00103000
00000000
00021000
00000000
00030000
00000100
,
00001000
00000000
00000001
00000000
00002100
00000000
00003001
00000000
00002010
00000000
00003001
00000000
00000110
00000000
00000000
00001000
,
00000001
00000000
00000100
00000010
00010000
00000000
00001000
00000000
00010000
00000000
00010000
00000000
00011000
00000000
00000000
00001000
,
00010000
00000000
00000000
00000000
00000000
00000000
00000000
00000000
01000000
00000000
00000000
00000000
00000000
00000000
00000000
00000000
10000000
00000000
00000000
00000000
00000000
00000000
00000000
00000000
00100000
00000000
00000000
00000000
00000000
00000000
00000000
00000000
00010000
00000000
00000000
00000000
00000000
00000000
00000000
00000000
00000000
00000000
00000000
00000000
00000000
00000000
00000000
00000000
00002000
00003000
00000000
00000000
00000000
00000000
00000000
00000000
00002000
00003000
00000000
00000000
00000000
00000000
00000000
00000000
,
00022000
00000000
00000000
00000000
,
00033000
00000000
00000000
00000000
;
