#VERSION:0.83;
#TITLE:色を喪った街;
#ARTIST:かめりあ feat. かめりあ;
#TITLETRANSLIT:Iro wo ushinatta machi;
#ARTISTTRANSLIT:Camellia feat. Camellia;
#GENRE:GREY DISTRICT;
#BANNER:Iro wo ushinatta machi.png;
#BACKGROUND:Iro wo ushinatta machi-bg.png;
#CDTITLE:./CDTitles/SDVX VIVID WAVE.png;
#MUSIC:Iro wo ushinatta machi.ogg;
#SAMPLESTART:89.638;
#SAMPLELENGTH:15;
#BPMS:0=166;
#BGSTAGE:30;

//--------------- dance-single - Fred-104 ----------------
#NOTEDATA:;
#STEPSTYPE:dance-single;
#DESCRIPTION:Fred-104;
#DIFFICULTY:Beginner;
#METER:3;
#CREDIT:Fred-104;
#NOTES:
0000
0000
0000
0000
,
0000
0000
0000
0000
,
0000
0000
0000
0000
,
0000
0000
0000
0000
,
0000
0000
0000
0000
,
0000
0000
0000
0000
,
2000
0000
0000
0000
,
3000
0000
0000
0000
,
0002
0000
0003
0000
,
2000
0000
3000
0000
,
0001
0000
0001
0000
,
2000
0000
3000
0000
,
1001
0000
0000
0000
,
0000
0000
0000
0000
,
0001
0000
0000
0000
,
0000
0000
0000
0000
,
1000
0000
0000
0000
,
1000
0000
0000
0000
,
0001
0000
0000
0000
,
0002
0000
0000
0003
,
0001
0000
0001
0000
,
1000
0000
1000
0000
,
0001
0000
0001
0000
,
0100
0000
0100
0000
,
0010
0000
0010
0000
,
0100
0000
0100
0000
,
1001
0000
0000
0000
,
1000
0000
0000
0000
,
1000
0000
1000
0000
,
0100
0000
0100
0000
,
0020
0030
0010
0000
,
0001
0000
0001
0000
,
2000
0000
3000
0000
,
0002
0000
0003
0000
,
2000
0000
3000
0000
,
0001
0000
0001
0000
,
2000
0000
0000
0000
,
3000
0000
0000
0000
,
0001
0000
0001
0000
,
0010
0000
0010
0000
,
2000
0000
0000
0000
,
3000
0000
0000
0000
,
1000
0000
0100
0000
,
0100
0000
0001
0000
,
0001
0000
0000
0000
,
0001
0000
0000
0000
,
1000
0000
0000
0000
,
1000
0000
0000
0000
,
0002
0000
0000
0003
,
2000
0000
0000
3000
,
0001
0000
0001
0000
,
1000
0000
1000
0000
,
0002
0000
0000
0000
,
0000
0000
0003
0000
,
1000
0000
1000
0000
,
0100
0000
0100
0000
,
0001
0000
0001
0000
,
0010
0000
0010
0000
,
0100
0000
0100
0000
,
0010
0000
0010
0000
,
1000
0000
1000
0000
,
0002
0000
0000
0003
,
1000
0000
1000
0000
,
0010
0000
0010
0000
,
0200
0300
0100
0000
,
0002
0000
0003
0000
,
1000
0000
1000
0000
,
0001
0000
0001
0000
,
2000
0000
3000
0000
,
0002
0000
0003
0000
,
1000
0000
1000
0000
,
0002
0000
0000
0003
,
2000
0000
0000
3000
,
0001
0000
0001
0000
,
0010
0000
0010
0000
,
0100
0000
0110
0000
,
0100
0000
0110
0000
,
0100
0000
1000
0000
,
0001
0000
1000
0000
,
0001
0000
1001
0000
,
1000
1000
1000
1000
,
0002
0000
0000
0000
,
0000
0000
0000
0003
,
1001
0000
0000
0000
;

//--------------- dance-single - Fred-104 ----------------
#NOTEDATA:;
#STEPSTYPE:dance-single;
#DESCRIPTION:Fred-104;
#DIFFICULTY:Easy;
#METER:8;
#CREDIT:Fred-104;
#NOTES:
0000
0000
0000
0000
,
0000
0000
0000
0000
,
0000
0000
0000
0000
,
0000
0000
0000
0000
,
0000
0000
0000
0000
,
0000
0000
0000
0000
,
0001
0010
0100
0100
,
1000
0001
1000
0000
,
0001
0000
0000
2000
0000
0000
0000
0000
,
3010
0100
0002
0003
,
1000
0000
1000
0000
0001
1000
0001
0000
,
2000
0000
0002
3003
,
1001
0000
0000
0000
,
1000
1000
0000
0000
0000
0000
0001
0000
,
0100
0000
0000
0000
,
0010
0010
0000
0100
0100
0000
1001
0000
,
1000
0000
0100
0000
0010
0010
0010
0000
,
0001
0000
0100
0000
0010
0010
0010
0000
,
0100
0001
0100
0000
0010
1000
0010
0000
,
2000
0000
0000
3000
,
0001
0010
0001
0100
,
0010
1000
0001
0200
,
0310
0010
0010
0000
1000
0000
0001
0000
,
0010
0010
0100
0000
1000
1000
0001
0000
,
1000
1100
0001
1000
,
0001
0001
0001
0000
0100
0000
0020
0000
,
0130
0000
0101
0000
,
0001
0000
0000
1000
0000
0000
0100
0000
,
0010
0100
1000
0010
,
0100
0000
0001
0000
1000
0000
0100
0100
,
0010
0010
0010
0000
0001
0000
1000
0000
,
0001
0100
0020
0130
,
0002
0000
1003
0100
,
0010
0010
0001
1000
,
0002
0000
2000
3003
,
1000
0001
1000
0001
,
2000
0000
0000
0000
,
3000
0000
0000
0000
,
0001
0000
0011
0000
,
1000
0000
1100
0000
,
0002
0000
0000
0000
,
0003
0000
0000
0000
,
1000
0000
1010
0000
,
0001
0000
0101
0000
,
1000
0000
0100
0100
,
1000
0001
0001
0100
,
0010
0000
0100
0100
0100
0000
0010
0000
,
1000
0001
0010
0100
,
0020
0000
0030
0001
,
2000
0000
0000
3000
,
0001
0001
1000
1000
,
0001
1000
0001
1000
,
0200
0000
0000
0000
,
0000
0000
0300
0000
,
0010
0001
1000
0001
,
0100
0000
0010
0000
0100
0001
0100
0000
,
0001
1000
0100
0010
,
0100
0000
1000
0000
0100
1000
0100
0000
,
1000
1000
1000
0000
0001
0000
0100
0000
,
0001
0000
0010
0000
0001
1000
0001
0000
,
0100
0000
0110
0000
,
2002
0000
0000
3003
,
0001
0000
0010
0000
0100
1000
0100
0000
,
0010
0000
0001
0000
0100
0010
0100
0000
,
0001
0001
1000
0000
0001
0000
0010
0000
,
0001
0000
1000
0000
0001
0100
0001
0000
,
1000
0100
0220
0330
,
0001
0100
0220
0330
,
1000
0000
0000
0001
0000
0000
1001
0000
,
0001
0000
0000
1000
0000
0000
1001
0000
,
0001
0100
0010
0110
,
2002
0000
0000
3003
,
0001
0010
0001
0010
0001
0000
1001
0000
,
1000
0000
0010
0000
1000
0001
1000
0000
,
0100
0000
0010
0000
0001
0001
1000
0000
,
0002
0003
0202
0303
,
2000
3000
2020
3030
,
0001
0001
0001
0000
2000
0000
3001
0000
,
0010
0010
0100
0100
,
2000
3000
1100
0000
,
0001
0100
0001
0100
0010
1000
0010
1000
,
0002
0000
0000
0000
,
0000
0000
0000
0003
,
1001
0000
0000
0000
;

//--------------- dance-single - Fred-104 ----------------
#NOTEDATA:;
#STEPSTYPE:dance-single;
#DESCRIPTION:Fred-104;
#DIFFICULTY:Medium;
#METER:13;
#BPMS:0=166,76=83,78=166,102=83,104=166,116=332,117=166,148=83,152=166,160=83,164=166,236=332,236.5=166,236.75=83,237=166,244=332,244.5=166,272=83,274=166,286=83,290=166,298=83,300=166;
#STOPS:116=0.09,116.5=0.091,244=0.045,244.25=0.046;
#TIMESIGNATURES:0=4=4,76=2=4,78=4=4,102=2=4,104=4=4,272=2=4,274=4=4,298=2=4,300=4=4;
#CREDIT:Fred-104;
#NOTES:
0000
0000
0000
0000
,
0000
0000
0000
0000
,
0000
0000
0000
0000
,
0000
0000
0000
0000
,
0000
0000
0000
0000
,
0000
0000
0000
0000
,
1000
0000
0001
0100
0010
0000
0100
0000
,
0001
0000
0000
1000
0000
0000
0001
0000
0020
0000
0000
0000
0030
0000
0100
0000
,
1000
0000
0000
1000
0000
0000
2002
0000
0000
0000
0000
0000
3003
0000
1000
0000
,
0001
0000
0000
0001
0000
0000
0001
0000
2002
0000
0000
0000
3003
0000
1000
0000
,
0010
1000
0010
0100
0010
0000
1001
0000
,
0001
1000
0001
1000
0001
0000
0100
0010
,
0110
0000
0000
0000
,
0001
0001
0000
0000
0000
0000
1000
0100
,
1100
0000
0000
0000
,
0001
0000
0100
0000
0010
0000
0100
0000
0001
0000
0000
0001
0000
0000
0001
0000
,
1000
0100
1000
0010
0100
0001
1000
0001
,
0010
0001
0100
0010
1000
0001
0010
0100
,
0010
0001
0100
0010
1000
0100
0010
0001
,
2000
0000
0000
0000
3001
1000
0110
0000
2002
0000
3003
0000
1100
0000
0000
0000
,
1010
0000
0000
0000
0001
1000
0001
0000
0101
0000
0000
0000
1001
0000
0000
0000
,
0011
0000
2000
3200
1300
1000
1001
0000
,
1010
0000
0000
0000
0101
0000
0000
0000
0001
1000
0000
0001
1000
0000
0010
0000
,
0100
0001
0000
0100
0002
0000
0003
0000
1000
0100
0000
0100
1000
0000
0000
0000
,
0110
0000
0000
0000
1001
0000
0000
0000
0001
0000
0001
0100
0001
0000
0000
0110
,
0000
0000
1000
0000
0002
0000
0000
0000
2003
0000
3100
0010
0001
0010
0001
0000
,
2002
0000
3003
0000
1100
0000
0000
1001
0000
0000
0101
0000
0000
1001
0000
0000
,
0001
0100
0010
1000
0001
0010
0100
1000
,
0010
0100
0010
1000
0100
0001
0100
1000
,
0002
0003
0002
0003
0100
0000
0010
0000
1000
0000
0010
0000
0100
0000
0001
0000
,
1000
0000
0100
0000
0001
0000
0100
0000
1000
0100
0000
0100
0000
0000
0010
0000
,
0012
0000
0000
0000
1003
0000
0000
0000
0001
1000
0001
0000
0100
0000
0010
0000
,
0210
0000
0000
0000
0301
0000
0000
0000
1000
0100
1000
0000
0001
0000
1000
0000
,
0001
0000
0000
0100
0000
0000
0010
0000
0200
0000
0000
0000
0300
0000
0000
0000
,
0001
0010
0001
0020
0000
0000
0230
0000
0000
2300
0000
0000
,
3002
0000
0000
0203
,
0320
0000
1030
0001
0000
0001
0010
0100
,
0020
0000
0031
0000
1000
0000
0001
1000
0010
0000
0100
0000
0101
0000
0001
1000
,
0002
0000
0000
0023
,
0230
0000
1300
0010
0000
0010
1000
0001
,
2001
0000
3100
0000
0020
0000
0031
1000
0010
0000
0100
0000
0102
0000
1003
0000
,
0002
0000
0000
0023
,
0230
0000
0310
0001
0000
0001
0100
0010
,
0100
0000
0010
0010
0100
0000
1001
0000
,
1000
0000
0000
0000
0100
0000
0000
0000
0010
0000
0000
0000
0001
0000
0000
0000
0000
0000
0000
0000
0000
1000
0000
0000
0001
0000
0000
1000
0000
0000
0000
0000
0000
0001
0000
0000
1000
0000
0000
0000
0000
0000
0001
0000
0000
0000
0000
0000
,
0010
0000
0000
0010
0000
0000
0010
0000
0100
0000
0000
0000
1001
0000
0000
0000
,
1000
0000
0010
0100
0001
1000
0001
0010
,
0100
0000
1000
0000
0001
1000
0000
0010
1000
0000
0001
1000
0000
0100
1000
0000
,
0000
0001
0100
0000
0010
0100
0000
0001
0100
0000
0010
0000
0200
0000
0000
0000
,
0302
0000
0000
0000
,
2000
0000
3003
0000
,
0001
0010
0100
1000
0010
0100
0010
1000
,
0001
0010
0100
0010
0001
0100
0010
1000
,
0001
1000
0100
0001
0100
1000
0001
1000
,
0001
0100
0010
0100
0001
0000
1001
0000
,
1000
1000
1000
0100
0001
0100
0010
0001
,
1000
0000
0010
0000
0100
0000
0001
1000
0001
0000
0010
0000
0100
0000
1000
0000
,
0001
0000
0000
0101
0000
0000
0100
0000
0010
0000
0100
0000
0001
0000
0000
0000
,
2000
0000
0000
0000
3002
0000
0000
0000
1003
0100
0010
0000
0001
0010
0100
0000
,
2000
0000
3001
0100
0010
1000
0010
0100
,
0001
1000
0100
0001
0100
1000
0001
0000
,
2000
3000
1000
0000
0001
0000
0100
0000
0110
0000
0000
0000
0010
0000
1000
0000
,
0001
0000
0010
0100
1000
0000
1001
0000
,
0001
0000
0000
0001
0000
0000
0010
0000
0100
0000
0000
0000
1001
0000
0000
0000
,
1000
0000
0000
1000
0000
0000
0010
0000
0100
0000
0000
0000
1001
0000
0000
0000
,
0011
0000
0000
1000
0000
0000
2002
0000
0000
0000
0000
0000
3003
0000
0000
0000
,
1010
0000
0000
0001
0000
0000
2002
0000
0000
0000
0000
0000
3003
0000
0000
0000
,
0110
0000
0000
0001
0000
0000
1001
0000
0000
0000
1000
0000
0002
0000
0000
0000
,
0203
0000
0320
0030
0200
0000
0000
0000
,
0320
0130
0110
1001
,
1100
0000
0000
0000
0001
0000
1000
0000
0001
0000
0001
0000
0100
0000
0000
0010
,
0000
1000
0001
0000
2000
3100
0110
0001
,
0100
0000
0010
1000
0001
0001
1000
0000
0002
0000
0000
0000
0013
0000
0000
0000
,
2000
0000
0000
0000
3010
0000
0000
0000
0001
1000
0000
0001
1000
0000
0100
0000
,
0010
0100
1000
0001
0200
0310
0100
0001
,
2000
0000
3100
0000
0010
0000
0001
0000
1000
0000
0000
0001
0000
0000
0100
0000
,
0020
0000
0000
0000
,
0000
0000
0000
0030
,
1001
0000
0000
0000
;

//--------------- dance-single - Fred-104 ----------------
#NOTEDATA:;
#STEPSTYPE:dance-single;
#DESCRIPTION:Fred-104;
#DIFFICULTY:Hard;
#METER:15;
#BPMS:0=166,76=83,78=166,102=83,104=166,116=332,117=166,148=83,152=166,160=83,164=166,236=332,236.5=166,236.75=83,237=166,244=332,244.5=166,272=83,274=166,286=83,290=166,298=83,300=166;
#STOPS:116=0.09,116.5=0.091,244=0.045,244.25=0.046;
#TIMESIGNATURES:0=4=4,76=2=4,78=4=4,102=2=4,104=4=4,272=2=4,274=4=4,298=2=4,300=4=4;
#CREDIT:Fred-104;
#NOTES:
0000
0000
0000
0000
,
0000
0000
0000
0000
,
0000
0000
0000
0000
,
0000
0000
0000
0000
,
0000
0000
0000
0000
,
0000
0000
0000
0000
,
1000
0000
1000
0100
0010
0000
0110
0000
,
0100
0000
0000
0010
0000
0000
0001
0000
2000
0000
0000
0000
0000
0000
3001
0000
,
0100
0000
0000
0010
0000
0000
0200
0000
0000
0000
0000
0000
0000
0000
0301
0000
,
1000
0000
0000
0100
0000
0000
0010
0000
0001
0000
1000
0000
0001
0000
0100
0000
,
0010
0100
0001
1000
0100
0010
0011
0000
,
0002
0000
0000
0103
0020
0000
0130
0100
,
0110
0000
0000
0000
,
0001
0000
1001
0000
0000
0000
0000
0000
0000
0000
0000
0000
1000
0010
1000
0010
,
0100
0000
0000
0000
,
0001
0000
0101
0000
0000
0000
1000
0001
1000
0000
0000
1000
0000
0000
1000
0000
,
0001
0000
0100
0000
0010
0000
1000
0000
0001
0010
0001
0000
0010
0001
0010
0000
,
0100
0000
1000
0000
0001
0000
0100
0000
0010
1000
0010
0000
1000
0010
1000
0000
,
0001
0010
0001
0000
1000
0100
1000
0000
0001
0100
0010
1000
0001
1000
0010
0100
,
0020
0000
0000
0000
0100
0130
0110
0000
2002
0000
3003
0000
1000
0100
1000
0000
,
0001
1000
0001
0000
0100
0010
0100
0000
0010
1000
0001
0000
1000
0100
0000
1000
,
0001
0000
1000
0001
2000
0000
3002
0000
0103
0000
0010
0000
0110
0000
0000
0100
,
0001
0100
0001
0000
1000
0010
1000
0000
0001
0010
0000
0010
0100
0000
1000
0001
,
1000
0010
0000
0010
0100
0001
1000
0000
0001
1000
0000
1000
0001
0000
0010
0100
,
0010
0000
0100
1000
0100
0000
2000
0000
3001
0000
0001
1000
0001
0000
0000
1100
,
0000
0000
0001
1000
0020
0000
0000
0030
0210
0000
0301
0001
1000
0010
0100
0001
,
2000
3000
0000
0000
0100
0000
0000
0000
0000
0000
0000
0000
0000
0000
0000
0000
0110
0000
0000
0000
0000
0000
0000
0000
0000
0000
0000
0000
0011
0000
0000
0000
0000
0000
0000
0000
0000
0000
0000
0000
1001
0000
0000
0000
0000
0000
0000
0000
0000
0000
0000
0000
0110
0000
0000
0000
0000
0000
0000
0000
0000
0000
0000
0000
,
0001
1000
0100
0001
0100
0010
0100
1000
,
0010
0100
1000
0100
0010
0001
1000
0100
,
0002
0003
0000
0000
0000
0000
0000
0000
0002
0003
0000
0000
0000
0000
0000
0000
0110
0000
0000
0000
0000
0000
0000
0000
1000
0000
0000
0000
0000
0000
0000
0000
0001
0000
0000
0000
0000
0000
0000
0000
0100
0000
0000
0000
0000
0000
0000
0000
0010
0000
0000
0000
0000
0000
0000
0000
1000
0000
0000
0000
0001
0000
0000
0000
,
1000
0000
0100
0000
1000
0000
0001
0000
0100
0010
0000
0100
0010
0000
0100
0000
,
0001
0000
1000
0001
1000
0000
0000
0000
0100
0010
0100
0010
0100
0000
1000
0000
,
0001
0000
0000
0100
0000
0000
0010
0000
0000
0000
1000
0000
0000
0000
1000
0000
0000
0000
0001
0000
0000
0000
0010
0000
0200
0000
0000
0000
2300
0000
0000
0000
,
3001
0000
0100
0010
0000
0100
0001
0100
0020
0000
0000
0000
1030
0000
0001
0000
,
0010
0100
0010
0200
0000
0000
2300
0000
0000
3002
0000
0000
,
1003
1001
0000
0000
0000
0000
0000
0000
,
0010
0000
0110
0000
0000
0000
0000
0000
0000
0000
0001
1000
0001
1000
0001
0000
,
2000
3000
0000
0000
0100
0000
0000
0000
0001
0000
0000
0000
0000
0000
0000
0000
0001
0000
0000
0000
0100
0000
0000
0000
1000
0000
0000
0000
0000
0000
0000
0000
0001
0000
0000
0000
0100
0000
0000
0000
1000
0000
0000
0000
0000
0000
0000
0000
1000
0000
0000
0000
0100
0000
0000
0000
0001
0000
0000
0000
0000
0000
0000
0000
,
2000
3000
0000
0000
0000
0000
0000
0000
1001
0000
0000
0000
0000
0000
0000
0000
0000
0000
0000
0000
0000
0000
0000
0000
0000
0000
0000
0000
0000
0000
0000
0000
0000
0000
0000
0000
0000
0000
0000
0000
0000
0000
0000
0000
0000
0000
0000
0000
0000
0000
0000
0000
0000
0000
0000
0000
0000
0000
0000
0000
0000
0000
0000
0000
,
0010
0000
0110
0000
0000
0000
0000
0000
0000
0000
1000
0001
1000
0001
1000
0000
,
0002
0000
0000
0003
0000
0000
0000
0000
0000
0000
0000
0000
0010
0000
0000
0000
0000
0000
0000
0000
0000
0000
0000
0000
1000
0000
0000
0000
0000
0000
0000
0000
0000
0000
0000
0000
0000
0000
0000
0000
0000
0000
0000
0000
0000
0000
0000
0000
1000
0000
0000
0000
0000
0000
0000
0000
0000
0000
0000
0000
0010
0000
0000
0000
0000
0000
0000
0000
0000
0000
0000
0000
0001
0000
0000
0000
0000
0000
0000
0000
0000
0000
0000
0000
0000
0000
0000
0000
0000
0000
0000
0000
0000
0000
0000
0000
1000
0000
0000
0000
0000
0000
0000
0000
0000
0000
0000
0000
0010
0000
0000
0000
0000
0000
0000
0000
0000
0000
0000
0000
0001
0000
0000
0000
0000
0000
0000
0000
0000
0000
0000
0000
0000
0000
0000
0000
0000
0000
0000
0000
0000
0000
0000
0000
0001
0000
0000
0000
0000
0000
0000
0000
0000
0000
0000
0000
0000
0000
0000
0000
0010
0000
0000
0000
0000
0000
0000
0000
2000
0000
0000
0000
0000
0000
0000
0000
0000
0000
0000
0000
0000
0000
0000
0000
0000
0000
0000
0000
0000
0000
0000
0000
,
3002
0003
0000
0000
0000
0000
0000
0000
0001
0000
0000
0000
1000
0000
0000
0000
0001
0000
0000
0000
0000
0000
0000
0000
0000
0000
0000
0000
0000
0000
0000
0000
0010
0000
0000
0000
0000
0000
0000
0000
0000
0000
0000
0000
0010
0000
0000
0000
0100
0000
0000
0000
0000
0000
0000
0000
0010
0000
0000
0000
0000
0000
0000
0000
,
0001
0000
1000
0000
0010
0000
0000
0010
0100
0000
0000
1001
0000
0000
0000
0000
,
0110
0000
0001
0100
0110
0000
1001
1000
,
0001
0000
0000
0000
0100
0000
0000
0000
0010
0000
0000
0000
1000
0000
0000
0000
0000
0000
0000
0000
0000
0001
0000
0000
1000
0000
0000
0100
0000
0000
0000
0000
0000
0010
0000
0000
0001
0000
0000
0010
0000
0000
0001
0000
0000
0000
0000
0000
,
1000
0000
0000
0001
0000
0000
0000
0000
0000
1000
0000
0000
0010
0000
0000
0000
0000
0000
1000
0000
0000
0000
0000
0000
0100
0000
0000
0000
0010
0000
0000
0000
0001
0000
0000
0000
1000
0000
0000
0000
0000
0000
0000
0000
0000
0000
0000
0000
,
1000
0100
0000
0100
0010
0001
0010
0001
0010
0000
0100
0000
1000
0001
1000
0000
,
0001
0100
0010
0000
1000
0100
0000
0010
0100
0000
1000
0010
0000
0100
0001
0000
,
0000
1000
0100
0000
0010
0001
0000
0100
0010
0000
0100
0000
0001
0000
0010
0000
,
0200
0000
0000
0000
,
0310
0000
0000
0010
0000
0000
0010
0000
0001
1000
0001
1000
0002
0000
0003
0000
,
1000
0100
1000
0000
0001
0000
0100
0000
0010
1000
0010
0000
0100
0000
0001
0000
,
1000
0001
0010
0000
0100
0000
0010
0001
0000
1000
0001
0000
0100
0000
0010
0000
,
1000
0001
0010
0000
0100
1000
0001
0000
0010
0100
1000
0000
0001
0010
0100
0000
,
0010
0000
0001
0100
0010
0000
1000
0001
0010
0000
0100
0000
1000
0100
0010
0000
,
0001
0000
0001
0000
1001
0000
1000
0000
0010
1000
0001
0000
0010
0000
0100
0000
,
1000
0001
0100
0000
0010
0000
1000
0001
0000
0010
0001
0000
1000
0001
0000
0001
,
1000
0000
0000
1100
0000
0000
0011
0000
1000
0000
0010
0000
0100
0000
0000
0000
,
0001
0010
0100
0000
1000
0100
0010
0000
0001
0100
0010
0000
1000
0010
0100
0000
,
0002
0000
0000
0000
0000
0000
0000
0000
0000
0000
0000
0000
0003
0000
0000
0000
2002
3003
0000
0000
0000
0000
0000
0000
1000
0000
0000
0000
0000
0000
0000
0000
0010
0000
0000
0000
0000
0000
0000
0000
0100
0000
0000
0000
0000
0000
0000
0000
0010
0000
0000
0000
0000
0000
0000
0000
0001
0000
0000
0000
0000
0000
0000
0000
,
0010
0000
1000
0000
0001
0000
0010
0100
1000
0001
0000
0001
0100
0000
0010
0000
,
0200
0300
0000
0000
0020
0030
0000
0000
0100
0000
0000
0000
0000
0000
0000
0000
0102
0000
0000
0000
0000
0000
0000
0000
1003
0000
0000
0000
0000
0000
0000
0000
0100
0000
0000
0000
0010
0000
0000
0000
0100
0000
0000
0000
0010
0000
0000
0000
0001
0000
0000
0000
0010
0000
0000
0000
0001
0000
0000
0000
0000
0000
0000
0000
,
1000
0010
0100
0000
0001
0100
0010
0000
1000
0001
1000
0001
1000
0000
0001
0000
,
0011
0000
0000
1010
0000
0000
0011
0000
0110
0000
0000
0000
1001
0000
0000
0000
,
1100
0000
0000
0101
0000
0000
1100
0000
0110
0000
0000
0000
1001
0000
0001
0000
,
0011
0000
0000
0110
0000
0000
1100
0000
1000
0001
0100
0010
2000
0000
3000
0000
,
1010
0000
0000
0110
0000
0000
0101
0000
0001
1000
0100
0010
0002
0000
0003
0000
,
0011
0000
0000
1001
0000
0000
1100
0000
1000
0010
0100
0001
2000
0000
3000
0000
,
0002
0000
0000
1000
2000
0000
3003
0000
0001
0100
0000
0010
1000
0000
0001
0010
,
0200
0000
0000
0000
0310
0000
0000
0000
0110
0000
0000
0000
1001
0000
0001
1000
,
0001
0000
0100
0010
0100
0000
0001
0000
1000
0100
0000
0010
0001
0000
0000
1001
,
0000
0001
0100
0010
1000
0000
0000
0000
2100
0000
3001
0000
0102
0000
1003
0000
,
1001
0000
0000
0000
0000
0000
0000
0000
0001
0000
0000
0000
0010
0000
0000
0000
0110
0000
0000
0000
0100
0000
0000
0000
2000
0000
0000
0000
0000
0000
0000
0000
3002
0003
0000
0000
1000
0000
0000
0000
0001
0000
0000
0000
1000
0000
0000
0000
0001
0000
0000
0000
0000
0000
0000
0000
0000
0000
0000
0000
0000
0000
0000
0000
,
1000
0001
0100
0010
1000
0000
0001
0000
0010
0100
0000
1000
0000
0001
0000
0000
,
1000
0001
0000
0100
0000
0010
0000
0000
2001
0000
3001
0100
0010
1000
0001
0001
,
2000
3000
0000
0000
0000
0000
0000
0000
1001
0000
0000
0000
0000
0000
0000
0000
1001
0000
0000
0000
0000
0000
0000
0000
0001
0000
0000
0000
1000
0000
0000
0000
0100
0000
0000
0000
0000
0000
0000
0000
0000
0000
0000
0000
0001
0000
0000
0000
0000
0000
0000
0000
0000
0000
0000
0000
0100
0000
0000
0000
0000
0000
0000
0000
,
0020
0000
0000
0000
,
0031
0000
1000
0000
0010
0000
0100
0000
0001
1000
0100
0000
0010
0001
1000
0000
,
1001
0000
0000
0000
;

//--------------- dance-single - Fred-104 feat. Fred-104 ----------------
#NOTEDATA:;
#STEPSTYPE:dance-single;
#DESCRIPTION:Fred-104 feat. Fred-104;
#DIFFICULTY:Challenge;
#METER:18;
#BPMS:0=166,76=83,78=166,102=83,104=166,116=332,117=166,148=83,152=166,160=83,164=166,236=332,236.5=166,236.75=83,237=166,244=332,244.5=166,272=83,274=166,286=83,290=166,298=83,300=166;
#STOPS:116=0.09,116.5=0.091,244=0.045,244.25=0.046;
#TIMESIGNATURES:0=4=4,76=2=4,78=4=4,102=2=4,104=4=4,272=2=4,274=4=4,298=2=4,300=4=4;
#CREDIT:Fred-104 feat. Fred-104;
#NOTES:
0000
0000
0000
0000
,
0000
0000
0000
0000
,
0000
0000
0000
0000
,
0000
0000
0000
0000
,
0000
0000
0000
0000
,
0000
0000
0000
0000
,
0001
0000
0001
0100
0010
0000
0110
0000
,
0100
0000
0000
0001
0000
0000
1000
0000
0002
0000
0000
0000
0000
0000
0013
0000
,
0100
0000
0000
1000
0000
0000
2002
0000
0000
0000
0000
0000
3003
0000
0001
0000
,
0100
0000
0000
0010
0000
0000
0100
0000
0001
0000
1000
0100
0010
0001
1000
0001
,
1000
0000
0010
0000
0100
0000
0001
0010
0100
1000
0001
0100
0010
1000
0001
0010
,
0100
0100
0000
0010
0010
0000
0001
0001
1000
0000
0000
0000
0001
0000
0100
0000
,
0110
0000
0000
0000
,
1100
0000
0000
0000
0011
0000
0000
0000
0000
0000
0000
0000
0000
0000
0000
0000
0000
0000
0000
0000
0000
0000
0000
0000
1000
0001
1000
0000
0010
0000
0100
0000
,
0001
0000
0000
0000
,
1100
0000
0000
0000
1001
0000
0000
0000
1000
0000
0000
0000
0001
1000
0001
1000
0001
0000
0000
0000
0000
0000
0101
0000
0000
0000
0000
0000
1001
0000
0000
0000
,
0001
0010
0100
1000
0001
0010
0100
1000
0001
0100
0010
0100
0001
1000
0100
0010
,
0001
1000
0010
1000
0001
1000
0100
1000
0001
0100
0010
1000
0100
0010
0001
1000
,
0001
0000
0000
0100
0000
0000
0010
0000
0000
1000
0000
0000
0100
0000
0000
0010
0000
0000
0001
0000
0000
0100
0000
0000
0010
0000
1000
0000
0010
0000
0100
0000
0001
0000
1000
0000
0100
0000
0010
0000
0001
0000
0010
0000
0100
0000
1000
0000
,
0002
0000
0000
0000
0000
0000
0000
0000
1003
0001
1000
0001
2000
0000
3000
0000
2002
0000
0000
0000
3003
0000
0000
0000
1000
0000
0100
0000
0010
0000
0100
0000
,
1000
0000
0001
0000
0100
0000
0001
0000
1000
0000
0001
0000
0020
0000
0000
0000
0130
0000
0010
0000
0001
1000
0001
1000
0001
0000
1000
0000
0001
0000
1000
0000
,
0100
0000
0010
0001
0200
0000
0320
0000
0130
0000
0110
0000
1001
0000
0001
0100
,
0010
0000
1000
0000
0010
0000
0100
0000
0001
0000
1000
0000
0200
0000
0000
0000
0310
0000
0100
0000
0000
0000
0100
0010
0100
0000
1000
0000
0001
1000
0001
1000
,
0001
0100
0000
0110
0000
0000
1001
0000
1000
0001
0000
0001
0010
0100
1000
0001
,
0200
0000
0000
0000
0310
0000
1000
0000
0001
0000
0010
0000
0001
0000
1000
0000
0001
1000
0001
0000
1000
0000
0001
0000
1000
0000
0010
0000
0000
0000
0010
0000
,
0100
0000
0000
0000
0000
0000
0000
0000
0001
0000
0000
0000
0100
0000
0000
0000
0220
0000
0000
0000
0000
0000
0000
0000
0330
0000
0000
0000
0000
0000
0000
0000
2002
0000
0000
0000
3003
0000
0000
0000
0001
0000
1000
0000
0001
0000
1000
0001
1000
0000
0000
0000
0100
0000
0010
0000
0100
0000
0010
0000
0200
0000
0000
0000
,
2300
3000
0000
0000
0000
0000
0000
0000
0000
0000
0000
0000
1000
0000
0000
0000
0000
0000
0000
0000
0000
0000
0000
0000
0000
0000
0000
0000
0000
0000
0000
0000
0000
0000
0000
0000
0010
0000
0000
0000
0000
0000
0000
0000
0000
0000
0000
0000
0010
0000
0000
0000
0000
0000
0000
0000
0000
0000
0000
0000
0000
0000
0000
0000
0000
0000
0000
0000
0000
0000
0000
0000
0100
0000
0000
0000
0000
0000
0000
0000
0000
0000
0000
0000
0100
0000
0000
0000
0000
0000
0000
0000
0000
0000
0000
0000
0000
0000
0000
0000
0000
0000
0000
0000
0000
0000
0000
0000
0001
0000
0000
0000
0000
0000
0000
0000
0000
0000
0000
0000
0001
0000
0000
0000
0000
0000
0000
0000
0000
0000
0000
0000
0000
0000
0000
0000
0000
0000
0000
0000
0000
0000
0000
0000
1000
0000
0000
0000
0000
0000
0000
0000
0000
0000
0000
0000
0100
0000
0000
0000
0000
0000
0000
0000
0000
0000
0000
0000
0010
0000
0000
0000
0000
0000
0000
0000
0000
0000
0000
0000
0001
0000
0000
0000
0000
0000
0000
0000
0000
0000
0000
0000
,
2000
0000
3020
0000
0032
0000
2003
0000
3100
0010
2000
0000
3001
0010
0200
0000
,
0320
0000
2030
0000
3002
0000
0203
0000
0310
0001
2000
0000
3010
0100
0002
0003
,
0220
0330
0000
0000
0000
0000
0000
0000
0000
0000
0000
0000
0000
0000
0000
0000
0000
0000
0000
0000
0000
0000
0000
0000
0220
0330
0000
0000
0000
0000
0000
0000
0000
0000
0000
0000
0000
0000
0000
0000
0000
0000
0000
0000
0000
0000
0000
0000
1001
0000
0000
0000
0000
0000
0000
0000
0000
0000
0000
0000
0000
0000
0000
0000
0000
0000
0000
0000
0000
0000
0000
0000
0002
0000
0000
0000
0000
0000
0000
0000
0000
0000
0000
0000
0000
0000
0000
0000
0000
0000
0000
0000
0000
0000
0000
0000
1003
0000
0000
0000
0000
0000
0000
0000
0000
0000
0000
0000
0100
0000
0000
0000
0000
0000
0000
0000
0000
0000
0000
0000
0002
0000
0000
0000
0000
0000
0000
0000
0000
0000
0000
0000
0000
0000
0000
0000
0000
0000
0000
0000
0000
0000
0000
0000
1003
0000
0000
0000
0000
0000
0000
0000
0000
0000
0000
0000
0010
0000
0000
0000
0000
0000
0000
0000
0000
0000
0000
0000
0001
0000
0000
0000
0000
0000
0000
0000
0000
0000
0000
0000
1000
0000
0000
0000
0000
0000
0001
0000
0000
0000
0000
0000
,
1000
0000
0010
0000
1000
0000
0010
0000
0100
0000
0001
0000
1000
0000
0100
0010
0100
0000
0010
0000
0000
0000
0011
0000
0000
0000
0000
0000
1001
0000
0000
0000
,
0001
0000
0100
0000
0010
0000
1000
0000
0001
0000
0100
0000
0010
0000
1000
0000
0001
1000
0001
1000
0001
0000
0010
0000
0200
0000
0000
0000
2300
0000
0000
0000
,
3001
0000
0000
0000
0000
0000
0000
0000
0000
0100
0000
0000
0000
0000
0000
0000
0000
0000
0110
0000
0000
0000
0000
0000
0000
0000
0000
0000
0000
0000
1000
0000
0000
0000
0000
0000
0100
0000
0000
0000
0000
0000
0010
0000
0000
0000
0000
0000
0000
0000
0000
0000
0000
0000
0010
0000
0000
0001
0000
0000
0010
0000
0000
0000
0000
0000
0001
0000
0000
0000
0000
0000
0100
0000
0000
0000
0000
0000
0000
0000
0010
0000
0000
0000
2000
0000
0000
0000
0000
0000
0000
0000
0000
0000
0000
0000
,
3001
0000
0000
1000
0000
0000
0001
0000
0000
0000
0000
0000
1000
0000
0000
0000
0000
0000
0010
0000
0000
1000
0000
0000
0010
0000
0000
0000
0000
0000
0100
0000
0000
0000
0000
0000
0001
0000
0000
1000
0000
0000
0001
0000
0000
0000
0000
0000
0010
0000
0000
0000
0000
0000
0100
0000
0000
0000
0000
0000
0010
0000
0000
0000
0000
0000
0000
0000
0010
0000
0000
0000
0002
0000
0000
0000
0000
0000
0000
0000
0000
0000
0000
0000
1003
0000
0000
0000
0000
0000
0001
0000
0000
0000
0000
0000
,
1000
0000
0000
0000
0000
0000
0000
0000
1000
0000
0000
0000
0000
0000
0000
0000
1000
0000
0000
0000
0000
0000
0000
0000
0010
0000
0000
0000
0000
0000
0100
0000
0000
0000
0000
0000
0001
0000
0000
1000
0000
0000
0001
0000
0000
1000
0000
0000
0002
0000
0000
0000
0000
0000
0000
0000
0000
0000
0000
0000
0000
0000
0000
0000
0000
0000
0000
0000
0000
0000
0000
0000
2003
0000
0000
0000
0000
0000
0000
0000
0000
0000
0000
0000
0000
0000
0000
0000
0000
0000
0000
0000
0000
0000
0000
0000
,
3100
0200
0000
0000
0000
0000
0001
0000
,
1300
0000
0001
0000
0100
0000
0020
0000
0000
0000
1030
0001
0010
0100
1000
0001
,
2000
3000
0000
0000
0010
0000
0000
0000
0100
0000
0000
0000
0001
0000
0000
0000
0000
0000
0000
0000
0000
0000
0000
0000
1000
0000
0000
0000
0100
0000
0000
0000
0010
0000
0000
0000
0001
0000
0000
0000
0000
0000
0000
0000
0000
0000
0000
0000
1000
0000
0000
0000
0000
0000
0001
0000
0000
0000
0000
0000
1000
0000
0000
0000
0000
0000
0010
0000
0000
0000
0000
0000
0100
0000
0000
0000
0000
0000
0010
0000
0000
0000
0000
0000
0100
0000
0000
0000
0000
0000
0001
0000
0000
0000
0000
0000
1000
0000
0000
0000
0100
0000
0000
0000
0010
0000
0000
0000
0001
0000
0000
0000
0000
0000
0000
0000
0000
0000
0000
0000
1000
0000
0000
0000
0010
0000
0000
0000
0100
0000
0000
0000
0001
0000
0000
0000
0000
0000
0000
0000
0000
0000
0000
0000
1000
0000
0000
0000
0000
0000
0100
0000
0000
0000
0000
0000
0010
0000
0000
0000
0100
0000
0000
0000
0010
0000
0000
0000
0001
0000
0000
0000
0000
0000
1000
0000
0000
0000
0000
0000
0010
0000
0000
0000
0000
0000
0100
0000
0000
0000
0000
0000
,
0020
0030
0000
0000
0000
0000
0000
0000
0000
0000
0000
0000
0000
0000
0000
0000
0000
0000
0000
0000
0000
0000
0000
0000
0020
0000
0000
0000
0000
0000
0000
0000
0000
0000
0000
0000
0000
0000
0000
0000
0000
0000
0000
0000
0000
0000
0000
0000
0000
0000
0000
0000
0000
0000
0000
0000
0000
0000
0000
0000
0000
0000
0000
0000
0000
0000
0000
0000
0000
0000
0000
0000
0000
0000
0000
0000
0000
0000
0000
0000
0000
0000
0000
0000
0000
0000
0000
0000
0000
0000
0000
0000
0000
0000
0000
0000
0000
0000
0000
0000
0000
0000
0000
0000
0000
0000
0000
0000
0000
0000
0000
0000
0000
0000
0000
0000
0000
0000
0000
0000
0000
0000
0000
0000
0000
0000
0000
0000
0000
0000
0000
0000
0000
0000
0000
0000
0000
0000
0000
0000
0000
0000
0000
0000
0001
0000
0000
0000
0000
0000
0000
0000
0000
0000
0000
0000
0000
0000
0000
0000
0000
0000
0000
0000
0000
0000
0000
0000
0000
0000
0000
0000
0000
0000
0000
0000
0000
0000
0000
0000
0000
0000
0000
0000
0000
0000
0000
0000
0000
0000
0000
0000
,
1030
0000
0001
0000
0020
0000
0230
0000
0000
0000
1300
0001
0100
0010
1000
0001
,
2000
3000
0000
0000
0100
0000
0000
0000
0010
0000
0000
0000
0001
0000
0000
0000
0000
0000
0000
0000
0000
0000
0000
0000
1000
0000
0000
0000
0010
0000
0000
0000
0100
0000
0000
0000
0001
0000
0000
0000
0000
0000
0000
0000
0000
0000
0000
0000
1001
0000
0000
0000
0000
0000
0000
0000
0000
0000
0000
0000
1000
0000
0000
0000
0000
0000
0100
0000
0000
0000
0000
0000
1000
0000
0000
0000
0000
0000
0100
0000
0000
0000
0000
0000
0010
0000
0000
0000
0000
0000
0001
0000
0000
0000
0000
0000
1000
0000
0000
0000
0000
0000
0010
0000
0000
0000
0000
0000
0100
0000
0000
0000
0000
0000
0000
0000
0000
0000
0000
0000
0001
0000
0000
0000
0010
0000
0000
0000
0100
0000
0000
0000
1000
0000
0000
0000
0000
0000
0000
0000
0000
0000
0000
0000
0001
0000
0000
0000
0000
0000
0000
0000
0100
0000
0000
0000
0000
0000
0000
0000
1000
0000
0000
0000
0000
0000
0000
0000
0001
0000
0000
0000
0000
0000
0000
0000
0010
0000
0000
0000
0000
0000
0000
0000
1000
0000
0000
0000
0000
0000
0000
0000
,
0002
0003
0000
0000
0000
0000
0000
0000
0000
0000
0000
0000
0000
0000
0000
0000
0000
0000
0000
0000
0000
0000
0000
0000
1000
0000
0000
0000
0000
0000
0001
0000
0000
0000
0000
0000
1000
0000
0000
0000
0000
0000
0001
0000
0000
0000
0000
0000
1000
0000
0000
0000
0000
0000
0000
0000
0000
0000
0000
0000
0000
0000
0000
0000
0000
0000
0000
0000
0000
0000
0000
0000
0000
0000
0000
0000
0000
0000
0000
0000
0000
0000
0000
0000
0000
0000
0000
0000
0000
0000
0000
0000
0000
0000
0000
0000
0110
0000
0000
0000
0000
0000
0000
0000
0000
0000
0000
0000
0000
0000
0000
0000
0000
0000
0000
0000
0000
0000
0000
0000
0000
0000
0000
0000
0000
0000
0000
0000
0000
0000
0000
0000
0001
0000
0000
0000
0000
0000
0000
0000
0000
0000
0000
0000
1000
0000
0000
0000
0000
0000
0000
0000
0000
0000
0000
0000
0000
0000
0000
0000
0000
0000
0000
0000
0000
0000
0000
0000
0001
0000
0000
0000
0000
0000
0000
0000
0000
0000
0000
0000
0000
0000
0000
0000
0000
0000
0000
0000
0000
0000
0000
0000
,
0100
0000
0000
0000
0010
0000
0000
0000
0100
0000
0000
0000
0000
0000
0001
1000
0001
0000
0000
0000
0000
0000
0110
0000
0000
0000
0000
0000
0000
0000
0000
0000
,
1001
0000
1100
0101
1100
0000
0012
2003
,
3001
0000
0000
0000
0000
0000
0000
0000
0100
0000
0000
0000
0000
0000
0000
0000
0010
0000
0000
0000
0000
0000
0000
0000
0210
0000
0000
0000
0000
0000
0000
0000
0000
0000
0000
0000
0301
0000
0000
0000
0000
0000
1000
0000
0000
0001
0000
0000
1000
0000
0000
0000
0000
0000
0010
0000
0000
0000
0000
0000
0001
0000
0000
0000
0000
0000
1000
0000
0000
0000
0000
0000
0100
0000
0000
0000
0000
0000
0010
0000
0000
0000
0000
0000
2000
0000
0000
0000
0000
0000
0000
0000
0000
0000
0000
0000
,
3010
0000
0000
0100
0000
0000
0000
0000
0000
0100
0000
0000
0010
0000
0000
0000
0000
0000
1010
0000
0000
0000
0000
0000
0001
0000
0000
0000
1000
0000
0000
0000
0001
0000
0000
0000
2002
0000
0000
0000
0000
0000
3003
0000
0000
0000
0000
0000
,
1000
0000
0100
0000
0010
0000
0001
0000
0010
0001
0010
0001
0010
0000
0001
0000
1000
0000
0010
0000
1000
0000
0001
0000
0100
0000
0010
0000
2000
0000
0000
0000
,
3001
0000
1000
0000
0100
0000
1000
0000
0001
0000
0010
0000
0001
0000
0100
0000
0010
0000
1000
0000
0100
0000
1000
0000
0010
0000
0100
0000
0001
1000
0001
1000
,
0001
1000
0100
1000
0001
0100
0010
1000
0100
0010
0001
0100
0010
0000
1000
0000
,
0200
0000
0000
0000
,
1300
1000
0000
0001
0001
0000
0100
0010
0100
0010
0100
0010
0200
0000
0000
0300
,
0001
1000
0100
0000
0110
0000
0010
0001
1000
0010
0100
0000
1100
0000
1000
0100
,
0001
0010
0100
0000
1100
0000
1000
0001
0000
0001
0100
0000
0020
0000
2030
0000
,
3001
0010
0100
1000
0001
0100
0010
1000
0001
1000
0100
0010
0001
1000
0010
0100
,
0001
1000
0100
1000
0001
0100
0010
1000
0001
0010
1000
0010
0001
1000
0001
0000
,
0100
0000
0101
0000
0110
0000
0010
1000
0100
0010
0100
0000
0101
0000
0001
0100
,
0010
0000
0100
0000
1000
0000
0000
0000
1001
0000
0000
0000
0001
0000
0100
0000
0000
0000
0100
0000
0010
0000
1000
0001
1000
0000
0100
0000
0000
0000
0100
0000
,
0010
0000
0001
0100
0000
0100
0010
1000
0001
0010
0100
1000
0100
0010
0001
0000
,
1000
0000
0010
0000
1000
0000
0010
0000
0000
0100
0000
0000
0001
0000
0000
1000
0000
0000
0100
0000
0000
0010
0000
0000
0001
0000
0010
0000
0001
0000
0010
0000
0100
0000
0010
0000
0100
0000
0000
0000
0000
0000
1000
0000
0000
0000
0000
0000
,
0002
0000
0000
0000
0000
0000
0000
0000
0000
0000
0000
0000
0000
0000
0000
0000
0000
0000
0000
0000
0000
0000
0000
0000
0000
0000
0000
0000
0000
0000
0000
0000
0000
0000
0000
0000
0003
0000
0000
0000
0000
0000
0000
0000
0000
0000
0000
0000
2002
3003
0000
0000
0000
0000
0000
0000
0000
0000
0000
0000
0000
0000
0000
0000
0000
0000
0000
0000
0000
0000
0000
0000
1000
0000
0000
0000
0000
0000
0000
0000
0000
0000
0000
0000
0001
0000
0000
0000
0000
0000
0000
0000
0000
0000
0000
0000
0010
0000
0000
0000
0000
0000
0000
0000
0000
0000
0000
0000
0100
0000
0000
0000
0000
0000
0000
0000
0000
0000
0000
0000
1000
0000
0000
0000
0000
0000
0000
0000
0000
0000
0000
0000
0000
0000
0000
0000
0000
0000
0000
0000
0000
0000
0000
0000
0001
0000
0000
0000
0000
0000
0000
0000
0000
0000
0000
0000
1000
0000
0000
0000
0000
0000
0000
0000
0000
0000
0000
0000
0010
0000
0000
0000
0000
0000
0000
0000
0000
0000
0000
0000
0000
0000
0000
0000
0000
0000
0000
0000
0000
0000
0000
0000
,
0100
0000
0001
0000
0000
0000
1000
0000
0001
0000
0000
0000
0010
0000
0100
0010
0100
0000
1000
0000
0000
0000
1010
0000
0000
0000
0000
0000
0110
0000
0000
0000
,
0002
0003
0000
0000
0000
0000
0000
0000
0000
0000
0000
0000
2000
3000
0000
0000
0000
0000
0000
0000
0000
0000
0000
0000
0002
0003
0000
0000
0000
0000
0000
0000
0000
0000
0000
0000
0000
0000
0000
0000
0000
0000
0000
0000
0000
0000
0000
0000
0110
0000
0000
0000
0000
0000
0000
0000
0000
0000
0000
0000
0000
0000
0000
0000
0000
0000
0000
0000
0000
0000
0000
0000
1000
0000
0000
0000
0000
0000
0000
0000
0000
0000
0000
0000
0001
0000
0000
0000
0000
0000
0000
0000
0000
0000
0000
0000
0010
0000
0000
0000
0000
0000
0100
0000
0000
0000
0000
0000
0010
0000
0000
0000
0000
0000
0100
0000
0000
0000
0000
0000
0010
0000
0000
0000
0000
0000
0000
0000
0000
0000
0000
0000
0001
0000
0000
0000
0000
0000
0000
0000
0000
0000
0000
0000
1000
0000
0000
0000
0000
0000
0000
0000
0000
0000
0000
0000
0010
0000
0000
0000
0000
0000
0000
0000
0000
0000
0000
0000
0100
0000
0000
0000
0000
0000
0000
0000
0000
0000
0000
0000
0001
0000
0000
0000
0000
0000
0000
0000
0000
0000
0000
0000
,
1000
0000
0000
0001
0000
0000
1000
0000
0000
0000
0000
0000
0001
0000
0000
0000
0000
0000
1000
0000
0000
0000
0000
0000
0100
0000
0000
0000
0010
0000
0000
0000
0100
0000
0000
0000
1000
0000
0000
0000
0000
0000
0001
0000
0000
0000
0000
0000
0100
0000
0000
0000
0010
0000
0000
0000
0100
0000
0000
0000
0010
0000
0000
0000
1000
0000
0000
0000
0001
0000
0000
0000
0010
0000
0000
0000
0000
0000
0100
0000
0000
0000
0000
0000
1000
0000
0000
0000
0000
0000
0000
0000
0000
0000
0000
0000
,
1001
0000
0000
1100
0000
0000
0101
0000
0010
0000
0000
0000
0110
0000
0000
0000
,
1001
0000
0000
0011
0000
0000
1010
0000
0100
0000
0000
0000
0110
0000
0001
0000
,
1001
0000
0000
1100
0000
0000
0202
0000
0000
0000
0000
0000
0303
0000
1000
0000
,
1001
0000
0000
0011
0000
0000
2020
0000
0000
0000
0000
0000
3030
0000
0001
0000
,
1001
0000
0000
1010
0000
0000
0202
0000
0000
0000
0300
0000
1003
0000
0000
0000
,
0200
0000
0000
0000
0000
0000
0000
0000
0000
0000
0000
0000
0000
0000
0000
0000
0000
0000
0000
0000
0000
0000
0000
0000
0000
0000
0000
0000
0000
0000
0000
0000
0000
0000
0000
0000
0010
0000
0000
0000
0000
0000
0000
0000
0000
0000
0000
0000
0020
0000
0000
0000
0000
0000
0000
0000
0000
0000
0000
0000
0330
0000
0000
0000
0000
0000
0000
0000
0000
0000
0000
0000
0001
0000
0000
0000
1000
0000
0000
0000
0001
0000
0000
0000
1000
0000
0000
0000
0001
0000
0000
0000
1000
0000
0000
0000
0002
0003
0000
0000
0000
0000
0000
0000
0000
0000
0000
0000
0100
0000
0000
0000
0000
0000
0000
0000
0000
0000
0000
0000
0000
0000
0000
0000
0000
0000
0000
0000
0000
0000
0000
0000
0010
0000
0000
0000
0000
0000
0000
0000
0000
0000
0000
0000
1000
0000
0000
0000
0000
0000
0000
0000
0000
0000
0000
0000
0000
0000
0000
0000
0000
0000
0000
0000
0000
0000
0000
0000
0100
0000
0000
0000
0000
0000
0000
0000
0000
0000
0000
0000
0010
0000
0000
0000
0000
0000
0000
0000
0000
0000
0000
0000
,
0001
0000
0000
0000
1001
0000
0000
0000
0110
0000
0000
0000
0001
1000
0100
0010
,
0001
0010
0100
1000
0010
0100
0002
0000
1003
0100
0001
0100
1000
0000
0001
0100
,
0000
0000
0100
0000
1000
0000
0100
0000
0002
0000
0000
0000
0003
0000
0000
0000
2100
0000
0000
0000
3002
0000
0000
0000
0103
0010
0100
0000
0201
0000
0000
0000
,
0301
0000
0000
0000
0000
0000
1000
0000
0000
0000
0000
0000
0001
0000
0000
0000
0000
0000
0000
0000
0000
0000
0000
0000
0011
0000
0000
0000
0000
0000
0000
0000
0000
0000
0000
0000
0010
0000
0000
0000
0000
0000
0100
0000
0000
0010
0000
0000
0100
0000
0000
0000
0000
0000
0000
0000
0000
0000
0000
0000
0100
0000
0000
0000
0000
0000
0000
0000
0000
0000
0000
0000
1000
0000
0000
0000
0001
0000
0000
0000
1000
0000
0000
0000
0001
0000
0000
0000
0000
0000
0000
0000
0000
0000
0000
0000
1000
0000
0000
0000
0000
0000
0000
0000
0000
0000
0000
0000
0010
0000
0000
0000
0000
0000
0000
0000
0000
0000
0000
0000
0001
0000
0000
0000
0000
0000
0000
0000
0000
0000
0000
0000
0010
0000
0000
0000
0000
0000
0000
0000
0000
0000
0000
0000
1000
0000
0000
0000
0000
0000
0000
0000
0000
0000
0000
0000
0001
0000
0000
0000
0000
0000
0000
0000
0000
0000
0000
0000
0000
0000
0000
0000
0000
0000
0000
0000
0000
0000
0000
0000
0001
0000
0000
0000
0000
0000
0000
0000
0000
0000
0000
0000
,
1000
0000
0000
0000
0100
0000
0000
0000
1000
0000
0000
0000
0100
0000
0000
0000
0010
0000
0000
0000
0001
0000
0000
0000
0010
0000
0000
0000
0000
0000
0100
0000
0000
0000
0000
0000
1000
0000
0000
0000
0000
0000
0000
0000
0000
0000
0000
0000
0001
0000
0000
0000
0000
0000
0100
0000
0000
0000
0000
0000
0000
0000
0000
0000
0000
0000
0100
0000
0000
0010
0000
0000
0100
0000
0000
0000
0000
0000
0001
0000
0000
0000
0000
0000
1000
0000
0000
0000
0000
0000
0000
0000
0000
0000
0000
0000
,
0100
0000
0010
0000
0001
0000
0100
0000
0010
0000
1000
0000
0001
0000
0000
0000
2002
0000
3003
0000
0001
0100
0010
1000
0001
0010
0100
1000
0001
1000
0010
0100
,
0002
0003
0000
0000
0000
0000
0000
0000
0000
0000
0000
0000
0000
0000
0000
0000
0000
0000
0000
0000
0000
0000
0000
0000
1001
0000
0000
0000
0000
0000
0000
0000
0000
0000
0000
0000
0000
0000
0000
0000
0000
0000
0000
0000
0000
0000
0000
0000
1000
0000
0000
0000
0000
0000
0000
0000
0000
0000
0000
0000
0010
0000
0000
0000
0000
0000
0000
0000
0000
0000
0000
0000
0100
0000
0000
0000
0000
0000
0000
0000
0000
0000
0000
0000
0001
0000
0000
0000
0000
0000
0000
0000
0000
0000
0000
0000
1000
0000
0000
0000
0000
0000
0100
0000
0000
0000
0000
0000
1000
0000
0000
0000
0000
0000
0000
0000
0000
0000
0000
0000
0100
0000
0000
0000
0000
0000
0000
0000
0000
0000
0000
0000
0010
0000
0000
0000
0000
0000
0001
0000
0000
0000
0000
0000
0010
0000
0000
0000
0000
0000
0000
0000
0000
0000
0000
0000
0100
0000
0000
0000
0000
0000
0000
0000
0000
0000
0000
0000
1000
0000
0000
0000
0000
0000
0000
0000
0000
0000
0000
0000
0001
0000
0000
0000
0000
0000
1000
0000
0000
0000
0000
0000
,
0002
0000
0000
0000
,
1003
0000
0100
0000
0001
0000
1000
0000
0010
0000
0001
0000
0100
0000
1000
0000
0001
0000
0010
0000
1000
0000
0100
0000
0010
0001
0010
0000
0100
0000
1000
0000
,
1001
0000
0000
0000
;

//--------------- dance-double - Fred-104 ----------------
#NOTEDATA:;
#STEPSTYPE:dance-double;
#DESCRIPTION:Fred-104;
#DIFFICULTY:Easy;
#METER:8;
#CREDIT:Fred-104;
#NOTES:
00000000
00000000
00000000
00000000
,
00000000
00000000
00000000
00000000
,
00000000
00000000
00000000
00000000
,
00000000
00000000
00000000
00000000
,
00000000
00000000
00000000
00000000
,
00000000
00000000
00000000
00000000
,
10000000
01000000
00100000
00100000
,
00001000
00010000
00001000
00000000
,
00010000
00000000
00000000
00000020
00000000
00000000
00000000
00000000
,
00000130
00000001
00002000
00003000
,
00000001
00000000
00000001
00000000
00001000
00000010
00001000
00000000
,
00000020
00000000
00020000
00030030
,
00011000
00000000
00000000
00000000
,
01000000
01000000
00000000
00000000
00000000
00000000
00010000
00000000
,
10000000
00000000
00000000
00000000
,
01000000
01000000
00000000
00100000
00100000
00000000
10010000
00000000
,
10000000
00000000
01000000
00000000
00010000
00010000
00010000
00000000
,
00001000
00000000
00010000
00000000
00000010
00000010
00000010
00000000
,
00001000
00000001
00001000
00000000
00000100
00000010
00000100
00000000
,
00020000
00000000
00000000
00030000
,
00001000
00010000
00001000
00010000
,
00100000
10000000
01000000
00200000
,
00301000
00001000
00001000
00000000
00010000
00000000
00000100
00000000
,
00000010
00000010
00000100
00000000
00001000
00001000
00000001
00000000
,
00001000
00001010
00000001
00000010
,
00001000
00001000
00001000
00000000
00010000
00000000
00002000
00000000
,
01003000
00000000
01100000
00000000
,
00100000
00000000
00000000
00100000
00000000
00000000
00100000
00000000
,
10000000
01000000
00100000
00010000
,
01000000
00000000
00100000
00000000
00010000
00000000
00001000
00001000
,
00010000
00010000
00010000
00000000
00000010
00000000
00001000
00000000
,
00000100
00010000
00002000
00013000
,
00002000
00000000
00013000
00100000
,
01000000
00100000
10000000
00010000
,
20000000
00000000
00020000
30030000
,
10000000
01000000
00100000
00001000
,
00020000
00000000
00000000
00000000
,
00030000
00000000
00000000
00000000
,
00001000
00000000
00010010
00000000
,
00010000
00000000
00101000
00000000
,
00002000
00000000
00000000
00000000
,
00003000
00000000
00000000
00000000
,
00010000
00000000
00010100
00000000
,
00001000
00000000
01001000
00000000
,
00001000
00000000
00010000
00010000
,
00000100
00000010
00000010
00000001
,
00001000
00000000
00000010
00000010
00000010
00000000
00010000
00000000
,
00001000
00010000
00001000
00100000
,
00020000
00000000
00030000
10000000
,
02000000
00000000
00000000
03000000
,
00100000
00100000
00001000
00001000
,
00010000
00000010
00010000
00001000
,
00020000
00000000
00000000
00000000
,
00000000
00000000
00030000
00000000
,
00001000
00010000
00100000
10000000
,
00010000
00000000
00100000
00000000
01000000
10000000
01000000
00000000
,
10000000
00100000
01000000
00100000
,
00010000
00000000
00001000
00000000
00010000
00001000
00010000
00000000
,
00000010
00000010
00000010
00000000
00001000
00000000
00000100
00000000
,
00000010
00000000
00000001
00000000
00001000
00000010
00001000
00000000
,
00000010
00000000
00010010
00000000
,
00022000
00000000
00000000
00033000
,
00001000
00000000
00010000
00000000
01000000
00100000
01000000
00000000
,
00100000
00000000
00010000
00000000
10000000
00100000
10000000
00000000
,
01000000
01000000
00100000
00000000
00001000
00000000
00010000
00000000
,
00001000
00000000
00010000
00000000
00000100
00001000
00000100
00000000
,
00001000
00000100
00000220
00000330
,
00000001
00000100
00000220
00000330
,
00000001
00000000
00000000
00001000
00000000
00000000
00010010
00000000
,
00010000
00000000
00000000
00001000
00000000
00000000
01001000
00000000
,
01000000
00100000
01000000
01001000
,
00022000
00000000
00000000
00033000
,
00001000
00010000
00001000
00010000
00001000
00000000
00011000
00000000
,
00001000
00000000
00010000
00000000
00100000
01000000
00100000
00000000
,
10000000
00000000
00010000
00000000
01000000
01000000
00100000
00000000
,
20000000
30000000
02200000
03300000
,
00002000
00003000
02200000
03300000
,
10000000
10000000
10000000
00000000
02000000
00000000
03010000
00000000
,
00001000
00001000
00010000
00010000
,
00002000
00003000
00011000
00000000
,
00010000
00001000
00010000
00001000
00010000
00000010
00010000
00000010
,
00020000
00000000
00000000
00000000
,
00000000
00000000
00000000
00030000
,
00011000
00000000
00000000
00000000
;

//--------------- dance-double - Fred-104 ----------------
#NOTEDATA:;
#STEPSTYPE:dance-double;
#DESCRIPTION:Fred-104;
#DIFFICULTY:Medium;
#METER:13;
#BPMS:0=166,76=83,78=166,102=83,104=166,116=332,117=166,148=83,152=166,160=83,164=166,236=332,236.5=166,236.75=83,237=166,244=332,244.5=166,272=83,274=166,286=83,290=166,298=83,300=166;
#STOPS:116=0.09,116.5=0.091,244=0.045,244.25=0.046;
#TIMESIGNATURES:0=4=4,76=2=4,78=4=4,102=2=4,104=4=4,272=2=4,274=4=4,298=2=4,300=4=4;
#CREDIT:Fred-104;
#NOTES:
00000000
00000000
00000000
00000000
,
00000000
00000000
00000000
00000000
,
00000000
00000000
00000000
00000000
,
00000000
00000000
00000000
00000000
,
00000000
00000000
00000000
00000000
,
00000000
00000000
00000000
00000000
,
00000001
00000000
00001000
00000001
00000100
00000000
00001000
00000000
,
00010000
00000000
00000000
00001000
00000000
00000000
01000000
00000000
00002000
00000000
00000000
00000000
00013000
00000000
00001000
00000000
,
00010000
00000000
00000000
00010000
00000000
00000000
00022000
00000000
00000000
00000000
00000000
00000000
00033000
00000000
00010000
00000000
,
00001000
00000000
00000000
00001000
00000000
00000000
00001000
00000000
00022000
00000000
00000000
00000000
00033000
00000000
00010000
00000000
,
00000100
00001000
00000100
00000010
00000100
00000000
00001001
00000000
,
00000001
00000000
00000010
00001000
00010000
00000000
00001000
00010000
,
00011000
00000000
00000000
00000000
,
00010000
00010000
00000000
00000000
00000000
00000000
00000010
00001000
,
00001001
00000000
00000000
00000000
,
00010000
00000000
00001000
00000000
01000000
00000000
00100000
00000000
01000000
00000000
00000000
00001000
00000000
00000000
00010000
00000000
,
00001000
00010000
00001000
00100000
00010000
10000000
00100000
00000000
,
01000000
00010000
10000000
01000000
00010000
00001000
00010000
00000000
,
00000100
00001000
00000010
00000100
00000001
00000010
00000100
00010000
,
00002000
00000000
00000000
00000000
00013000
00001000
00011000
00000000
00022000
00000000
00033000
00000000
00010010
00000000
00000000
00000000
,
00000110
00000000
00000000
00000000
00000001
00000100
00000001
00000000
00001001
00000000
00000000
00000000
00001100
00000000
00000000
00000000
,
00010100
00000000
00020000
00032000
00013000
00010000
00011000
00000000
,
00101000
00000000
00000000
00000000
01100000
00000000
00000000
00000000
01000000
10000000
00000000
10000000
00010000
00000000
00100000
00000000
,
00001000
00010000
00000000
00010000
00002000
00000000
00003000
00000000
00010000
00001000
00000000
00010000
00001000
00000000
00000000
00000000
,
00011000
00000000
00000000
00000000
00001010
00000000
00000000
00000000
00000010
00000000
00000010
00000001
00000010
00000000
00000000
00000001
,
00000000
00000000
00001000
00000000
00000010
00000000
00000000
00000000
00021000
00000000
00031000
00100000
00010000
10000000
00010000
00000000
,
02200000
00000000
03300000
00000000
10010000
00000000
00000000
11000000
00000000
00000000
01010000
00000000
00000000
00011000
00000000
00000000
,
00001000
00010000
00000100
00000010
00000001
00001000
00000010
00000100
,
00000010
00001000
00000100
00000010
00001000
00010000
00001000
01000000
,
00200000
00300000
00200000
00300000
01000000
00000000
00010000
00000000
10000000
00000000
01000000
00000000
00100000
00000000
00010000
00000000
,
01000000
00000000
00100000
00000000
00010000
00000000
00001000
00000000
00010000
00001000
00000000
00001000
00000000
00000000
00000100
00000000
,
00000120
00000000
00000000
00000000
00001030
00000000
00000000
00000000
00000001
00000010
00000100
00000000
00001000
00000000
00000100
00000000
,
00020100
00000000
00000000
00000000
00031000
00000000
00000000
00000000
01000000
00100000
01000000
00000000
00010000
00000000
10000000
00000000
,
01000000
00000000
00000000
00100000
00000000
00000000
00001000
00000000
00020000
00000000
00000000
00000000
00030000
00000000
00000000
00000000
,
00001000
00010000
00001000
00020000
00000000
00000000
00230000
00000000
00000000
20300000
00000000
00000000
,
31000000
01000000
00000000
00000000
00000000
00000000
00000000
00000000
,
00100000
00100000
00000000
00000000
00000000
00001000
00010000
00001000
,
00021000
00030010
00002001
00003001
00000100
00001000
00021000
00031000
,
00100000
00100000
00000000
00000000
00000000
00000000
00001000
00000000
,
01000000
01000000
00000000
00000000
00000000
00010000
10000000
01000000
,
01200000
00000000
00301000
00000000
00021000
00000000
00030010
00000000
00001000
00000100
00000010
00000000
00000001
00000100
00001000
00000000
,
00021000
00000100
01000000
00030200
,
00010300
00001000
01000000
00200000
00000000
02300000
00000000
03010000
,
10000000
00000000
01000000
01000000
01100000
00000000
00101000
00000000
,
00001000
00000000
00000000
00000000
00010000
00000000
00000000
00000000
00001000
00000000
00000000
00000000
00010000
00000000
00000000
00000000
00000000
00000000
00000000
00000000
00000000
00010000
00000000
00000000
00001000
00000000
00000000
00010000
00000000
00000000
00000000
00000000
00000000
00010000
00000000
00000000
00000100
00000000
00000000
00000000
00000000
00000000
00001000
00000000
00000000
00000000
00000000
00000000
,
00000001
00000000
00000000
00000001
00000000
00000000
00000100
00000000
00001000
00000000
00000000
00000000
00011000
00000000
00000000
00000000
,
00010000
00000000
00000000
00010000
00000000
00000000
00100000
00000000
10000000
00000000
00010000
00000000
10000000
00000000
00000000
00000000
,
01000000
00000000
00100000
00000000
00001000
00010000
00000000
00001000
00010000
00000000
00000100
00001000
00000000
00000100
00001000
00000000
,
00000000
00000001
00000100
00000000
00000010
00001000
00000000
00000001
00000010
00000000
00000100
00000000
00020000
00000000
00000000
00000000
,
00032000
00000000
00000000
00000000
,
00020000
00000000
00033000
00000000
,
00001000
00100000
00010000
10000000
00100000
01000000
00100000
00010000
,
00001000
00010000
00000100
00000010
00000100
00001000
00000010
00010000
,
00001000
00000010
00000100
00001000
00000010
00000100
00001000
00010000
,
00001000
01000000
00100000
10000000
00010000
00100000
00001000
00000000
,
00010000
00010000
00010000
00001000
00000100
00000001
00001000
00000100
,
00000010
00000000
00000001
00000000
00001000
00000000
00000010
00010000
00000010
00000000
00010000
00000000
00001000
00000000
00100000
00000000
,
01000000
00000000
00000000
01100000
00000000
00000000
00100000
00000000
00010000
00000000
10000000
00000000
00100000
00000000
00000000
00000000
,
00020000
00000000
00000000
00000000
00032000
00000000
00000000
00000000
00013000
00001000
00010000
00000000
00000010
00001000
00000010
00000000
,
00020000
00000000
00031000
00010000
00000100
00001000
00010000
00100000
,
00001000
00010000
00100000
10000000
01000000
00100000
00010000
00000000
,
02000000
03000000
02000000
03000000
00100000
00000000
10000000
00000000
10010000
00000000
00000000
00000000
10000000
00000000
01000000
00000000
,
00100000
00000000
00001000
00010000
00001000
00000000
00011000
00000000
,
00010000
00000000
00000010
00001000
00000000
00000001
00001000
00000000
00000100
00000000
00000000
00000000
00000011
00000000
00000000
00000000
,
00000001
00000000
00001000
00000010
00000000
00010000
00001000
00000000
00010000
00000000
00000000
00000000
00011000
00000000
00000000
00000000
,
00101000
00000000
00000000
00001000
00000000
00000000
00022000
00000000
00000000
00000000
00000000
00000000
00033000
00000000
00000000
00000000
,
00010010
00000000
00000000
00010000
00000000
00000000
00022000
00000000
00000000
00000000
00000000
00000000
00033000
00000000
00000000
00000000
,
01001000
00000000
00000000
00001000
00000000
00000000
00011000
00000000
00000000
00000000
00010000
00000000
00000200
00000000
00000000
00000000
,
00000320
00000000
00000032
00001003
00002000
00000000
00000000
00000000
,
00003020
00010030
00011000
01010000
,
11000000
00000000
00000000
00000000
00010000
00000000
10000000
00000000
00100000
00000000
00100000
00000000
00010000
00000000
00000000
00001000
,
00000000
00010000
00001000
00000000
00001000
00010000
00021000
00031000
,
01000000
00000000
00100000
10000000
01000000
01000000
00100000
00000000
00002000
00000000
00000000
00000000
00013000
00000000
00000000
00000000
,
02000000
00000000
00000000
00000000
03010000
00000000
00000000
00000000
00001000
00010000
00000000
00010000
00001000
00000000
00010000
00000000
,
00000010
00001000
00000001
00000000
00001000
00000100
00000120
00000031
,
00002000
00000000
00003010
00000000
00000100
00000000
00001000
00000000
00010000
00000000
00000000
00001000
00000000
00000000
01000000
00000000
,
00200000
00000000
00000000
00000000
,
00000000
00000000
00000000
00300000
,
10010000
00000000
00000000
00000000
;

//--------------- dance-double - Fred-104 ----------------
#NOTEDATA:;
#STEPSTYPE:dance-double;
#DESCRIPTION:Fred-104;
#DIFFICULTY:Hard;
#METER:15;
#BPMS:0=166,76=83,78=166,102=83,104=166,116=332,117=166,148=83,152=166,160=83,164=166,236=332,236.5=166,236.75=83,237=166,244=332,244.5=166,272=83,274=166,286=83,290=166,298=83,300=166;
#STOPS:116=0.09,116.5=0.091,244=0.045,244.25=0.046;
#TIMESIGNATURES:0=4=4,76=2=4,78=4=4,102=2=4,104=4=4,272=2=4,274=4=4,298=2=4,300=4=4;
#CREDIT:Fred-104;
#NOTES:
00000000
00000000
00000000
00000000
,
00000000
00000000
00000000
00000000
,
00000000
00000000
00000000
00000000
,
00000000
00000000
00000000
00000000
,
00000000
00000000
00000000
00000000
,
00000000
00000000
00000000
00000000
,
00010000
00000000
00001000
00100000
00010000
00000000
01100000
00000000
,
10000000
00000000
00000000
00100000
00000000
00000000
01000000
00000000
00020000
00000000
00000000
00000000
00000000
00000000
00130000
00000000
,
00001000
00000000
00000000
00010000
00000000
00000000
00002000
00000000
00000000
00000000
00000000
00000000
00000000
00000000
00003100
00000000
,
00000001
00000000
00000000
00001000
00000000
00000000
00000100
00000000
00000010
00000000
00001000
00000000
00010000
00000000
00001000
00000000
,
00100000
01000000
00100000
00010000
01000000
00001000
00010000
00000100
,
00000020
00000000
00000031
00000100
00000020
00000000
00000130
00000000
,
00001001
00000000
00000000
00000000
,
00000010
00000000
00000110
00000000
00000000
00000000
00000000
00000000
00000000
00000000
00000000
00000000
00010000
00001000
00010000
00001000
,
00010000
00000000
00000000
00000000
,
00001000
00000000
01001000
00000000
00000000
00000000
00010000
00001000
00010000
00000000
00000000
00010000
00000000
00000000
00010000
00000000
,
00000100
00000000
00000010
00000000
00000001
00000000
00001000
00000000
00000010
00000100
00000010
00000000
00000100
00000000
00001000
00000000
,
00010000
00000000
00001000
00000000
00100000
00000000
01000000
00000000
10000000
00010000
10000000
00000000
00100000
00000000
00010000
00000000
,
00001000
00010000
00001000
00000000
00010000
00000100
00010000
00000000
00000100
00001000
00000100
00001000
00000001
00000010
00000001
00000010
,
00000200
00000000
00000000
00000000
00000010
00000310
00000110
00000000
00002002
00000000
00003003
00000000
00000001
00000010
00000001
00000000
,
00001000
00000100
00001000
00000000
00000100
00010000
00000100
00000000
00010000
00001000
00010000
00000000
00001000
00010000
00000000
00100000
,
01000000
00000000
00010000
10000000
02000000
00000000
03200000
00000000
00301000
00000000
00010000
00000000
00011000
00000000
00000000
00010000
,
00000100
00010000
00000100
00000000
00000010
00000100
00000010
00000000
00000001
00001000
00000000
00001000
00000010
00000000
00010000
00001000
,
00100000
00010000
00000000
00010000
01000000
00100000
01000000
00000000
00010000
10000000
00000000
10000000
00010000
00000000
10000000
01000000
,
00100000
00000000
01000000
00100000
00010000
00000000
00200000
00000000
00301000
00000000
00001000
00010000
00001000
00000000
00000000
00011000
,
00000000
00000000
00010000
00000010
00001000
00000000
00000000
00000000
00001002
00000000
00000013
00000010
00000001
00000100
00001000
00010000
,
00002000
00003000
00000000
00000000
00010000
00000000
00000000
00000000
00000000
00000000
00000000
00000000
00000000
00000000
00000000
00000000
00011000
00000000
00000000
00000000
00000000
00000000
00000000
00000000
00000000
00000000
00000000
00000000
00110000
00000000
00000000
00000000
00000000
00000000
00000000
00000000
00000000
00000000
00000000
00000000
10100000
00000000
00000000
00000000
00000000
00000000
00000000
00000000
00000000
00000000
00000000
00000000
01010000
00000000
00000000
00000000
00000000
00000000
00000000
00000000
00000000
00000000
00000000
00000000
,
00010000
10000000
01000000
00010000
00001000
00000010
00001000
00000001
,
00000100
00001000
00000001
00000100
00001000
00010000
00100000
10000000
,
02000000
03000000
00000000
00000000
00000000
00000000
00000000
00000000
02000000
03000000
00000000
00000000
00000000
00000000
00000000
00000000
01100000
00000000
00000000
00000000
00000000
00000000
00000000
00000000
00010000
00000000
00000000
00000000
00000000
00000000
00000000
00000000
10000000
00000000
00000000
00000000
00000000
00000000
00000000
00000000
00100000
00000000
00000000
00000000
00000000
00000000
00000000
00000000
00010000
00000000
00000000
00000000
00000000
00000000
00000000
00000000
00001000
00000000
00000000
00000000
00010000
00000000
00000000
00000000
,
00001000
00000000
00010000
00000000
00000100
00000000
00001000
00000000
00000001
00000010
00000000
00000001
00000010
00000000
00000100
00000000
,
00001000
00000000
00000100
00000000
00010000
00000000
00000000
00000000
00001000
00010000
00001000
00010000
00001000
00000000
01000000
00000000
,
00001000
00000000
00000000
00010000
00000000
00000000
00001000
00000000
00000000
00000000
00010000
00000000
00000000
00000000
00010000
00000000
00000000
00000000
00000100
00000000
00000000
00000000
00000100
00000000
00000010
00000000
00000000
00000000
00000100
00000000
00000000
00000000
,
00010000
00000000
00001000
00010000
00000000
00001000
00100000
00010000
00200000
00000000
00000000
00000000
02300000
00000000
00000000
00000000
,
13000000
00010000
01000000
00200000
00000000
00000000
00320000
00000000
00000000
00032000
00000000
00000000
,
00013000
00011000
00000000
00000000
00000000
00000000
00000000
00000000
,
00000010
00000000
00000110
00000000
00000000
00000000
00000000
00000000
00000000
00000000
00001000
00000001
00001000
00000001
00001000
00000000
,
00000002
00000003
00000000
00000000
00000100
00000000
00000000
00000000
00001000
00000000
00000000
00000000
00000000
00000000
00000000
00000000
00010000
00000000
00000000
00000000
01000000
00000000
00000000
00000000
10000000
00000000
00000000
00000000
00000000
00000000
00000000
00000000
10000000
00000000
00000000
00000000
00100000
00000000
00000000
00000000
00010000
00000000
00000000
00000000
00000000
00000000
00000000
00000000
00001000
00000000
00000000
00000000
00000010
00000000
00000000
00000000
00000001
00000000
00000000
00000000
00000000
00000000
00000000
00000000
,
00000200
00000300
00000000
00000000
00000000
00000000
00000000
00000000
00000110
00000000
00000000
00000000
00000000
00000000
00000000
00000000
00000000
00000000
00000000
00000000
00000000
00000000
00000000
00000000
00000000
00000000
00000000
00000000
00000000
00000000
00000000
00000000
00000000
00000000
00000000
00000000
00000000
00000000
00000000
00000000
00000000
00000000
00000000
00000000
00000000
00000000
00000000
00000000
00000000
00000000
00000000
00000000
00000000
00000000
00000000
00000000
00000000
00000000
00000000
00000000
00000000
00000000
00000000
00000000
,
00010000
00000000
00010100
00000000
00000000
00000000
00000000
00000000
00000000
00000000
00001000
00000001
00001000
00000001
00001000
00000000
,
00000002
00000000
00000000
00000003
00000000
00000000
00000000
00000000
00000000
00000000
00000000
00000000
00000010
00000000
00000000
00000000
00000000
00000000
00000000
00000000
00000000
00000000
00000000
00000000
00001000
00000000
00000000
00000000
00000000
00000000
00000000
00000000
00000000
00000000
00000000
00000000
00000000
00000000
00000000
00000000
00000000
00000000
00000000
00000000
00000000
00000000
00000000
00000000
00010000
00000000
00000000
00000000
00000000
00000000
00000000
00000000
00000000
00000000
00000000
00000000
00100000
00000000
00000000
00000000
00000000
00000000
00000000
00000000
00000000
00000000
00000000
00000000
10000000
00000000
00000000
00000000
00000000
00000000
00000000
00000000
00000000
00000000
00000000
00000000
00000000
00000000
00000000
00000000
00000000
00000000
00000000
00000000
00000000
00000000
00000000
00000000
10000000
00000000
00000000
00000000
00000000
00000000
00000000
00000000
00000000
00000000
00000000
00000000
01000000
00000000
00000000
00000000
00000000
00000000
00000000
00000000
00000000
00000000
00000000
00000000
00010000
00000000
00000000
00000000
00000000
00000000
00000000
00000000
00000000
00000000
00000000
00000000
00000000
00000000
00000000
00000000
00000000
00000000
00000000
00000000
00000000
00000000
00000000
00000000
00001000
00000000
00000000
00000000
00000000
00000000
00000000
00000000
00000000
00000000
00000000
00000000
00000000
00000000
00000000
00000000
00000100
00000000
00000000
00000000
00000000
00000000
00000000
00000000
00000002
00000000
00000000
00000000
00000000
00000000
00000000
00000000
00000000
00000000
00000000
00000000
00000000
00000000
00000000
00000000
00000000
00000000
00000000
00000000
00000000
00000000
00000000
00000000
,
00000023
00000030
00000000
00000000
00000000
00000000
00000000
00000000
00000010
00000000
00000000
00000000
00000100
00000000
00000000
00000000
00000010
00000000
00000000
00000000
00000000
00000000
00000000
00000000
00000000
00000000
00000000
00000000
00000000
00000000
00000000
00000000
00001000
00000000
00000000
00000000
00000000
00000000
00000000
00000000
00000000
00000000
00000000
00000000
00001000
00000000
00000000
00000000
00010000
00000000
00000000
00000000
00000000
00000000
00000000
00000000
00001000
00000000
00000000
00000000
00000000
00000000
00000000
00000000
,
00010000
00000000
00000010
00000000
00001000
00000000
00000000
00001000
00000100
00000000
00000000
00011000
00000000
00000000
00000000
00000000
,
00011000
00000000
00001000
00010000
00100000
00000000
01100000
01000000
,
00010000
00000000
00000000
00000000
10000000
00000000
00000000
00000000
00010000
00000000
00000000
00000000
10000000
00000000
00000000
00000000
00000000
00000000
00000000
00000000
00000000
10000000
00000000
00000000
01000000
00000000
00000000
00100000
00000000
00000000
00000000
00000000
00000000
00100000
00000000
00000000
00001000
00000000
00000000
00010000
00000000
00000000
00001000
00000000
00000000
00000000
00000000
00000000
,
00100000
00000000
00000000
00010000
00000000
00000000
00000000
00000000
00000000
00100000
00000000
00000000
01000000
00000000
00000000
00000000
00000000
00000000
10000000
00000000
00000000
00000000
00000000
00000000
00010000
00000000
00000000
00000000
01000000
00000000
00000000
00000000
00001000
00000000
00000000
00000000
00010000
00000000
00000000
00000000
00000000
00000000
00000000
00000000
00000000
00000000
00000000
00000000
,
00010000
00001000
00000000
00001000
00000100
00000010
00000100
00000000
00000001
00000000
00000010
00000000
00001000
00010000
00001000
00000000
,
00010000
00001000
00100000
00000000
00010000
10000000
00000000
00010000
00100000
00000000
00001000
00010000
00000000
00000010
00001000
00000000
,
00000000
00000001
00000100
00000000
00001000
00010000
00000000
00001000
00010000
00000000
01000000
00000000
10000000
00000000
00000000
00000000
,
20000000
00000000
00000000
00000000
,
30010000
00000000
00000000
00010000
00000000
00000000
00010000
00000000
00100000
00001000
00100000
00001000
00010000
00000000
00000000
00000000
,
00001000
00010000
00001000
00000000
00010000
00000000
00000010
00000000
00001000
00000001
00000010
00000000
00000100
00000000
00001000
00000000
,
00000001
00000100
00000010
00000000
00001000
00000000
00000100
00000010
00000000
00000010
00001000
00000000
00010000
00000000
00001000
00000000
,
00100000
01000000
10000000
00000000
00010000
00100000
01000000
00000000
10000000
00010000
00100000
00000000
01000000
10000000
00010000
00000000
,
01000000
00000000
00001000
00010000
00001000
00000000
00010000
00000100
00001000
00000000
00000100
00000000
00000010
00000001
00001000
00000000
,
00000001
00000000
00000001
00000000
00001001
00000000
00001000
00000000
00000010
00000100
00001000
00000000
00010000
00000000
00001000
00000000
,
00100000
00001000
00010000
00000000
00001000
00000000
00000100
00000010
00000000
00000100
00000001
00000000
00001000
00000100
00000000
00000100
,
00010000
00000000
00000000
00011000
00000000
00000000
01001000
00000000
01000000
00000000
00100000
00000000
10000000
00000000
00000000
00000000
,
00010000
00100000
00010000
00000000
10000000
01000000
10000000
00000000
00010000
01000000
00010000
01000000
00001000
00010000
00001000
00010000
,
00002000
00000000
00000000
00000000
00000000
00000000
00000000
00000000
00000000
00000000
00000000
00000000
00003000
00000000
00000000
00000000
00022000
00033000
00000000
00000000
00000000
00000000
00000000
00000000
00010000
00000000
00000000
00000000
00000000
00000000
00000000
00000000
00001000
00000000
00000000
00000000
00000000
00000000
00000000
00000000
00000100
00000000
00000000
00000000
00000000
00000000
00000000
00000000
00001000
00000000
00000000
00000000
00000000
00000000
00000000
00000000
00000001
00000000
00000000
00000000
00000000
00000000
00000000
00000000
,
00000010
00000000
00001000
00000000
00000001
00000000
00000100
00000010
00000100
00000010
00000000
00000010
00010000
00000000
00001000
00000000
,
00020000
00030000
00000000
00000000
00002000
00003000
00000000
00000000
00010000
00000000
00000000
00000000
00000000
00000000
00000000
00000000
00011000
00000000
00000000
00000000
00000000
00000000
00000000
00000000
00001000
00000000
00000000
00000000
00000000
00000000
00000000
00000000
01000000
00000000
00000000
00000000
00100000
00000000
00000000
00000000
10000000
00000000
00000000
00000000
00000000
00000000
00000000
00000000
00100000
00000000
00000000
00000000
01000000
00000000
00000000
00000000
00010000
00000000
00000000
00000000
00000000
00000000
00000000
00000000
,
10000000
01000000
00100000
00000000
00010000
01000000
00100000
00000000
00010000
00001000
00010000
00000000
00001000
00010000
00001000
00000000
,
00011000
00000000
00010000
00001000
00000000
01000000
00100000
00000000
01100000
00000000
00000000
00000000
10010000
00000000
00000000
00000000
,
11000000
00000000
01000000
00100000
00000000
00001000
00010000
00000000
00011000
00000000
00000000
00000000
00001100
00000000
00000100
00000000
,
00000001
00000000
00000000
00000110
00000000
00000000
00001100
00000000
00000100
00010000
00001000
00010000
00002000
00000000
00003000
00000000
,
00010000
00000000
00000000
00110000
00000000
00000000
10100000
00000000
10000000
00010000
00100000
00001000
00020000
00000000
00030000
00000000
,
00010000
00000000
00000000
00011000
00000000
00000000
00001100
00000000
00000100
00000001
00001000
00000100
00010000
00000000
00000000
00000000
,
00002000
00000000
00000000
00000000
00000000
00000000
00000000
00000000
00000000
00000000
00000000
00000000
00010000
00000000
00000000
00000000
00020000
00000000
00000000
00000000
00000000
00000000
00000000
00000000
00033000
00000000
00000000
00000000
00000000
00000000
00000000
00000000
00020000
00030000
00000000
00000000
00001000
00000000
00000000
00000000
00000000
00000000
00000000
00000000
00001000
00000000
00000000
00000000
00000100
00000000
00000000
00000000
00000000
00000000
00000000
00000000
00000010
00000000
00000000
00000000
00001000
00000000
00000000
00000000
,
00000010
00000000
00000000
00000000
00000101
00000000
00000000
00000000
00000110
00000000
00000000
00000000
00001001
00000000
00000001
00000010
,
00000001
00000000
00000010
00000100
00000010
00000000
00000100
00000000
00010000
00001000
00000000
00100000
00010000
00000000
10000000
00100000
,
00000000
01000000
00010000
10000000
01000000
00000000
00000000
00000000
01200000
00000000
00310000
00000000
00201000
00000000
00301000
00000000
,
00011000
00000000
00000000
00000000
00000000
00000000
00000000
00000000
00010000
00000000
00000000
00000000
00001000
00000000
00000000
00000000
00001100
00000000
00000000
00000000
00000100
00000000
00000000
00000000
00000002
00000000
00000000
00000000
00000000
00000000
00000000
00000000
00000023
00000030
00000000
00000000
00000100
00000000
00000000
00000000
00000010
00000000
00000000
00000000
00000100
00000000
00000000
00000000
00000010
00000000
00000000
00000000
00000000
00000000
00000000
00000000
00000000
00000000
00000000
00000000
00000000
00000000
00000000
00000000
,
00000100
00010000
00001000
00010000
00001000
00000000
01000000
00000000
00100000
10000000
00000000
01000000
00000000
00100000
00000000
00000000
,
00100000
00010000
00000000
01000000
00000000
00100000
00000000
00000000
20010000
00000000
30010000
10000000
01000000
00010000
00002000
00000000
,
00023000
00030000
00000000
00000000
00000000
00000000
00000000
00000000
00011000
00000000
00000000
00000000
00000000
00000000
00000000
00000000
00011000
00000000
00000000
00000000
00000000
00000000
00000000
00000000
00010000
00000000
00000000
00000000
00000010
00000000
00000000
00000000
00001000
00000000
00000000
00000000
00000000
00000000
00000000
00000000
00000000
00000000
00000000
00000000
00000100
00000000
00000000
00000000
00000000
00000000
00000000
00000000
00000000
00000000
00000000
00000000
00010000
00000000
00000000
00000000
00000000
00000000
00000000
00000000
,
00012000
00000000
02003000
00000000
,
03010000
10000000
01000000
00010000
00001000
00000010
00000001
00001000
,
00001001
00000000
00000000
00000000
;

//--------------- dance-double - Fred-104 feat. Fred-104 ----------------
#NOTEDATA:;
#STEPSTYPE:dance-double;
#DESCRIPTION:Fred-104 feat. Fred-104;
#DIFFICULTY:Challenge;
#METER:18;
#BPMS:0=166,76=83,78=166,102=83,104=166,116=332,117=166,148=83,152=166,160=83,164=166,236=332,236.5=166,236.75=83,237=166,244=332,244.5=166,272=83,274=166,286=83,290=166,298=83,300=166;
#STOPS:116=0.09,116.5=0.091,244=0.045,244.25=0.046;
#TIMESIGNATURES:0=4=4,76=2=4,78=4=4,102=2=4,104=4=4,272=2=4,274=4=4,298=2=4,300=4=4;
#CREDIT:Fred-104 feat. Fred-104;
#NOTES:
00000000
00000000
00000000
00000000
,
00000000
00000000
00000000
00000000
,
00000000
00000000
00000000
00000000
,
00000000
00000000
00000000
00000000
,
00000000
00000000
00000000
00000000
,
00000000
00000000
00000000
00000000
,
00001000
00000000
00010000
00000100
00000010
00000000
00000011
00000000
,
00001000
00000000
00000000
00000001
00000000
00000000
00000100
00000000
00002000
00000000
00000000
00000000
00000000
00000000
00013000
00000000
,
00001000
00000000
00000000
01000000
00000000
00000000
02200000
00000000
00000000
00000000
00000000
00000000
03300000
00000000
00010000
00000000
,
10000000
00000000
00000000
01000000
00000000
00000000
00100000
00000000
00001000
00000000
00010000
00000100
00001000
00000010
00000100
00000001
,
00001000
00000000
00000100
00000000
00000010
00000000
00000001
00001000
00000010
00000100
00001000
00010000
00001000
00100000
00010000
10000000
,
00100000
00100000
00000000
01000000
01000000
00000000
00001000
00001000
00010000
00000000
00000000
00000000
00001000
00000000
00100000
00000000
,
10010000
00000000
00000000
00000000
,
00101000
00000000
00011000
00000000
00000000
00000000
00000000
00000000
00000000
00000000
00000000
00000000
00001000
00010000
00000010
00001000
,
00000001
00001001
00000000
00000000
00000000
00000000
00000000
00000000
,
00000011
00000000
00000000
00000000
00001100
00000000
00000000
00000000
00010100
00000000
00000000
00000000
00010000
00001000
00010000
00001000
00010000
00000000
00000000
00000000
00000000
00000000
00011000
00000000
00000000
00000000
00000000
00000000
00011000
00000000
00000000
00000000
,
00001000
00100000
01000000
00100000
10000000
00100000
01000000
00100000
00010000
10000000
00100000
00010000
00001000
00000100
00000001
00000000
,
00001000
00000100
00000010
00000100
00000001
00000100
00000010
00000100
00001000
00000001
00000100
00001000
00010000
00100000
10000000
00000000
,
00010000
00000000
00000000
01000000
00000000
00000000
00100000
00000000
00000000
10000000
00000000
00000000
01000000
00000000
00000000
00100000
00000000
00000000
00001000
00000000
00000000
00010000
00000000
00000000
00001000
00000000
00010000
00000000
00001000
00000000
00100000
00000000
00000000
00010000
00000000
00000000
10000000
00000000
00100000
00000000
01000000
00000000
00010000
00000000
00000000
10000000
00000000
00000000
,
00020000
00000000
00000000
00000000
00000000
00000000
00000000
00000000
10030000
00010000
10000000
00010000
10000000
00000000
00000000
00000000
20020000
00000000
00000000
00000000
30030000
00000000
00000000
00000000
00010000
00000000
10000000
00000000
01000000
00000000
00100000
00000000
,
00010000
00100000
00001000
00010000
00000100
00000010
00000200
00000000
00001300
00000001
00000100
00000010
00001000
00000001
00000010
00000100
,
00001000
00000000
00000001
00000100
00002000
00000000
00023000
00000000
00031000
00000000
00101000
00000000
00012000
00000000
00013000
00001000
,
01000000
00000000
00010000
00000000
01000000
00000000
00100000
00000000
01000000
00000000
10000000
00000000
02000000
00000000
00000000
00000000
03010000
00000000
10000000
00000000
00000000
00000000
10000000
01000000
10000000
00000000
01000000
00000000
00100000
00010000
00100000
00010000
,
00100000
00001000
00000000
00011000
00000000
00000000
00001100
00000000
00000100
00000001
00000000
00000001
00000010
00000100
00001000
00000010
,
00020000
00000000
00000000
00000000
00031000
00000000
00100000
00000000
00010000
00000000
00100000
00000000
00002000
00000000
00000000
00000000
00013000
00001000
00010000
00000000
00001000
00000000
00000100
00000000
00000001
00000000
00000010
00000000
00000000
00000000
00000010
00000000
,
00000100
00000000
00000000
00000000
00000000
00000000
00000000
00000000
00001000
00000000
00000000
00000000
00000010
00000000
00000000
00000000
00000220
00000000
00000000
00000000
00000000
00000000
00000000
00000000
00000330
00000000
00000000
00000000
00000000
00000000
00000000
00000000
00002002
00000000
00000000
00000000
00003003
00000000
00000000
00000000
00000001
00000000
00000010
00000000
00000001
00000000
00000010
00000100
00000010
00000000
00000100
00000000
00001000
00000000
00000100
00000000
00010000
00000000
00001000
00000000
01000000
00000000
00000000
00000000
,
00020000
00030000
00000000
00000000
00000000
00000000
00000000
00000000
00000000
00000000
00000000
00000000
10000000
00000000
00000000
00000000
00000000
00000000
00000000
00000000
00000000
00000000
00000000
00000000
00000000
00000000
00000000
00000000
00000000
00000000
00000000
00000000
00000000
00000000
00000000
00000000
01000000
00000000
00000000
00000000
00000000
00000000
00000000
00000000
00000000
00000000
00000000
00000000
00010000
00000000
00000000
00000000
00000000
00000000
00000000
00000000
00000000
00000000
00000000
00000000
00000000
00000000
00000000
00000000
00000000
00000000
00000000
00000000
00000000
00000000
00000000
00000000
00001000
00000000
00000000
00000000
00000000
00000000
00000000
00000000
00000000
00000000
00000000
00000000
00000010
00000000
00000000
00000000
00000000
00000000
00000000
00000000
00000000
00000000
00000000
00000000
00000000
00000000
00000000
00000000
00000000
00000000
00000000
00000000
00000000
00000000
00000000
00000000
00000001
00000000
00000000
00000000
00000000
00000000
00000000
00000000
00000000
00000000
00000000
00000000
00000100
00000000
00000000
00000000
00000000
00000000
00000000
00000000
00000000
00000000
00000000
00000000
00000000
00000000
00000000
00000000
00000000
00000000
00000000
00000000
00000000
00000000
00000000
00000000
00001000
00000000
00000000
00000000
00000000
00000000
00000000
00000000
00000000
00000000
00000000
00000000
00010000
00000000
00000000
00000000
00000000
00000000
00000000
00000000
00000000
00000000
00000000
00000000
00001000
00000000
00000000
00000000
00000000
00000000
00000000
00000000
00000000
00000000
00000000
00000000
00010000
00000000
00000000
00000000
00000000
00000000
00000000
00000000
00000000
00000000
00000000
00000000
,
00002000
00023000
00230000
00320000
20030000
32000000
03020000
00230000
,
02300000
00000000
03020000
00000000
00032000
00000000
00003020
00000000
00002030
00000000
00003002
00000000
00000203
00000000
00010300
00001000
,
00020000
00030000
00000000
00000000
00000000
00000000
00000000
00000000
00000000
00000000
00000000
00000000
00000000
00000000
00000000
00000000
00000000
00000000
00000000
00000000
00000000
00000000
00000000
00000000
00022000
00033000
00000000
00000000
00000000
00000000
00000000
00000000
00000000
00000000
00000000
00000000
00000000
00000000
00000000
00000000
00000000
00000000
00000000
00000000
00000000
00000000
00000000
00000000
01001000
00000000
00000000
00000000
00000000
00000000
00000000
00000000
00000000
00000000
00000000
00000000
00000000
00000000
00000000
00000000
00000000
00000000
00000000
00000000
00000000
00000000
00000000
00000000
02000000
00000000
00000000
00000000
00000000
00000000
00000000
00000000
00000000
00000000
00000000
00000000
00000000
00000000
00000000
00000000
00000000
00000000
00000000
00000000
00000000
00000000
00000000
00000000
03010000
00000000
00000000
00000000
00000000
00000000
00000000
00000000
00000000
00000000
00000000
00000000
00100000
00000000
00000000
00000000
00000000
00000000
00000000
00000000
00000000
00000000
00000000
00000000
20000000
00000000
00000000
00000000
00000000
00000000
00000000
00000000
00000000
00000000
00000000
00000000
00000000
00000000
00000000
00000000
00000000
00000000
00000000
00000000
00000000
00000000
00000000
00000000
30010000
00000000
00000000
00000000
00000000
00000000
00000000
00000000
00000000
00000000
00000000
00000000
01000000
00000000
00000000
00000000
00000000
00000000
00000000
00000000
00000000
00000000
00000000
00000000
10000000
00000000
00000000
00000000
00000000
00000000
00000000
00000000
00000000
00000000
00000000
00000000
00010000
00000000
00000000
00000000
00000000
00000000
00000000
00000000
00000000
00000000
00000000
00000000
,
01000000
00000000
00100000
00000000
10000000
00000000
01000000
00000000
00100000
00000000
00001000
00000000
00010000
00000000
00001000
00010000
00001000
00000000
00010000
00000000
00000000
00000000
00010100
00000000
00000000
00000000
00000000
00000000
00011000
00000000
00000000
00000000
,
00010000
00000000
00001000
00000000
00010000
00000000
00000010
00000000
00001000
00000000
00000010
00000000
00000100
00000000
00000010
00000000
00001000
00000001
00001000
00000001
00001000
00000000
00000001
00000000
00000020
00000000
00000000
00000000
00000230
00000000
00000000
00000000
,
00010300
00000000
00000000
00000000
00000000
00000000
00000000
00000000
00000000
00001000
00000000
00000000
00000000
00000000
00000000
00000000
00000000
00000000
00011000
00000000
00000000
00000000
00000000
00000000
00000000
00000000
00000000
00000000
00000000
00000000
00001000
00000000
00000000
00000000
00000000
00000000
00100000
00000000
00000000
00000000
00000000
00000000
00010000
00000000
00000000
00000000
00000000
00000000
00000000
00000000
00000000
00000000
00000000
00000000
10000000
00000000
00000000
00010000
00000000
00000000
10000000
00000000
00000000
00000000
00000000
00000000
01000000
00000000
00000000
00000000
00000000
00000000
00100000
00000000
00000000
00000000
00000000
00000000
00000000
00000000
00010000
00000000
00000000
00000000
20000000
00000000
00000000
00000000
00000000
00000000
00000000
00000000
00000000
00000000
00000000
00000000
,
30010000
01000000
00010000
00000000
01000000
00000000
00001000
00010000
00001000
00000000
00010000
00000000
00000010
00001000
00000010
00000000
00001000
00000000
00000001
00000000
00000020
00000000
00000000
00000000
00000130
00000000
00001000
00000000
00000001
00000000
00001000
00000000
,
00000001
00000000
00000000
00000000
00000000
00000000
00000000
00000000
00000001
00000000
00000000
00000000
00000000
00000000
00000000
00000000
00000001
00000000
00000000
00000000
00000000
00000000
00000000
00000000
00000010
00000000
00000000
00000000
00000000
00000000
00000100
00000000
00000000
00000000
00000000
00000000
00001000
00000000
00000000
00000100
00000000
00000000
00001000
00000000
00000000
00000100
00000000
00000000
00001000
00000000
00000000
00000000
00000000
00000000
00000000
00000000
00000000
00000000
00000000
00000000
00000000
00000000
00000000
00000000
00000000
00000000
00000000
00000000
00000000
00000000
00000000
00000000
00010100
00000000
00000000
00000000
00000000
00000000
00000000
00000000
00000000
00000000
00000000
00000000
00000000
00000000
00000000
00000000
00000000
00000000
00000000
00000000
00000000
00000000
00000000
00000000
,
00010000
00020000
00000000
00000000
00000000
00000000
00000010
00000000
,
00031000
00000000
00001000
00000000
00010000
00000000
00200000
00000000
00000000
00000000
10300000
01000000
00100000
00001000
00010000
00001000
,
00020000
00030000
00000000
00000000
00001000
00000000
00000000
00000000
00010000
00000000
00000000
00000000
00001000
00000000
00000000
00000000
00000000
00000000
00000000
00000000
00000000
00000000
00000000
00000000
01000000
00000000
00000000
00000000
00010000
00000000
00000000
00000000
01000000
00000000
00000000
00000000
00010000
00000000
00000000
00000000
00000000
00000000
00000000
00000000
00000000
00000000
00000000
00000000
10000000
00000000
00000000
00000000
00000000
00000000
01000000
00000000
00000000
00000000
00000000
00000000
00010000
00000000
00000000
00000000
00000000
00000000
00001000
00000000
00000000
00000000
00000000
00000000
00000010
00000000
00000000
00000000
00000000
00000000
00000001
00000000
00000000
00000000
00000000
00000000
00001000
00000000
00000000
00000000
00000000
00000000
00000000
00000000
00000000
00000000
00000000
00000000
00000001
00000000
00000000
00000000
00000010
00000000
00000000
00000000
00000001
00000000
00000000
00000000
00000010
00000000
00000000
00000000
00000000
00000000
00000000
00000000
00000000
00000000
00000000
00000000
00000100
00000000
00000000
00000000
00001000
00000000
00000000
00000000
00000100
00000000
00000000
00000000
00001000
00000000
00000000
00000000
00000000
00000000
00000000
00000000
00000000
00000000
00000000
00000000
00000001
00000000
00000000
00000000
00000000
00000000
00000100
00000000
00000000
00000000
00000000
00000000
00000010
00000000
00000000
00000000
00000000
00000000
00000100
00000000
00000000
00000000
00000000
00000000
00001000
00000000
00000000
00000000
00000000
00000000
00010000
00000000
00000000
00000000
00000000
00000000
00001000
00000000
00000000
00000000
00000000
00000000
00100000
00000000
00000000
00000000
00000000
00000000
,
00002000
00003000
00000000
00000000
00000000
00000000
00000000
00000000
00000000
00000000
00000000
00000000
00000000
00000000
00000000
00000000
00000000
00000000
00000000
00000000
00000000
00000000
00000000
00000000
00002000
00000000
00000000
00000000
00000000
00000000
00000000
00000000
00000000
00000000
00000000
00000000
00000000
00000000
00000000
00000000
00000000
00000000
00000000
00000000
00000000
00000000
00000000
00000000
00000000
00000000
00000000
00000000
00000000
00000000
00000000
00000000
00000000
00000000
00000000
00000000
00000000
00000000
00000000
00000000
00000000
00000000
00000000
00000000
00000000
00000000
00000000
00000000
00000000
00000000
00000000
00000000
00000000
00000000
00000000
00000000
00000000
00000000
00000000
00000000
00000000
00000000
00000000
00000000
00000000
00000000
00000000
00000000
00000000
00000000
00000000
00000000
00000000
00000000
00000000
00000000
00000000
00000000
00000000
00000000
00000000
00000000
00000000
00000000
00000000
00000000
00000000
00000000
00000000
00000000
00000000
00000000
00000000
00000000
00000000
00000000
00000000
00000000
00000000
00000000
00000000
00000000
00000000
00000000
00000000
00000000
00000000
00000000
00000000
00000000
00000000
00000000
00000000
00000000
00000000
00000000
00000000
00000000
00000000
00000000
01000000
00000000
00000000
00000000
00000000
00000000
00000000
00000000
00000000
00000000
00000000
00000000
00000000
00000000
00000000
00000000
00000000
00000000
00000000
00000000
00000000
00000000
00000000
00000000
00000000
00000000
00000000
00000000
00000000
00000000
00000000
00000000
00000000
00000000
00000000
00000000
00000000
00000000
00000000
00000000
00000000
00000000
00000000
00000000
00000000
00000000
00000000
00000000
,
00013000
00000000
00010000
00000000
00001000
00000000
00000200
00000000
00000000
00000000
00000301
00000010
00000100
00001000
00000001
00001000
,
00000002
00000003
00000000
00000000
00000010
00000000
00000000
00000000
00000001
00000000
00000000
00000000
00000010
00000000
00000000
00000000
00000000
00000000
00000000
00000000
00000000
00000000
00000000
00000000
00000100
00000000
00000000
00000000
00010000
00000000
00000000
00000000
00000100
00000000
00000000
00000000
00010000
00000000
00000000
00000000
00000000
00000000
00000000
00000000
00000000
00000000
00000000
00000000
00011000
00000000
00000000
00000000
00000000
00000000
00000000
00000000
00000000
00000000
00000000
00000000
00001000
00000000
00000000
00000000
00000000
00000000
00100000
00000000
00000000
00000000
00000000
00000000
00010000
00000000
00000000
00000000
00000000
00000000
10000000
00000000
00000000
00000000
00000000
00000000
00100000
00000000
00000000
00000000
00000000
00000000
01000000
00000000
00000000
00000000
00000000
00000000
00010000
00000000
00000000
00000000
00000000
00000000
00100000
00000000
00000000
00000000
00000000
00000000
00001000
00000000
00000000
00000000
00000000
00000000
00000000
00000000
00000000
00000000
00000000
00000000
00010000
00000000
00000000
00000000
00000010
00000000
00000000
00000000
00001000
00000000
00000000
00000000
00000010
00000000
00000000
00000000
00000000
00000000
00000000
00000000
00000000
00000000
00000000
00000000
00000100
00000000
00000000
00000000
00000000
00000000
00000000
00000000
00000001
00000000
00000000
00000000
00000000
00000000
00000000
00000000
00000010
00000000
00000000
00000000
00000000
00000000
00000000
00000000
00001000
00000000
00000000
00000000
00000000
00000000
00000000
00000000
00010000
00000000
00000000
00000000
00000000
00000000
00000000
00000000
01000000
00000000
00000000
00000000
00000000
00000000
00000000
00000000
,
20000000
30000000
00000000
00000000
00000000
00000000
00000000
00000000
00000000
00000000
00000000
00000000
00000000
00000000
00000000
00000000
00000000
00000000
00000000
00000000
00000000
00000000
00000000
00000000
00010000
00000000
00000000
00000000
00000000
00000000
10000000
00000000
00000000
00000000
00000000
00000000
00010000
00000000
00000000
00000000
00000000
00000000
10000000
00000000
00000000
00000000
00000000
00000000
00010000
00000000
00000000
00000000
00000000
00000000
00000000
00000000
00000000
00000000
00000000
00000000
00000000
00000000
00000000
00000000
00000000
00000000
00000000
00000000
00000000
00000000
00000000
00000000
00000000
00000000
00000000
00000000
00000000
00000000
00000000
00000000
00000000
00000000
00000000
00000000
00000000
00000000
00000000
00000000
00000000
00000000
00000000
00000000
00000000
00000000
00000000
00000000
01100000
00000000
00000000
00000000
00000000
00000000
00000000
00000000
00000000
00000000
00000000
00000000
00000000
00000000
00000000
00000000
00000000
00000000
00000000
00000000
00000000
00000000
00000000
00000000
00000000
00000000
00000000
00000000
00000000
00000000
00000000
00000000
00000000
00000000
00000000
00000000
10000000
00000000
00000000
00000000
00000000
00000000
00000000
00000000
00000000
00000000
00000000
00000000
00010000
00000000
00000000
00000000
00000000
00000000
00000000
00000000
00000000
00000000
00000000
00000000
00000000
00000000
00000000
00000000
00000000
00000000
00000000
00000000
00000000
00000000
00000000
00000000
00100000
00000000
00000000
00000000
00000000
00000000
00000000
00000000
00000000
00000000
00000000
00000000
00000000
00000000
00000000
00000000
00000000
00000000
00000000
00000000
00000000
00000000
00000000
00000000
,
00001000
00000000
00000000
00000000
00000010
00000000
00000000
00000000
00000001
00000000
00000000
00000000
00000000
00000000
00001000
00000010
00001000
00000000
00000000
00000000
00000000
00000000
00000101
00000000
00000000
00000000
00000000
00000000
00000000
00000000
00000000
00000000
,
00001001
00000000
00000011
00000011
00000110
00000000
00010200
00020300
,
00031000
00000000
00000000
00000000
00010000
00000000
00000000
00000000
00001000
00000000
00000000
00000000
00021000
00000000
00000000
00000000
00000000
00000000
00031000
00000000
00000000
00010000
00000000
00000000
00100000
00000000
00000000
10000000
00000000
00000000
00010000
00000000
00000000
10000000
00000000
00000000
01000000
00000000
00000000
00010000
00000000
00000000
00001000
00000000
00000000
00000000
00000000
00000000
,
00010000
00000000
00000000
00000100
00000000
00000000
00000000
00000000
00000000
00000100
00000000
00000000
00000010
00000000
00000000
00000000
00000000
00000000
00000011
00000000
00000000
00000000
00000000
00000000
00000001
00000000
00000000
00000000
00000100
00000000
00000000
00000000
00000010
00000000
00000000
00000000
00002020
00000000
00000000
00000000
00000000
00000000
00003030
00000000
00000000
00000000
00000000
00000000
,
00010000
00000000
00001000
00000000
01000000
00000000
00010000
00000000
01000000
00010000
01000000
00010000
01000000
00000000
00100000
00000000
10000000
00000000
00010000
00000000
00100000
00000000
01000000
00000000
00010000
00000000
00001000
00000000
00020000
00000000
00000000
00000000
,
00031000
00000000
00010000
00000000
00000100
00000000
00001000
00000000
00000010
00000000
00000100
00000000
00000001
00000000
00000010
00000000
00000001
00000000
00000100
00000000
00000010
00000000
00001000
00000000
00000100
00000000
00010000
00000000
00001000
00010000
00001000
00010000
,
00001000
00100000
00010000
01000000
00100000
10000000
01000000
10000000
00100000
01000000
00010000
00100000
00001000
00000000
00010000
00000000
,
00002000
00000000
00000000
00000000
,
00013000
00010000
00000000
00000010
00000010
00000000
00000100
00000001
00001000
00000001
00001000
00000001
00002000
00000000
00003000
00000000
,
00000001
00000010
00000100
00000000
00001100
00000000
00001000
00000010
00000100
00001000
00010000
00000000
00011000
00000000
00001000
00100000
,
00010000
10000000
00100000
00000000
01100000
00000000
01000000
10000000
00000000
01000000
00010000
00000000
00200000
00000000
02300000
00000000
,
13000000
00100000
01000000
00010000
10000000
01000000
00100000
01000000
00010000
00001000
00010000
00000100
00000010
00000001
00000100
00001000
,
00010000
00001000
00010000
00000100
00001000
00000010
00000100
00000001
00001000
00000001
00000010
00000100
00000010
00001000
00010000
00000000
,
00001000
00000000
00011000
00000000
00101000
00000000
00100000
00010000
10000000
00100000
01000000
00000000
01100000
00000000
00100000
00010000
,
00001000
00000000
00010000
00000000
00000100
00000000
00000000
00000000
00000110
00000000
00000000
00000000
00000010
00000000
00001000
00000000
00000000
00000000
00001000
00000000
00000010
00000000
00000001
00001000
00000001
00000000
00000100
00000000
00000000
00000000
00000100
00000000
,
00000010
00000000
00001000
00000001
00000000
00000001
00000010
00000100
00001000
00000010
00000100
00001000
00010000
00100000
10000000
00000000
,
00010000
00000000
00000000
00100000
00000000
00000000
01000000
00000000
00000000
10000000
00000000
00000000
00100000
00000000
00000000
01000000
00000000
00000000
00010000
00000000
00000000
00100000
00000000
00000000
00001000
00000000
00010000
00000000
00001000
00000000
00010000
00000000
00000100
00000000
00001000
00000000
00000100
00000000
00000000
00000000
00000000
00000000
00010000
00000000
00000000
00000000
00000000
00000000
,
00002000
00000000
00000000
00000000
00000000
00000000
00000000
00000000
00000000
00000000
00000000
00000000
00000000
00000000
00000000
00000000
00000000
00000000
00000000
00000000
00000000
00000000
00000000
00000000
00000000
00000000
00000000
00000000
00000000
00000000
00000000
00000000
00000000
00000000
00000000
00000000
00003000
00000000
00000000
00000000
00000000
00000000
00000000
00000000
00000000
00000000
00000000
00000000
00022000
00033000
00000000
00000000
00000000
00000000
00000000
00000000
00000000
00000000
00000000
00000000
00000000
00000000
00000000
00000000
00000000
00000000
00000000
00000000
00000000
00000000
00000000
00000000
00001000
00000000
00000000
00000000
00000000
00000000
00000000
00000000
00000000
00000000
00000000
00000000
00100000
00000000
00000000
00000000
00000000
00000000
00000000
00000000
00000000
00000000
00000000
00000000
00010000
00000000
00000000
00000000
00000000
00000000
00000000
00000000
00000000
00000000
00000000
00000000
01000000
00000000
00000000
00000000
00000000
00000000
00000000
00000000
00000000
00000000
00000000
00000000
00100000
00000000
00000000
00000000
00000000
00000000
00000000
00000000
00000000
00000000
00000000
00000000
00000000
00000000
00000000
00000000
00000000
00000000
00000000
00000000
00000000
00000000
00000000
00000000
10000000
00000000
00000000
00000000
00000000
00000000
00000000
00000000
00000000
00000000
00000000
00000000
01000000
00000000
00000000
00000000
00000000
00000000
00000000
00000000
00000000
00000000
00000000
00000000
00100000
00000000
00000000
00000000
00000000
00000000
00000000
00000000
00000000
00000000
00000000
00000000
00000000
00000000
00000000
00000000
00000000
00000000
00000000
00000000
00000000
00000000
00000000
00000000
,
00001000
00000000
00010000
00000000
00000000
00000000
00000010
00000000
00001000
00000000
00000000
00000000
00000100
00000000
00000010
00000001
00000010
00000000
00000001
00000000
00000000
00000000
00000101
00000000
00000000
00000000
00000000
00000000
00001100
00000000
00000000
00000000
,
00002000
00003000
00000000
00000000
00000000
00000000
00000000
00000000
00000000
00000000
00000000
00000000
00020000
00030000
00000000
00000000
00000000
00000000
00000000
00000000
00000000
00000000
00000000
00000000
00002000
00003000
00000000
00000000
00000000
00000000
00000000
00000000
00000000
00000000
00000000
00000000
00000000
00000000
00000000
00000000
00000000
00000000
00000000
00000000
00000000
00000000
00000000
00000000
00011000
00000000
00000000
00000000
00000000
00000000
00000000
00000000
00000000
00000000
00000000
00000000
00000000
00000000
00000000
00000000
00000000
00000000
00000000
00000000
00000000
00000000
00000000
00000000
00010000
00000000
00000000
00000000
00000000
00000000
00000000
00000000
00000000
00000000
00000000
00000000
00001000
00000000
00000000
00000000
00000000
00000000
00000000
00000000
00000000
00000000
00000000
00000000
00100000
00000000
00000000
00000000
00000000
00000000
00010000
00000000
00000000
00000000
00000000
00000000
00100000
00000000
00000000
00000000
00000000
00000000
00000000
00000000
00000000
00000000
00000000
00000000
00010000
00000000
00000000
00000000
00000000
00000000
00000000
00000000
00000000
00000000
00000000
00000000
10000000
00000000
00000000
00000000
00000000
00000000
00000000
00000000
00000000
00000000
00000000
00000000
00100000
00000000
00000000
00000000
00000000
00000000
00000000
00000000
00000000
00000000
00000000
00000000
01000000
00000000
00000000
00000000
00000000
00000000
00000000
00000000
00000000
00000000
00000000
00000000
00010000
00000000
00000000
00000000
00000000
00000000
00000000
00000000
00000000
00000000
00000000
00000000
10000000
00000000
00000000
00000000
00000000
00000000
00000000
00000000
00000000
00000000
00000000
00000000
,
01000000
00000000
00000000
00100000
00000000
00000000
01000000
00000000
00000000
00000000
00000000
00000000
00100000
00000000
00000000
00000000
00000000
00000000
00010000
00000000
00000000
00000000
00000000
00000000
00100000
00000000
00000000
00000000
00000000
00000000
00001000
00000000
00000000
00000000
00000000
00000000
00010000
00000000
00000000
00000000
00000000
00000000
00000100
00000000
00000000
00000000
00000000
00000000
00010000
00000000
00000000
00000000
00001000
00000000
00000000
00000000
00010000
00000000
00000000
00000000
00000100
00000000
00000000
00000000
00001000
00000000
00000000
00000000
00000100
00000000
00000000
00000000
00000010
00000000
00000000
00000000
00000000
00000000
00000001
00000000
00000000
00000000
00000000
00000000
00001000
00000000
00000000
00000000
00000000
00000000
00000000
00000000
00000000
00000000
00000000
00000000
,
00000011
00000000
00000000
00001010
00000000
00000000
00011000
00000000
01010000
00000000
00000000
00000000
11000000
00000000
00000000
00000000
,
10100000
00000000
00000000
00110000
00000000
00000000
00011000
00000000
00001100
00000000
00000000
00000000
00000101
00000000
00000001
00000000
,
00001001
00000000
00000000
00000010
00000000
00000000
00022000
00000000
00000000
00000000
00000000
00000000
00033000
00000000
10000000
00000000
,
10010000
00000000
00000000
01000000
00000000
00000000
00022000
00000000
00000000
00000000
00000000
00000000
00033000
00000000
00000001
00000000
,
00001001
00000000
00000000
00000100
00000000
00000000
00022000
00000000
00000000
00000000
00003000
00000000
00031000
00000000
00000000
00000000
,
00200000
00000000
00000000
00000000
00000000
00000000
00000000
00000000
00000000
00000000
00000000
00000000
00000000
00000000
00000000
00000000
00000000
00000000
00000000
00000000
00000000
00000000
00000000
00000000
00000000
00000000
00000000
00000000
00000000
00000000
00000000
00000000
00000000
00000000
00000000
00000000
01000000
00000000
00000000
00000000
00000000
00000000
00000000
00000000
00000000
00000000
00000000
00000000
02000000
00000000
00000000
00000000
00000000
00000000
00000000
00000000
00000000
00000000
00000000
00000000
03300000
00000000
00000000
00000000
00000000
00000000
00000000
00000000
00000000
00000000
00000000
00000000
10000000
00000000
00000000
00000000
00010000
00000000
00000000
00000000
10000000
00000000
00000000
00000000
00010000
00000000
00000000
00000000
10000000
00000000
00000000
00000000
00010000
00000000
00000000
00000000
20000000
30000000
00000000
00000000
00000000
00000000
00000000
00000000
00000000
00000000
00000000
00000000
01000000
00000000
00000000
00000000
00000000
00000000
00000000
00000000
00000000
00000000
00000000
00000000
10000000
00000000
00000000
00000000
00000000
00000000
00000000
00000000
00000000
00000000
00000000
00000000
00100000
00000000
00000000
00000000
00000000
00000000
00000000
00000000
00000000
00000000
00000000
00000000
01000000
00000000
00000000
00000000
00000000
00000000
00000000
00000000
00000000
00000000
00000000
00000000
00010000
00000000
00000000
00000000
00000000
00000000
00000000
00000000
00000000
00000000
00000000
00000000
00100000
00000000
00000000
00000000
00000000
00000000
00000000
00000000
00000000
00000000
00000000
00000000
00001000
00000000
00000000
00000000
00000000
00000000
00000000
00000000
00000000
00000000
00000000
00000000
,
00010000
00000000
00000000
00000000
00001001
00000000
00000000
00000000
00000110
00000000
00000000
00000000
00000001
00000010
00000200
00000000
,
00001300
00000010
00000200
00000000
00001300
00010000
00002000
00000000
00013000
00001000
00000010
00001000
00010000
00000000
00001000
00010000
,
00000000
00000000
00010000
00000000
00100000
00000000
00010000
00000000
00002000
00000000
00000000
00000000
00003000
00000000
00000000
00000000
00021000
00000000
00000000
00000000
00030020
00000000
00000000
00000000
00000130
00000001
00000100
00000000
00001002
00000000
00000000
00000000
,
00001003
00000000
00000000
00000000
00000000
00000000
00000100
00000000
00000000
00000000
00000000
00000000
00001000
00000000
00000000
00000000
00000000
00000000
00000000
00000000
00000000
00000000
00000000
00000000
00010100
00000000
00000000
00000000
00000000
00000000
00000000
00000000
00000000
00000000
00000000
00000000
00010000
00000000
00000000
00000000
00000000
00000000
00001000
00000000
00000000
00010000
00000000
00000000
00001000
00000000
00000000
00000000
00000000
00000000
00000000
00000000
00000000
00000000
00000000
00000000
00010000
00000000
00000000
00000000
00000000
00000000
00000000
00000000
00000000
00000000
00000000
00000000
00001000
00000000
00000000
00000000
00010000
00000000
00000000
00000000
00001000
00000000
00000000
00000000
00010000
00000000
00000000
00000000
00000000
00000000
00000000
00000000
00000000
00000000
00000000
00000000
00002000
00003000
00000000
00000000
00000000
00000000
00000000
00000000
00000000
00000000
00000000
00000000
00010000
00000000
00000000
00000000
00000000
00000000
00000000
00000000
00000000
00000000
00000000
00000000
00100000
00000000
00000000
00000000
00000000
00000000
00000000
00000000
00000000
00000000
00000000
00000000
10000000
00000000
00000000
00000000
00000000
00000000
00000000
00000000
00000000
00000000
00000000
00000000
01000000
00000000
00000000
00000000
00000000
00000000
00000000
00000000
00000000
00000000
00000000
00000000
00100000
00000000
00000000
00000000
00000000
00000000
00000000
00000000
00000000
00000000
00000000
00000000
00000000
00000000
00000000
00000000
00000000
00000000
00000000
00000000
00000000
00000000
00000000
00000000
00100000
00000000
00000000
00000000
00000000
00000000
00000000
00000000
00000000
00000000
00000000
00000000
,
00010000
00000000
00000000
00000000
10000000
00000000
00000000
00000000
00010000
00000000
00000000
00000000
10000000
00000000
00000000
00000000
00010000
00000000
00000000
00000000
10000000
00000000
00000000
00000000
00010000
00000000
00000000
00000000
00000000
00000000
10000000
00000000
00000000
00000000
00000000
00000000
00100000
00000000
00000000
00000000
00000000
00000000
00000000
00000000
00000000
00000000
00000000
00000000
01000000
00000000
00000000
00000000
00000000
00000000
00001000
00000000
00000000
00000000
00000000
00000000
00000000
00000000
00000000
00000000
00000000
00000000
00001000
00000000
00000000
00010000
00000000
00000000
00001000
00000000
00000000
00000000
00000000
00000000
00010000
00000000
00000000
00000000
00000000
00000000
00000100
00000000
00000000
00000000
00000000
00000000
00000000
00000000
00000000
00000000
00000000
00000000
,
00001000
00000000
00000010
00000000
00000100
00000000
00000001
00000000
00001000
00000000
00000100
00000000
00000010
00000000
00000000
00000000
00001002
00000000
00000000
00000000
00001003
00000010
00001000
00000010
00000100
00001000
00010000
00100000
01000000
00010000
01000000
00010000
,
20000000
30000000
00000000
00000000
00000000
00000000
00000000
00000000
00000000
00000000
00000000
00000000
00000000
00000000
00000000
00000000
00000000
00000000
00000000
00000000
00000000
00000000
00000000
00000000
10000000
00000000
00000000
00000000
00000000
00000000
00000000
00000000
00000000
00000000
00000000
00000000
00000000
00000000
00000000
00000000
00000000
00000000
00000000
00000000
00000000
00000000
00000000
00000000
01000000
00000000
00000000
00000000
00000000
00000000
00000000
00000000
00000000
00000000
00000000
00000000
00100000
00000000
00000000
00000000
00000000
00000000
00000000
00000000
00000000
00000000
00000000
00000000
00010000
00000000
00000000
00000000
00000000
00000000
00000000
00000000
00000000
00000000
00000000
00000000
00100000
00000000
00000000
00000000
00000000
00000000
00000000
00000000
00000000
00000000
00000000
00000000
00001000
00000000
00000000
00000000
00000000
00000000
00010000
00000000
00000000
00000000
00000000
00000000
00001000
00000000
00000000
00000000
00000000
00000000
00000000
00000000
00000000
00000000
00000000
00000000
00010000
00000000
00000000
00000000
00000000
00000000
00000000
00000000
00000000
00000000
00000000
00000000
00000010
00000000
00000000
00000000
00000000
00000000
00001000
00000000
00000000
00000000
00000000
00000000
00000010
00000000
00000000
00000000
00000000
00000000
00000000
00000000
00000000
00000000
00000000
00000000
00000100
00000000
00000000
00000000
00000000
00000000
00000000
00000000
00000000
00000000
00000000
00000000
00000001
00000000
00000000
00000000
00000000
00000000
00000000
00000000
00000000
00000000
00000000
00000000
00001000
00000000
00000000
00000000
00000000
00000000
00000001
00000000
00000000
00000000
00000000
00000000
,
00002000
00000000
00000000
00000000
,
00003001
00000000
00000010
00000000
00001000
00000000
00010000
00000000
01000000
00000000
10000000
00000000
00010000
00000000
10000000
00000000
00100000
00000000
00010000
00000000
00001000
00000000
00000100
00000000
00000001
00001000
00000001
00000000
00000010
00000000
00000100
00000000
,
00001001
00000000
00000000
00000000
;
