#VERSION:0.83;
#TITLE:Into The Madness;
#ARTIST:Yuta Imai;
#GENRE:SPOOKY;
#BANNER:Into The Madness.png;
#BACKGROUND:Into The Madness-bg.png;
#CDTITLE:./CDTitles/SDVX VIVID WAVE.png;
#MUSIC:Into The Madness.ogg;
#SAMPLESTART:89.8;
#SAMPLELENGTH:15;
#BPMS:0=155;
#BGSTAGE:28;

//--------------- dance-single - Fred-104 ----------------
#NOTEDATA:;
#STEPSTYPE:dance-single;
#DESCRIPTION:Fred-104;
#DIFFICULTY:Beginner;
#METER:4;
#CREDIT:Fred-104;
#NOTES:
0000
0000
0000
0000
,
0000
0000
0000
0000
,
0000
0000
0000
0000
,
0000
0000
0000
0000
,
0000
0000
0000
0000
,
0000
0000
0000
0000
,
1000
0000
1000
0000
,
0001
0001
0001
0001
,
0000
0000
0000
0000
,
0000
0000
0000
0000
,
0001
0000
0001
0000
,
0100
0000
0100
0000
,
1000
0000
1000
0000
,
0010
0000
0010
0000
,
0001
0000
0001
0000
,
1000
0000
1000
0000
,
0100
0000
0100
0000
,
0010
0010
0010
0000
,
0001
0000
0001
0000
,
1000
0000
1000
0000
,
0001
0000
0001
0000
,
1000
0000
1000
1000
,
1000
0000
0001
0000
,
0100
0000
0010
0000
,
0100
0000
0100
0000
,
0100
0100
0100
0000
,
0001
0000
0001
0000
,
1000
1000
1000
0000
,
0100
0000
0100
0000
,
0001
0001
0001
0000
,
0100
0000
0100
0000
,
0010
0010
0010
0000
,
0100
0000
1000
0000
,
0001
0001
0001
0000
,
2000
0000
0000
3000
,
0002
0000
0000
0003
,
2000
0000
0000
3000
,
0002
0000
0000
0003
,
2000
0000
0000
3000
,
0002
0000
0000
0003
,
2000
0000
0000
3000
,
0002
0000
0003
0000
,
1001
0000
1000
0000
,
0001
0000
0010
0010
,
0010
0000
0100
0000
,
0100
0000
1000
1000
,
1000
0000
0001
0000
,
1000
0000
0010
0000
,
0100
0000
0100
0000
,
0002
0000
2000
3003
,
0001
0000
0001
0000
,
0010
0000
0010
0000
,
1000
0000
1000
0000
,
0010
0000
0100
0000
,
0010
0000
0010
0000
,
0001
0000
0001
0000
,
1000
1000
1000
1000
,
1001
0000
0000
0000
,
0001
0000
0001
0000
,
1000
0000
0100
0100
,
0100
0000
0010
0000
,
0001
0000
1000
0000
,
1000
0000
0001
0000
,
0100
0000
0010
0010
,
0010
0000
0100
0000
,
0001
0001
0001
0000
,
1001
0000
0000
0000
,
0000
0000
0000
0000
,
1000
0000
0010
0000
,
0100
0000
0001
0001
,
0001
0001
0001
0000
,
1000
0000
0100
0000
,
1001
0000
1001
0000
,
2002
0000
0000
3003
,
2002
3003
0000
0000
;

//--------------- dance-single - Fred-104 ----------------
#NOTEDATA:;
#STEPSTYPE:dance-single;
#DESCRIPTION:Fred-104;
#DIFFICULTY:Easy;
#METER:9;
#CREDIT:Fred-104;
#NOTES:
0000
0000
0000
0000
,
0000
0000
0000
0000
,
0000
0000
0000
0000
,
0000
0000
0000
0000
,
0000
0000
0000
0000
,
0000
0000
0000
0000
,
0001
1000
0010
0100
,
0101
1010
0101
1010
,
2002
0000
0000
3003
,
0100
0100
0220
0330
,
1000
1000
0100
0100
,
0001
0100
0010
0010
,
0001
0001
1000
1000
,
0001
1000
2002
3003
,
2000
0000
3010
0001
,
0020
0000
0130
0001
,
1100
0011
1100
0011
,
0100
0100
0220
0330
,
1001
1000
0001
0010
,
1000
0010
0001
1000
,
0001
0100
0010
0100
,
0001
1000
0110
1001
,
1100
0100
0010
0001
,
0101
0100
0010
1000
,
1010
0100
0011
0100
,
1001
0110
2002
3003
,
1000
0100
0010
0001
,
0100
0010
1000
0002
,
0013
0100
0010
0001
,
1001
0110
2002
3003
,
1010
0001
1000
0100
,
0110
1001
0110
1001
,
0101
0010
1100
0010
,
0100
0100
2002
3003
,
2000
0000
3020
0000
,
0032
0000
0203
0000
,
2300
0000
3002
0000
,
0203
0000
0310
0010
,
1000
0000
0000
0000
1000
0000
0100
0000
0000
0000
0100
0000
,
0010
0000
0000
0000
0010
0000
0001
0000
0000
0000
0001
0000
,
0100
0000
0000
0000
0100
0000
0010
0000
0000
0000
0010
0000
,
1000
0000
1000
0000
1000
0000
1001
0000
0000
0000
0000
0000
,
0110
1000
0001
1000
,
0010
0100
0001
1000
,
0100
0010
0001
1000
,
1001
0000
0000
0100
0000
0110
0000
0000
0110
0000
0000
0000
,
1001
1000
0001
1000
,
1100
0100
0010
0001
,
0110
1000
0110
0001
,
2002
0000
0003
3000
,
0001
0010
0001
0010
,
0100
1000
0010
0100
,
0001
1000
0100
0001
,
0100
1000
2002
3003
,
1001
1000
0001
0100
,
0110
0010
1000
0100
,
1100
0011
1010
0101
,
2002
0000
0000
3003
,
1010
1000
1001
0001
,
0011
0010
0110
0100
,
1100
1000
1010
0010
,
0110
0000
0000
0110
0000
0101
0000
0000
0000
1001
0000
0000
,
0011
1000
0101
1000
,
0110
0001
0110
1000
,
1001
0010
1001
0100
,
0110
0110
1001
0110
,
1001
0000
0000
0000
,
0000
0000
1000
1000
,
1100
0001
0101
1000
,
1100
0000
0000
0110
0000
0011
0000
0000
0000
1001
0000
0000
,
0110
0110
1001
0100
,
1100
0010
0101
0010
,
1001
0100
0110
0010
,
1001
0000
0000
0110
0000
0000
1000
0001
1000
0001
0000
0000
,
2002
3003
0000
0000
;

//--------------- dance-single - Fred-104 ----------------
#NOTEDATA:;
#STEPSTYPE:dance-single;
#DESCRIPTION:Fred-104;
#DIFFICULTY:Medium;
#METER:12;
#DISPLAYBPM:77.5:155;
#BPMS:0=155,32=77.5,35.5=155,67=310,67.5=155,67.750=77.5,68=155,114=310,115=155,115.5=77.5,116=155,132=77.5,147=155,176=77.5,178=155,206=77.5,207.5=155;
#STOPS:35.5=0.194,147=0.387,207.5=0.193;
#TIMESIGNATURES:0=4=4,176=2=4,178=4=4,206=2=4,208=4=4;
#CREDIT:Fred-104;
#NOTES:
0000
0000
0000
0000
,
0000
0000
0000
0000
,
0000
0000
0000
0000
,
0000
0000
0000
0000
,
0000
0000
0000
0000
,
0000
0000
0000
0000
,
0001
0000
0001
0010
0000
0010
0100
0000
0100
1000
0000
1000
,
0010
0110
0100
0101
,
2002
0000
0000
3003
1000
0001
1000
MMMM
,
0001
0000
0000
0010
0000
0000
0001
0000
0000
0100
0010
0100
,
0010
1000
0000
1000
0001
0000
0001
0010
0000
0110
0000
0000
,
1000
0000
0000
0001
0000
0000
1000
0000
0000
0010
1000
0010
,
0100
0001
0000
0001
1000
0000
1000
0100
0000
0011
0000
0000
,
2000
0000
0000
0010
0000
0000
3002
0000
0000
0103
0010
0100
,
0020
1000
0230
0301
,
1100
0000
0000
0011
0000
0000
1100
0000
0000
0011
0000
1000
,
0001
0000
0001
0100
0000
0100
0010
0000
0000
MMMM
0000
0000
,
1002
0000
0000
1003
0000
0000
0100
0000
0100
0010
0001
0010
,
0002
0000
0000
1003
0000
0000
0001
0000
0001
0100
0010
0100
,
0020
0000
0000
0130
0000
0000
0001
0000
0001
0010
0100
0010
,
0100
1000
0100
1000
0001
1000
0010
0000
0000
1001
0000
0000
,
1100
0000
0100
1000
0000
0001
1000
0000
0010
1000
0000
0000
,
0101
0000
0100
0001
0000
1000
0001
0000
0010
0001
0000
0000
,
1010
0000
0100
0001
0000
0000
0011
0000
0100
1000
0000
0000
,
0001
0000
0001
1000
0000
1000
0001
0000
0000
MMMM
0000
0000
,
1001
0000
1000
0100
0000
0100
0010
0000
0010
0001
0000
0000
,
1000
0000
0010
0100
0000
0010
1000
0000
0000
1001
0000
0000
,
0001
0000
0001
0010
0000
0010
0100
0000
0100
1000
0000
0000
,
1010
0000
0101
0000
2002
0000
0000
3003
,
1001
0000
0001
0100
0000
0100
0010
0000
0010
1000
0000
1000
,
0001
0000
0010
0100
0000
1000
0010
0000
0000
0110
0000
0000
,
0001
0000
0001
0100
0000
0100
1000
0000
1000
0100
0000
0100
,
0001
0000
1000
0001
0000
1000
0001
0000
0000
MMMM
0000
0000
,
0002
0010
0023
0100
,
0230
0000
1000
0000
2300
0000
0001
3002
,
0103
0000
0100
0010
0000
0010
1000
0000
1000
0001
0000
0001
,
0010
0000
0010
0100
0000
0100
1000
0001
1000
1001
0000
0000
,
1100
1000
1000
1000
,
0001
0000
0000
0001
0000
0000
0001
0000
0000
0001
0000
0100
,
0010
0010
0010
0010
,
0100
0000
0000
0100
0000
0101
0000
0000
0101
0000
0000
0001
,
1000
1100
0001
0011
,
1000
1010
0001
0101
,
1100
0000
0010
0001
0000
0000
0101
0000
0010
1000
0000
0000
,
2002
0000
0000
0000
0000
0000
0003
0000
0000
3000
0000
0000
0001
0000
0000
0000
0100
0000
0001
0000
0000
0000
1000
0000
,
0001
0000
0010
0001
0000
0000
1000
0000
0100
1000
0000
0001
,
1000
0000
0010
0100
0000
0000
0001
0000
1000
0100
0000
0010
,
0001
0000
1000
0010
0000
0000
0100
0000
0001
0010
0000
0100
,
1000
0000
0001
0100
0000
0000
1001
0000
0001
0010
0000
0010
,
0100
0000
0100
1000
0000
0000
0001
0100
0001
0100
0000
0000
,
0010
1000
0010
1000
0000
0000
0001
0010
0000
0010
0100
0000
,
0100
0000
1000
0000
0000
0000
1000
0000
0001
0000
0000
0000
2002
0000
0000
0000
0000
0000
0000
0000
0000
3003
0000
0000
,
1000
0000
0010
1000
0000
0001
1000
0000
0100
0010
0000
0000
,
0001
0000
1000
0001
0000
0100
0001
0000
1000
0100
0000
0000
,
0010
0000
0100
1000
0000
0001
0100
0000
0001
1000
0000
0000
,
0100
0000
0000
0010
0000
0011
0000
0000
0000
1000
0000
0001
,
1000
0000
0001
0010
0000
0100
0010
0000
0001
1000
0000
0000
,
0010
0000
0100
0001
0000
0100
0010
0000
1000
0001
0000
0000
,
0110
0000
1000
0001
0000
0000
0110
0000
0001
1000
0000
0000
,
0100
0000
0100
0010
0000
0010
0001
1000
0001
1000
0000
0000
,
1001
0000
0000
0000
,
0000
0000
1000
1000
,
0001
0000
0010
0001
0000
0010
0100
0000
1000
0001
0000
1000
,
0010
0000
0000
0100
0000
0101
0000
0000
0000
MMMM
0000
0000
,
1000
0001
1000
0001
0000
0000
0010
0000
0000
0100
0000
0010
,
0001
0000
0000
1001
0000
0100
1000
0000
0001
1000
0000
0100
,
0010
0000
0001
1000
0000
0001
0100
0000
0010
1000
0000
0000
,
0001
0000
0000
0001
0000
0000
0010
0100
1000
0001
0000
0000
,
2002
3003
0000
0000
;

//--------------- dance-single - Fred-104 ----------------
#NOTEDATA:;
#STEPSTYPE:dance-single;
#DESCRIPTION:Fred-104;
#DIFFICULTY:Hard;
#METER:16;
#DISPLAYBPM:77.5:155;
#BPMS:0=155,32=77.5,35.5=155,67=310,67.5=155,67.750=77.5,68=155,114=310,115=155,115.5=77.5,116=155,132=77.5,147=155,176=77.5,178=155,206=77.5,207.5=155;
#STOPS:35.5=0.194,147=0.387,207.5=0.193;
#TIMESIGNATURES:0=4=4,176=2=4,178=4=4,206=2=4,208=4=4;
#CREDIT:Fred-104;
#NOTES:
0000
0000
0000
0000
,
0000
0000
0000
0000
,
0000
0000
0000
0000
,
0000
0000
0000
0000
,
0000
0000
0000
0000
,
0000
0000
0000
0000
,
1000
0100
1000
0100
0010
0001
1000
0010
1000
0010
0100
0001
,
1000
0100
1000
0100
0000
0000
0010
0001
0010
0001
0000
0000
1000
0010
1000
0010
0000
0000
0100
0001
0100
0001
0000
0000
,
2002
0000
0000
0000
0000
0000
3003
0000
0000
MMMM
0000
0000
0001
0000
1000
0001
0000
1000
0001
0000
0000
2002
3003
0000
,
1000
0010
1000
0010
0100
0010
1000
0010
1000
0001
0010
0100
,
0010
0000
0000
0000
0001
1000
0001
0000
1000
0000
0010
0100
0010
0000
0000
0000
0010
0000
1000
0000
0000
0000
1000
0000
,
0001
0010
0001
0010
0100
0010
0001
0010
0001
1000
0010
0100
,
0010
0000
0000
0000
1000
0001
1000
0000
0100
0000
0010
0100
0010
0000
0100
0000
1000
0000
1001
0000
0000
0000
0000
0000
,
1000
0010
1000
0001
0100
0010
1000
0001
1000
0100
0010
0001
,
1000
0100
0001
1000
0010
0001
1000
0100
0010
0001
0000
0001
,
1001
0000
1000
1010
0000
0001
0101
0000
1000
1100
0000
0001
,
0011
0000
0010
0100
0010
0100
1000
0100
0010
0002
0000
0000
,
1003
0001
1000
0010
0100
0010
1000
0001
0010
0100
1000
0100
,
1000
0001
1000
0001
0100
0001
0010
0100
1000
0001
0001
0001
,
1000
0001
1000
0100
0010
0001
0100
0010
1000
0001
0010
0001
,
1000
0010
0100
0001
0100
0010
1000
1000
0010
0001
0001
0010
,
1000
0001
0100
0010
0001
0010
0100
0010
1000
0001
0010
0001
,
1000
0100
0010
0100
0001
0100
0010
0001
1000
0010
0000
0010
,
0100
0100
0001
0010
0100
1000
0010
0010
0100
0001
1000
0001
,
0100
1000
0001
0010
0100
0001
1000
0000
0000
MMMM
0000
0000
,
1001
0000
0001
0100
0000
0100
1000
0000
1000
0100
0001
1000
,
0100
0000
0100
0001
0000
0001
1000
0000
1000
0010
0100
0010
,
0001
0000
0000
0000
0001
0000
1000
0000
0010
0000
1000
0000
0010
0000
0100
0000
0001
0000
1000
0000
0000
0000
0100
0010
,
0100
0000
0000
0000
1000
0000
1100
0000
0000
0000
0001
0000
2002
0000
0000
0000
0000
0000
0000
0000
0000
3003
0000
0000
,
1000
0001
0100
1000
0001
0010
1000
0001
0010
0100
1000
0001
,
0100
0000
0010
1010
0000
0100
0101
0000
1000
1001
0000
0001
,
0010
0000
0100
0000
1000
0000
0010
0000
0100
0000
0001
0000
1000
0001
1000
0000
0100
0000
0010
0000
0001
0000
1000
0000
,
0010
0100
1000
0001
0010
0100
0001
0000
0000
MMMM
0000
0000
,
1000
1000
1000
0100
0100
0100
0010
0010
0010
0001
0001
0001
,
1000
0000
0010
0000
1000
0000
0001
0000
0100
0000
0001
0000
1000
0000
0100
0000
1000
0000
0001
0010
0100
2000
0000
0000
,
3002
0010
0013
2000
0010
3010
0002
0100
0103
2000
0100
3100
,
0001
0000
0010
0000
0010
0000
0100
0000
1000
0000
1000
0000
0001
0000
0100
0000
0010
0000
2002
3003
0000
0000
0000
0000
,
1100
1000
0001
0001
,
0100
0000
0000
0100
0000
0000
0010
0000
0000
0010
0000
1000
,
0001
0001
0010
0010
,
0100
0000
0000
0100
0000
1100
0000
0000
0011
0000
0001
1000
,
0001
0100
0001
0100
0000
0100
0010
1000
0010
1000
0001
1000
,
0100
0010
0100
0010
0000
0010
0001
1000
0010
0100
0000
0100
,
0001
1000
0100
0001
0100
1000
0001
1000
0010
0001
0010
1000
,
2002
0000
0000
3003
0000
0000
MMMM
0000
0000
MMMM
0000
0000
1001
0000
0000
0000
1000
0000
0100
0000
0010
0000
0100
0000
,
0010
0001
0100
0010
1000
0001
0010
0000
0010
0001
0100
0010
,
1000
0001
0100
0001
0010
0100
1000
0001
1000
0010
0100
0010
,
0100
0001
1000
0100
0010
0001
1000
0000
1000
0010
0100
0010
,
1000
0000
1000
0100
0010
0100
1000
0000
1000
0010
0100
0001
,
1000
0100
0010
0100
1000
0001
0100
0010
1000
0100
0010
0001
,
0010
0000
0100
0000
1000
0000
0010
0000
0100
0000
0001
0000
1000
0100
1000
0100
0000
0000
0010
0001
0010
0001
0000
0000
,
1000
0010
1000
0010
0000
0000
0100
0001
0100
0001
0000
0000
1001
0000
1000
0100
0010
0001
0100
0010
0100
0220
0330
0000
,
1000
0100
0010
1000
0010
0100
0010
0001
1000
0010
0100
0001
,
1000
0001
0100
0010
0100
1000
0100
0001
1000
0100
0100
0100
,
1000
0001
0010
0100
0001
0100
0010
0001
1000
0010
0100
0001
,
1001
0000
1000
1010
0000
0101
0000
0000
0001
1000
0000
0001
,
1000
0010
0100
1000
0100
0010
0100
0001
1000
0100
0010
0100
,
0010
0001
1000
0100
0010
1000
0010
0001
1000
0010
0100
0010
,
1010
0000
1000
0001
0010
0100
1100
0000
1000
0001
0100
0010
,
1010
0000
0000
0000
1000
0000
0001
0000
0000
0000
1000
0100
1000
0000
0100
0000
0010
0000
0001
0000
0000
0000
0000
0000
,
1001
MMMM
MMMM
MMMM
,
MMMM
0000
0000
0000
0000
0000
MMMM
0000
0000
0000
0000
0000
1000
0001
1000
0001
1000
0001
0100
0000
0010
0000
1000
0000
,
0001
0000
1000
0010
1000
0001
0100
0010
1000
0001
0010
0100
,
1100
0000
0001
0101
0000
1001
0000
0000
0000
MMMM
0000
0000
,
0001
0001
0001
1000
0000
0010
1000
0001
1000
0100
0010
0001
,
0011
0000
0000
0000
0000
0000
1001
0000
0000
0000
1000
0000
1010
0000
0000
0000
0001
1000
0001
0000
0100
0000
0010
0000
,
1000
0000
0000
0000
0001
0000
0011
0000
0010
0000
0100
0000
1000
0000
0000
0000
0001
1000
0001
0000
0000
0000
0000
0000
,
1000
0010
0100
1000
0001
0010
0100
0001
0010
0110
0000
0000
,
1001
MMMM
0000
0000
;

//--------------- dance-double - Fred-104 ----------------
#NOTEDATA:;
#STEPSTYPE:dance-double;
#DESCRIPTION:Fred-104;
#DIFFICULTY:Easy;
#METER:9;
#CREDIT:Fred-104;
#NOTES:
00000000
00000000
00000000
00000000
,
00000000
00000000
00000000
00000000
,
00000000
00000000
00000000
00000000
,
00000000
00000000
00000000
00000000
,
00000000
00000000
00000000
00000000
,
00000000
00000000
00000000
00000000
,
00001000
00010000
00000100
00001000
,
00001001
00001010
00010010
00101000
,
00022000
00000000
00000000
00033000
,
00001000
00001000
00022000
00033000
,
00001000
00010000
00100000
10000000
,
01000000
00100000
01000000
00010000
,
00001000
00010000
00000010
00000100
,
00000001
00001000
00002002
00003003
,
00000002
00000010
00000023
00001030
,
00020000
00001000
00032000
00013000
,
00001010
00110000
00001010
00110000
,
00001000
00010000
00022000
00033000
,
00011000
00010000
00001000
00000010
,
00000100
00000001
00000100
00001000
,
00000010
00000100
00001000
00010000
,
00100000
10000000
01100000
10010000
,
11000000
00100000
00001000
00010000
,
00010010
00000010
00000100
00000001
,
00001100
00000001
00000101
00001000
,
00000011
00001010
00022000
00033000
,
00001000
00010000
01000000
10000000
,
00010000
01000000
00100000
00020000
,
00031000
00010000
00000100
00000010
,
00000011
00001010
00000202
00000303
,
00001001
00000001
00000010
00001000
,
00011000
00001010
00011000
00110000
,
00011000
00000010
00011000
01000000
,
00001000
00010000
00022000
00033000
,
00002000
00000000
00023000
00000000
,
00030200
00000000
00000320
00000000
,
00002030
00000000
00023000
00000000
,
00032000
00000000
01003000
00001000
,
00010000
00000000
00000000
00000000
00010000
00000000
00001000
00000000
00000000
00000000
00001000
00000000
,
00000100
00000000
00000000
00000000
00000100
00000000
00000001
00000000
00000000
00000000
00000001
00000000
,
00000010
00000000
00000000
00000000
00000010
00000000
00001000
00000000
00000000
00000000
00001000
00000000
,
00010000
00000000
00010000
00000000
00010000
00000000
00011000
00000000
00000000
00000000
00000000
00000000
,
00011000
00001000
01000000
01000000
,
00100000
00100000
10000000
01000000
,
00100000
00100000
00001000
00001000
,
00011000
00000000
00000000
00010000
00000000
00010100
00000000
00000000
00010100
00000000
00000000
00000000
,
00001001
00000001
00000100
00001000
,
00011000
00001000
01000000
00100000
,
10010000
01000000
10010000
00100000
,
20020000
00000000
30000000
00030000
,
10000000
01000000
00010000
01000000
,
10000000
00010000
01000000
00001000
,
00010000
00000100
00000001
00000100
,
00000010
00000001
00002002
00003003
,
00000001
00001000
00000010
00000100
,
00001000
00010000
00001000
00010000
,
00001100
01010000
00001100
01010000
,
00022000
00000000
00000000
00033000
,
00010100
00010000
00001000
00100000
,
00110000
00010000
10000000
00100000
,
00110000
00010000
00001000
00000100
,
00000101
00000000
00000000
00001001
00000000
00001001
00000000
00000000
00000000
00000110
00000000
00000000
,
00001001
00000001
00000010
00001000
,
00011000
00010000
00000100
00010000
,
00011000
01000000
10010000
00100000
,
01100000
01100000
10010000
01100000
,
10010000
00000000
00000000
00000000
,
00000000
00000000
10000000
10000000
,
10100000
00100000
00110000
00010000
,
00011000
00000000
00000000
00010100
00000000
00010100
00000000
00000000
00000000
00001001
00000000
00000000
,
00000110
00000110
00001001
00000001
,
00001100
00000001
00001010
00000001
,
00000110
00001000
00010100
00010000
,
00011000
00000000
00000000
01001000
00000000
00000000
00001000
00010000
00001000
00010000
00000000
00000000
,
00022000
00033000
00000000
00000000
;

//--------------- dance-double - Fred-104 ----------------
#NOTEDATA:;
#STEPSTYPE:dance-double;
#DESCRIPTION:Fred-104;
#DIFFICULTY:Medium;
#METER:12;
#DISPLAYBPM:77.5:155;
#BPMS:0=155,32=77.5,35.5=155,67=310,67.5=155,67.750=77.5,68=155,114=310,115=155,115.5=77.5,116=155,132=77.5,147=155,176=77.5,178=155,206=77.5,207.5=155;
#STOPS:35.5=0.194,147=0.387,207.5=0.193;
#TIMESIGNATURES:0=4=4,176=2=4,178=4=4,206=2=4,208=4=4;
#CREDIT:Fred-104;
#NOTES:
00000000
00000000
00000000
00000000
,
00000000
00000000
00000000
00000000
,
00000000
00000000
00000000
00000000
,
00000000
00000000
00000000
00000000
,
00000000
00000000
00000000
00000000
,
00000000
00000000
00000000
00000000
,
00001000
00000000
00001000
00010000
00000000
00010000
00000010
00000000
00000010
00010000
00000000
00000000
,
00011000
00010100
00001001
00000110
,
00002002
00000000
00000000
00003003
00000001
00000010
00001000
MMMMMMMM
,
00010000
00000000
00000000
00001000
00000000
00000000
01000000
00000000
00000000
00010000
10000000
00010000
,
10000000
01000000
00000000
01000000
00100000
00000000
00100000
00001000
00000000
00011000
00000000
00000000
,
00010000
00000000
00000000
00000100
00000000
00000000
00000010
00000000
00000000
00000100
00001000
00000100
,
00001000
00000001
00000000
00000001
00000100
00000000
00000100
00001000
00000000
00011000
00000000
00000000
,
00020000
00000000
00000000
00001000
00000000
00000000
00032000
00000000
00000000
01003000
00010000
01000000
,
00020000
00100000
00130000
00001000
,
00011000
00001100
00011000
01010000
,
00011000
00000000
00010000
00001000
00000000
00001000
00010000
00000000
00000000
MMMMMMMM
00000000
00000000
,
00012000
00000000
00000000
01003000
00000000
00000000
00010000
00000000
00010000
10000000
01000000
10000000
,
02000000
00000000
00000000
03100000
00000000
00000000
00001000
00000000
00001000
00010000
00000100
00000010
,
00000200
00000000
00000000
00001300
00000000
00000000
00000001
00000000
00000001
00000100
00000010
00000100
,
00000010
00000100
00001000
00010000
00001000
00010000
00001000
00000000
00000000
00011000
00000000
00000000
,
00101000
00000000
00001000
00010000
00000000
00001000
01000000
00000000
00001000
00010000
00000000
00000000
,
00010010
00000000
00010000
00001000
00000000
00010000
00000100
00000000
00010000
00001000
00000000
00000000
,
00011000
00000000
00000010
00010000
00000000
00000000
00011000
00000000
00100000
00001000
00000000
00000000
,
00010000
00000000
00010000
00001000
00000000
00001000
00010000
00000000
00000000
MMMMMMMM
00000000
00000000
,
00011000
00000000
00000000
00001000
00000000
00000000
00100000
00010000
10000000
00010000
00000000
00000000
,
01000000
00000000
00000000
00010000
00000000
00000000
10000000
01000000
10000000
01000000
00000000
00000000
,
00100000
00000000
00000000
00001000
00000000
00000000
00010000
00000100
00010000
00000100
00000000
00000000
,
00010100
00000000
01001000
00000000
00022000
00000000
00000000
00033000
,
00010000
00000000
00000000
00001000
00000000
00000000
00000100
00000001
00000100
00000001
00000000
00000000
,
00000010
00000000
00000010
00000100
00000000
00000100
00010000
00000000
00000000
00011000
00000000
00000000
,
00001000
00000000
00001000
00010000
00000000
00010000
01000000
00000000
01000000
00010000
00000000
00010000
,
00001000
00000000
00010000
00001000
00000000
00010000
00001000
00000000
00000000
MMMMMMMM
00000000
00000000
,
00001000
00010000
00100000
10000000
,
01000000
00000000
00010000
00000000
00001000
00000000
00000010
00000001
,
00001000
00000000
00001000
00000001
00000000
00000001
00000100
00000000
00000100
00001000
00000000
00001000
,
00010000
00010000
00010000
00100000
00100000
00100000
10000000
01000000
00100000
01100000
00000000
00000000
,
10010000
00010000
10000000
10000000
,
01000000
00000000
00000000
01000000
00000000
00000000
00010000
00000000
00000000
00010000
00000000
00001000
,
00000100
00000100
00000001
00000001
,
00000010
00000000
00000000
00000010
00000000
00000110
00000000
00000000
00000110
00000000
00000000
00010000
,
00001000
00101000
00010000
00010010
,
00001000
01001000
00010000
00010100
,
00011000
00000000
00000100
00010000
00000000
00000000
00011000
00000000
01000000
00001000
00000000
00000000
,
00022000
00000000
00000000
00000000
00000000
00000000
00003000
00000000
00000000
00030000
00000000
00000000
00001000
00000000
00000000
00000000
00010000
00000000
00000100
00000000
00000000
00000000
00000010
00000000
,
00000100
00000000
00000010
00000001
00000000
00000000
00001000
00000000
00000001
00000100
00000000
00000010
,
00010000
00000000
00001000
00100000
00000000
00000000
00010000
00000000
10000000
00100000
00000000
01000000
,
00010000
00000000
10000000
01000000
00000000
00000000
00100000
00000000
00001000
00010000
00000000
00001000
,
00000100
00000000
00000001
00000010
00000000
00000000
00000110
00000000
00000100
00001000
00000000
00001000
,
00000001
00000000
00000001
00000100
00000000
00000000
00000010
00001000
00000010
00001000
00000000
00000000
,
00000100
00010000
00000100
00010000
00000000
00000000
00001000
01000000
00000000
01000000
00100000
00000000
,
00100000
00000000
10000000
00000000
00000000
00000000
10000000
00000000
01000000
00000000
00000000
00000000
02200000
00000000
00000000
00000000
00000000
00000000
00000000
00000000
00000000
03300000
00000000
00000000
,
00011000
00000000
00010000
00001000
00000000
00001000
00000010
00000000
00000010
00000100
00000000
00000100
,
00001000
00000000
00001000
00000001
00000000
00000001
00000100
00000000
00000100
00000010
00000000
00000000
,
00001000
00000000
00001000
00000001
00000000
00000001
00000010
00000000
00000010
00001000
00000000
00001000
,
00010000
00000000
00000000
00001000
00000000
00011000
00000000
00000000
00000000
00001000
00000000
00001000
,
01000000
00000000
00010000
01000000
00000000
00100000
01000000
00000000
00010000
10000000
00000000
00000000
,
01000000
00000000
00100000
00001000
00000000
00010000
00000100
00000000
00001000
00000001
00000000
00000000
,
00000110
00000000
00001000
00000001
00000000
00000000
00000110
00000000
00000001
00001000
00000000
00000000
,
00000001
00000000
00000001
00001000
00000000
00001000
00000100
00000000
00000100
00000010
00000000
00000000
,
00001001
00000000
00000000
00000000
,
00000000
00000000
00001000
00001000
,
00000010
00000000
00010000
00000010
00000000
00010000
00001000
00000000
00100000
00010000
00000000
10000000
,
00010000
00000000
00000000
00100000
00000000
01100000
00000000
00000000
00000000
MMMMMMMM
00000000
00000000
,
10000000
00010000
10000000
00010000
00000000
00000000
00100000
00000000
00000000
01000000
00000000
00010000
,
00001000
00000000
00000000
00011000
00000000
00010000
00000100
00000000
00001000
00000001
00000000
00001000
,
00000100
00000000
00000010
00000001
00000000
00001000
00000010
00000000
00000100
00001000
00000000
00000000
,
00010000
00000000
00000000
00100000
00000000
00000000
01000000
00010000
10000000
00010000
00000000
00000000
,
20020000
3003MMMM
00000000
00000000
;

//--------------- dance-double - Fred-104 ----------------
#NOTEDATA:;
#STEPSTYPE:dance-double;
#DESCRIPTION:Fred-104;
#DIFFICULTY:Hard;
#METER:16;
#DISPLAYBPM:77.5:155;
#BPMS:0=155,32=77.5,35.5=155,67=310,67.5=155,67.750=77.5,68=155,114=310,115=155,115.5=77.5,116=155,132=77.5,147=155,176=77.5,178=155,206=77.5,207.5=155;
#STOPS:35.5=0.194,147=0.387,207.5=0.193;
#TIMESIGNATURES:0=4=4,176=2=4,178=4=4,206=2=4,208=4=4;
#CREDIT:Fred-104;
#NOTES:
00000000
00000000
00000000
00000000
,
00000000
00000000
00000000
00000000
,
00000000
00000000
00000000
00000000
,
00000000
00000000
00000000
00000000
,
00000000
00000000
00000000
00000000
,
00000000
00000000
00000000
00000000
,
00010000
00001000
00010000
00000010
00001000
00000001
00000010
00000100
00001000
00000100
00010000
00001000
,
01000000
00010000
01000000
00010000
00000000
00000000
10000000
00010000
10000000
00010000
00000000
00000000
00100000
01000000
00100000
01000000
00000000
00000000
10000000
00010000
10000000
00010000
00000000
00000000
,
02200000
00000000
00000000
0000MMMM
00000000
00000000
0330MMMM
00000000
00000000
MMMMMMMM
00000000
00000000
10000000
00000000
10000000
00100000
00000000
00100000
00010000
00000000
00000000
00022000
00033000
00000000
,
00010000
00001000
00010000
00000100
00001000
00000100
00010000
00001000
00010000
00000010
00001000
00000100
,
00000010
00000000
00000000
00000000
00000001
00001000
00000001
00000000
00000100
00000000
00000010
00001000
00000010
00000000
00000000
00000000
00000010
00000000
00010000
00000000
00000000
00000000
00010000
00000000
,
00001000
01000000
00010000
01000000
00100000
10000000
01000000
00100000
00010000
00100000
00001000
00010000
,
00001000
00000000
00000000
00000000
00010000
00000100
00010000
00000000
00001000
00000000
00100000
00010000
00100000
00000000
00001000
00000000
00010000
00000000
00011000
00000000
00000000
00000000
00000000
00000000
,
00010000
00001000
00000100
00000010
00000001
00000010
00001000
00000001
00000010
00000100
00001000
00000001
,
00000100
00001000
00000001
00000010
00000100
00000001
00000010
00001000
00010000
00001000
00000000
00010000
,
00011000
00000000
00001000
00101000
00000000
00010000
10010000
00000000
01000000
01100000
00000000
10000000
,
10010000
00000000
00010000
10000000
00000000
10000000
01000000
00010000
00001000
00000200
00000000
00000000
,
00000301
00001000
00000001
00000010
00000100
00001000
00000100
00010000
00001000
01000000
00010000
01000000
,
00100000
10000000
00010000
10000000
00100000
01000000
00010000
00100000
01000000
00010000
00001000
00010000
,
00001000
00010000
00000100
00001000
00000100
00000010
00000001
00001000
00000010
00000100
00000001
00000010
,
00000001
00001000
00000010
00000100
00001000
00010000
00001000
00001000
01000000
00010000
00010000
10000000
,
00010000
00010000
10000000
01000000
00100000
00001000
00010000
00000010
00001000
00000001
00000010
00000100
,
00001000
00001000
00000001
00000100
00000010
00000100
00001000
00010000
00001000
00000010
00000000
00000010
,
00000001
00000001
00000010
00000100
00010000
00001000
00100000
00100000
00010000
10000000
00100000
01000000
,
00010000
00100000
01000000
00010000
00001000
00000010
00000100
00000000
00000000
MMMMMMMM
00000000
00000000
,
00001001
00000000
00000001
00000100
00000000
00000100
00001000
00000000
00001000
00010000
00001000
00010000
,
00100000
00000000
00100000
10000000
00000000
10000000
00010000
00000000
00010000
10000000
01000000
00010000
,
00001000
00000000
00000000
00000000
00001000
00000000
00010000
00000000
00000100
00000000
00010000
00000000
00001000
00000000
00010000
00000000
00000010
00000000
00001000
00000000
00000000
00000000
00000001
00001000
,
00000001
00000000
00000000
00000000
00000010
00000000
00000110
00000000
00000000
00000000
00001000
00000000
00002002
00000000
00000000
00000000
00000000
00000000
00000000
00000000
00000000
MMMM3003
00000000
00000000
,
00001000
00000100
00000010
00000001
00000010
00000100
00010000
00001000
00000100
00000010
00000100
00001000
,
00010000
00000000
00001000
00101000
00000000
00010000
00010010
00000000
00001000
00011000
00000000
00010000
,
00001000
00000000
01000000
00000000
00010000
00000000
10000000
00000000
00010000
00000000
01000000
00000000
00100000
10000000
00100000
00000000
10000000
00000000
00010000
00000000
00100000
00000000
01000000
00000000
,
00010000
00001000
00000010
00000100
00001000
00000010
00000100
00000000
00000000
MMMMMMMM
00000000
00000000
,
00000001
00000001
00000001
00000010
00000010
00000010
00000100
00000100
00000100
00010000
00010000
00010000
,
00001000
00000000
00100000
00000000
00010000
00000000
10000000
00000000
00100000
00000000
01000000
00000000
00010000
00000000
10000000
00000000
01000000
00000000
00010000
00001000
00010000
00001000
00000000
00000000
,
00010000
00001000
00001000
00000100
00000001
00000001
00000010
00000100
00000100
00010000
00001000
00001000
,
00100000
00000000
01000000
00000000
01000000
00000000
00010000
00000000
01000000
00000000
01000000
00000000
10000000
00000000
00100000
00000000
00010000
00000000
00022000
00033000
00000000
00000000
00000000
00000000
,
00011000
00010000
00000100
00000100
,
00000010
00000000
00000000
00000010
00000000
00000000
00000001
00000000
00000000
00000001
00000000
00001000
,
00000010
00000010
00000100
00000100
,
00001000
00000000
00000000
00001000
00000000
00011000
00000000
00000000
01001000
00000000
00000000
01000000
,
00010000
10000000
00010000
10000000
00000000
10000000
01000000
00100000
00010000
00100000
00001000
00010000
,
00000010
00001000
00000010
00001000
00000000
00001000
00000100
00000010
00000001
00000010
00000000
00000010
,
00000001
00000100
00001000
00000100
00000001
00001000
00000001
00000010
00001000
00000010
00000001
00001000
,
00002002
00000000
00000000
00000000
00000000
00000000
MMMM3000
00000000
00000000
MMMM0003
00000000
00000000
00001001
00000000
00000000
00000000
00000001
00000000
00000010
00000000
00000100
00000000
00001000
00000000
,
00000100
00010000
00001000
01000000
00010000
00100000
01000000
00000000
01000000
00100000
00010000
10000000
,
00100000
01000000
00010000
00100000
01000000
00010000
00001000
00010000
00000100
00010000
00000000
00010000
,
00001000
00010000
00000010
00001000
00000100
00000010
00000001
00000000
00000100
00000010
00001000
00000010
,
00001000
00000000
00001000
00000001
00000010
00000001
00000010
00000000
00000010
00000100
00000010
00001000
,
00010000
00001000
01000000
00010000
00100000
00001000
00010000
00001000
00000100
00000010
00000100
00001000
,
00010000
00000000
00001000
00000000
00000010
00000000
00000100
00000000
00000010
00000000
00001000
00000000
00010000
00001000
00010000
00001000
00000000
00000000
01000000
00010000
01000000
00010000
00000000
00000000
,
10000000
00010000
10000000
00010000
00000000
00000000
00100000
01000000
00100000
01000000
00000000
00000000
10010000
00000000
10000000
01000000
00010000
00001000
00000010
00000001
00001000
00002002
00003003
00000000
,
00000001
00000100
00000010
00001000
00000100
00010000
00001000
00100000
00010000
01000000
00100000
10000000
,
00010000
00100000
01000000
10000000
01000000
00100000
00010000
10000000
00100000
01000000
01000000
01000000
,
00010000
10000000
01000000
00100000
00010000
01000000
00001000
00010000
00000010
00001000
00000100
00000010
,
00000011
00000000
00000001
00000101
00000000
00001010
00000000
00000000
00000001
00001000
00000000
00001000
,
00000001
00000010
00000100
00001000
00000010
00010000
00001000
01000000
00010000
00100000
01000000
10000000
,
00010000
01000000
00100000
00010000
10000000
01000000
00010000
10000000
01000000
00010000
10000000
00100000
,
00110000
00000000
00010000
10000000
01000000
00010000
00011000
00000000
00001000
00010000
00000100
00001000
,
00001001
00000000
00000000
00000000
00000001
00000000
00000010
00000000
00000000
00000000
00000010
00000100
00000010
00000000
00000100
00000000
00010000
00000000
00001000
00000000
00000000
00000000
00000000
00000000
,
00011000
MMMMMMMM
MMMMMMMM
MMMMMMMM
,
MMMMMMMM
00000000
00000000
00000000
00000000
00000000
MMMMMMMM
00000000
00000000
00000000
00000000
00000000
00010000
00001000
00010000
00001000
00010000
00001000
00010000
00000000
00001000
00000000
01000000
00000000
,
00100000
00000000
10000000
00010000
10000000
01000000
00100000
00010000
01000000
00100000
00010000
00001000
,
00011000
00000000
00010000
00010010
00000000
00001010
00000000
00000000
00000000
MMMMMMMM
00000000
00000000
,
00001000
00001000
00001000
00000100
00000000
00000100
00000010
00000000
00000010
00000001
00001000
00000010
,
00000110
00000000
00000000
00000000
00000000
00000000
00000101
00000000
00000000
00000000
00000001
00000000
00001001
00000000
00000000
00000000
00001000
00000001
00001000
00000000
00000100
00000000
00010000
00000000
,
00001000
00000000
00000000
00000000
00001000
00000000
00011000
00000000
00010000
00000000
00001000
00000000
01000000
00000000
00000000
00000000
00010000
10000000
00010000
00000000
00000000
00000000
00000000
00000000
,
01000000
00010000
00100000
01000000
00010000
00001000
00000010
00000100
00001000
00000010
00000000
00000000
,
00002002
MMMM3003
00000000
00000000
;
