#TITLE:Initiation;
#ARTIST:BEMANI Sound Team "謎の勢力";
#ARTISTTRANSLIT:Nazo no seiryoku;
#GENRE:00s TECHNO;
#BANNER:Initiation.png;
#BACKGROUND:Initiation-bg.png;
#CDTITLE:./CDTitles/bm IIDX 25 CANNON BALLERS.png;
#MUSIC:Initiation.ogg;
#SAMPLESTART:98.979;
#SAMPLELENGTH:15;
#BPMS:0=160,187=120,190=80,224=160;
#STOPS:36=0.75,126=0.188,126.5=0.187,129=0.75;
#TIMESIGNATURES:0=4=4,24=6=4,30=4=4,34=2=4,38=4=4,126=3=4,129=2=4,131=4=4,187=3=4,190=2=4,192=4=4;

//--------------- dance-single - Fred-104 ----------------
#NOTES:
     dance-single:
     Fred-104:
     Beginner:
     3:
     :
0000
0000
0000
0000
,
0000
0000
0000
0000
,
0000
0000
0000
0000
,
0000
0000
0000
0000
,
0000
0000
0000
0000
,
1000
0000
0000
0000
,
0001
0000
0000
1000
,
0000
0000
0002
0000
,
0000
0000
0000
0000
,
0003
0000
1000
0000
,
0000
0000
0010
0000
,
0000
0000
1000
0000
,
0000
0000
0100
0000
,
1000
1000
1000
0000
,
0000
0000
0001
0000
,
0000
0000
0100
0000
,
0000
0000
0001
0000
,
0010
0010
0010
0000
,
0000
0000
0001
0000
,
0000
0000
1000
0000
,
0000
0000
0010
0000
,
0100
0100
0100
0000
,
0000
0000
0001
0000
,
0000
0000
1000
0000
,
0000
0000
0001
0000
,
1000
1000
2000
0000
,
0000
0000
3000
0000
,
0000
0000
0002
0000
,
0000
0000
0003
0000
,
0000
0000
1000
0000
,
0001
0000
1000
0000
,
0010
0000
2000
0000
,
0000
3000
0000
0001
,
0000
0001
0000
0001
,
0000
0000
0000
1000
,
0000
0010
0000
0100
,
0000
0001
0001
0001
,
0000
1000
0000
0010
,
0000
0000
0000
0100
,
0000
0010
0000
1000
,
0000
1000
1000
1000
,
0000
0001
0000
1000
,
0000
0010
0000
1000
,
0000
0001
0000
1000
,
0000
0001
0001
0001
,
0000
0000
0000
1000
,
0000
0000
0000
0002
,
0000
0000
0003
0000
,
2000
0000
0000
3000
,
0002
0000
0000
0003
,
2000
0000
0000
3000
,
0002
0000
0000
0003
,
2000
0000
0000
3000
,
0200
0000
0000
0300
,
0020
0000
0000
0030
,
0002
0000
0000
0003
,
1000
0000
0010
0000
,
1000
0000
0001
0000
,
1000
0000
1000
0000
,
0001
0000
0100
0100
,
0100
0000
0001
0000
,
1000
0000
0100
0000
,
1000
0000
0010
0000
,
1000
0000
1000
1000
,
1000
0000
0001
0000
,
1000
0000
0010
0000
,
1000
0000
0100
0000
,
0010
0000
0001
0001
,
0001
0000
1000
0000
,
0001
0000
0100
0100
,
0100
0000
0001
0000
,
1000
0000
0010
0000
,
2002
0000
0000
0000
,
0000
0000
0000
0000
,
3003
0000
0000
0000
;

//--------------- dance-single - Fred-104 ----------------
#NOTES:
     dance-single:
     Fred-104:
     Easy:
     7:
     :
0000
0000
0000
0000
,
0000
0000
0000
0000
,
0000
0000
0000
0000
,
0000
0000
0000
0000
,
0000
0000
0000
0000
,
1000
0010
0100
0000
,
0001
1000
0001
0000
,
1000
0000
0000
0010
0000
0000
1000
0000
1000
0000
1000
0000
,
0001
0000
0001
0000
0001
0000
1000
0000
0001
0000
1000
0000
,
0001
0000
1000
0010
,
1000
0010
0100
0001
,
0100
0001
0010
0001
,
1000
0001
0100
0001
,
0100
0010
0100
0000
0001
0000
0010
0000
,
0001
0100
0001
0010
,
0001
0100
0010
1000
,
0100
0010
0001
1000
,
0001
1000
0001
0000
1000
0000
0010
0000
,
1000
0100
0010
0001
,
0100
0010
0100
0000
0001
0000
0010
0000
,
0001
1000
0001
0100
,
0001
1000
0001
0000
1001
0000
0000
0000
,
1000
0100
0110
0000
,
0001
0100
0110
0010
,
1000
1000
0002
0000
,
2000
3003
0002
0000
,
2003
0000
3010
1000
,
0100
0000
0020
0000
,
0032
0000
1003
0001
,
0100
0000
0001
0001
,
0100
0000
1000
1000
,
0100
0000
2002
0000
,
0000
3003
0000
1000
,
1000
1100
0000
0001
,
0001
0101
0000
1000
,
1000
1010
0000
0001
,
0001
0022
0033
1000
,
1001
1001
0000
0100
,
0110
0110
0000
0001
,
1001
1001
0000
0010
,
0110
0220
0330
1000
,
0010
1000
0100
0010
,
0010
0001
1000
0001
,
0100
0001
0010
0001
,
1000
0002
0003
1000
,
0100
0001
0000
1000
,
0010
0001
0000
1000
,
0000
0001
0000
0000
1000
0001
1000
0001
,
2000
3200
0320
0032
,
2003
3002
0203
0320
,
2030
3002
0023
0032
,
0203
0302
2003
3002
,
0203
0320
2030
3200
,
0320
0032
2003
3002
,
0203
0320
2030
3200
,
0320
0000
0032
0000
2003
0000
3001
1000
,
0001
0100
0010
1000
,
0100
0000
1000
0000
,
0001
1000
0100
0010
,
0100
0000
1000
0000
,
0001
0100
0010
1000
,
0100
0010
0001
0000
,
0100
0001
0100
0010
,
1000
0001
1000
0000
,
0001
0001
0100
0001
,
0100
0010
1000
0100
,
0010
0010
0001
1000
,
0001
0100
0010
1000
,
0001
0100
0010
1000
,
0100
0010
0001
1000
,
0001
0100
0010
1000
,
0001
0100
0001
0000
1000
0010
1000
0000
,
2002
0000
0000
0000
,
0000
0000
0000
0000
,
3003
0000
0000
0000
;

//--------------- dance-single - Fred-104 ----------------
#NOTES:
     dance-single:
     Fred-104:
     Medium:
     12:
     :
0000
0000
0000
0000
,
0000
0000
0000
0000
,
0000
0000
0000
0000
,
0000
0000
0000
0000
,
0000
0000
0000
0000
,
1000
0000
0000
1000
0100
0000
0010
0000
0001
0000
0000
0001
0100
0000
0010
0000
,
0100
0000
0000
0100
0001
0000
1000
0000
0001
0000
0000
0001
0010
0000
0100
0000
,
1000
0000
0000
0010
0000
0000
0100
0000
0000
0010
0000
0000
1000
0000
0000
0000
1000
0000
0000
0000
0100
0000
0000
0000
,
0001
0000
0001
0000
0100
0000
1000
0001
1000
0001
1000
0001
,
1000
0000
0000
0000
1000
1100
0000
1100
,
0000
1010
0000
1010
0000
0101
0000
0101
,
0000
0011
0000
0011
0000
1001
0000
1001
,
0000
0110
0000
0110
0000
1001
0000
1001
,
0000
0001
0100
0010
1000
0100
0000
1100
,
0000
1010
0000
1100
0000
1001
0000
0101
,
0000
0011
0000
0101
0000
1010
0000
1001
,
0000
0110
0000
1001
0000
1010
0000
0101
,
0000
0001
1000
0001
1000
0010
1000
0000
,
0100
0010
0001
1000
0001
0100
0010
0000
,
0100
0010
1000
0001
0010
0100
0010
0000
,
0001
1000
0100
0010
0001
0100
0010
0000
,
0001
0010
1000
0001
1000
0100
0010
0000
,
0001
1000
0001
0100
0010
1000
0001
0000
,
1000
0100
0010
0001
1000
0100
0001
0000
,
1000
0010
0001
0000
1000
0100
0010
0001
,
1000
0001
0010
0100
2000
0000
3020
0000
,
1030
0000
0000
0100
0000
0000
0020
0000
0000
0001
0030
0000
0010
0000
0001
0000
,
1000
0000
0000
0001
0000
0000
0100
0000
0020
0000
0000
0000
2030
0000
0000
0000
,
3100
0000
0000
1000
0000
0000
0002
0000
0000
0100
0003
0000
0010
0000
0100
0000
,
0001
0000
0000
1000
0000
0000
0001
0000
0100
0000
0010
0000
1000
0000
0010
0000
,
0100
0000
0000
0001
0000
0000
0010
0000
0001
0000
1000
0000
0001
0000
0100
0000
,
0010
0000
0000
1000
0000
0000
0100
0000
2200
3300
0022
0033
1000
0000
0000
0001
,
0000
0200
0300
0000
0000
0000
0001
0101
,
0000
0011
0000
0101
0000
1001
0000
1100
,
0000
1010
0000
1100
0000
0110
0000
0011
,
0000
1010
0000
0011
0000
1001
0000
1100
,
0000
0101
0000
1000
0010
0100
0001
0011
,
0000
1001
0000
0101
0000
1001
0000
1100
,
0000
1010
0000
0110
0000
0101
0000
1100
,
0000
0101
0000
1001
0000
0011
0000
1010
,
0000
0011
0000
0001
1000
0001
1000
0100
,
0010
0001
0100
0010
1000
0010
0100
0001
,
1000
0001
0010
0010
0010
0000
0001
0100
,
0010
0100
0001
0010
0100
1000
0001
0100
,
0010
1000
0100
0100
0100
0000
1000
0100
,
0001
0000
1000
0010
0001
0000
1000
0010
,
0001
0000
0000
0000
0000
0000
0000
0000
1000
0000
0000
0000
0100
0000
0000
0000
0001
0000
0000
0000
0000
0000
0000
0000
1000
0000
0000
0100
0000
0000
0010
0000
,
0000
0001
0000
0000
1000
0000
0000
0010
0000
0000
0100
0000
0000
0001
0000
0000
1000
0000
0001
0000
1000
0000
0001
0000
1000
0000
0001
0000
2000
0000
0000
0000
,
3002
0023
0230
2300
,
3002
0203
2300
3020
,
0032
2003
3200
0320
,
0032
2003
3020
0032
,
0023
0230
0302
0023
,
0230
2300
3002
0203
,
0320
0000
2030
3200
0302
0000
0203
2300
,
3002
0000
0203
0320
2030
3200
0320
0031
,
1000
0010
1000
0100
1000
0010
1000
0100
,
0010
0001
1000
0001
0100
0100
0100
0000
,
0001
0010
0100
0010
0001
1000
0001
0100
,
0010
0100
0001
1000
0010
0010
0010
0000
,
1000
0100
1000
0010
0100
0010
1000
0001
,
0100
0010
1000
0001
1000
1000
1000
0000
,
0001
0010
0100
1000
0001
0100
0010
1000
,
0100
0010
0100
0010
0001
0001
0001
0000
,
1000
0010
1000
0100
0010
0001
1000
0001
,
0100
0010
0100
0001
0010
0100
1000
0001
,
0100
0010
0100
1000
0100
0010
0100
0001
,
1000
0100
0001
0100
1000
0010
0100
0001
,
1000
1000
0010
0100
0001
0001
0010
0100
,
1000
1000
0001
0100
0001
0001
1000
0100
,
1000
0100
0010
0000
0001
0100
0010
0000
,
1000
0000
0100
0000
0010
0000
0001
0000
1000
0001
1000
0001
1000
0001
1000
0001
,
2000
0000
0000
0000
,
0000
0000
0000
0000
,
3000
0000
0000
0000
;

//--------------- dance-single - Fred-104 ----------------
#NOTES:
     dance-single:
     Fred-104:
     Hard:
     16:
     :
0000
0000
0000
0000
,
0000
0000
0000
0000
,
0000
0000
0000
0000
,
0000
0000
0000
0000
,
0000
0000
0000
0000
,
1000
0010
0000
0010
0100
0000
0001
0000
0010
0100
0000
0010
0001
0010
0001
0000
,
1000
0001
0000
0001
0100
0000
0010
0000
1000
0100
0000
0100
0010
0001
1000
0000
,
0001
0000
0000
0100
0000
0000
0000
0000
0000
0001
0000
0000
0010
0000
0000
0001
0000
0000
1000
0000
0000
0001
0000
0000
0010
0000
0000
0000
0000
0000
0000
0000
0001
0000
0000
0000
0000
0000
0000
0000
1000
0000
0000
0000
0100
0000
0000
0000
,
0010
0000
0001
0000
0010
0100
1000
0100
0001
0100
1000
0001
,
1000
0000
0000
0000
1000
0100
1000
0010
,
0100
0010
1000
0100
0010
0001
1000
0001
,
0100
0001
0010
0001
1000
0100
0010
0100
,
1000
0010
0100
0001
1000
0100
0010
0001
,
1000
0000
0000
0000
0000
0000
0000
0000
0001
0000
0000
0000
0000
0000
0000
0000
0200
0300
0000
0000
0000
0000
0000
0000
0200
0300
0000
0000
0000
0000
0000
0000
1000
0000
0000
0000
0010
0000
0000
0000
1000
0000
0000
0000
0000
0000
0000
0000
0100
0000
0000
0000
0000
0000
0000
0000
0010
0000
0000
0000
0000
0000
0000
0000
,
0001
1000
0001
0000
0100
0000
0010
0000
1000
0010
1000
0000
0001
0000
0100
0000
,
0001
0010
0001
0000
0010
0000
0100
0000
1000
0001
0100
0000
0010
0000
1000
0000
,
0100
0010
0001
0000
1000
0000
0001
0000
0010
0001
0100
0000
0001
0000
0100
0000
,
0001
0000
0000
0000
1000
0000
0000
0000
0010
0000
0000
0000
0000
0000
0000
0000
0200
0300
0000
0000
0000
0000
0000
0000
0200
0300
0000
0000
0000
0000
0000
0000
1000
0000
0000
0000
0010
0000
0000
0000
1000
0000
0000
0000
0000
0000
0000
0000
0010
0000
0000
0000
0100
0000
0000
0000
0010
0000
0000
0000
0100
0000
0000
0000
,
0010
0000
1000
0000
0100
0010
0001
0000
0100
0001
0100
0000
0001
0010
0001
0010
,
0100
0000
1000
0000
0001
1000
0010
0000
0100
0010
0100
0000
0010
1000
0010
1000
,
0001
0000
0100
0000
0001
0010
0100
0000
1000
0010
0100
0000
0010
1000
0100
1000
,
0001
0000
0000
0000
0100
0000
0000
0000
0001
0000
0000
0000
0000
0000
0000
0000
0020
0030
0000
0000
0000
0000
0000
0000
0020
0030
0000
0000
0000
0000
0000
0000
1000
0000
0000
0000
0010
0000
0000
0000
1000
0000
0000
0000
0000
0000
0000
0000
0001
0000
0000
0000
1000
0000
0000
0000
0001
0000
0000
0000
1000
0000
0000
0000
,
0100
0010
0100
0000
0010
0001
1000
0000
0010
1000
0100
0000
1000
0010
0100
0010
,
1000
0000
0100
0000
0010
0001
1000
0000
0001
0100
0001
0000
0100
0010
0100
0000
,
0010
1000
0010
0000
1000
0001
1000
0000
0001
0100
0001
0100
0010
1000
0010
1000
,
0001
1000
0001
1000
0100
0010
0001
1000
0002
0000
0000
0000
0100
0000
0000
0103
,
0010
1000
0000
0100
0000
0010
0100
0000
0000
1000
0001
0000
0100
0000
0010
0000
,
0100
0000
0000
0001
0000
0010
0100
0000
2000
0000
0000
0000
0010
0000
0000
3100
,
0010
1000
0000
0100
0000
0010
0001
0000
0000
0100
0010
1000
0010
0100
0001
0000
,
1000
0000
0001
0100
0000
0100
0010
0000
1000
0000
0010
0000
0100
0000
0010
0000
,
1000
0100
0010
0001
0100
0001
0100
0000
0001
0010
0001
0100
0001
0010
0001
0000
,
1000
0000
0000
0000
0000
0000
0000
0000
0000
0000
0000
0000
0000
0000
0000
0000
0000
0000
0000
0000
0000
0000
0000
0000
0010
0000
0000
0000
0000
0000
0000
0000
0000
0000
0000
0000
0100
0000
0000
0000
0000
0000
0000
0000
0000
0000
0000
0000
0000
0000
0000
0000
0000
0000
0000
0000
0000
0000
0000
0000
0001
0000
0000
0000
0000
0000
0000
0000
0000
0000
0000
0000
0100
0000
0000
0000
0000
0000
0000
0000
0000
0000
0000
0000
0000
0000
0000
0000
0000
0000
0000
0000
0000
0000
0000
0000
0202
0300
0000
0003
0000
0000
0000
0000
0000
0000
0000
0000
0000
0000
0000
0000
0000
0000
0000
0000
0000
0000
0000
0000
2200
0300
0000
3000
0000
0000
0000
0000
0000
0000
0000
0000
0001
0000
0000
0000
0000
0000
0000
0000
0000
0000
0000
0000
0100
0000
0000
0000
0000
0000
0000
0000
0000
0000
0000
0000
0010
0000
0000
0000
0000
0000
0000
0000
0000
0000
0000
0000
0000
0000
0000
0000
0000
0000
0000
0000
0000
0000
0000
0000
1000
0000
0000
0000
0000
0000
0000
0000
0000
0000
0000
0000
,
0000
0000
0000
0000
0100
0000
0000
0000
0020
0000
0000
0000
0000
0000
0000
0000
0000
0030
0000
0000
0000
0000
0000
0000
0000
0000
0000
0000
0000
0000
0000
0000
0000
0000
0000
0000
0000
0000
0000
0000
0000
0000
0000
0000
0000
0000
0000
0000
0001
0000
0000
0000
0000
0000
0000
0000
0011
0000
0000
0000
0000
0000
0000
0000
,
0000
1010
0000
0011
0000
1001
1000
1100
,
0000
0101
0000
1100
0000
1010
0010
0110
,
0000
0101
0000
0011
0000
0101
0100
0110
,
0000
0000
0000
0000
0000
0000
0000
0000
1010
0000
0000
0000
0000
0000
0000
0000
0000
0000
0000
0000
0000
0000
0000
0000
1000
0000
0000
0000
0000
0000
0000
0000
0200
0300
0000
0000
0000
0000
0000
0000
0200
0300
0000
0000
0000
0000
0000
0000
0001
0000
0000
0000
0000
0000
0000
0000
1001
0000
0000
0000
0000
0000
0000
0000
,
0000
0110
0000
1010
0000
1100
0100
0110
,
0000
0011
0000
1010
0000
0011
0001
1001
,
0000
1100
0000
0110
0000
1100
1000
1010
,
0000
0000
0000
0000
0000
0000
0000
0000
0110
0000
0000
0000
0000
0000
0000
0000
0000
0000
0000
0000
0000
0000
0000
0000
0001
0000
0000
0000
0000
0000
0000
0000
0200
0300
0000
0000
0000
0000
0000
0000
0200
0300
0000
0000
0000
0000
0000
0000
1000
0000
0000
0000
0000
0000
0000
0000
0010
0000
0000
0000
0000
0000
0000
0000
,
1000
0000
0100
0000
0010
0001
0100
0001
0010
0001
0100
0000
0001
0000
0100
0000
,
0010
0000
1000
0000
0001
1000
0100
1000
0001
1000
0100
0000
0010
0000
0100
0000
,
1000
0000
0010
0000
0100
0001
1000
0001
0100
0001
1000
0000
0001
0000
0100
0000
,
0010
0000
0100
0000
0010
1000
0100
1000
0010
1000
0100
1000
0001
0000
0100
0000
,
1000
0000
0001
0010
1000
0000
0001
0010
,
1000
0000
0000
0000
0000
0000
0000
0000
0000
0000
0000
0000
0000
0000
0000
0000
0001
0000
0000
0000
0000
0000
0000
0000
0100
0000
0000
0000
0000
0000
0000
0000
1000
0000
0000
0000
0000
0000
0000
0000
0000
0000
0000
0000
0000
0000
0000
0000
0001
0000
0000
0100
0000
0000
0010
0000
0000
0000
0000
0000
1000
0000
0000
0100
,
0000
0000
0010
0000
0000
0000
0000
0000
0001
0000
0000
0100
0000
0000
0010
0000
0000
0000
0000
0000
1000
0000
0000
0100
0000
0000
0010
0000
0000
0000
0000
0000
0001
0000
0100
0000
0001
0000
0000
0000
1000
0000
0010
0000
1000
0000
0000
0000
0001
0000
1000
0000
0001
0000
1000
0000
0001
0000
1000
0000
0001
0000
1000
0000
,
0002
0203
0320
2030
,
3200
0320
0032
2003
,
3002
0203
2300
3200
,
0302
0023
2030
3020
,
0032
2003
3200
0320
,
0032
0203
0320
0032
,
0023
0000
2030
3002
0203
0000
0320
2030
,
3200
0000
0000
0000
0320
0000
0032
0000
2003
0000
3002
0000
2003
3002
0203
0320
,
1030
0010
1000
0000
0100
0010
0100
0000
0010
0001
0010
0000
0001
0100
0001
0000
,
0100
0010
0100
0000
0001
1000
0001
0000
0100
0010
0100
0000
0010
1000
0010
0000
,
1000
0100
1000
0000
0001
0100
0001
0000
1000
0010
1000
0000
0001
0010
0001
0000
,
0100
0000
0000
0000
0010
0000
0000
0000
0100
0000
0000
0000
0000
0000
0000
0000
0001
0000
0000
0000
1000
0000
0000
0000
0001
0000
0000
0000
0000
0000
0000
0000
1000
0000
0000
0000
0000
0000
0000
0000
0020
0030
0000
0000
0000
0000
0000
0000
0020
0030
0000
0000
0000
0000
0000
0000
0001
0000
0000
0000
0000
0000
0000
0000
,
1000
0010
1000
0000
0001
0010
0001
0000
1000
0010
1000
0000
0001
0010
0001
0000
,
1000
0100
1000
0000
0001
0100
0001
0000
1000
0100
1000
0000
0001
0100
0001
0000
,
1000
0010
0100
0000
0010
1000
0100
0000
0010
0001
0100
0000
0001
0100
0010
0000
,
1000
0001
0100
0000
0001
1000
0100
0000
1000
0001
0100
0001
1000
0100
0010
0000
,
0001
0100
0010
0000
0100
0010
1000
0000
0010
1000
0100
0000
0010
0001
1000
0000
,
0001
0100
0010
0000
1000
0010
0100
0000
0001
0010
0100
0000
1000
0100
0010
0000
,
0001
1000
0010
0000
1000
0100
0010
0000
0100
1000
0010
0000
0100
0001
1000
0000
,
0001
0010
0100
0000
1000
0001
0100
0000
0010
1000
0100
0000
0010
0001
1000
0000
,
0001
0100
0001
0100
0010
1000
0010
0000
1000
0100
1000
0100
0010
0001
0010
0000
,
0001
0010
0001
0010
0100
0010
0001
0000
1000
0010
1000
0010
0100
0010
1000
0000
,
0001
0100
0010
0000
1000
0000
0100
0000
0010
0001
1000
0000
0010
0000
0100
0000
,
0001
0100
0010
0000
1000
0010
0100
0000
0001
0010
0001
1000
0010
1000
0001
0010
,
0200
0000
0000
0000
,
0000
0000
0000
0000
,
0300
0000
0000
0000
;

//--------------- dance-single - Fred-104† ----------------
#NOTES:
     dance-single:
     Fred-104†:
     Challenge:
     17:
     :
0000
0000
0000
0000
,
0000
0000
0000
0000
,
0000
0000
0000
0000
,
0000
0000
0000
0000
,
0000
0000
0000
0000
,
1000
0000
0010
1000
0100
1000
0100
1000
0100
0000
0010
0001
0100
0001
0100
0001
,
0100
0000
0001
0010
0100
0010
0100
0010
0100
0000
1000
0010
0100
0010
0100
0010
,
0100
0000
0000
0000
0000
0000
0001
0000
0000
1000
0000
0000
0001
0000
0000
0010
0000
0000
0001
0000
0000
0010
0000
0000
0001
0000
0000
0000
0000
0000
0000
0000
0010
0000
0000
0000
0000
0000
0000
0000
0100
0000
0000
0000
0100
0000
0000
0000
,
0001
0000
0100
0000
0010
0010
0001
0100
0100
1000
0010
0010
,
0001
MMMM
MMMM
MMMM
1000
1100
MMMM
1010
,
MMMM
1100
MMMM
1010
MMMM
0101
MMMM
0011
,
MMMM
0101
MMMM
0011
MMMM
1001
MMMM
0110
,
MMMM
1001
MMMM
1010
MMMM
0101
MMMM
1100
,
MMMM
0110
0100
0001
1000
1100
MMMM
0101
,
MMMM
0011
MMMM
1010
MMMM
1100
MMMM
0101
,
MMMM
0011
MMMM
1010
MMMM
1010
MMMM
0011
,
MMMM
0101
MMMM
1100
MMMM
1001
MMMM
0110
,
MMMM
0000
1001
0000
0001
0000
0100
0000
0001
0010
0100
0000
1000
0010
0100
0010
,
1000
0001
1000
0000
0001
0010
0100
0000
1000
0010
0100
0000
0001
1000
0100
1000
,
0001
1000
0010
0000
0100
0010
1000
0000
0001
1000
0010
0000
1000
0001
0100
0001
,
1000
0001
0100
0000
0010
0100
0001
0000
0010
0001
0100
0000
0010
1000
0100
1000
,
0010
0000
0000
0000
0000
0000
0000
0000
0000
0000
0000
0000
1000
0000
0000
0000
0000
0000
0000
0000
0000
0000
0000
0000
0001
0000
0000
0000
0000
0000
0000
0000
0000
0000
0000
0000
0000
0000
0000
0000
0000
0000
0000
0000
0000
0000
0000
0000
0200
0300
0000
0000
0000
0000
0000
0000
0000
0000
0000
0000
0000
0000
0000
0000
0000
0000
0000
0000
0000
0000
0000
0000
0200
0300
0000
0000
0000
0000
0000
0000
0000
0000
0000
0000
0000
0000
0000
0000
0000
0000
0000
0000
0000
0000
0000
0000
1000
0000
0000
0000
0000
0000
0000
0000
0000
0000
0000
0000
0100
0000
0000
0000
0000
0000
0000
0000
0000
0000
0000
0000
0001
0000
0000
0000
0000
0000
0000
0000
0000
0000
0000
0000
0000
0000
0000
0000
0000
0000
0000
0000
0000
0000
0000
0000
0100
0000
0000
0000
0000
0000
0000
0000
0000
0000
0000
0000
1000
0000
0000
0000
0000
0000
0000
0000
0000
0000
0000
0000
0001
0000
0000
0000
0000
0000
0000
0000
0000
0000
0000
0000
0100
0000
0000
0000
0000
0000
0000
0000
0000
0000
0000
0000
,
0010
1000
0100
0010
0001
1000
0001
0000
1000
0010
0001
0000
0010
1000
0001
0100
,
0010
1000
0100
1000
0010
0100
0001
0000
1000
0100
0001
0000
1000
0010
0001
0000
,
1000
0010
0001
0000
1000
0100
0001
0000
1000
0100
0010
0001
0100
0010
1000
0100
,
0010
0001
0100
0010
1000
0001
0010
0100
1100
0000
0000
0000
1001
0000
0000
1000
,
0010
0100
0000
1000
0000
0100
0001
0000
0000
1000
0001
0000
0100
0000
0010
0000
,
1000
0000
0000
0010
0000
0001
0100
0000
1100
0000
0000
0000
0101
0000
0000
1000
,
0100
0010
0000
1000
0000
0010
0001
0000
0000
1000
0001
0000
0100
0000
0010
0000
,
0100
0001
1000
0001
0100
0010
1000
0000
1100
0000
MMMM
0000
0101
0000
0000
0001
,
1000
0001
0100
0010
1000
0100
0010
0000
0001
0010
0100
1000
0100
0010
0001
0000
,
1000
0000
0000
0000
0000
0000
0000
0000
0000
0000
0000
0000
0010
0000
0000
0000
0000
0000
0000
0000
0000
0000
0000
0000
0100
0000
0000
0000
0000
0000
0000
0000
0000
0000
0000
0000
0001
0000
0000
0000
0000
0000
0000
0000
0000
0000
0000
0000
0100
0000
0000
0000
0000
0000
0000
0000
0000
0000
0000
0000
0010
0000
0000
0000
0000
0000
0000
0000
0000
0000
0000
0000
1000
0000
0000
0000
0000
0000
0000
0000
0000
0000
0000
0000
0000
0000
0000
0000
0000
0000
0000
0000
0000
0000
0000
0000
2002
3000
0000
0003
0000
0000
0000
0000
0000
0000
0000
0000
0000
0000
0000
0000
0000
0000
0000
0000
0000
0000
0000
0000
0220
0030
0000
0300
0000
0000
0000
0000
0000
0000
0000
0000
0001
0000
0000
0000
0000
0000
0000
0000
0000
0000
0000
0000
0100
0000
0000
0000
0000
0000
0000
0000
0000
0000
0000
0000
1000
0000
0000
0000
0000
0000
0000
0000
0000
0000
0000
0000
0000
0000
0000
0000
0000
0000
0000
0000
0000
0000
0000
0000
0100
0000
0000
0000
0000
0000
0000
0000
0000
0000
0000
0000
,
0000
0001
1000
0000
0000
0000
MMMM
0000
MMMM
0000
MMMM
0000
1100
0000
0110
0000
,
MMMM
0011
MMMM
1010
MMMM
0011
MMMM
0101
,
MMMM
1100
MMMM
0101
MMMM
1001
MMMM
0110
,
MMMM
1010
MMMM
0011
MMMM
0101
MMMM
1100
,
MMMM
0000
1001
0000
MMMM
0000
0120
0030
0200
0300
0002
0003
1001
0000
1010
0000
,
MMMM
0101
MMMM
1100
MMMM
0101
MMMM
0011
,
MMMM
1010
MMMM
1001
MMMM
0110
MMMM
1010
,
MMMM
0011
MMMM
0101
MMMM
1100
MMMM
1001
,
MMMM
0000
0110
0000
MMMM
0000
1020
0030
2000
3000
0002
0003
0100
0001
0010
0000
,
0100
1000
0010
1000
0100
1000
0010
1000
0100
0010
0001
0000
1000
0001
0100
0000
,
0001
1000
0100
1000
0001
1000
0010
1000
0001
1000
0100
0000
0010
0001
1000
0000
,
0010
1000
0100
1000
0001
1000
0100
1000
0001
1000
0010
0000
0100
0001
0010
0000
,
0001
0100
0010
0100
0001
0100
0010
1000
0010
0100
0010
0000
1000
0001
0100
0000
,
1000
0100
1000
0100
0010
1000
0001
0100
0001
0010
0001
0000
1000
0010
0100
0000
,
1000
0000
0000
0000
0100
0000
0000
0000
1000
0000
0000
0000
0100
0000
0000
0000
0010
0000
0000
0000
1000
0000
0000
0000
0010
0000
0000
0000
0100
0000
0000
0000
0001
0000
0000
0000
1000
0000
0000
0000
0001
0000
0000
0000
0000
0000
0000
0000
1000
0000
0000
0100
0000
0000
0001
0000
0000
0000
0000
0000
1000
0000
0000
0010
,
0000
0000
0001
0000
0000
0000
0000
0000
1000
0000
0000
0100
0000
0000
0001
0000
0000
0000
0000
0000
1000
0000
0000
0010
0000
0000
0001
0000
0000
0000
0000
0000
1000
0000
0010
0000
1000
0000
0010
0000
0100
0000
0001
0000
0100
0000
0001
0000
1000
0000
0100
0000
0010
0000
0001
0000
1000
0000
0010
0000
0100
0000
0001
0000
,
2000
0000
3020
0032
,
0203
2300
3002
0203
,
0320
0000
2030
3002
,
0203
0320
2030
3002
,
2003
0000
3020
0230
,
2300
0000
3200
0000
0302
0000
2003
3000
,
2002
0000
3003
0100
2002
0000
3003
0010
,
2002
0000
0000
0000
3003
0000
0100
0000
2020
0000
3030
0000
0102
0203
0320
2030
,
3001
0100
0001
0100
0010
0100
0010
0000
1000
0100
1000
0100
0010
0100
0010
0000
,
0001
0010
0001
0010
0100
0010
0100
0000
1000
0010
1000
0010
0100
0010
0100
0000
,
0001
0010
0001
0100
0001
0010
0001
0000
1000
0010
1000
0100
1000
0010
1000
0000
,
0001
0100
0001
0010
0001
0100
0001
0000
1000
0100
1000
0010
1000
0100
1000
0000
,
0001
0010
0100
0010
0001
0010
0100
0000
1000
0010
0100
0010
1000
0010
0100
0000
,
0001
0100
0010
0100
0001
0100
0010
0000
1000
0100
0010
0100
1000
0100
0010
0000
,
0001
1000
0100
1000
0001
1000
0010
0000
1000
0001
0010
0001
1000
0001
0100
0000
,
0001
1000
0010
1000
0001
1000
0100
0000
1000
0001
0100
0001
1000
0001
0010
0000
,
0001
0100
0001
0100
0010
0100
0010
0100
0010
1000
0010
1000
0001
1000
0001
0000
,
1000
0100
1000
0100
0010
0100
0010
0100
1000
0100
1000
0100
0010
0001
0010
0000
,
0001
1000
0001
1000
0010
0100
0010
0100
0001
1000
0001
1000
0100
0010
0001
0000
,
0100
0010
0100
0010
1000
0010
1000
0010
0100
0010
0100
0010
1000
0001
1000
0000
,
0001
0100
0010
0000
0100
0010
1000
0000
0100
1000
0001
0000
0100
0001
1000
0000
,
0010
1000
0100
0000
0010
0001
0100
0000
0010
1000
0001
0000
0010
0001
1000
0000
,
0100
0010
0001
0000
0100
0010
1000
0000
0001
0010
0100
0000
1000
0010
0100
0000
,
0001
0100
0001
0100
0010
1000
0010
1000
0001
1000
0001
1000
0100
0010
0100
0010
,
0002
0000
0000
0000
,
0000
0000
0000
0000
,
0003
0000
0000
0000
;

//--------------- dance-double - Fred-104 ----------------
#NOTES:
     dance-double:
     Fred-104:
     Easy:
     6:
     :
00000000
00000000
00000000
00000000
,
00000000
00000000
00000000
00000000
,
00000000
00000000
00000000
00000000
,
00000000
00000000
00000000
00000000
,
00000000
00000000
00000000
00000000
,
00001000
00010000
00001000
00000000
,
00100000
00010000
00100000
00000000
,
00010000
10000000
00010000
00000000
,
10000000
00000000
01000000
00100000
,
00001000
00000000
00010000
00000000
,
00001000
00000000
00010000
00000000
,
00000100
00000000
00001000
00000000
,
00000001
00000000
00000100
00000000
,
00000010
00001000
00000010
00000000
,
00000100
00000000
00000001
00000000
,
00000010
00000000
00001000
00000000
,
00010000
00000000
00100000
00000000
,
10000000
00010000
10000000
00000000
,
00100000
00000000
10000000
00000000
,
01000000
00100000
00010000
00000000
,
00100000
00000000
00010000
00000000
,
10000000
00010000
01000000
00000000
,
00100000
00000000
01000000
00000000
,
00100000
00001000
00010000
00001000
,
00010000
00000000
00000010
00001000
,
00000001
00001000
00001001
00000000
,
00000001
00000000
00000100
00000000
,
00001000
00010000
00001000
00000000
,
00010000
00000000
01000000
00000000
,
10000000
00010000
10000000
00000000
,
00100000
00000000
10000000
01000000
,
00100000
00001000
00022000
00000000
,
00000000
00033000
00000000
00010000
,
00010000
00011000
00000000
00001000
,
00001000
00001100
00000000
00000100
,
00000100
00000110
00000000
00000010
,
00000010
00000001
00001000
00000001
,
00000001
00000101
00000000
00000100
,
00000100
00001100
00000000
00001000
,
00001000
00011000
00000000
00010000
,
00010000
01000000
10000000
00010000
,
10000000
00010000
00000000
10000000
,
01000000
10000000
00000000
00100000
,
01000000
00100000
00000000
01000000
,
00010000
00100000
00001000
00010000
,
00000000
00000100
00000000
00001000
,
00000000
00000001
00000000
00000100
,
00000000
00000100
00000000
00000000
00000100
00000010
00000100
00000010
,
00000200
00000000
00000302
00002003
,
00003020
00000000
00000230
00000000
,
00000320
00000000
00002030
00003200
,
00020300
00032000
00203000
00302000
,
00023000
00000000
00032000
00000000
,
00203000
00000000
00320000
00000000
,
20030000
00000000
00000000
31000000
20000000
00000000
00000000
30100000
,
02000000
00000000
00000000
03010000
00200000
00000000
00301000
00010000
,
00001000
00010000
00000100
00010000
,
00002000
00000000
00013000
00000000
,
00000010
00001000
00000010
00000100
,
00000002
00000000
00001003
00000001
,
00000100
00000010
00001000
00000010
,
00000200
00000000
00000310
00000000
,
00010000
00001000
00100000
01000000
,
00200000
00000000
00310000
10000000
,
00010000
01000000
10000000
01000000
,
00020000
00000000
10030000
00000000
,
00010000
01000000
00010000
00001000
,
00020000
00000000
00031000
00010000
,
00000100
00001000
00000010
00000000
,
00000100
00000001
00000010
00000000
,
00000100
00001000
00010000
00001000
,
00010000
00001000
00010000
00000000
00100000
01000000
00100000
00000000
,
20020000
00000000
00000000
00000000
,
00000000
00000000
00000000
00000000
,
30030000
00000000
00000000
00000000
;

//--------------- dance-double - Fred-104 ----------------
#NOTES:
     dance-double:
     Fred-104:
     Medium:
     12:
     :
00000000
00000000
00000000
00000000
,
00000000
00000000
00000000
00000000
,
00000000
00000000
00000000
00000000
,
00000000
00000000
00000000
00000000
,
00000000
00000000
00000000
00000000
,
00010000
00000000
00000000
00010000
00001000
00000000
00000100
00000000
00000001
00000000
00000000
00000001
00001000
00000000
00000100
00000000
,
00000010
00000000
00000000
00000010
00000100
00000000
00000010
00000000
00000001
00000000
00000000
00000001
00000100
00000000
00000010
00000000
,
00010000
00000000
00000000
00000000
00000000
00000000
00000000
00000000
00000000
00010000
00000000
00000000
00001000
00000000
00000000
00000000
00000000
00000000
00100000
00000000
00000000
00000000
00000000
00000000
00010000
00000000
00000000
00000000
00000000
00000000
00000000
00000000
01000000
00000000
00000000
00000000
00000000
00000000
00000000
00000000
00010000
00000000
00000000
00000000
00000000
00000000
00000000
00000000
,
00100000
00000000
00001000
00000000
00100000
00000000
00001000
00010000
00001000
00010000
00001000
00010000
,
00001000
00000000
00000000
00000000
00010000
00011000
00000000
00011000
,
00000000
00010100
00000000
00010100
00000000
00001100
00000000
00001100
,
00000000
00000101
00000000
00000101
00000000
00001100
00000000
00001100
,
00000000
00001001
00000000
00001001
00000000
00000110
00000000
00000110
,
00000000
00000001
00000100
00001000
00010000
00011000
00000000
00011000
,
00000000
00101000
00000000
00101000
00000000
00010010
00000000
00010010
,
00000000
00011000
00000000
00011000
00000000
00110000
00000000
00110000
,
00000000
10100000
00000000
10100000
00000000
00110000
00000000
00110000
,
00000000
00001000
00010000
00001000
00010000
00000100
00001000
00000000
,
00000010
00001000
00000010
00000000
00000100
00000001
00000010
00000000
,
00000100
00001000
00000010
00000000
00001000
00000001
00000010
00000000
,
00001000
00010000
00100000
00000000
10000000
00010000
10000000
00000000
,
00010000
01000000
00100000
10000000
01000000
00100000
01000000
00000000
,
10000000
00100000
01000000
00010000
00001000
00010000
00001000
00000000
,
00010000
00001000
00000100
00000001
00000010
00000001
00001000
00000000
,
00000010
00001000
00000100
00000000
00000010
00001000
00000010
00001000
,
00010000
01000000
00010000
01000000
00200000
00300000
00200000
00300000
,
10000000
00000000
00000000
00010000
00000000
00000000
02000000
00000000
00000000
00100000
03000000
00000000
10000000
00000000
01000000
00000000
,
00010000
00000000
00000000
00001000
00000000
00000000
00000010
00000000
00000002
00000000
00000003
00000000
00000002
00000000
00000003
00000000
,
00000100
00000000
00000000
00000010
00000000
00000000
00002000
00000000
00000000
00000001
00003000
00000000
00000100
00000000
00001000
00000000
,
00010000
00000000
00000000
01000000
00000000
00000000
10000000
00000000
00010000
00000000
01000000
00000000
00010000
00000000
10000000
00000000
,
01000000
00100000
00010000
00000000
01000000
00001000
00010000
00000000
,
00001000
00000000
00010000
00000000
00000100
00000000
00000000
00000000
00002020
00003030
00000202
00000303
00000100
00000000
00000000
00000010
,
00000000
00002002
00003003
00000000
00000000
00000000
00000001
00000011
,
00000000
00000101
00000000
00000011
00000000
00001001
00000000
00001010
,
00000000
00001100
00000000
00001010
00000000
00001001
00000000
00000101
,
00000000
00001100
00000000
00011000
00000000
01010000
00000000
11000000
,
00000000
10010000
00000000
00010000
10000000
00010000
01000000
01100000
,
00000000
01010000
00000000
01001000
00000000
00011000
00000000
00010100
,
00000000
00010010
00000000
00101000
00000000
00011000
00000000
00010100
,
00000000
00001100
00000000
00000110
00000000
00001100
00000000
00011000
,
00000000
00110000
00000000
00100000
01000000
10000000
00010000
01000000
,
10000000
01000000
00010000
00001000
00010000
00000000
00001000
00010000
,
00001000
00000100
00000001
00000100
00001000
00000000
00010000
00001000
,
00010000
00100000
10000000
00100000
00010000
00000000
00001000
00010000
,
00001000
00000010
00000001
00000010
00001000
00010000
00001000
00000000
,
00010000
00100000
10000000
01000000
,
00010000
00000000
00000000
00000000
00000000
00000000
00000000
00000000
00001000
00000000
00000000
00000000
00000000
00000000
00000000
00000000
00010000
00000000
00000000
00000000
00000000
00000000
00000000
00000000
00001000
00000000
00000000
00010000
00000000
00000000
00001000
00000000
,
00000000
00000000
00000000
00000000
00100000
00000000
00000000
00001000
00000000
00000000
00010000
00000000
00000000
00000000
00000000
00000000
00001000
00000000
00010000
00000000
00001000
00000000
00010000
00000000
00001000
00000000
00010000
00000000
00002000
00000000
00000000
00000000
,
00023000
00000000
00030020
00002030
,
00003002
00000203
00000320
00002030
,
00003020
00002030
00023000
00230000
,
00320000
00230000
20300000
30020000
,
02030000
03200000
02300000
03020000
,
20030000
32000000
03200000
00302000
,
00023000
00000000
00030200
00020300
00032000
00000000
02003000
03002000
,
00023000
00000000
00000000
00000000
00030020
00000000
00002030
00000000
00003002
00000000
00002003
00000000
00003001
00000100
00000001
00000100
,
00000001
00000010
00000001
00000010
00001000
00000010
00001000
00010000
,
00100000
10000000
00010000
10000000
,
00010000
10000000
01000000
10000000
01000000
00010000
00001000
00010000
,
00001000
00000000
00000100
00000000
00000001
00001000
00000001
00001000
,
00000001
00000010
00000001
00000010
00001000
00010000
00001000
00010000
,
00100000
00000000
10000000
00000000
00010000
10000000
00010000
00000000
,
10000000
01000000
10000000
01000000
00010000
00001000
00010000
00001000
,
00000100
00000000
00000001
00000000
00001000
00000001
00001000
00000001
,
00000010
00000100
00000010
00000100
00001000
00010000
00001000
00010000
,
00100000
01000000
00100000
00000000
01000000
10000000
00010000
00000000
,
10000000
01000000
10000000
01000000
00100000
00001000
00100000
00001000
,
00010000
00000100
00001000
00000000
00000001
00000100
00000010
00001000
,
00000001
00000010
00001000
00000000
00010000
00100000
10000000
00000000
,
10000000
01000000
00010000
00000000
00001000
00000100
00000001
00000000
,
00000001
00000100
00000010
00000000
00001000
00000100
00000010
00000000
,
00000001
00000100
00000010
00001000
00000001
00000010
00000100
00000000
,
00002002
00000000
00000000
00000000
,
00000000
00000000
00000000
00000000
,
00003003
00000000
00000000
00000000
;

//--------------- dance-double - Fred-104 ----------------
#NOTES:
     dance-double:
     Fred-104:
     Hard:
     16:
     :
00000000
00000000
00000000
00000000
,
00000000
00000000
00000000
00000000
,
00000000
00000000
00000000
00000000
,
00000000
00000000
00000000
00000000
,
00000000
00000000
00000000
00000000
,
00001000
00010000
00000000
00001000
00010000
00000000
00100000
00000000
10000000
00010000
00000000
10000000
00010000
00000000
01000000
00000000
,
00100000
10000000
00000000
00100000
10000000
00000000
01000000
00000000
00100000
00001000
00000000
00100000
00001000
00000000
00010000
00000000
,
00000100
00000000
00000000
00001000
00000000
00000000
00000000
00000000
00000000
00000010
00000000
00000000
00000100
00000000
00000000
00000000
00000000
00000000
00000001
00000000
00000000
00000000
00000000
00000000
00001000
00000000
00000000
00000000
00000000
00000000
00000000
00000000
00000100
00000000
00000000
00000000
00000000
00000000
00000000
00000000
00000001
00000000
00000000
00000000
00000100
00000000
00000000
00000000
,
00001000
00000000
00010000
00000000
01000000
10000000
00010000
10000000
00010000
10000000
00100000
01000000
,
01100000
00000000
00000000
00000000
00010000
00001000
00010000
00000100
,
00001000
00000010
00010000
00001000
00010000
00000100
00010000
00001000
,
00100000
00010000
01000000
00001000
00010000
00000100
00010000
00001000
,
00000100
00000010
00010000
00001000
01000000
00010000
00100000
00001000
,
00010000
00000000
00000000
00000000
00000000
00000000
00000000
00000000
00000200
00000300
00000000
00000000
00000000
00000000
00000000
00000000
00000200
00000300
00000000
00000000
00000000
00000000
00000000
00000000
00000010
00000000
00000000
00000000
00000000
00000000
00000000
00000000
00010000
00000000
00000000
00000000
00001000
00000000
00000000
00000000
00010000
00000000
00000000
00000000
00000000
00000000
00000000
00000000
00000010
00000000
00000000
00000000
00000000
00000000
00000000
00000000
00001000
00000000
00000000
00000000
00000000
00000000
00000000
00000000
,
00000001
00000100
00000001
00000000
00000010
00000000
00000100
00000000
00001000
00000100
00001000
00000000
00000100
00000000
00010000
00000000
,
00001000
01000000
00001000
00000000
00100000
00000000
00010000
00000000
10000000
00100000
10000000
00000000
01000000
00000000
00100000
00000000
,
00001000
00010000
00001000
00000000
01000000
00000000
00001000
00000000
00010000
00000010
00010000
00000000
00000100
00000000
00001000
00000000
,
00000001
00000000
00000000
00000000
00000100
00000000
00000000
00000000
00000001
00000000
00000000
00000000
00000000
00000000
00000000
00000000
00000020
00000030
00000000
00000000
00000000
00000000
00000000
00000000
00000020
00000030
00000000
00000000
00000000
00000000
00000000
00000000
00001000
00000000
00000000
00000000
00000100
00000000
00000000
00000000
00001000
00000000
00000000
00000000
00000000
00000000
00000000
00000000
00000010
00000000
00000000
00000000
00000100
00000000
00000000
00000000
00000010
00000000
00000000
00000000
00000100
00000000
00000000
00000000
,
00000010
00000000
00001000
00000000
00000100
00000000
00000010
00000000
00000001
00000100
00000001
00000000
00000100
00001000
00000100
00001000
,
00000100
00000000
00001000
00000000
00010000
00000000
01000000
00000000
10000000
00010000
10000000
00000000
00100000
10000000
00100000
10000000
,
01000000
00000000
00100000
00000000
01000000
00000000
10000000
00000000
00010000
10000000
00010000
00000000
01000000
00100000
01000000
00100000
,
10000000
00000000
00000000
00000000
00000000
00000000
00000000
00000000
00010000
00000000
00000000
00000000
00000000
00000000
00000000
00000000
02000000
03000000
00000000
00000000
00000000
00000000
00000000
00000000
02000000
03000000
00000000
00000000
00000000
00000000
00000000
00000000
10000000
00000000
00000000
00000000
00100000
00000000
00000000
00000000
10000000
00000000
00000000
00000000
00000000
00000000
00000000
00000000
01000000
00000000
00000000
00000000
00100000
00000000
00000000
00000000
01000000
00000000
00000000
00000000
00100000
00000000
00000000
00000000
,
00010000
00100000
00010000
00000000
01000000
00001000
01000000
00000000
00001000
00010000
00001000
00000000
00010000
00000100
00010000
00000100
,
00001000
00000100
00000010
00000000
00000001
00001000
00000001
00000000
00001000
00000010
00001000
00000000
00000001
00000100
00000001
00000000
,
00001000
00000100
00001000
00000000
00000010
00010000
00000010
00000000
00010000
00001000
00010000
00000000
00001000
00100000
00001000
00000000
,
00100000
00010000
00100000
00010000
10000000
00010000
10000000
00010000
10000000
00000000
00000000
00000000
11000000
00000000
00000000
10000000
,
00100000
01000000
00000000
00100000
00000000
00001000
00010000
00000000
00000000
00000100
00010000
00000000
00000100
00000000
00001000
00000000
,
00000100
00000000
00000000
00000010
00000000
00000001
00000010
00000000
00000011
00000000
00000000
00000000
00001100
00000000
00000000
00000001
,
00000100
00000010
00000000
00001000
00000000
00000100
00010000
00000000
00000000
00001000
00010000
00000000
00001000
00000000
00100000
00000000
,
00010000
00000000
10000000
01000000
00000000
00100000
01000000
00000000
10000000
00000000
01000000
00000000
10000000
00000000
00100000
00000000
,
01000000
00010000
00100000
00010000
01000000
00010000
00100000
00000000
00001000
00010000
00001000
00100000
00001000
00010000
00001000
00000000
,
00010000
00000000
00000000
00000000
00000100
00000000
00000000
00000000
00001000
00000000
00000000
00000000
00000100
00000000
00000000
00000000
00010000
00000000
00000000
00000000
00000100
00000000
00000000
00000000
00010000
00000000
00000000
00000000
00000000
00000000
00000000
00000000
00022000
00033000
00000000
00000000
00000000
00000000
00000000
00000000
00020020
00030030
00000000
00000000
00001000
00000000
00000000
00000000
00010000
00000000
00000000
00000000
00001000
00000000
00000000
00000000
00000000
00000000
00000000
00000000
00100000
00000000
00000000
00000000
,
00000000
00000000
00000000
00000000
01000000
00000000
00000000
00000000
00200000
00000000
00000000
00000000
00000000
00000000
00000000
00000000
00000000
00300000
00000000
00000000
00000000
00000000
00000000
00000000
00000000
00000000
00000000
00000000
00000000
00000000
00000000
00000000
00000000
00000000
00000000
00000000
00000000
00000000
00000000
00000000
00000000
00000000
00000000
00000000
00000000
00000000
00000000
00000000
00010000
00000000
00000000
00000000
00000000
00000000
00000000
00000000
10000000
00000000
00000000
00000000
00000000
00000000
00000000
00000000
,
01000000
00100000
00001000
00010000
00000100
00000010
00000001
00001000
,
00000001
00000010
00000100
00010000
00001000
00000100
00000001
00001000
,
00000010
00010000
00001000
00100000
00010000
10000000
00010000
01000000
,
10000000
00000000
00000000
00000000
00000000
00000000
00000000
00000000
01000000
00000000
00000000
00000000
00000000
00000000
00000000
00000000
00010000
00000000
00000000
00000000
00000000
00000000
00000000
00000000
10000000
00000000
00000000
00000000
00000000
00000000
00000000
00000000
00200000
00300000
00000000
00000000
00000000
00000000
00000000
00000000
00200000
00300000
00000000
00000000
00000000
00000000
00000000
00000000
00010000
00000000
00000000
00000000
00000000
00000000
00000000
00000000
10000000
00000000
00000000
00000000
00000000
00000000
00000000
00000000
,
01000000
00010000
00001000
00000100
00000001
00001000
00000001
00000010
,
00000100
00001000
00000100
00010000
00001000
01000000
00010000
00100000
,
00010000
00100000
01000000
10000000
00010000
01000000
00100000
01000000
,
00001000
00000000
00000000
00000000
00000000
00000000
00000000
00000000
00010000
00000000
00000000
00000000
00000000
00000000
00000000
00000000
00000010
00000000
00000000
00000000
00000000
00000000
00000000
00000000
00001000
00000000
00000000
00000000
00000000
00000000
00000000
00000000
00000200
00000300
00000000
00000000
00000000
00000000
00000000
00000000
00000200
00000300
00000000
00000000
00000000
00000000
00000000
00000000
00000001
00000000
00000000
00000000
00000000
00000000
00000000
00000000
00000010
00000000
00000000
00000000
00000000
00000000
00000000
00000000
,
00000100
00000000
00000010
00000000
00000001
00000100
00000001
00000100
00000010
00001000
00000010
00000000
00010000
00000000
00001000
00000000
,
00010000
00000000
00000100
00000000
00010000
00001000
00010000
00001000
00100000
00010000
10000000
00000000
00010000
00000000
01000000
00000000
,
10000000
00000000
01000000
00000000
00010000
00100000
00010000
00100000
01000000
00100000
00010000
00000000
01000000
00000000
00100000
00000000
,
10000000
00000000
01000000
00000000
00100000
00010000
00100000
00001000
00010000
00001000
00010000
00000000
00001000
00000000
00010000
00000000
,
00100000
00000000
00010000
00001000
00000010
00000000
00001000
00010000
,
01000000
00000000
00000000
00000000
00000000
00000000
00000000
00000000
00000000
00000000
00000000
00000000
00000000
00000000
00000000
00000000
00010000
00000000
00000000
00000000
00000000
00000000
00000000
00000000
00001000
00000000
00000000
00000000
00000000
00000000
00000000
00000000
00000100
00000000
00000000
00000000
00000000
00000000
00000000
00000000
00000000
00000000
00000000
00000000
00000000
00000000
00000000
00000000
00010000
00000000
00000000
00000100
00000000
00000000
00010000
00000000
00000000
00000000
00000000
00000000
00001000
00000000
00000000
00100000
,
00000000
00000000
00001000
00000000
00000000
00000000
00000000
00000000
00010000
00000000
00000000
00000010
00000000
00000000
00010000
00000000
00000000
00000000
00000000
00000000
00001000
00000000
00000000
01000000
00000000
00000000
00001000
00000000
00000000
00000000
00000000
00000000
00010000
00000000
00001000
00000000
00010000
00000000
00000000
00000000
00001000
00000000
00100000
00000000
00001000
00000000
00000000
00000000
00100000
00000000
00010000
00000000
00100000
00000000
00010000
00000000
00100000
00000000
00010000
00000000
00100000
00000000
00010000
00000000
,
00200000
00000000
00302000
00003020
,
00000032
00000203
00002300
00003200
,
00000302
00000023
00000230
00020300
,
00032000
00203000
02300000
23000000
,
30020000
02030000
23000000
30200000
,
00302000
00003020
00000032
00000203
,
00020300
00000000
00000000
00032000
00203000
00000000
00000000
02300000
,
23000000
00000000
00000000
00000000
00000000
00000000
30200000
00000000
20300000
00000000
00000000
00000000
32000000
03200000
00302000
00023000
,
00031000
00010000
00000100
00000000
00001000
00000010
00000100
00000000
00000001
00001000
00000100
00000000
00000010
00000001
00001000
00000000
,
00000001
00000100
00000001
00000000
00000100
00001000
00000100
00000000
00001000
00010000
00001000
00000000
00010000
01000000
00010000
00000000
,
01000000
10000000
00010000
00000000
10000000
00100000
01000000
00000000
00100000
10000000
01000000
00000000
00100000
00001000
00010000
00000000
,
01000000
00000000
00000000
00000000
00001000
00000000
00000000
00000000
00010000
00000000
00000000
00000000
00000000
00000000
00000000
00000000
00000100
00000000
00000000
00000000
00001000
00000000
00000000
00000000
00000001
00000000
00000000
00000000
00000000
00000000
00000000
00000000
00001000
00000000
00000000
00000000
00000000
00000000
00000000
00000000
00000001
00000000
00000000
00000000
00000000
00000000
00000000
00000000
00000020
00000030
00000000
00000000
00000000
00000000
00000000
00000000
00000020
00000030
00000000
00000000
00000000
00000000
00000000
00000000
,
00001000
00000001
00000100
00000000
00000010
00001000
00000100
00000000
00010000
00001000
01000000
00000000
00010000
00100000
01000000
00000000
,
10000000
00100000
00010000
00000000
00100000
10000000
00010000
00000000
01000000
00100000
10000000
00000000
01000000
00100000
00001000
00000000
,
00010000
00001000
01000000
00000000
00001000
00010000
00000100
00000000
00001000
00000100
00000010
00000000
00000001
00001000
00000010
00000000
,
00001000
00000000
00000000
00000000
00000001
00000000
00000000
00000000
00000100
00000000
00000000
00000000
00000000
00000000
00000000
00000000
00000010
00000000
00000000
00000000
00001000
00000000
00000000
00000000
00000100
00000000
00000000
00000000
00000000
00000000
00000000
00000000
00010000
00000000
00000000
00000000
00000000
00000000
00000000
00000000
00001000
00000000
00000000
00000000
00000000
00000000
00000000
00000000
00200000
00300000
00000000
00000000
00000000
00000000
00000000
00000000
00200000
00300000
00000000
00000000
00000000
00000000
00000000
00000000
,
00010000
01000000
00010000
00100000
01000000
00100000
00010000
00000000
10000000
00100000
10000000
00100000
01000000
00100000
10000000
00000000
,
01000000
10000000
01000000
10000000
01000000
00100000
01000000
00000000
00100000
00001000
00100000
00001000
00010000
00001000
00010000
00000000
,
00000100
00001000
00000100
00001000
00000100
00000010
00000100
00000000
00001000
00000010
00001000
00000010
00000100
00000001
00001000
00000000
,
00000001
00000010
00000100
00001000
00000100
00000010
00000001
00000000
00001000
00000010
00010000
00001000
00100000
00001000
00010000
00000000
,
00001000
00100000
00010000
00000000
01000000
00100000
10000000
00000000
00010000
00100000
01000000
00000000
10000000
00100000
01000000
00000000
,
00100000
10000000
01000000
10000000
00100000
01000000
00010000
00000000
00100000
00001000
00010000
00001000
01000000
00001000
00010000
00000000
,
00000100
00001000
00000001
00000000
00000100
00000010
00001000
00000000
00000001
00000010
00000100
00000000
00000010
00000001
00001000
00000000
,
00000001
00000100
00000001
00000100
00000010
00001000
00000010
00001000
00000100
00010000
00000100
00010000
00001000
00010000
00001000
00010000
,
00002000
00000000
00000000
00000000
,
00000000
00000000
00000000
00000000
,
00003000
00000000
00000000
00000000
;

//--------------- dance-double - Fred-104† ----------------
#NOTES:
     dance-double:
     Fred-104†:
     Challenge:
     17:
     :
00000000
00000000
00000000
00000000
,
00000000
00000000
00000000
00000000
,
00000000
00000000
00000000
00000000
,
00000000
00000000
00000000
00000000
,
00000000
00000000
00000000
00000000
,
00001000
00000001
00000000
00000100
00000010
00000000
00001000
00000000
00000100
00000000
00010000
00001000
00010000
00000000
00000100
00000000
,
00001000
00000001
00000000
00000010
00001000
00000000
00010000
00000000
00100000
10000000
00010000
10000000
00100000
01000000
00100000
10000000
,
01000000
00000000
00000000
00100000
00000000
00000000
00010000
00000000
00000000
00100000
00000000
00000000
00001000
00000000
00000000
00010000
00000000
00000000
00001000
00000000
00000000
00100000
00000000
00000000
00001000
00000000
00000000
00000000
00000000
00000000
00000000
00000000
00010000
00000000
00000000
00000000
00000000
00000000
00000000
00000000
00000010
00000000
00000000
00000000
00001000
00000000
00000000
00000000
,
00000001
00000000
00000100
00000000
00001000
00010000
00100000
10000000
01000000
00010000
00001000
00000010
,
00000001
MMMMMMMM
MMMMMMMM
MMMMMMMM
00001000
00000010
MMMMMMMM
00100000
,
MMMMMMMM
00000010
MMMMMMMM
00100000
MMMMMMMM
00000010
MMMMMMMM
00100000
,
MMMMMMMM
00000010
MMMMMMMM
00100000
MMMMMMMM
00000010
MMMMMMMM
00100000
,
MMMMMMMM
00000010
MMMMMMMM
00100000
MMMMMMMM
00000010
MMMMMMMM
00100000
,
MMMMMMMM
MMMM0010
0001MMMM
MMMM1000
00010000
00000100
MMMMMMMM
01000000
,
MMMMMMMM
00000100
MMMMMMMM
01000000
MMMMMMMM
00000100
MMMMMMMM
01000000
,
MMMMMMMM
00000100
MMMMMMMM
01000000
MMMMMMMM
00000100
MMMMMMMM
01000000
,
MMMMMMMM
00000100
MMMMMMMM
01000000
MMMMMMMM
00000100
MMMMMMMM
01000000
,
MMMMMMMM
00000000
MMMM0100
00000000
0001MMMM
00000000
MMMM1000
00000000
00100000
00010000
10000000
00000000
00100000
10000000
01000000
10000000
,
00100000
10000000
01000000
00000000
00100000
00001000
00010000
00000000
00001000
01000000
00001000
00000000
00010000
00000100
00001000
00000100
,
00010000
00000100
00001000
00000000
00000100
00000010
00000001
00000000
00001000
00000001
00000100
00000000
00000001
00000010
00000100
00000010
,
00000001
00000100
00001000
00000000
00000100
00000001
00000010
00000000
00000100
00001000
00000100
00000000
00010000
00001000
00100000
00010000
,
01000000
00000000
MMMM1000
00000000
0001MMMM
00000000
MMMM1000
00000000
00010000
00001000
00010000
00000000
00001000
00100000
00010000
10000000
,
00100000
01000000
00010000
10000000
01000000
00100000
00010000
00000000
01000000
00001000
00010000
00000000
00001000
00100000
00001000
00010000
,
00000100
00001000
00000001
00000100
00000010
00001000
00000001
00000000
00001000
00000010
00000100
00000000
00000001
00000010
00000001
00000000
,
00001000
00000010
00000100
00000000
00000010
00010000
00000010
00000000
00010000
00001000
00010000
00001000
00100000
00010000
00100000
00010000
,
01000000
00100000
01000000
00100000
10000000
01000000
00100000
00010000
00100000
00000000
00000000
00000000
00011000
00000000
00000000
00001000
,
00010000
00001000
00000000
00000100
00000000
00000001
00000010
00000000
MMMM0000
00000100
00001000
00000000
00010000
00000000
00001000
00000000
,
00010000
00000000
00000000
00100000
00000000
10000000
00010000
00000000
10010000
00000000
00000000
00000000
01100000
00000000
00000000
10000000
,
00100000
00010000
00000000
00100000
00000000
10000000
00010000
00000000
0000MMMM
01000000
00001000
00000000
00010000
00000000
00000100
00000000
,
00001000
00000100
00000010
00000001
00000010
00000100
00001000
00000000
00001100
00000000
MMMMMMMM
00000000
00000101
00000000
00000000
00000001
,
00000010
00000100
00001000
00000100
00010000
00001000
00010000
00000000
00001000
00100000
00010000
10000000
00010000
00100000
01000000
00000000
,
10000000
00000000
00000000
00000000
00000000
00000000
00000000
00000000
00000000
00000000
00000000
00000000
01000000
00000000
00000000
00000000
00000000
00000000
00000000
00000000
00000000
00000000
00000000
00000000
00010000
00000000
00000000
00000000
00000000
00000000
00000000
00000000
00000000
00000000
00000000
00000000
00001000
00000000
00000000
00000000
00000000
00000000
00000000
00000000
00000000
00000000
00000000
00000000
00010000
00000000
00000000
00000000
00000000
00000000
00000000
00000000
00000000
00000000
00000000
00000000
00001000
00000000
00000000
00000000
00000000
00000000
00000000
00000000
00000000
00000000
00000000
00000000
00000010
00000000
00000000
00000000
00000000
00000000
00000000
00000000
00000000
00000000
00000000
00000000
00000000
00000000
00000000
00000000
00000000
00000000
00000000
00000000
00000000
00000000
00000000
00000000
00000022
00000030
00000000
00000003
00000000
00000000
00000000
00000000
00000000
00000000
00000000
00000000
MMMM0000
00000000
00000000
00000000
00000000
00000000
00000000
00000000
00000000
00000000
00000000
00000000
00002002
00000003
00000000
00003000
00000000
00000000
00000000
00000000
00000000
00000000
00000000
00000000
MMMM0001
00000000
00000000
00000000
00000000
00000000
00000000
00000000
00000000
00000000
00000000
00000000
00000100
00000000
00000000
00000000
00000000
00000000
00000000
00000000
00000000
00000000
00000000
00000000
00001000
00000000
00000000
00000000
00000000
00000000
00000000
00000000
00000000
00000000
00000000
00000000
00000000
00000000
00000000
00000000
00000000
00000000
00000000
00000000
00000000
00000000
00000000
00000000
00010000
00000000
00000000
00000000
00000000
00000000
00000000
00000000
00000000
00000000
00000000
00000000
,
00000000
00100000
10000000
00000000
00000000
00000000
MMMMMMMM
00000000
MMMMMMMM
00000000
MMMMMMMM
00000000
11000000
00000000
01010000
00000000
,
MMMMMMMM
10100000
MMMMMMMM
00110000
MMMMMMMM
00011000
MMMMMMMM
00001010
,
MMMMMMMM
00000011
MMMMMMMM
00000101
MMMMMMMM
00001100
MMMMMMMM
00011000
,
MMMMMMMM
00110000
MMMMMMMM
10100000
MMMMMMMM
11000000
MMMMMMMM
01010000
,
MMMMMMMM
00011000
MMMMMMMM
MMMM2000
MMMM3020
MMMM0032
00000103
00000110
,
MMMMMMMM
00001010
MMMMMMMM
00001001
MMMMMMMM
00001010
MMMMMMMM
00010010
,
MMMMMMMM
00101000
MMMMMMMM
00010100
MMMMMMMM
01001000
MMMMMMMM
00011000
,
MMMMMMMM
00101000
MMMMMMMM
00011000
MMMMMMMM
01100000
MMMMMMMM
10010000
,
MMMMMMMM
01100000
MMMMMMMM
2000MMMM
3200MMMM
0302MMMM
00032000
MMMM0000
,
00000010
MMMM0000
00000001
MMMM0000
00003100
MMMM1000
00020000
0000MMMM
,
01000000
0000MMMM
10000000
0000MMMM
00130000
0001MMMM
00002000
MMMM0000
,
00000100
MMMM0000
00000001
MMMM0000
00003010
MMMM1000
00020000
0000MMMM
,
00100000
00000000
0000MMMM
00000000
10030000
00000000
01000000
00000000
00010000
00001000
00010000
00001000
00010000
00000000
00001000
00000000
,
00000010
00000001
00000100
00001000
00010000
MMMMMMMM
00001000
00010000
,
00100000
00000000
00000000
00000000
00000000
00000000
00000000
00000000
10000000
00000000
00000000
00000000
00000000
00000000
00000000
00000000
01000000
00000000
00000000
00000000
00000000
00000000
00000000
00000000
00010000
00000000
00000000
00000000
00000000
00000000
00000000
00000000
00001000
00000000
00000000
00000000
00000000
00000000
00000000
00000000
MMMMMMMM
00000000
00000000
00000000
00000000
00000000
00000000
00000000
00001000
00000000
00000000
00000010
00000000
00000000
00000001
00000000
00000000
00000000
00000000
00000000
00000001
00000000
00000000
00000010
,
00000000
00000000
00001000
00000000
00000000
00000000
00000000
00000000
00010000
00000000
00000000
01000000
00000000
00000000
10000000
00000000
00000000
00000000
00000000
00000000
10000000
00000000
00000000
01000000
00000000
00000000
00010000
00000000
00000000
00000000
00000000
00000000
00010000
00000000
00000100
00000000
00001000
00000000
00000100
00000000
00001000
00000000
00000010
00000000
00000100
00000000
00000001
00000000
00000100
00000000
00000001
00000000
00000010
00000000
00000100
00000000
00001000
00000000
00010000
00000000
00100000
00000000
01000000
00000000
,
20000000
00000000
32000000
03200000
,
00302000
00000000
00023000
00030020
,
00002030
00003200
00000302
00000023
,
00002030
00023000
00230000
20300000
,
32000000
03020000
00032000
00003020
,
00000032
00000000
00002003
00000000
00003002
00000000
00000203
00000300
,
00002002
00000000
MMMM3003
01000000
20020000
00000000
3003MMMM
00000100
,
00002002
00000000
00000000
00000000
MMMM3003
00000000
00010000
00000000
00022000
00000000
00000000
00000000
00033000
MMMM1000
0001MMMM
MMMM1000
,
00010000
00001000
00010000
00000000
00001000
00100000
00001000
00000000
00100000
00010000
00100000
00000000
00010000
10000000
00010000
00000000
,
01000000
00100000
01000000
00000000
00100000
10000000
00100000
00000000
10000000
01000000
10000000
00000000
01000000
00100000
01000000
00000000
,
00100000
00001000
00100000
00000000
00001000
00010000
00001000
00000000
00010000
00000010
00010000
00000000
00000010
00001000
00000010
00000000
,
00001000
00000001
00001000
00000000
00000100
00001000
00000100
00000000
0001MMMM
00000000
MMMM1000
00000000
0001MMMM
00000000
MMMM1000
00000000
,
00001000
00100000
00010000
00000000
00100000
00010000
10000000
00000000
00010000
10000000
01000000
00000000
00100000
00010000
01000000
00000000
,
00001000
00010000
00000100
00000000
00001000
00000010
00000100
00000000
00000001
00001000
00000010
00000000
00010000
00001000
00100000
00000000
,
00001000
00010000
00100000
00000000
01000000
10000000
00010000
00000000
01000000
00100000
10000000
00000000
00100000
01000000
00001000
00000000
,
00010000
00000100
00001000
00000000
00000001
00000010
00000100
00000000
MMMM1000
00000000
0001MMMM
00000000
MMMM1000
00000000
0001MMMM
00000000
,
01000000
00100000
10000000
00000000
01000000
00100000
00010000
00000000
01000000
00001000
00010000
00001000
01000000
00001000
00010000
00000000
,
00000100
00001000
00000001
00000000
00000100
00000010
00001000
00000000
00000001
00000010
00000100
00000010
00000001
00000010
00000100
00000000
,
00010000
00001000
00010000
00000000
00000010
00001000
00000010
00000000
00010000
00001000
00100000
00001000
00010000
00001000
01000000
00000000
,
00010000
00100000
01000000
00000000
10000000
00100000
01000000
00000000
0001MMMM
00000000
MMMM1000
00000000
0001MMMM
00000000
MMMM1000
00000000
,
00010000
00000100
00001000
00000000
00000010
00001000
00000100
00000000
00000010
00000001
00001000
00000001
00000100
00000010
00001000
00000000
,
00000001
00000010
00000100
00000000
00010000
00001000
00000100
00000000
00000001
00000010
00000100
00001000
00000100
00010000
00001000
00000000
,
00100000
00010000
10000000
00010000
01000000
00100000
10000000
00000000
01000000
00100000
00010000
00100000
00001000
00010000
00001000
00000000
,
00010000
00000100
00010000
00000100
00001000
00000100
00001000
00000100
00000010
00000001
00000100
00000001
00000100
00000010
00001000
00010000
,
00002000
00000000
00000000
00000000
,
00000000
00000000
00000000
00000000
,
MMMM3000
00000000
00000000
00000000
;
