#VERSION:0.83;
#TITLE:Impress;
#ARTIST:BEMANI Sound Team "SYUNN";
#ARTISTTRANSLIT:SYUNN;
#BANNER:Impress.png;
#BACKGROUND:Impress-bg.png;
#CDTITLE:./CDTitles/DANCERUSH STARDOM.png;
#MUSIC:Impress.ogg;
#SAMPLESTART:61.875;
#SAMPLELENGTH:15;
#BPMS:0=128;
#BGSTAGE:17;

//--------------- dance-single - Fred-104 ----------------
#NOTEDATA:;
#STEPSTYPE:dance-single;
#DESCRIPTION:Fred-104;
#DIFFICULTY:Beginner;
#METER:1;
#CREDIT:Fred-104;
#NOTES:
0000
0000
0000
0000
,
0000
0000
0000
0000
,
0000
0000
0000
0000
,
0001
0000
0000
0000
,
0000
0000
0000
0000
,
1000
0000
0000
0000
,
0000
0000
0000
0000
,
0001
0000
0000
0000
,
0000
0000
0000
0000
,
1000
0000
0000
0000
,
0000
0000
0000
0000
,
0010
0000
0000
0000
,
0000
0000
0000
0000
,
0001
0000
0000
0000
,
0000
0000
0000
0000
,
0100
0000
0000
0000
,
0000
0000
0000
0000
,
1000
0000
0000
0000
,
0001
0000
0000
0000
,
1000
0000
0000
0000
,
0000
0000
0000
0000
,
0001
0000
0000
0000
,
1000
0000
0000
0000
,
0001
0000
0000
0000
,
0000
0000
0000
0000
,
1000
0000
0000
0000
,
0000
0000
0000
0000
,
0001
0000
0000
0000
,
0000
0000
0000
0000
,
1000
0000
0000
0000
,
0001
0000
0000
0000
,
1000
0000
0000
0000
,
0001
0000
0000
0000
,
1000
0000
0000
0000
,
1000
0000
0000
0000
,
0100
0000
0000
0000
,
0001
0000
0000
0000
,
0010
0000
0000
0000
,
0010
0000
0000
0000
,
1000
0000
0000
0000
,
0001
0000
0000
0000
,
1000
0000
0000
0000
,
1000
0000
0000
0000
,
0001
0000
0000
0000
,
0001
0000
0000
0000
,
1000
0000
0000
0000
,
0001
0000
0000
0000
,
1000
0000
0000
0000
,
0001
0000
0000
0000
,
0100
0000
0000
0000
;

//--------------- dance-single - Fred-104 ----------------
#NOTEDATA:;
#STEPSTYPE:dance-single;
#DESCRIPTION:Fred-104;
#DIFFICULTY:Easy;
#METER:5;
#CREDIT:Fred-104;
#NOTES:
0000
0000
0000
0000
,
0000
0000
0000
0000
,
0000
0000
0000
0000
,
1000
0000
0100
0000
,
0001
0000
0010
0000
,
1000
1000
0100
0100
,
0001
0001
0010
0010
,
1000
0100
0010
0001
,
1000
0001
1000
1000
,
0001
0000
0010
0000
,
0100
0100
1000
0001
,
0100
0000
0010
0000
,
0100
0100
0001
0010
,
0100
0100
0100
0000
,
1000
0001
0100
0010
,
1000
0100
0010
0000
,
0001
1000
0010
0100
,
0001
0010
0010
0100
,
1000
0001
0100
0010
,
0100
0001
0100
0001
,
0010
0100
1000
0001
,
1000
0010
1000
0010
,
0001
0100
0001
0100
,
1000
0001
0100
0001
,
0100
1000
0010
0001
,
2000
0000
3200
0000
,
0320
0000
0032
0000
,
2003
0000
3002
0000
,
0103
0100
0010
0010
,
1000
1001
0000
0100
,
0000
1001
0000
0100
,
0000
1001
0000
0001
,
1000
0001
1001
0000
,
1000
1000
0100
0001
,
0100
0001
0100
1000
,
0001
0100
0001
0100
,
1000
0100
0001
1000
,
0001
0010
0001
0010
,
1000
0010
0001
0001
,
1000
0010
1000
0010
,
0001
0010
1000
0000
,
0001
0010
0001
0010
,
1000
0100
1000
0100
,
0001
1000
0100
0010
,
0001
1000
0001
0000
,
1000
0010
1000
0010
,
0001
0100
0001
0100
,
1000
0100
0010
0001
,
0100
0010
0100
0100
,
2002
0000
0000
0000
,
3003
0000
0000
0000
;

//--------------- dance-single - Fred-104 ----------------
#NOTEDATA:;
#STEPSTYPE:dance-single;
#DESCRIPTION:Fred-104;
#DIFFICULTY:Medium;
#METER:9;
#CREDIT:Fred-104;
#NOTES:
0000
0000
0000
0000
,
0000
0000
0000
0000
,
0000
0000
0000
0000
,
0001
0001
0010
0010
,
1000
1000
0100
0100
,
0001
0010
0001
0000
1000
0010
1000
0000
,
0001
0100
0001
0000
1000
0100
1000
0000
,
0001
0010
0001
0010
0100
1000
0100
1000
,
0001
1000
0001
1000
0001
1000
1001
0000
,
1000
0000
0000
0010
0000
0000
1000
0000
0001
0000
0000
0100
0000
0000
0001
0000
,
1000
0000
0000
0100
0000
0000
1000
0000
0001
0000
0000
0010
0000
0000
0001
0000
,
1000
0000
0000
0001
0000
0000
0010
0000
0100
0000
0000
1000
0000
0000
0001
0000
,
0100
0000
0000
0010
0000
0000
1000
0000
0001
0000
0000
0010
0000
0000
0100
0000
,
1000
0000
0001
0000
1000
0000
0010
0000
1000
0000
0000
0001
0000
0000
0010
0000
,
0100
0000
0000
1000
0000
0000
0001
0000
0100
0000
0000
0010
0000
0000
1000
0000
,
0010
0000
0000
0100
0000
0000
0001
0000
1000
0000
0000
0100
0000
0000
0010
0000
,
0001
0100
0010
1000
0100
0010
1001
0000
,
1000
0000
0000
0100
1000
0000
1000
0000
0010
0000
0000
0100
0001
0000
0001
0000
,
1000
0000
0000
0010
1000
0000
1000
0000
0100
0000
0000
0010
0001
0000
0001
0000
,
1000
0000
0000
0001
0100
0000
0100
0000
0001
0000
0000
0010
0100
0000
0100
0000
,
1000
0000
0000
0001
0010
0000
0010
0000
0001
0000
0000
0100
0010
0000
0010
0000
,
1000
0000
0000
0001
0100
0000
0100
0000
0001
0000
0000
1000
0100
0000
0100
0000
,
1000
0000
0000
0001
0010
0000
0010
0000
0001
0000
0000
1000
0010
0000
0010
0000
,
1000
0000
0000
0100
1000
0000
1000
0000
0010
0000
0000
0100
0001
0000
0001
0000
,
0100
0010
1000
0100
0010
0001
1000
0000
,
0002
0000
0023
0000
,
2030
0000
3200
0000
,
0302
0000
2003
0000
,
3200
0000
0010
0000
0310
0001
0100
0010
,
1000
1100
0001
0011
,
1000
1010
0001
0101
,
1000
0110
0001
1001
,
1000
0000
0100
0000
0001
0000
0100
0000
0020
0000
0000
0032
0000
0000
2003
0000
,
3001
0000
0000
0010
0000
0000
0100
0000
1000
0000
0000
0010
0000
0000
0100
0000
,
0001
0000
0000
0100
0000
0000
0010
0000
1000
0000
0000
0100
0000
0000
0010
0000
,
0001
0000
0000
1000
0000
0000
0010
0000
0100
0000
0000
0001
0000
0000
0010
0000
,
0001
0000
0000
1000
0000
0000
0100
0000
0010
0000
0000
0001
0000
0000
0100
0000
,
0001
0000
0000
0010
0000
0000
0100
0000
0010
0000
0000
1000
0000
0000
0010
0000
,
0001
0000
0000
1000
0000
0000
0001
0000
0100
0000
0000
1000
0000
0000
0100
0000
,
0001
0000
0000
1000
0000
0000
0100
0000
0010
0000
0000
0001
0000
0000
1000
0000
,
0002
0000
0000
0203
0000
0000
0320
0000
2030
0000
0000
3200
0000
0000
0320
0000
,
0031
0000
0000
1000
0000
0000
0001
0000
0100
0000
0000
0001
0000
0000
0010
0000
,
0100
0000
0000
1000
0000
0000
0010
0000
0100
0000
0000
0001
0000
0000
0010
0000
,
0100
0000
0000
0010
0000
0000
0001
0000
0100
0000
0000
0010
0000
0000
1000
0000
,
0001
0000
0000
0100
0000
0000
1000
0000
0001
0000
0000
0010
0000
0000
1000
0000
,
0001
0000
0000
0010
0000
0000
0100
0000
1000
0000
0000
0010
0000
0000
1000
0000
,
0100
0000
0000
0010
0000
0000
0001
0000
1000
0000
0000
0010
0000
0000
0100
0000
,
0010
0000
0000
1000
0000
0000
0100
0000
0010
0000
0000
0001
0000
0000
1000
0000
,
0001
0000
0000
0010
0000
0000
1000
0000
0001
0000
0000
0100
0000
0000
1000
0000
,
0002
0000
0000
0000
,
0003
0000
0000
0000
;

//--------------- dance-single - Fred-104 ----------------
#NOTEDATA:;
#STEPSTYPE:dance-single;
#DESCRIPTION:Fred-104;
#DIFFICULTY:Hard;
#METER:13;
#CREDIT:Fred-104;
#NOTES:
0000
0000
0000
0000
,
0000
0000
0000
0000
,
0000
0000
0000
0000
,
1000
1000
0001
0001
,
1000
1000
0001
0001
,
1000
0100
1000
0100
0010
0001
0010
0001
,
1000
0010
1000
0010
0100
0001
0100
0001
,
1000
0001
1000
0001
1000
0001
1000
0001
1000
0001
1000
0001
1000
0001
1000
0001
,
1000
0001
1000
0001
1000
0001
1000
0001
1000
0001
1000
0001
1000
0000
0000
0000
,
0001
0000
0000
0001
1000
0000
0100
0000
0010
0000
0000
0010
0001
0000
1000
0000
,
0010
0000
0000
0010
0100
0000
0001
0000
0010
0000
0000
0010
0100
0000
1000
0000
,
0001
0000
0000
0001
0100
0000
0010
0000
1000
0000
0000
1000
0001
0000
0010
0000
,
0100
0000
0000
0100
1000
0000
0001
0000
0100
0000
0000
0100
0001
0000
0010
0000
,
0001
1000
0001
1000
0001
0000
0100
0000
0010
0000
0000
0010
1000
0000
0001
0000
,
0010
0000
0000
0010
0100
0000
0010
0000
0001
0000
0000
0001
1000
0000
0010
0000
,
0100
0000
0000
0100
0001
0000
1000
0000
0100
0000
0000
0100
0010
0000
0001
0000
,
1000
0010
1000
0010
1000
0000
0001
0100
0001
0100
0001
0000
1001
0000
0000
0000
,
1000
0000
0000
0010
1000
0000
0001
0000
0010
0000
0000
0100
0010
0000
0001
0000
,
1000
0000
0000
0001
0100
0000
0010
0000
1000
0000
0000
0100
1000
0000
0001
0000
,
0100
0000
0000
0010
1000
0000
0100
0000
0010
0000
0000
0100
1000
0000
0001
0000
,
0100
0000
0000
0001
0010
0000
0100
0000
1000
0000
0001
0100
0001
0000
1000
0000
,
0100
0000
0000
0010
0001
0000
1000
0000
0010
0000
0000
0100
0010
0000
1000
0000
,
0100
0000
0000
0010
0001
0000
1000
0000
0001
0000
0000
0100
0001
0000
0010
0000
,
0100
0000
0000
0010
0001
0000
1000
0000
0010
0000
0000
0100
0001
0000
1000
0000
,
0100
0000
0010
0001
0010
0000
0100
1000
0100
0000
1000
0001
1000
0000
0001
0000
,
2000
0000
0000
0010
0000
0000
3010
0000
0200
0000
0000
0001
0000
0000
0301
0000
,
0020
0000
0000
0100
0000
0000
0130
0000
2000
0000
0000
0001
0000
0000
3001
0000
,
2000
0000
0000
0100
0000
0000
3001
0000
0002
0000
0000
0100
0000
0000
1003
0000
,
2000
0000
0000
0001
0000
0000
3001
0000
1000
0100
1000
0100
0010
0001
0010
0000
,
0001
0000
0101
0000
1000
0100
0010
0000
,
0001
0000
1010
0000
0001
1000
0010
0000
,
0100
0000
1001
0000
0100
0010
0100
0000
,
1001
0000
0001
0010
0001
0000
1000
0010
0200
0000
0000
0302
0000
0000
2003
0000
,
3100
0000
0010
0001
0000
0001
1000
0000
0001
0000
0100
0001
0000
0001
1000
0000
,
0100
0000
0010
0100
0000
0100
1000
0000
0001
0000
0100
0001
0000
0001
1000
0000
,
0001
0000
0010
0100
0000
0100
1000
0000
0001
0000
1000
0010
0000
0010
0100
0000
,
0001
0000
1000
0001
0000
0001
0010
0000
0100
0000
0010
0001
0000
0001
1000
0000
,
0001
0000
0100
0001
0000
1000
0100
0000
0010
0000
0100
1000
0000
0001
1000
0000
,
0001
0000
0100
0010
0000
1000
0001
0000
0010
0000
0100
0010
0000
0001
1000
0000
,
0010
0000
1000
0100
0000
0010
0100
0000
0010
0000
0001
0100
0000
0010
1000
0000
,
0200
0000
0000
0320
0000
0000
2030
0000
3002
0000
0000
0203
0000
0000
2300
0000
,
3001
0000
1000
0100
0000
0010
0001
0000
1000
0000
0010
1000
0000
0100
1000
0000
,
0001
0000
0100
0001
0000
1000
0100
0000
0010
0000
0100
1000
0000
0010
0100
0000
,
0001
0000
1000
0001
0000
0100
0001
0000
0010
0000
0100
1000
0000
0010
0100
0000
,
0010
0000
1000
0001
0000
0010
0001
0000
0100
0000
0001
1000
0000
0001
0010
0000
,
0100
0000
1000
0001
0000
0100
0010
0000
1000
0000
0100
0010
0000
0001
1000
0000
,
0001
0000
0100
0001
0000
0010
0001
0000
1000
0000
0010
1000
0000
0100
1000
0000
,
0001
0000
0010
0100
0000
1000
0010
0000
0100
0000
0001
0010
0000
0100
0010
0000
,
0002
0000
0000
0203
0000
0000
2300
0000
3002
0000
0000
0023
0000
0000
0230
0000
,
0320
0000
0000
0000
,
0030
0000
0000
0000
;

//--------------- dance-double - Fred-104 ----------------
#NOTEDATA:;
#STEPSTYPE:dance-double;
#DESCRIPTION:Fred-104;
#DIFFICULTY:Easy;
#METER:5;
#CREDIT:Fred-104;
#NOTES:
00000000
00000000
00000000
00000000
,
00000000
00000000
00000000
00000000
,
00000000
00000000
00000000
00000000
,
00010000
00000000
00001000
00000000
,
00000010
00000000
00000001
00000000
,
00001000
00000001
00001000
00000001
,
00000100
00001000
00010000
01000000
,
10000000
00010000
10000000
00100000
,
00010000
00001000
00000010
00000001
,
00001000
00000000
00000001
00000000
,
00000100
00000010
00000100
00001000
,
00010000
00000000
00001000
00000000
,
01000000
00001000
00100000
00010000
,
01000000
00010000
01000000
00000000
,
00100000
10000000
01000000
00100000
,
00010000
01000000
00001000
00000000
,
00010000
00001000
00000100
00001000
,
00010000
00001000
00010000
00001000
,
00000100
00000001
00000100
00000001
,
00001000
00000100
00000010
00000001
,
00001000
00000010
00010000
00001000
,
00010000
00001000
00000010
00001000
,
00010000
00100000
00010000
00001000
,
00010000
00001000
00000100
00001000
,
00010000
01000000
00010000
00001000
,
00020000
00000000
00032000
00000000
,
02003000
00000000
03020000
00000000
,
00230000
00000000
02300000
00000000
,
13000000
10000000
00010000
00010000
,
10000000
01100000
00000000
00001000
,
00000000
00011000
00000000
00010000
,
00000000
00000110
00000000
00000100
,
00000010
00010000
00011000
00000000
,
00001000
00010000
00001000
00010000
,
01000000
00010000
01000000
10000000
,
00010000
10000000
00100000
00010000
,
00001000
00010000
00001000
00010000
,
00001000
00000010
00000100
00000010
,
00000001
00001000
00000001
00001000
,
00000100
00000010
00001000
00010000
,
01000000
00100000
00010000
00000000
,
10000000
00100000
01000000
00100000
,
00010000
00001000
00010000
00000010
,
00001000
00000100
00000010
00000001
,
00001000
00000001
00001000
00000000
,
00000001
00000010
00000100
00001000
,
00000100
00010000
00001000
01000000
,
00010000
00100000
01000000
10000000
,
00100000
00010000
00001000
00000100
,
00002002
00000000
00000000
00000000
,
00003003
00000000
00000000
00000000
;

//--------------- dance-double - Fred-104 ----------------
#NOTEDATA:;
#STEPSTYPE:dance-double;
#DESCRIPTION:Fred-104;
#DIFFICULTY:Medium;
#METER:9;
#CREDIT:Fred-104;
#NOTES:
00000000
00000000
00000000
00000000
,
00000000
00000000
00000000
00000000
,
00000000
00000000
00000000
00000000
,
00010000
00010000
00001000
00001000
,
00010000
00010000
00001000
00001000
,
00010000
00001000
00010000
00000000
00000100
00001000
00000001
00000000
,
00000100
00000010
00000100
00000000
00001000
00010000
00001000
00000000
,
01000000
00010000
01000000
00010000
00100000
01000000
00100000
01000000
,
10000000
00010000
01000000
00100000
01000000
00010000
10000000
00000000
,
01000000
00000000
00100000
00000000
00001000
00010000
00000100
00000000
,
00001000
00000000
00000100
00000000
00000001
00000100
00001000
00000000
,
00000001
00000000
00000100
00000000
00001000
00010000
00001000
00000000
,
01000000
00010000
00100000
00000000
01000000
10000000
00010000
00000000
,
01000000
01000000
01000000
00000000
00100000
10000000
01000000
00000000
,
00100000
00001000
00010000
00000000
00001000
00000100
00000001
00000000
,
00001000
00000100
00000010
00000000
00000001
00001000
00000010
00000000
,
00001000
00000001
00000100
00001000
00010000
01000000
10000000
00000000
,
00010000
00000000
00000000
00010000
10000000
00000000
01000000
00000000
00100000
00000000
00000000
00100000
00001000
00000000
00010000
00000000
,
00000100
00000000
00000000
00000100
00010000
00000000
00001000
00000000
00010000
00000000
00000000
00010000
00000010
00000000
00000000
00000000
,
00001000
00000000
00000000
00001000
00000100
00000000
00000010
00000000
00000001
00000000
00000000
00000001
00001000
00000000
00000010
00000000
,
00000100
00000000
00000000
00000100
00001000
00000000
00010000
00000000
00001000
00000000
00000000
00001000
00010000
00000000
00000000
00000000
,
00001000
00000000
00000000
00001000
01000000
00000000
00010000
00000000
10000000
00000000
00000000
10000000
00010000
00000000
00100000
00000000
,
01000000
00000000
00000000
01000000
10000000
00000000
00010000
00000000
01000000
00000000
00000000
01000000
00001000
00000000
00000000
00000000
,
00010000
00000000
00000000
00010000
00000100
00000000
00001000
00000000
00000001
00000000
00000000
00000001
00000010
00000000
00000001
00000000
,
00001000
00000010
00000100
00001000
00010000
00100000
01000000
00000000
,
00020000
00000000
20030000
00000000
,
32000000
00000000
03020000
00000000
,
00032000
00000000
00003200
00000000
,
00000302
00002003
00003200
00000320
,
00000031
00001001
00000100
00011000
,
00100000
10010000
01000000
10010000
,
00100000
00011000
00000100
00001001
,
00000001
00000000
00000010
00000000
00000100
00000000
00000010
00000000
00002000
00000000
00000000
00023000
00000000
00000000
00032000
00000000
,
00013000
00000000
00000000
00001000
00000000
00000000
01000000
00000000
00010000
00000000
00100000
00000000
00010000
00000000
10000000
00000000
,
00010000
00000000
00000000
10000000
00000000
00000000
01000000
00000000
00010000
00000000
00001000
00000000
00010000
00000000
00001000
00000000
,
00010000
00000000
00000000
00000100
00000000
00000000
00001000
00000000
00000100
00000000
00000010
00000000
00000001
00000000
00001000
00000000
,
00000010
00000000
00000000
00000100
00000000
00000000
00001000
00000000
00010000
00000000
00000000
00100000
00000000
00000000
01000000
00000000
,
00010000
00000000
00000000
10000000
00000000
00000000
00010000
00000000
01000000
00000000
00100000
00000000
10000000
00000000
00100000
00000000
,
01000000
00000000
00000000
00010000
00000000
00000000
10000000
00000000
01000000
00000000
00100000
00000000
00010000
00000000
00100000
00000000
,
00001000
00000000
00000000
00010000
00000000
00000000
00000010
00000000
00001000
00000000
00000010
00000000
00000100
00000000
00000001
00000000
,
00002000
00000000
00000000
00003200
00000000
00000000
00000320
00000000
00000032
00000000
00000000
00000203
00000000
00000000
00000320
00000000
,
00001030
00000000
00000000
00000001
00000000
00000000
00000100
00000000
00001000
00000000
00000000
00010000
00000000
00000000
00001000
00000000
,
01000000
00000000
00000000
00001000
00000000
00000000
00010000
00000000
00001000
00000000
00000000
00000100
00000000
00000000
00000001
00000000
,
00001000
00000000
00000000
00000001
00000000
00000000
00000010
00000000
00000100
00000000
00000000
00000010
00000000
00000000
00001000
00000000
,
00010000
00000000
00000000
00100000
00000000
00000000
10000000
00000000
01000000
00000000
00000000
00100000
00000000
00000000
00001000
00000000
,
00010000
00000000
00000000
00001000
00000000
00000000
00100000
00000000
00001000
00000000
00000000
00010000
00000000
00000000
00001000
00000000
,
00000100
00000000
00000000
00000010
00000000
00000000
00000100
00000000
00000001
00000000
00000000
00001000
00000000
00000000
00000100
00000000
,
00000010
00000000
00000000
00000001
00000000
00000000
00001000
00000000
00000010
00000000
00000000
00000100
00000000
00000000
00001000
00000000
,
00010000
00000000
00000000
00100000
00000000
00000000
10000000
00000000
01000000
00000000
00000000
00010000
00000000
00000000
00001000
00000000
,
00022000
00000000
00000000
00000000
,
00033000
00000000
00000000
00000000
;

//--------------- dance-double - Fred-104 ----------------
#NOTEDATA:;
#STEPSTYPE:dance-double;
#DESCRIPTION:Fred-104;
#DIFFICULTY:Hard;
#METER:13;
#CREDIT:Fred-104;
#NOTES:
00000000
00000000
00000000
00000000
,
00000000
00000000
00000000
00000000
,
00000000
00000000
00000000
00000000
,
00001000
00001000
00010000
00010000
,
00001000
00001000
00010000
00010000
,
00001000
00010000
00100000
01000000
00010000
00100000
01000000
00010000
,
00001000
00000100
00000010
00001000
00000100
00010000
01000000
00010000
,
00001000
00010000
00001000
00000000
00100000
00010000
00100000
00000000
00001000
00010000
00001000
00000000
01000000
00010000
01000000
00000000
,
00001000
00010000
00001000
00010000
00001000
00010000
00001000
00010000
00001000
00010000
00001000
00010000
00001000
00000000
00000000
00000000
,
00010000
00000000
00000000
00010000
00001000
00000000
00000100
00000000
00000001
00000000
00000000
00000001
00001000
00000000
00000100
00000000
,
00000010
00000000
00000000
00000010
00000001
00000000
00001000
00000000
00000010
00000000
00000000
00000010
00000100
00000000
00001000
00000000
,
00010000
00000000
00000000
00010000
00001000
00000000
01000000
00000000
00010000
00000000
00000000
00010000
00100000
00000000
01000000
00000000
,
10000000
00000000
00000000
10000000
00010000
00000000
01000000
00000000
00100000
00000000
00000000
00100000
00010000
00000000
00001000
00000000
,
00010000
00001000
00010000
00001000
00010000
00000000
00000010
00000000
00010000
00000000
00000000
00010000
00001000
00000000
00000010
00000000
,
00000100
00000000
00000000
00000100
00000010
00000000
00000001
00000000
00001000
00000000
00000000
00001000
00000001
00000000
00000100
00000000
,
00001000
00000000
00000000
00001000
00010000
00000000
00001000
00000000
01000000
00000000
00000000
01000000
00010000
00000000
10000000
00000000
,
00010000
00100000
00010000
00100000
00010000
00000000
10000000
01000000
10000000
01000000
10000000
00000000
10010000
00000000
00000000
00000000
,
00010000
00000000
00000000
00100000
01000000
00000000
00100000
00000000
00001000
00000000
00000000
00010000
00000010
00000000
00001000
00000000
,
00000100
00000000
00000000
00000010
00001000
00000000
00010000
00000000
00001000
00000000
00000000
00010000
01000000
00000000
00100000
00000000
,
00010000
00000000
00000000
01000000
00001000
00000000
00010000
00000000
00000010
00000000
00000000
00001000
00000100
00000000
00010000
00000000
,
00001000
00000000
00000000
00010000
01000000
00000000
00100000
00000000
01000000
00000000
00010000
00001000
00010000
00000000
00001000
00000000
,
00010000
00000000
00000000
00001000
00010000
00000000
00000010
00000000
00001000
00000000
00000000
00000001
00000010
00000000
00000100
00000000
,
00001000
00000000
00000000
00000010
00000100
00000000
00001000
00000000
00010000
00000000
00000000
00001000
01000000
00000000
00001000
00000000
,
00010000
00000000
00000000
00100000
01000000
00000000
00010000
00000000
10000000
00000000
00000000
01000000
00100000
00000000
00001000
00000000
,
00010000
00000000
00001000
00010000
00000000
00010000
00000100
00000000
00001000
00000000
00000001
00000100
00000001
00000000
00001000
00000000
,
00000200
00000000
00000000
00000010
00000000
00000000
00000310
00000000
00000002
00000000
00000000
00000100
00000000
00000000
00000103
00000000
,
00002000
00000000
00000000
00010000
00000000
00000000
00013000
00000000
02000000
00000000
00000000
00100000
00000000
00000000
03100000
00000000
,
00020000
00000000
00000000
20030000
00000000
00000000
32000000
00000000
03020000
00000000
00000000
00032000
00000000
00000000
00003200
00000000
,
00000302
00000000
00000000
00000023
00000000
00000000
00000230
00000000
00010300
00001000
00010000
00000000
00001000
00100000
00001000
00000000
,
00010000
00000000
00000000
00001000
00000000
00000000
00000100
00000000
00000001
00000000
00000000
00001000
00000000
00000000
00000100
00000000
,
00000010
00000000
00000000
00000001
00000000
00000000
00001000
00000000
00000001
00000000
00000000
00000100
00000000
00000000
00001000
00000000
,
00010000
00000000
00000000
00001000
00000000
00000000
00010000
00000000
01000000
00000000
00000000
00100000
00000000
00000000
00010000
00000000
,
10010000
00000000
10000000
01000000
10000000
00000000
01000000
00010000
02000000
00000000
00000000
03020000
00000000
00000000
00032000
00000000
,
00013000
00000000
00001000
00010000
00000000
00010000
00000100
00000000
00001000
00000000
00000100
00000010
00000000
00000010
00000001
00000000
,
00001000
00000000
00000010
00000100
00000000
00000100
00001000
00000000
00010000
00000000
00001000
00100000
00000000
00100000
00010000
00000000
,
10000000
00000000
00010000
01000000
00000000
01000000
00100000
00000000
00010000
00000000
00001000
00010000
00000000
00010000
00001000
00000000
,
01000000
00000000
00010000
00100000
00000000
00100000
01000000
00000000
10000000
00000000
00100000
01000000
00000000
01000000
00010000
00000000
,
10000000
00000000
01000000
00100000
00000000
00010000
00100000
00000000
00001000
00000000
00010000
00000010
00000000
00001000
00000010
00000000
,
00000100
00000000
00000001
00001000
00000000
00000100
00000010
00000000
00000001
00000000
00001000
00000001
00000000
00000100
00000010
00000000
,
00000100
00000000
00001000
00010000
00000000
00001000
01000000
00000000
00001000
00000000
00010000
00001000
00000000
00100000
00010000
00000000
,
02000000
00000000
00000000
03200000
00000000
00000000
00320000
00000000
00032000
00000000
00000000
00003200
00000000
00000000
00000320
00000000
,
00001030
00000000
00000001
00000100
00000000
00000010
00001000
00000000
00000100
00000000
00000010
00001000
00000000
00010000
00001000
00000000
,
00010000
00000000
00100000
01000000
00000000
00010000
01000000
00000000
00010000
00000000
10000000
01000000
00000000
00100000
00010000
00000000
,
00100000
00000000
00001000
00010000
00000000
00000010
00001000
00000000
00000010
00000000
00010000
00001000
00000000
01000000
00010000
00000000
,
00100000
00000000
00001000
00010000
00000000
00001000
00000100
00000000
00000010
00000000
00001000
00000001
00000000
00000010
00000001
00000000
,
00001000
00000000
00000100
00000010
00000000
00000001
00001000
00000000
00000010
00000000
00010000
00001000
00000000
00100000
00001000
00000000
,
00010000
00000000
00000100
00010000
00000000
00001000
00010000
00000000
00100000
00000000
01000000
00010000
00000000
10000000
00010000
00000000
,
10000000
00000000
01000000
00100000
00000000
00001000
00010000
00000000
00000100
00000000
00000010
00000001
00000000
00001000
00000001
00000000
,
00002000
00000000
00000000
00003002
00000000
00000000
00000203
00000000
00002300
00000000
00000000
00023000
00000000
00000000
01030000
00000000
,
22000000
00000000
00000000
00000000
,
33000000
00000000
00000000
00000000
;
