#TITLE:Immortal;
#ARTIST:DJ NAGAI;
#GENRE:J-CORE;
#BANNER:Immortal.png;
#BACKGROUND:Immortal-bg.png;
#CDTITLE:./CDTitles/bm IIDX 21 SPADA.png;
#MUSIC:Immortal.ogg;
#SAMPLESTART:41.54;
#SAMPLELENGTH:15;
#BPMS:0=208;
#BGSTAGE:29;

//--------------- dance-single - Fred-104 ----------------
#NOTES:
     dance-single:
     Fred-104:
     Beginner:
     3:
     :
0000
0000
0000
0000
,
0000
0000
0000
0000
,
0000
0000
0000
0000
,
0000
0000
0000
0000
,
0000
0000
0000
0000
,
0000
0000
0000
0000
,
1000
0000
0000
0000
,
0000
0000
0000
0000
,
0001
0000
0000
0000
,
0000
0000
0000
0000
,
2000
0000
0000
0000
,
3000
0000
0000
0000
,
0002
0000
0000
0000
,
0003
0000
0000
0000
,
1000
0000
0000
0000
,
1000
0000
0000
0000
,
0001
0000
0000
0000
,
0001
0000
0000
0000
,
2000
0000
0000
0000
,
0000
0000
3000
0000
,
0002
0000
0000
0000
,
0000
0000
0003
0000
,
2000
0000
0000
0000
,
0000
0000
3000
0000
,
0002
0000
0000
0000
,
0000
0000
0003
0000
,
1000
0000
0000
0000
,
0010
0000
0000
0000
,
0001
0000
0000
0000
,
0100
0000
0000
0000
,
1000
0000
0000
0000
,
0001
0000
0000
0000
,
1000
0000
0000
0000
,
0001
0000
0000
0000
,
1001
0000
0000
0000
,
0000
0000
0000
0000
,
1000
0000
0000
0000
,
1000
0000
0000
0000
,
0001
0000
0000
0000
,
0001
0000
0000
0000
,
0100
0000
0000
0000
,
0100
0000
0000
0000
,
0010
0000
0000
0000
,
0110
0000
0000
0000
,
1000
0000
0000
0000
,
0001
0000
0000
0000
,
1000
0000
0000
0000
,
0001
0000
0000
0000
,
0010
0000
0000
0000
,
0001
0000
0000
0000
,
1001
0000
0000
0000
,
1001
0000
0000
0000
,
2000
0000
0000
0000
,
3000
0000
0000
0000
,
0002
0000
0000
0000
,
0003
0000
0000
0000
,
0200
0000
0000
0000
,
0300
0000
0000
0000
,
0020
0000
0000
0000
,
0030
0000
0000
0000
,
1000
0000
0000
0000
,
0100
0000
0000
0000
,
1000
0000
0000
0000
,
0001
0000
0001
0000
,
0001
0000
0000
0000
,
1000
0000
0000
0000
,
0001
0000
0001
0000
,
1001
0000
0000
0000
,
1001
0000
0000
0000
,
0000
0000
0000
0000
,
1001
0000
0000
0000
,
0110
0000
0000
0000
,
1001
0000
0000
0000
,
0110
0000
0000
0000
,
1000
0000
0000
0000
,
0001
0000
0000
0000
,
0100
0000
0000
0000
,
0010
0000
0010
0000
,
0010
0000
0000
0000
,
0100
0000
0000
0000
,
0001
0000
0000
0000
,
1000
0000
0000
0000
,
0010
0000
0000
0000
,
1000
0000
0000
0000
,
1001
0000
0000
0000
,
0110
0000
0000
0000
,
1001
0000
0000
0000
,
0000
0000
0000
0000
,
0001
0000
0001
0000
,
1000
0000
0000
0000
,
0010
0000
0100
0000
,
0010
0000
0000
0000
,
1000
0000
1000
0000
,
1000
0000
1000
0000
,
2002
0000
0000
0000
,
0000
0000
0000
0000
,
0000
0000
0000
0000
,
0000
0000
0000
0000
,
3003
0000
0000
0000
;

//--------------- dance-single - Fred-104 ----------------
#NOTES:
     dance-single:
     Fred-104:
     Easy:
     8:
     :
0000
0000
0000
0000
,
0000
0000
0000
0000
,
0000
0000
0000
0000
,
0000
0000
0000
0000
,
0000
0000
0000
0000
,
0000
0000
0000
0000
,
1000
0000
0000
0100
0000
0000
1000
0000
,
0001
0000
0000
1000
0000
0000
0001
0000
,
0100
0000
0000
0010
0000
0000
1000
0000
,
0001
1000
0100
0010
,
0001
0000
0000
0001
0000
0000
0001
0000
,
1000
0000
0000
1000
0000
0000
1000
0000
,
0010
0000
0000
0010
0000
0000
0010
0000
,
0100
0000
0000
0100
0000
0000
0100
0000
,
0001
0000
0000
1000
0000
0000
0001
0000
,
0010
0000
0000
0100
0000
0000
0010
0000
,
0100
0000
0000
1000
0000
0000
0001
0000
,
0100
0010
0100
0100
,
0001
0000
0000
0001
0000
0000
0002
0000
,
0000
0000
1003
0000
,
1000
0000
0000
1000
0000
0000
2000
0000
,
0000
0000
3010
0000
,
0010
0000
0000
0010
0000
0000
0020
0000
,
0000
0000
0130
0000
,
0100
0000
0000
0100
0000
0000
0200
0000
,
0000
0000
0301
0000
,
1000
0000
1000
0000
,
0100
0000
0100
0000
,
0001
0000
0001
0000
,
0010
0000
0010
1000
,
0001
0000
0010
0000
,
0100
0000
1000
0000
,
0001
0001
1000
1000
,
0001
0001
1000
1000
,
0002
0000
0203
0000
,
0020
0000
0000
0330
,
1001
0000
0000
0001
0000
0001
0000
0000
,
0010
0000
0000
0100
0000
0100
0000
0000
,
1000
0000
0000
0001
0000
1000
0000
0001
,
0000
0100
0010
0100
,
0001
0000
0000
1000
0000
1000
0000
0000
,
0100
0000
0000
0010
0000
0010
0000
0000
,
0001
0000
0000
1000
0000
0000
0001
0000
,
0100
0000
0000
0010
0000
1001
0000
0000
,
1000
0000
0000
0100
0000
0100
0000
0000
,
0010
0000
0000
0001
0000
0001
0000
0000
,
0100
0000
0000
0010
0000
0100
0000
0010
,
0000
0100
0010
1000
,
1001
0000
0000
0001
0000
0100
0000
0110
,
0000
0000
0010
0000
1000
1000
0000
2002
,
0000
0000
0000
3003
,
0100
0000
0100
0100
0000
0010
0000
2001
,
0000
0000
0000
0000
,
3002
0000
0000
0000
,
0203
0000
0000
0000
,
0320
0000
0000
0000
,
2030
0000
0000
0000
,
3200
0000
0000
0000
,
0320
0000
0000
0000
,
0032
0000
0000
0003
,
1000
1000
1000
1000
,
0001
0001
0001
0001
,
0100
0000
0100
0000
0100
0000
0100
0010
,
0100
0100
0110
1001
,
0001
0001
0010
0010
,
0100
0000
0100
0000
1000
0000
1000
0001
,
1000
0000
0001
0000
0100
0000
0010
0020
,
0000
0000
0000
0030
,
2000
0000
3002
0000
,
2000
0000
0000
3003
,
1001
0000
0000
1000
0000
0100
0000
0000
,
0010
0000
0000
0001
0000
1000
0000
0000
,
0001
0100
0001
0100
,
0000
0010
0000
0010
0100
0000
0110
0000
,
1001
0000
0000
0001
0000
1000
0000
0000
,
0100
0000
0000
1000
0000
0001
0000
0000
,
0100
0010
0100
0010
,
0100
0000
0100
0100
0000
1001
0000
0000
,
1001
0000
0000
0001
0000
0100
0000
0000
,
0010
0000
0000
0100
0000
0001
0000
0000
,
0010
0000
0000
0100
0000
0000
1000
0000
,
0000
0001
0001
0000
0100
0000
0010
0000
,
0110
0000
0000
0100
0000
0100
0000
0100
,
0000
0001
0001
0000
1000
0001
0000
2002
,
0000
0000
0000
3003
,
1000
0000
0100
0100
0000
1000
0000
2002
,
0000
0000
0000
0000
,
0000
0000
0000
3003
,
0001
0010
0001
0010
,
0100
1000
0100
1000
,
0001
0100
0001
0100
,
0010
0010
0000
0100
0000
0110
0000
0000
,
0001
0001
1000
1000
,
0010
0100
0001
1000
,
0200
0000
0000
0320
,
0000
0000
0000
0032
,
0000
0000
0000
2000
,
0000
0000
0003
0000
,
3000
0000
0000
0000
;

//--------------- dance-single - Fred-104 ----------------
#NOTES:
     dance-single:
     Fred-104:
     Medium:
     13:
     :
0000
0000
0000
0000
,
0000
0000
0000
0000
,
0000
0000
0000
0000
,
0000
0000
0000
0000
,
0000
0000
0000
0000
,
0000
0000
0000
0000
,
1001
0000
0000
1000
0000
0000
1000
0000
,
0001
0000
0000
0001
0000
0000
0001
0000
,
0010
0000
0000
0010
0000
0000
0010
0000
,
0100
0000
0100
1000
0001
0000
0100
0001
,
1000
0000
0001
1000
0000
0100
0010
0000
,
0001
0000
1000
0001
0000
1000
0001
0000
,
0100
0000
0100
0010
0000
1000
0001
0000
,
0010
0000
0010
0100
0000
1000
0001
1000
,
0001
0010
1000
0010
0000
0001
1000
0000
,
0001
0100
1000
0100
0000
0001
1000
0000
,
0100
0010
0001
0010
0000
0100
1000
0000
,
0001
0100
0001
0000
1000
0100
0010
0001
,
1000
1000
0000
0001
0001
0000
0100
0200
,
0000
0000
0000
0000
0310
0100
0010
0000
,
0100
0100
0000
0001
0001
0000
0010
0020
,
0000
0000
0000
0000
0130
1000
0100
0000
,
1000
1000
0000
0010
0010
0000
0100
0200
,
0000
0000
0000
0000
0310
1000
0001
0000
,
0010
0010
0000
0100
0100
0000
1000
0001
,
0100
0010
0100
0000
0110
0000
1001
0000
,
0001
0000
0000
0010
0000
0000
1000
0000
,
0001
0000
0000
0100
0000
0000
1000
0000
,
0001
0000
0000
0100
0000
0000
1000
0000
,
0001
0000
0000
0010
0000
0000
1000
0100
,
0010
0000
0011
0000
1000
0000
0001
0100
,
0110
0000
1000
0100
0001
0000
1000
0010
,
0001
1000
0001
0000
0100
0010
1000
0000
,
0001
0010
0100
1000
0010
0100
0001
0010
,
0200
0000
2300
0000
,
0002
0000
0000
3003
,
1001
0000
1000
0100
0000
0100
1000
0001
,
0100
0000
0010
1000
0000
1000
0100
0010
,
0001
0000
1000
0100
1000
0001
0100
0010
,
0000
0100
0010
0000
0100
0010
0100
0000
,
1001
0000
1000
0100
0000
0100
1000
0001
,
0010
0000
0001
1000
0000
1000
0010
0100
,
0001
1000
0010
1000
0001
0010
0100
1000
,
0001
0000
0100
0110
0000
1001
0000
0000
,
0110
0000
1000
0001
0000
0001
1000
0010
,
0100
0000
0010
1000
0000
1000
0001
1000
,
0010
0000
0100
0001
1000
0100
0010
0001
,
0000
0010
0100
0000
1000
0001
1000
0000
,
0001
0000
0100
0100
0000
0110
0000
1001
,
0000
1000
0001
0000
0100
0010
0000
0200
,
0000
0000
0000
0000
0000
0000
0000
0000
0000
0000
0301
1000
0001
0000
0000
0000
,
0110
0000
0100
0010
0000
0110
0000
2001
,
0000
0000
0000
0000
,
3002
0000
0000
0000
,
0203
0000
0000
0000
,
0320
0000
0000
0000
,
2030
0000
0000
0000
,
3002
0000
0000
0000
,
0023
0000
0000
0000
,
0200
0000
0000
0330
,
1000
1000
0001
0001
,
0100
0100
0010
0010
,
1000
0000
0100
0000
0010
0000
0001
0010
,
0011
1010
0101
1100
,
0001
0100
0001
0000
1000
0100
1000
0000
,
0001
0010
0001
0000
1000
0010
1000
0000
,
0001
0010
0001
0010
0100
1000
0001
2000
,
0000
0000
0000
3000
,
0002
0000
2003
0000
,
0002
0000
0000
3003
,
0110
0000
0001
0001
0000
1000
0100
0010
,
0001
0000
1000
1000
0000
0010
0100
0010
,
1000
1000
0001
0001
0010
0100
1000
0001
,
0000
0110
0000
0100
0010
0100
0010
0000
,
1001
0000
0001
0010
0000
1000
0010
0001
,
1000
0000
0010
0001
0000
0010
0100
0010
,
1000
0001
0010
0100
1000
0001
0100
0010
,
0100
0000
0010
0110
0000
1001
0000
0000
,
0110
0000
1000
0001
0000
0100
1000
0100
,
0010
0000
0100
0001
0000
1000
0100
0010
,
0001
1000
0010
1000
0001
0010
0100
1000
,
0000
0001
0001
0000
0100
0010
0100
0000
,
0011
0000
0001
0001
0000
1010
0000
0101
,
0000
1000
0100
0000
0010
0100
0000
2000
,
0000
0000
0000
0000
0000
0000
0000
0000
0000
0000
3001
1000
0001
0000
0000
0000
,
0110
0000
0100
0010
0000
0110
0000
2002
,
0000
0000
0000
0000
,
0000
0000
0000
3003
,
0001
0010
0100
1000
0001
1000
0010
0000
,
0100
0001
1000
0001
0010
0100
1000
0000
,
0001
0100
0001
1000
0001
0010
0001
1000
,
0010
0010
0000
0110
0000
2002
0000
3003
,
1000
0100
1000
0001
0100
0001
1000
0100
,
0010
0001
0010
0100
1000
0001
0100
0010
,
2000
0000
0000
0000
0000
0000
3010
0020
,
0000
0000
0000
0000
0000
0000
0130
0200
,
0000
0000
0000
0000
0000
0000
0001
0002
,
0000
0000
0300
0000
,
0003
0000
0000
0000
;

//--------------- dance-single - Fred-104 ----------------
#NOTES:
     dance-single:
     Fred-104:
     Hard:
     17:
     :
0000
0000
0000
0000
,
0000
0000
0000
0000
,
0000
0000
0000
0000
,
0000
0000
0000
0000
,
0000
0000
0000
0000
,
0000
0000
0000
0000
,
1001
0000
0000
0001
0010
0000
0100
0000
,
1100
0000
0000
1000
0001
0000
0100
0000
,
0110
0000
0000
1000
0100
0000
0010
0000
,
0011
0000
1100
0010
0001
0000
0101
0010
,
1000
0001
0010
1000
0000
0010
0001
0000
,
1000
0001
0100
1000
0000
0100
0001
0000
,
1000
0001
0100
1000
0000
0100
0001
0000
,
1000
0100
0010
0001
0000
1000
0100
0010
,
0001
0001
0100
0001
0000
0100
0110
0000
,
1000
1000
0100
1000
0000
0100
0110
0000
,
0001
0010
0010
0001
0000
0010
0110
0000
,
1000
0000
0010
0000
1000
0000
0000
0000
0001
1000
0001
1000
0010
0100
0010
0100
,
0001
1000
0100
0001
0200
0000
0310
0002
,
0000
0000
0000
0000
0000
0000
0000
0000
1003
0001
1000
0001
0020
0000
0000
0000
,
0130
0001
0100
0010
0001
0000
1000
0020
,
0000
0000
0000
0000
0000
0000
0000
0000
0130
0001
0100
0001
0100
0000
0000
0000
,
0001
0100
1000
0001
0010
1000
0100
0020
,
0000
0000
0000
0000
0000
0000
0000
0000
0031
1000
0001
1000
0002
0000
0000
0000
,
1003
0010
0001
1000
0100
0010
1000
0001
,
0010
0100
1100
1001
,
1000
0100
0001
1000
,
0010
0001
1000
0010
,
0001
1000
0100
0001
,
0010
0000
0100
0000
1000
0000
0001
1000
,
1100
0000
0010
0000
0101
0000
0010
1000
,
1100
0000
0010
0001
0101
0000
0010
1000
,
1100
0100
0010
0010
0001
0001
1000
1000
,
0010
0100
0010
0100
0010
0100
0010
0100
0001
1000
0001
1000
0001
1000
0001
1000
,
0200
0000
0320
0000
,
0002
0000
0000
0033
,
1001
0000
0000
0000
0001
0000
0010
0000
0000
0000
0100
0000
1000
0001
0100
0001
,
1000
0000
0000
0000
0001
0000
0100
0000
0000
0000
0010
0000
1000
0001
1000
0100
,
1000
0000
0001
1000
0010
0001
0010
0100
,
0001
0000
1001
0000
1001
0000
1000
0000
0100
0000
1000
0000
0001
0100
0010
1000
,
0001
0000
0000
0000
1000
0000
0010
0000
0000
0000
0100
0000
0001
0010
0100
1000
,
0001
0000
0000
0000
1000
0000
0100
0000
0000
0000
0010
0000
0001
0100
0010
1000
,
0010
0000
1000
0000
0010
0000
1000
0000
0001
0010
0001
0010
0100
1000
0100
1000
,
0001
0000
1010
0101
0000
1001
0000
0000
,
0110
0000
0000
0000
1000
0000
0100
0000
0010
0000
0001
0000
1000
0001
0100
0010
,
0100
0000
0000
0000
0001
0000
1000
0000
0010
0000
0100
0000
0001
1000
0100
1000
,
0001
0000
0010
1000
0010
0100
0010
0001
,
1000
0000
1001
0000
1001
0000
0001
0000
0100
0000
0010
0000
1000
0001
0100
0001
,
1000
0000
0001
0010
0001
0000
0011
0000
0000
0000
1100
0000
0000
0000
0101
0000
,
0000
0000
0001
1000
0001
0000
0000
0000
1000
0010
0100
0000
0000
0000
0001
1000
,
0100
1000
0100
1000
0100
1000
0100
1000
0001
1000
0010
1000
0001
0000
0000
0000
,
1010
0000
0001
1000
0100
0000
1100
0000
0000
0000
0011
0000
0000
0000
2001
0000
,
0000
0000
0000
0000
,
3002
0000
0000
0000
,
0203
0000
0000
0000
,
0320
0000
0000
0030
,
2200
0000
0000
3300
,
0202
0000
0000
0303
,
0022
0000
0000
0033
,
2020
0000
3030
0000
,
1001
1000
0100
0100
,
0010
0010
0001
0001
,
0100
0000
0001
0000
0010
0000
0100
1000
,
1100
0101
0011
1010
,
0001
0010
0100
0001
1000
0010
0100
1000
,
0010
0100
1000
0001
0010
0100
0001
1000
,
0100
1000
0100
1000
0100
1000
0100
1000
0001
1000
0001
1000
0001
0000
0022
0000
,
0000
0000
0030
0003
,
0020
0000
0230
0000
,
2000
0000
0000
3300
,
1100
0000
0000
0000
0101
0000
1001
0000
0000
0000
0001
0000
1000
0010
1000
0010
,
0100
0000
0000
0000
0101
0000
1001
0000
0000
0000
1000
0000
0100
0010
0100
0010
,
0001
0000
0001
0000
1000
0000
1000
0000
0010
0100
0001
1000
0100
0010
0001
0010
,
0000
0011
0000
1010
0011
1100
1001
0000
,
1010
0000
0000
0000
0001
0000
1000
0000
0001
0000
0010
0000
0100
1000
0100
0010
,
0001
0000
0000
0000
1000
0000
0010
0000
0100
0000
0010
0000
1000
0001
0010
0100
,
1000
0000
0001
0000
0100
0000
0001
0000
1000
0001
0010
0001
1000
0010
1000
0001
,
0100
0000
0101
1100
0000
0110
0000
0000
,
1001
0000
0000
0000
1000
0000
0100
0000
0010
0000
1000
0000
0010
0100
0010
0001
,
1000
0000
0000
0000
0001
0000
0100
0000
0010
0000
0001
0000
0010
1000
0001
1000
,
0100
0010
0100
0001
0100
0010
0001
1000
,
0001
0000
0101
0000
0101
0000
0100
0000
0001
0000
1000
0000
0100
0010
0001
1000
,
0010
0000
0100
0010
0100
0000
0101
0000
0000
0000
1100
0000
0000
0000
0011
0000
,
0000
0000
1000
0001
0100
0000
0000
0000
0010
1000
0001
0000
0000
0000
1000
0001
,
0010
0001
0010
0001
0010
0001
0010
0001
1000
0001
0100
0010
1000
0000
0000
0000
,
1001
0000
1000
0001
0100
0000
0101
0000
0000
0000
1100
0000
0000
0000
0220
0000
,
0000
0000
0000
0000
,
0000
0000
0300
0030
,
1000
0000
0100
0000
0010
0000
0001
0000
1000
0010
1000
0000
0001
0000
0100
0000
,
0010
0000
1000
0000
0001
0000
0010
0000
0100
0010
0100
0000
1000
0000
1000
0000
,
0001
0100
0001
0000
1000
0000
0001
0000
1000
0100
1000
0000
0001
0000
1000
0000
,
1100
0101
0000
1010
0000
2002
0000
3003
,
0001
0010
0100
0000
0010
0100
1000
0000
0100
1000
0001
0000
1000
0001
0010
0000
,
0001
1000
0001
1000
0010
0100
0010
0100
0001
1000
0100
0010
0001
1000
0010
0100
,
0020
0000
0000
0000
0000
0030
0110
0220
,
0000
0000
0000
0000
0330
0000
1001
2002
,
0000
0000
0000
0000
3003
0000
1100
2200
,
0000
0000
0300
0000
,
3000
0000
0000
0000
;

//--------------- dance-double - Fred-104 ----------------
#NOTES:
     dance-double:
     Fred-104:
     Easy:
     8:
     :
00000000
00000000
00000000
00000000
,
00000000
00000000
00000000
00000000
,
00000000
00000000
00000000
00000000
,
00000000
00000000
00000000
00000000
,
00000000
00000000
00000000
00000000
,
00000000
00000000
00000000
00000000
,
10000000
00000000
00000000
00010000
00000000
00000000
01000000
00000000
,
00001000
00000000
00000000
00010000
00000000
00000000
00000100
00000000
,
00010000
00000000
00000000
00001000
00000000
00000000
00010000
00000000
,
00001000
00000100
00000001
00000010
,
00000100
00000000
00000000
00000100
00000000
00000000
00000100
00000000
,
00010000
00000000
00000000
00010000
00000000
00000000
00010000
00000000
,
00001000
00000000
00000000
00001000
00000000
00000000
00001000
00000000
,
01000000
00000000
00000000
01000000
00000000
00000000
01000000
00000000
,
00010000
00000000
00000000
10000000
00000000
00000000
00100000
00000000
,
00010000
00000000
00000000
00001000
00000000
00000000
00010000
00000000
,
00001000
00000000
00000000
00000010
00000000
00000000
00000100
00000000
,
00001000
00000001
00000100
00001000
,
00010000
00000000
00000000
00001000
00000000
00000000
00020000
00000000
,
00000000
00000000
00030000
00000000
,
00001000
00000000
00000000
01000000
00000000
00000000
00020000
00000000
,
00000000
00000000
00030000
00000000
,
10000000
00000000
00000000
01000000
00000000
00000000
00200000
00000000
,
00000000
00000000
00300000
00000000
,
00001000
00000000
00000000
00010000
00000000
00000000
00002000
00000000
,
00000000
00000000
00003000
00000000
,
00010000
00000000
00010000
00000000
,
00001000
00000000
00001000
00000000
,
00000010
00000000
00000010
00000000
,
00000001
00000000
00000001
00000100
,
00001000
00010000
00001000
00010000
,
01000000
00100000
00010000
10000000
,
00100000
00010000
00001000
00010000
,
00001000
00000010
00000001
00000100
,
00002000
00000000
00023000
00000000
,
00002000
00000000
00000000
00033000
,
00000110
00000000
00000000
00001000
00000000
00001000
00000000
00000000
,
00000100
00000000
00000000
00000010
00000000
00000010
00000000
00000000
,
00000001
00000000
00000000
00000100
00000000
00001000
00000000
00010000
,
00000000
00001000
00010000
00001000
,
00010000
00000000
00000000
00001000
00000000
00001000
00000000
00000000
,
01000000
00000000
00000000
00010000
00000000
00010000
00000000
00000000
,
00100000
00000000
00000000
01000000
00000000
00000000
10000000
00000000
,
00010000
00000000
00000000
00100000
00000000
00011000
00000000
00000000
,
00010000
00000000
00000000
00000100
00000000
00000100
00000000
00000000
,
00000010
00000000
00000000
00000001
00000000
00000001
00000000
00000000
,
00001000
00000000
00000000
00000010
00000000
00001000
00000000
00000010
,
00000000
00010000
00001000
00010000
,
00011000
00000000
00000000
00001000
00000000
01000000
00000000
01100000
,
00000000
00000000
00010000
00000000
10000000
10000000
00000000
22000000
,
00000000
00000000
00000000
33000000
,
00010000
00000000
00010000
01000000
00000000
00100000
00000000
20010000
,
00000000
00000000
00000000
00000000
,
32000000
00000000
00000000
00000000
,
03200000
00000000
00000000
00000000
,
00302000
00000000
00000000
00000000
,
00023000
00000000
00000000
00000000
,
00030020
00000000
00000000
00000000
,
00002030
00000000
00000000
00000000
,
00003002
00000000
00000000
00000003
,
00001000
00001000
00000001
00000001
,
00000100
00000100
00001000
00001000
,
00010000
00000000
00010000
00000000
00100000
00000000
00100000
01000000
,
00100000
00100000
01100000
10010000
,
10000000
01000000
00100000
00010000
,
00100000
00000000
00001000
00000000
00010000
00000000
00000010
00001000
,
00000010
00000000
00000100
00000000
00000001
00000000
00000010
00000020
,
00000000
00000000
00000000
00000030
,
00000200
00000000
00002300
00000000
,
00000002
00000000
00000000
00003003
,
00001001
00000000
00000000
00000001
00000000
00000100
00000000
00000000
,
00001000
00000000
00000000
00010000
00000000
00001000
00000000
00000000
,
00010000
00001000
00010000
00001000
,
00000000
01000000
00000000
01000000
00001000
00000000
00011000
00000000
,
00011000
00000000
00000000
00001000
00000000
00100000
00000000
00000000
,
00001000
00000000
00000000
00010000
00000000
00001000
00000000
00000000
,
00010000
00000010
00001000
00000010
,
00010000
00000000
00010000
00001000
00000000
00011000
00000000
00000000
,
00011000
00000000
00000000
00001000
00000000
00100000
00000000
00000000
,
00010000
00000000
00000000
00100000
00000000
01000000
00000000
00000000
,
10000000
00000000
00000000
00100000
00000000
00000000
00010000
00000000
,
00000000
00001000
00001000
00000000
00010000
00000000
00001000
00000000
,
00011000
00000000
00000000
00010000
00000000
00010000
00000000
00010000
,
00000000
00001000
00001000
00000000
00000100
00000001
00000000
00002002
,
00000000
00000000
00000000
00003003
,
00000001
00000000
00000100
00000010
00000000
00000100
00000000
00000220
,
00000000
00000000
00000000
00000000
,
00000000
00000000
00000000
00000330
,
00000001
00000010
00000100
00010000
,
00001000
01000000
00001000
00010000
,
00000100
00001000
00000100
00000010
,
00000001
00000001
00000000
00001000
00000000
00001001
00000000
00000000
,
00000001
00000100
00000010
00000100
,
00001000
00010000
00100000
10000000
,
02000000
00000000
00000000
03200000
,
00000000
00000000
00000000
00320000
,
00000000
00000000
00000000
20000000
,
00000000
00000000
00030000
00000000
,
30000000
00000000
00000000
00000000
;

//--------------- dance-double - Fred-104 ----------------
#NOTES:
     dance-double:
     Fred-104:
     Medium:
     13:
     :
00000000
00000000
00000000
00000000
,
00000000
00000000
00000000
00000000
,
00000000
00000000
00000000
00000000
,
00000000
00000000
00000000
00000000
,
00000000
00000000
00000000
00000000
,
00000000
00000000
00000000
00000000
,
00011000
00000000
00000000
00001000
00000000
00000000
00010000
00000000
,
00001000
00000000
00000000
01000000
00000000
00000000
00010000
00000000
,
00100000
00000000
00000000
01000000
00000000
00000000
10000000
00000000
,
00100000
00000000
00010000
00001000
00010000
00000000
00001000
01000000
,
00010000
00000000
10000000
01000000
00000000
01000000
00100000
00000000
,
00001000
00000000
00010000
00000010
00000000
00000010
00001000
00000000
,
00000100
00000000
00000010
00000001
00000000
00000001
00000100
00000000
,
00001000
00000000
00010000
00001000
00000000
00001000
00010000
00000000
,
00001000
00010000
00001000
00010000
00000000
00100000
01000000
00000000
,
00010000
00100000
00010000
00100000
00000000
01000000
10000000
00000000
,
00100000
00010000
00100000
00010000
00000000
00001000
00000010
00000000
,
00000001
00001000
00000010
00000000
00010000
00001000
00010000
00001000
,
00010000
00010000
00000000
00001000
00001000
00000000
01000000
02000000
,
00000000
00000000
00000000
00000000
03010000
10000000
00100000
00000000
,
01000000
01000000
00000000
00001000
00001000
00000000
00010000
00020000
,
00000000
00000000
00000000
00000000
00031000
00000010
00000001
00000000
,
00001000
00001000
00000000
00000100
00000100
00000000
00000010
00000020
,
00000000
00000000
00000000
00000000
00000031
00000100
00001000
00000000
,
00010000
00010000
00000000
00001000
00001000
00000000
01000000
00001000
,
00010000
00001000
00011000
00010100
,
00010000
00000000
00000000
00001000
00000000
00000000
00000100
00000000
,
00000010
00000000
00000000
00001000
00000000
00000000
00000100
00000000
,
00000010
00000000
00000000
00000001
00000000
00000000
00000100
00000000
,
00001000
00000000
00000000
00010000
00000000
00000000
00100000
01000000
,
00010000
00000000
11000000
00000000
00100000
00000000
00001000
00010000
,
00011000
00000000
00010000
00001000
00000010
00000000
00000100
00001000
,
00000001
00000100
00001000
00000000
00010000
01000000
10000000
00000000
,
00010000
10000000
00100000
00010000
00001000
00000010
00000001
00000010
,
00000200
00000000
00020300
00000000
,
00002000
00000000
00000000
00033000
,
01100000
00000000
00010000
00100000
00000000
01000000
10000000
00010000
,
10000000
00000000
00010000
01000000
00000000
00001000
00010000
00000100
,
00000010
00000000
00000001
00001000
00000000
00000010
00000100
00001000
,
00000000
00010000
00010000
00000000
00001000
00010000
00001000
00000000
,
00011000
00000000
00010000
00001000
00000000
00000100
00000001
00001000
,
00000100
00000000
00000010
00000001
00000000
00001000
00000010
00000100
,
00001000
00010000
00001000
00010000
01000000
00100000
00010000
10000000
,
00100000
00000000
00010000
00011000
00000000
00011000
00000000
00000000
,
01100000
00000000
00010000
00100000
00000000
10000000
00100000
00010000
,
10000000
00000000
00100000
00010000
00000000
00001000
00010000
00000100
,
00010000
00000000
00001000
00010000
00000010
00001000
00000100
00000010
,
00000000
00000001
00000100
00000000
00001000
00010000
00001000
00000000
,
00011000
00000000
00001000
00010000
00000000
00110000
00000000
10100000
,
00000000
10000000
01000000
00000000
00010000
00001000
00000000
00020000
,
00000000
00000000
00000000
00000000
00000000
00000000
00000000
00000000
00000000
00000000
00031000
00010000
00001000
00000000
00000000
00000000
,
00011000
00000000
00010000
00001000
00000000
00001100
00000000
00000102
,
00000000
00000000
00000000
00000000
,
00002003
00000000
00000000
00000000
,
00003200
00000000
00000000
00000000
,
00020300
00000000
00000000
00000000
,
00032000
00000000
00000000
00000000
,
00023000
00000000
00000000
00000000
,
00230000
00000000
00000000
00000000
,
20000000
00000000
00000000
30300000
,
10000000
10000000
01000000
01000000
,
00010000
00010000
00001000
00001000
,
00000100
00000000
00000100
00000000
00000001
00000000
00000001
00000010
,
00000110
00001100
00010100
01001000
,
00010000
00001000
00000010
00000000
00001000
00010000
00001000
00000000
,
00010000
00001000
00000100
00000000
00001000
00010000
00001000
00000000
,
00010000
00100000
01000000
00010000
00100000
01000000
10000000
00020000
,
00000000
00000000
00000000
00030000
,
00200000
00000000
00302000
00000000
,
00020000
00000000
00000000
00033000
,
00011000
00000000
00010000
00010000
00000000
00001000
00000100
00000001
,
00000010
00000000
00000100
00000100
00000000
00010000
00001000
00010000
,
00100000
01000000
00010000
01000000
00100000
10000000
00010000
10000000
,
00000000
11000000
00000000
01000000
00010000
00001000
00011000
00000000
,
00000110
00000000
00001000
00000100
00000000
00000010
00000001
00001000
,
00000010
00000000
00000100
00001000
00000000
00010000
00001000
01000000
,
00001000
00010000
00001000
00100000
00010000
10000000
00100000
01000000
,
00010000
00000000
00100000
00101000
00000000
00011000
00000000
00000000
,
00000110
00000000
00001000
00000001
00000000
00000100
00000001
00000100
,
00001000
00000000
00010000
00100000
00000000
01000000
00010000
10000000
,
01000000
00100000
00010000
00100000
00001000
00010000
00000010
00010000
,
00000000
00001000
00001000
00000000
00010000
00001000
00010000
00000000
,
00011000
00000000
00010000
00001000
00000000
00001100
00000000
00000101
,
00000000
00001000
00000001
00000000
00000010
00001000
00000000
00020000
,
00000000
00000000
00000000
00000000
00000000
00000000
00000000
00000000
00000000
00000000
00031000
00010000
00001000
00000000
00000000
00000000
,
00011000
00000000
00001000
01000000
00000000
01100000
00000000
20020000
,
00000000
00000000
00000000
00000000
,
00000000
00000000
00000000
30030000
,
10000000
01000000
00010000
01000000
10000000
01000000
00010000
00000000
,
00001000
00010000
00001000
00000100
00000001
00000010
00000100
00000000
,
00001000
00000010
00000100
00001000
00010000
00001000
01000000
00000000
,
00010000
00010000
00000000
11000000
00000000
20020000
00000000
30030000
,
10000000
01000000
00010000
01000000
10000000
01000000
00010000
00001000
,
00010000
00001000
00000100
00000001
00000100
00001000
00000100
00000001
,
00000020
00000000
00000000
00000000
00000000
00000000
00000130
00000200
,
00000000
00000000
00000000
00000000
00000000
00000000
00010300
00020000
,
00000000
00000000
00000000
00000000
00000000
00000000
00001000
00002000
,
00000000
00000000
00030000
00000000
,
00003000
00000000
00000000
00000000
;

//--------------- dance-double - Fred-104 ----------------
#NOTES:
     dance-double:
     Fred-104:
     Hard:
     17:
     :
00000000
00000000
00000000
00000000
,
00000000
00000000
00000000
00000000
,
00000000
00000000
00000000
00000000
,
00000000
00000000
00000000
00000000
,
00000000
00000000
00000000
00000000
,
00000000
00000000
00000000
00000000
,
00001001
00000000
00000000
00000001
00000100
00000000
00001000
00000000
,
00011000
00000000
00001000
00010000
00100000
00000000
10000000
00000000
,
01100000
00000000
00000000
00010000
10000000
00000000
00100000
00000000
,
01100000
00000000
10000000
01000000
00010000
00000000
00001000
00000100
,
00000001
00000010
00000100
00010000
00000000
00001000
00000000
01000000
,
00001000
00010000
00100000
10000000
00000000
01000000
00000000
00100000
,
00001000
00010000
00001000
00000100
00000000
00000010
00000000
00001000
,
00000100
00000010
00000001
00000100
00000000
00001000
00010000
00001000
,
00010000
00001000
00001000
00000010
00001000
00001000
00010000
00000000
,
00001000
00010000
00010000
00100000
00010000
00010000
00001000
00000000
,
00010000
00001000
00001000
00000100
00001000
00001000
00010000
00000000
,
00001000
00000000
00010000
00000000
00001000
00000000
00000000
00000000
01000000
00010000
01000000
00010000
10000000
00010000
10000000
00010000
,
00100000
01000000
00010000
00001000
00010000
00000000
00000010
00002000
,
00000000
00000000
00000000
00000000
00000000
00000000
00000000
00000000
00003001
00001000
00000001
00001000
00000100
00000000
00000000
00000000
,
00000010
00000001
00000100
00001000
00010000
00000000
00001000
02000000
,
00000000
00000000
00000000
00000000
00000000
00000000
00000000
00000000
03100000
10000000
00100000
10000000
00010000
00000000
00000000
00000000
,
00100000
01000000
00010000
00001000
00010000
00000000
00000010
00000200
,
00000000
00000000
00000000
00000000
00000000
00000000
00000000
00000000
00000310
00001000
00000010
00001000
00000001
00000000
00000000
00000000
,
00000010
00000100
00000010
00001000
00010000
00100000
10000000
01000000
,
00100000
00001000
00011000
00010010
,
00010000
00001000
00000100
00000001
,
00000010
00001000
00010000
01000000
,
10000000
00100000
00010000
00001000
,
00000100
00000000
00000001
00000000
00000010
00000000
00001000
00010000
,
00011000
00000000
01000000
00000000
00011000
00000000
00000100
00010000
,
00011000
00000000
00100000
00001000
00011000
00000000
00000010
00010000
,
00001000
00100000
00001000
00100000
00010000
10000000
00010000
10000000
,
00010000
01000000
00010000
00000000
10000000
01000000
10000000
00000000
00010000
00100000
00010000
00100000
00001000
00010000
00001000
00010000
,
00002000
00000000
00023000
00000000
,
00002000
00000000
00000000
00033000
,
00011000
00000000
00010000
00001000
00000010
00000100
00000010
00000001
,
00001000
00000000
00000010
00000100
00001000
01000000
00100000
10000000
,
00010000
00000000
00100000
01000000
00001000
00000100
00010000
00001000
,
00010000
00000000
00011000
00000000
00011000
00000000
00001000
00000000
00010000
00000000
00001000
00000000
00000100
00000001
00001000
00000100
,
00000010
00000000
00001000
00100000
00010000
10000000
00100000
00010000
,
00001000
00000000
00010000
00001000
00000010
00000100
00000001
00001000
,
00010000
00000000
01000000
00000000
00100000
00000000
00010000
00000000
10000000
00100000
10000000
00100000
01000000
00010000
01000000
00001000
,
00010000
00000000
00011000
00010010
00000000
00001001
00000000
00000000
,
00000110
00000000
00001000
00000001
00000100
00000010
00010000
00100000
,
10000000
00000000
00010000
00100000
01000000
00001000
00000100
00010000
,
00001000
00000000
00010000
00000010
00000100
00001000
00010000
00100000
,
01000000
00000000
01010000
00000000
01010000
00000000
00010000
00000000
00100000
00000000
01000000
00000000
00010000
00001000
00010000
00001000
,
00010000
00000000
00000010
00001000
00000010
00000000
00001010
00000000
00000000
00000000
00000101
00000000
00000000
00000000
00011000
00000000
,
00000000
00000000
01000000
00100000
01000000
00000000
00000000
00000000
00010000
10000000
01000000
00000000
00000000
00000000
10000000
00010000
,
00100000
00000000
00001000
00010000
00000100
00000000
00001000
00000001
00000100
00000000
00000010
00001000
00000001
00000000
00000000
00000000
,
00000110
00000000
00000100
00001000
00000100
00000000
00010100
00000000
00000000
00000000
01001000
00000000
00000000
00000000
00021000
00000000
,
00000000
00000000
00000000
00000000
,
00032000
00000000
00000000
00000000
,
02003000
00000000
00000000
00000000
,
03020000
00000000
00000000
00030000
,
22000000
00000000
00000000
33000000
,
02020000
00000000
00000000
03030000
,
00022000
00000000
00000000
00033000
,
00020020
00000000
00000000
00030030
,
00011000
00010000
00001000
00001000
,
00000100
00000100
00000001
00000001
,
00000010
00000000
00000100
00010000
00001000
00000000
01000000
00001000
,
00011000
00010010
00101000
00011000
,
00010000
00001000
00000100
00000010
00001000
00000100
00000010
00001000
,
00010000
01000000
00100000
00010000
01000000
00100000
00010000
00001000
,
00010000
00001000
00010000
00000000
00000010
00001000
00000010
00000000
00000100
00000001
00001000
00000100
00010000
00000000
00022000
00000000
,
00000000
00000000
00003000
00030000
,
00002000
00000000
02003000
00000000
,
00020000
00000000
00000000
03030000
,
11000000
00000000
00000000
00000000
01010000
00000000
00011000
00000000
00000000
00000000
00001000
00000000
00010000
00001000
00010000
00001000
,
00010000
00000000
00000000
00000000
00010010
00000000
00001010
00000000
00000000
00000000
00001000
00000000
00000001
00000010
00000001
00000010
,
00000100
00000000
00000100
00000000
00010000
00000000
00010000
00000000
00001000
01000000
00010000
01000000
00001000
00010000
00001000
00010000
,
00000000
00101000
00000000
00010010
00010000
00001000
01001000
00000000
,
10010000
00000000
00000000
00000000
10000000
00000000
01000000
00000000
00010000
00000000
00001000
00000000
00000100
00000010
00000100
00000010
,
00001000
00000000
00000000
00000000
00000001
00000000
00000010
00000000
00000100
00000000
00010000
00000000
00001000
00010000
00000010
00010000
,
00001000
00000000
00010000
00000000
00100000
00000000
01000000
00000000
00010000
10000000
01000000
00100000
00010000
10000000
00100000
10000000
,
00010000
00000000
11000000
01010000
00000000
10010000
00000000
00000000
,
10010000
00000000
00000000
00000000
00010000
00000000
10000000
00000000
01000000
00000000
00010000
00000000
00001000
00010000
00000010
00001000
,
00000010
00000000
00000000
00000000
00010000
00000000
00001000
00000000
00000010
00000000
00000100
00000000
00000010
00000001
00001000
00000010
,
00000100
00001000
00010000
00100000
01000000
00010000
10000000
01000000
,
00100000
00000000
01100000
00000000
01100000
00000000
01000000
00000000
10000000
00000000
00010000
00000000
01000000
00001000
00010000
00000100
,
00001000
00000000
00000100
00000010
00000001
00000000
00000011
00000000
00000000
00000000
00001100
00000000
00000000
00000000
00011000
00000000
,
00000000
00000000
00001000
00100000
00001000
00000000
00000000
00000000
00010000
00000010
00001000
00000000
00000000
00000000
00000010
00010000
,
00001000
00000000
00100000
00010000
10000000
00000000
00010000
01000000
00100000
00000000
10000000
00010000
10000000
00000000
00000000
00000000
,
11000000
00000000
01000000
00100000
00010000
00000000
00110000
00000000
00000000
00000000
00101000
00000000
00000000
00000000
00020020
00000000
,
00000000
00000000
00000000
00000000
,
00000000
00000000
00000000
00030030
,
00010000
00000000
00001000
00000000
00000010
00000000
00000001
00000000
00001000
00000001
00001000
00000000
00000010
00000000
00000100
00000000
,
00001000
00000000
00010000
00000000
00100000
00000000
10000000
00000000
00010000
00100000
00010000
00000000
10000000
00000000
00100000
00000000
,
00010000
00001000
00010000
00000000
00000010
00000000
00001000
00000000
00000001
00001000
00000001
00000000
00001000
00000000
00000100
00000000
,
00001100
00010100
00000000
01001000
00000000
00022000
00000000
00033000
,
00001000
00010000
00100000
00000000
01000000
00010000
10000000
00000000
01000000
00100000
00010000
00000000
00100000
00001000
00010000
00000000
,
00000010
00001000
00000010
00001000
00000001
00000010
00000001
00000010
00000100
00001000
00000100
00001000
00000100
00010000
00001000
00010000
,
00002000
00000000
00000000
00000000
00003000
00000000
01100000
02200000
,
00000000
00000000
00000000
00000000
03300000
00000000
00011000
00022000
,
00000000
00000000
00000000
00000000
00033000
00000000
00000110
00000220
,
00000000
00000000
00000030
00000000
,
00000300
00000000
00000000
00000000
;
