#TITLE:怒れる大きな白い馬;
#ARTIST:Morning Blue Dragon;
#TITLETRANSLIT:Ikareru ookina shiroi uma;
#GENRE:MONGOL;
#BANNER:Ikareru ookina shiroi uma.png;
#BACKGROUND:Ikareru ookina shiroi uma-bg.png;
#CDTITLE:./CDTitles/pnm 11.png;
#MUSIC:Ikareru ookina shiroi uma.ogg;
#SAMPLESTART:93.166;
#SAMPLELENGTH:15;
#DISPLAYBPM:67:148;
#BPMS:0=95,36=88.43,38=80.16,40=67.139,43=148,156=110,164=116,172=118,174=120,176=123,177=126,178=129,179=132,180=140,182=141,184=142,186=143,188=144,189=145,190=146,191=147,192=148;
#BGSTAGE:1;

//--------------- dance-single - Fred-104 ----------------
#NOTES:
     dance-single:
     Fred-104:
     Beginner:
     4:
     :
0000
0000
0000
0000
,
0000
0000
0000
0000
,
0000
0000
0000
0000
,
2000
0000
0000
3000
,
0002
0000
0000
0003
,
2000
3000
0002
0003
,
0200
0300
0010
0000
,
2000
3000
0001
0000
,
0020
0030
0100
0000
,
2002
0000
0000
0000
,
3003
0000
0000
0000
,
0000
1000
0000
1000
,
0000
0001
0000
0001
,
0100
0000
0100
0000
,
0100
0000
0100
0000
,
0010
0000
0100
0000
,
0001
0000
1000
0000
,
0100
0000
0010
0000
,
0001
0000
1000
0000
,
0000
0001
0000
0001
,
0000
1000
0000
1000
,
0000
0000
0100
0000
,
1000
0000
0100
0000
,
0001
0000
0010
0000
,
1000
0000
0001
0000
,
1000
0000
0001
0000
,
1000
0000
0100
0000
,
0010
0000
0100
0000
,
1000
0000
0001
0000
,
1000
0000
0000
0000
,
0001
0000
0000
0000
,
1000
1000
0000
0000
,
0001
0001
0000
0000
,
0100
0100
0000
0000
,
0010
0010
0000
0000
,
1000
0000
1000
0000
,
0001
0000
0001
0000
,
1000
0000
1000
0000
,
0100
0000
0100
0000
,
0220
0000
0000
0000
,
0000
0000
0330
0000
,
0001
0000
0010
0000
,
0001
0000
1000
0000
,
0100
0000
0010
0000
,
0001
0000
0001
0000
,
1000
1000
0000
0000
,
0010
0010
0000
0000
,
0100
0000
0001
0000
,
1000
0000
1000
0000
,
0100
0100
0000
0000
,
0010
0010
0000
0000
,
0001
0001
0000
1000
,
0000
1000
0000
1000
,
0000
0001
0001
0000
,
1000
0000
0100
0000
,
0010
0010
0000
0001
,
0000
1000
0000
0001
,
0000
0100
0100
0000
,
0000
0010
0010
0000
,
0000
1000
1000
0000
,
0000
0001
0001
0000
,
0000
1000
0000
0100
,
0000
1000
0000
0001
,
0000
0010
0000
0100
,
0000
1000
0000
0001
,
0000
1000
1000
1001
;

//--------------- dance-single - Fred-104 ----------------
#NOTES:
     dance-single:
     Fred-104:
     Easy:
     8:
     :
0000
0000
0000
0000
,
0000
0000
0000
0000
,
0000
0000
0000
0000
,
1000
0100
2000
0000
0000
0000
3000
0001
,
0100
0001
0100
0020
0000
0000
0000
1030
,
0002
0000
0000
0103
0020
0000
0000
1030
,
0200
0000
0000
0000
0000
0000
0000
0310
,
0001
1000
0001
0200
0000
0000
0000
0310
,
1000
0001
0010
0200
0000
0000
1300
0100
,
2000
0000
0002
3003
,
2002
0000
0000
3003
,
1000
1000
0010
0010
,
0100
0100
0001
0001
,
1000
0100
0010
0001
,
0100
0010
1000
1000
,
0001
0001
0000
0010
0000
0100
0000
1000
,
0000
0001
0000
0100
0000
0001
0000
0010
,
0000
1000
0000
0010
0000
0001
0000
1000
,
0000
0010
0000
0100
0000
0001
1000
0000
,
0001
0000
1000
1000
0000
0000
0001
0001
,
0000
0000
0010
0010
0000
0000
0100
0000
,
0010
0001
0100
0001
,
1000
0100
0010
0001
,
0010
0100
1000
0001
,
0100
0010
1000
0110
,
1001
0001
0100
0001
,
1000
0100
0010
0001
,
0100
0010
1000
0001
,
0010
0100
1000
0110
,
1001
1000
0100
1000
,
0001
1000
0001
0010
,
0100
0100
0000
1000
0000
0001
0000
0010
,
0000
0100
0000
1000
0000
0001
0000
1000
,
0000
0010
0000
0001
0000
0010
0000
1000
,
0000
0100
0000
0010
0000
0100
1000
0000
,
0001
1000
0000
0010
0000
1000
0000
0001
,
0000
0010
0000
0100
0000
0001
0000
0100
,
0000
0010
0000
0001
0000
1000
0000
0100
,
0000
0010
0000
0001
0000
1000
0000
0010
,
0220
0000
0000
0000
,
0000
0000
0000
0330
,
0001
0000
1000
0000
0010
0000
0100
0010
,
0100
0000
0001
0000
1000
0000
0001
0010
,
0001
0100
0010
0100
,
0001
0000
1000
0000
0100
0000
0010
0010
,
0001
1000
0010
0100
,
0001
0000
0010
0000
0100
0000
1000
1000
,
0010
0100
0010
1000
,
0001
0001
1000
0000
0100
0000
1001
0000
,
1000
0000
0001
0000
0100
0100
0100
0000
,
0010
0000
1000
0000
0001
0001
0001
0000
,
0100
0000
0010
0000
1000
1000
1000
0000
,
0110
1001
0110
1001
,
0001
0000
1000
0000
0001
0001
0001
0000
,
1000
0000
0100
0000
0010
0010
0010
0000
,
0001
0000
1000
0000
0010
0010
0010
0000
,
0110
1001
0110
1001
,
1000
0000
0010
0000
0100
0010
0100
0000
,
0001
0000
0010
0000
0100
0010
0100
0000
,
1000
0000
0001
0000
1000
1000
1000
0000
,
0100
0000
0010
0000
0100
0100
0100
0000
,
1000
1000
1000
0000
0001
0001
0001
0000
,
0100
0100
0100
0000
0010
0010
0010
0000
,
0100
0100
0100
0000
0001
0010
0001
0000
,
1000
1000
1000
0000
0001
1000
0001
0000
,
0110
0000
1001
0000
0010
0100
0010
0000
;

//--------------- dance-single - Fred-104 ----------------
#NOTES:
     dance-single:
     Fred-104:
     Medium:
     12:
     :
0000
0000
0000
0000
,
0000
0000
0000
0000
,
0000
0000
0000
0000
,
1000
0000
0010
0000
0200
0000
0000
0000
0000
0000
0000
0000
0000
0000
0301
0100
,
0001
0000
0010
0000
0100
0000
2000
0000
0000
0000
0000
0000
0000
0000
3001
1000
,
0002
0000
0000
0103
2000
0000
0000
3100
,
0002
0000
0000
0000
0000
0000
0000
0000
0000
0000
0000
0000
0000
0000
1003
0001
,
1000
0000
0010
0000
0100
0000
0002
0000
0000
0000
0000
0000
0000
0000
0013
0001
,
1000
0000
0010
0100
0001
0000
2000
0000
0000
0000
0000
0000
3001
0000
0010
0000
,
0200
0000
2000
3300
,
2002
0000
0000
3003
,
1000
0000
0000
1000
0100
0000
0000
0100
0010
0000
0000
0010
0001
0000
0000
0001
,
1000
0000
0000
1000
0010
0000
0000
0010
0100
0000
0000
0100
0001
0000
0000
0001
,
1000
0000
0000
1000
0100
0000
0000
0100
0001
0000
0000
0001
0100
0000
0000
0100
,
1000
0000
0000
1000
0100
0000
0000
0100
0001
0000
0000
0001
0100
0000
0000
0100
,
0010
0000
0000
0010
0001
0000
0000
1000
0100
0000
0000
0100
0010
0000
0000
0010
,
0001
0000
0000
0001
1000
0000
0000
1000
0010
0000
0000
0010
1000
0000
0000
1000
,
0100
0000
0000
0100
0001
0000
0000
0001
0100
0000
0000
0100
1000
0000
0000
1000
,
0001
0000
0000
0001
0100
0000
0000
0100
0010
0000
1000
0000
0001
0000
1000
0000
,
0010
0000
1000
0001
0000
0000
0010
0100
,
0000
0000
1000
0001
0000
0100
0001
0010
,
0001
0000
0000
0000
1000
0000
0100
0000
0010
0000
0000
0100
1000
0000
0000
0000
,
0001
0000
0000
0000
0010
0000
0001
0000
0100
0000
0000
0010
1000
0000
0000
0000
,
0100
0000
0000
0000
0001
0000
0100
0000
1000
0000
0000
0001
0010
0000
0000
0000
,
0100
0000
0000
0000
1000
0000
0001
0000
0100
0000
0000
0010
1000
0000
0000
0000
,
0001
0000
0000
0000
1000
0000
0001
0000
0010
0000
0000
0100
1000
0000
0000
0000
,
0001
0000
0000
0000
0010
0000
0001
0000
0100
0000
0000
0001
1000
0000
0000
0000
,
0010
0000
0000
0000
0100
0000
0010
0000
1000
0000
0000
0001
0100
0000
0000
0000
,
0001
0000
0000
0000
1000
0000
0100
0000
0010
0000
0000
0001
1000
0000
0000
0000
,
0010
0000
0100
0001
0010
0000
0100
1000
,
0001
0000
0100
0010
1000
0000
0100
1000
,
0010
0000
0000
0010
0100
0000
0000
0100
0001
0000
0000
0001
1000
0000
0000
1000
,
0100
0000
0000
0100
0001
0000
0000
0001
0100
0000
0000
0100
0010
0000
0000
0010
,
0001
0000
0000
0001
0100
0000
0000
0100
1000
0000
0000
1000
0100
0000
0000
0100
,
0001
0000
0000
0001
0010
0000
0000
0010
0100
0000
0000
0100
1000
0000
0001
0000
,
1000
0000
0000
1000
0010
0000
0000
0010
0100
0000
0000
0100
0001
0000
0000
0001
,
1000
0000
0000
1000
0100
0000
0000
0100
0010
0000
0000
0010
1000
0000
0000
1000
,
0010
0000
0000
0010
0100
0000
0000
0100
1000
0000
0000
1000
0001
0000
0000
0010
,
0001
0000
0001
1000
0000
1000
0000
0100
0000
0100
0000
0100
0000
0010
0001
0000
,
2002
0000
0000
0000
,
0000
0000
0000
3003
,
0010
0000
1000
0000
0001
0000
1000
0000
0100
0000
0000
0000
0010
0000
0001
1000
,
0001
0000
1000
0000
0001
0000
0100
0000
0010
0000
0000
0000
0100
0000
0001
0100
,
0010
0000
0100
0001
1000
0000
0001
0010
,
0100
0000
1000
0100
0001
0100
1000
0001
,
0100
0000
0100
0000
0001
0000
0100
0000
0010
0000
0000
0000
0100
0000
0100
0001
,
1000
0100
1000
0010
0000
0010
1000
0001
,
0100
0000
0010
1000
0100
0000
1000
0000
,
0001
0000
1000
0000
0100
0000
1000
0000
0001
0000
0000
0100
0001
0000
0010
0000
,
0100
0000
0000
0000
1000
0000
0000
0001
0100
0000
0000
0000
0010
0000
1000
0000
,
0100
0000
0000
0000
1000
0000
0000
0001
0010
0000
0000
0000
0001
0000
1000
0000
,
0010
0000
0000
0000
0100
0000
0000
0000
0010
1000
0000
0000
0001
0000
1000
0000
,
0100
0000
0000
0100
0001
0000
0000
0001
0100
0000
0000
0100
1000
0000
0010
0000
,
1000
0000
0000
0000
0001
0000
0000
0000
0100
0010
0000
0000
0100
0000
0001
0000
,
1000
0000
0000
0000
0010
0000
0000
1000
0100
0000
0000
0000
0010
0000
0100
0000
,
0001
0000
0000
0000
0100
0000
0000
1000
0001
0000
0000
0000
0010
0000
0001
0000
,
0100
0000
0000
0100
0010
0000
0000
0010
1000
0000
0000
1000
0100
0000
1000
0000
,
0001
0100
0000
0001
0000
0010
0000
0001
0000
0100
0000
0001
0010
0000
0000
0000
,
0100
1000
0000
0100
0000
0010
0000
0100
0000
1000
0000
0100
0010
0000
0000
0000
,
0001
1000
0000
0001
0000
0100
0000
0001
0000
1000
0000
0001
0100
0000
0000
0000
,
0010
1000
0000
0010
0000
0100
0000
0010
0000
1000
0000
0010
0100
0000
0000
0000
,
0002
1000
0000
1000
0000
1000
0000
1000
0003
1000
0000
1000
0100
0000
0000
0000
,
2000
0010
0000
0010
0000
0010
0000
0010
3000
0010
0000
0010
0100
0000
0000
0000
,
0002
0100
0000
0100
0000
0100
0000
0100
0003
0100
0000
0100
0010
0000
0000
0000
,
0100
0001
0000
0001
0000
1000
0000
1000
0001
1000
0001
1000
0001
0000
0000
0000
,
0001
0000
0000
0001
1000
0000
0100
1000
0100
0000
0010
0000
1001
0000
0000
0000
;

//--------------- dance-single - Fred-104 ----------------
#NOTES:
     dance-single:
     Fred-104:
     Hard:
     16:
     :
0000
0000
0000
0000
,
0000
0000
0000
0000
,
0000
0000
0000
0000
,
1000
0000
0010
0000
0100
0000
0100
0000
0001
0000
1000
0000
0001
0000
0010
0100
,
0010
0000
0001
0000
1000
0000
0200
0000
0000
0000
0000
0000
0000
0000
1300
0001
,
2000
0000
3000
0100
0002
0000
0003
0100
,
2000
0000
0000
0000
0001
0000
0000
0000
0001
0000
0000
0000
3001
0000
0100
0010
,
1000
0000
0100
0000
0010
0000
0002
0000
0000
0000
0000
0000
0000
0000
0013
0100
,
0010
0000
0001
1000
0010
0000
0200
0000
0000
0000
0000
0000
0301
0000
1000
0000
,
0200
0000
0020
0330
,
2002
0000
0000
3003
,
1001
0000
1000
0100
0010
0000
0100
0010
0001
0000
0010
0001
1000
0000
0001
1000
,
0100
0000
0010
0001
1000
0000
0010
1000
0001
0000
0100
0010
1000
0000
0002
0000
,
1003
0000
0001
0100
0010
0000
1000
0100
0010
0000
0001
0100
0010
0000
1000
0100
,
0010
0000
0001
0010
0100
0000
1000
0010
0100
0000
0001
0010
0100
0000
1000
0010
,
0100
0001
1000
0001
0100
0000
0010
1000
0001
0000
1000
0100
0010
0000
0001
0000
,
1000
0100
0010
0001
1000
0000
0001
0100
0010
1000
0001
0000
0020
0000
0230
0000
,
1300
0000
0001
0100
0010
0000
1000
0100
0010
0000
0001
0100
0010
0000
1000
0000
,
0001
0010
0100
1000
0001
0000
0100
0010
0100
0000
0001
0100
0010
1000
0010
0000
,
0100
0000
0001
0010
0100
0000
0100
1000
0010
0000
0010
0100
0001
0000
1000
0000
,
0001
0000
0000
0000
0000
0000
0000
0000
0100
0000
0000
0000
0001
0000
0000
0000
1000
0000
0000
0000
0000
0000
0000
0000
0001
0000
0000
0000
0100
0000
0000
0000
0010
0000
0000
0000
1000
0000
0000
0000
0001
0000
0000
0000
0000
0000
0000
0000
0200
0300
0000
0000
0000
0000
0000
0000
0200
0300
0000
0000
0000
0000
0000
0000
,
1000
0000
0010
0100
0001
0000
1000
0001
0100
0001
0000
0001
1000
0000
0010
0000
,
0100
0000
0001
0010
0001
0000
1000
0010
0100
0010
1000
0010
0200
0000
0000
0000
,
0301
0000
0010
0100
1000
0000
0001
0100
0010
0100
0000
0100
0001
0000
1000
0000
,
0001
0000
1000
0100
1000
0000
0010
0100
0001
0100
0010
0100
0002
0000
0000
0000
,
1003
0000
0001
0010
0001
0000
1000
0010
0100
0010
1000
0001
0100
0000
0001
0000
,
1000
0000
0010
0100
0010
0000
1000
0100
1000
0001
0100
0010
2000
0000
0000
0000
,
3001
0000
0010
0001
0010
0000
0100
0010
0001
0010
0100
1000
0100
0000
1000
0000
,
0001
0000
1000
0001
0100
0000
0001
1000
0100
1000
0100
0010
0002
0000
0000
0003
,
0001
0100
0000
1000
0100
0000
0001
0100
0000
1000
0100
0000
0001
0000
1000
0000
,
0001
0010
0000
1000
0010
0000
0001
0010
0000
1000
0020
0000
0032
0000
2003
0000
,
3001
0000
0000
0000
0000
0000
0000
0000
1000
0000
0000
0000
0010
0000
0000
0000
0100
0000
0000
0000
0000
0000
0000
0000
0001
0000
0000
0000
0100
0000
0000
0000
0010
0000
0000
0000
1000
0000
0000
0000
0001
0000
0000
0000
1000
0000
0000
0000
0200
0300
0000
0000
0000
0000
0000
0000
0200
0300
0000
0000
0000
0000
0000
0000
,
0001
0000
0000
0000
0000
0000
0000
0000
0001
0000
0000
0000
0010
0000
0000
0000
0001
0000
0000
0000
0000
0000
0000
0000
1000
0000
0000
0000
0100
0000
0000
0000
0010
0000
0000
0000
0001
0000
0000
0000
1000
0000
0000
0000
0001
0000
0000
0000
0200
0300
0000
0000
0000
0000
0000
0000
0200
0300
0000
0000
0000
0000
0000
0000
,
1000
0000
0000
0000
0000
0000
0000
0000
0001
0000
0000
0000
1000
0000
0000
0000
0001
0000
0000
0000
0000
0000
0000
0000
1000
0000
0000
0000
0001
0000
0000
0000
0010
0000
0000
0000
0100
0000
0000
0000
0010
0000
0000
0000
0001
0000
0000
0000
0020
0030
0000
0000
0000
0000
0000
0000
0020
0030
0000
0000
0000
0000
0000
0000
,
1000
0000
0000
0000
0000
0000
0000
0000
0010
0000
0000
0000
0100
0000
0000
0000
0010
0000
0000
0000
0000
0000
0000
0000
1000
0000
0000
0000
0001
0000
0000
0000
0010
0000
0000
0000
0100
0000
0000
0000
1000
0000
0000
0000
0001
0000
0000
0000
0200
0300
0000
0000
0000
0000
0000
0000
0200
0300
0000
0000
0000
0000
0000
0000
,
1000
0000
0001
0100
0010
0000
0001
0010
0100
0001
1000
0100
2000
0000
0000
0000
,
3001
0000
1000
0100
0010
0000
1000
0010
0100
1000
0001
0100
0002
0000
0000
0000
,
1003
0000
0001
0010
0100
0000
0001
0100
0010
0001
1000
0100
0020
0000
0000
0000
,
0031
0000
1000
0100
0000
0100
0000
0001
0000
0010
0000
0010
0000
1000
0001
0000
,
2002
0000
0000
0000
,
0000
0000
0000
3003
,
1000
0000
0100
0000
0002
0000
0000
0000
0000
0000
0000
0000
0003
0000
1000
0010
,
0001
0000
0010
0000
0100
0000
2000
0000
0000
0000
0000
0000
3000
0000
0001
0010
,
0200
0000
0000
1300
0002
0000
0003
0001
,
0100
0010
0100
0001
1000
0100
1000
0100
0010
0001
0010
0001
1000
0001
0100
0010
,
1000
0000
0010
0000
0100
0000
2000
0000
0000
0000
3001
0000
0010
0000
1000
0001
,
1000
0000
0000
0001
0000
0100
0010
0000
0000
0200
0000
0000
0000
0000
0000
0301
0000
0000
2000
0000
0000
0000
0000
0000
,
3020
0100
0100
0130
0002
1000
1000
1003
,
1010
0000
1000
0000
0101
0000
0001
0000
1000
0001
0000
1000
0001
0000
0001
0000
,
1001
0000
0000
0000
0001
0000
0100
1000
0200
0000
0000
0000
0301
0000
0010
1000
,
0020
0000
0000
0000
0031
0000
0100
0010
0001
0000
1000
0100
0010
0000
1000
0000
,
0100
0000
0010
1000
0010
0000
0001
0000
0100
0000
0010
0001
0010
0000
1000
0000
,
0001
0000
1000
0100
0001
0000
0001
0100
1000
0000
1000
0010
0100
0000
0001
0000
,
1001
0000
0000
0000
1000
0000
0100
0001
0200
0000
0000
0000
1300
0000
0010
0001
,
0020
0000
0000
0000
1030
0000
0100
0010
1000
0000
0001
0100
0010
0000
0001
0000
,
0100
0000
0010
0001
0010
0000
1000
0000
0100
0000
0010
1000
0010
0000
0001
0000
,
1000
0000
0001
0100
0010
0000
1000
0100
0010
0000
0000
0110
0000
0000
1001
0000
,
0001
0100
0000
0001
0000
0010
0000
0001
0000
0100
0000
0001
0010
0000
0000
0000
,
0100
1000
0000
0100
0000
0010
0000
0100
0000
1000
0000
0100
0010
0000
0001
1000
,
0001
1000
0000
0001
0000
0100
0000
0001
0000
1000
0000
0001
0100
0000
0000
0000
,
0010
1000
0000
0010
0000
0100
0000
0010
0000
1000
0000
0010
0100
0001
1000
0001
,
1000
0100
0000
0101
0000
0011
0000
1010
0000
1001
0000
0010
0100
0000
0000
0000
,
1000
0100
0000
1100
0000
0101
0000
1100
0000
0110
0000
0001
0100
0010
1000
0001
,
0010
0100
0000
1100
0000
0101
0000
1010
0000
0011
0000
0001
0100
0010
1000
0000
,
1000
0100
0000
0100
0001
0100
0000
0100
1000
0100
0010
0100
0001
0100
0010
0100
,
1000
0000
0100
0010
0001
0000
0100
0010
1000
0000
0001
0000
1001
0000
0000
0000
;

//--------------- dance-single - Fred-104 ----------------
#NOTES:
     dance-single:
     Fred-104:
     Challenge:
     17:
     :
0000
0000
0000
0000
,
0000
0000
0000
0000
,
0000
0000
0000
0000
,
0001
0000
0010
0000
0200
0000
0000
0000
0000
0000
0000
0000
0000
0000
1300
0001
,
1000
0000
0010
0000
0100
0000
0020
0000
0000
0000
0000
0000
0000
0000
1030
0001
,
2000
0000
0000
0100
3200
0000
0000
0010
,
0320
0000
0000
0000
0000
0000
0000
0000
0000
0000
0000
0000
0000
0000
0031
1000
,
0001
0000
0100
0000
0010
0000
0200
0000
0000
0000
0000
0000
0000
0000
0301
1000
,
0001
0000
1000
0100
0010
0000
0002
0000
0000
0000
0000
0000
1003
0000
0010
0000
,
0200
0000
0000
0000
0010
0020
0000
0330
,
2002
0000
0000
0000
0000
0000
0000
0000
0000
0000
0000
0000
3003
0000
1000
0001
,
0020
0000
0001
1030
0020
0000
1000
0031
0020
0000
0001
1030
0020
0000
1000
0031
,
0010
0000
0000
0000
0000
0000
0001
0000
0000
1000
0000
0000
0200
0000
0000
0000
0000
0000
1000
0000
0000
0301
0000
0000
0200
0000
0000
0000
0000
0000
0001
0000
0000
1300
0000
0000
0100
0000
0000
0000
0000
0000
1000
0000
0001
0000
1000
0000
,
0020
0000
1000
0130
0020
0000
0001
0130
0020
0000
1000
0130
0020
0000
0001
0130
,
0010
0000
1000
0010
0200
0000
0001
0310
0200
0000
1000
0310
0200
0000
0001
0310
,
0100
1000
0001
0100
0010
0000
1000
0100
0010
0001
0100
0010
1000
0001
0010
0100
,
0010
0001
1000
0010
0100
0000
0010
1000
0100
1000
0010
0100
0001
0010
0001
1000
,
0010
0100
0001
1000
0100
0000
0010
0100
1000
0010
1000
0100
1000
0001
0100
0010
,
0100
0001
1000
0001
0010
0000
0100
0010
0001
0100
0010
1000
0010
0100
0010
1000
,
0010
0000
1000
0100
1000
0000
1000
0100
1000
0000
1000
0100
1000
0000
0001
0000
,
0100
0000
0010
1000
0010
0000
0010
0001
0010
0100
0010
0000
1000
0000
0010
1000
,
0001
0000
1000
0100
0001
0000
0001
0100
1000
0001
1000
0001
0100
0000
0010
0000
,
1000
0000
0001
0010
1000
0000
1000
0010
0001
1000
0010
1000
0020
0000
0000
0000
,
1030
0000
0001
0010
1000
0000
1000
0010
0001
1000
0001
1000
0010
0000
0100
0000
,
0001
0000
0000
0000
0000
0000
1000
0000
0000
0100
0000
0000
0001
0000
0000
0000
0000
0000
0001
0000
0000
0100
0000
0000
1000
0000
0000
0001
0000
0000
0100
0000
0000
0001
0000
0000
0100
0000
0000
0000
0000
0000
0010
0000
1000
0000
0010
0000
,
1000
0000
0001
0010
0100
0000
1000
0010
0100
0001
0010
0100
0010
0000
0001
0000
,
1001
0000
1000
0100
0001
0000
0001
0100
1000
0001
0100
0010
1000
0001
1000
0001
,
1001
0000
0001
0100
0010
0000
1000
0100
0010
0001
0100
0010
1000
0000
0001
0000
,
1001
0000
0001
0010
1000
0000
1000
0010
0001
0100
0010
1000
0001
0010
0100
1000
,
0001
0100
0000
1000
0100
0000
0010
0001
0000
0010
1000
0000
0001
0000
1000
0000
,
1001
0000
0000
0000
0000
0000
0001
0000
0010
0000
0001
0000
0010
0000
0001
0000
0010
0000
0100
0000
0000
0000
0000
0000
1000
0000
0000
0001
0000
0000
0100
0000
0000
0000
0000
0000
0110
0000
0000
0000
0000
0000
0010
0000
0000
1000
0000
0000
,
0001
0010
0001
0010
0100
0000
1000
0010
1000
0010
0100
0000
0010
1000
0001
0000
,
1000
0000
0000
0000
0000
0000
0001
0000
0100
0000
0001
0000
0100
0000
0000
0000
0000
0000
0010
0000
1000
0000
0010
0000
1000
0000
0000
0000
0000
0000
0001
0000
0010
0000
0001
0000
0010
0000
0000
0100
0000
0000
1000
0000
0000
0001
0000
0000
,
1000
0100
1000
0100
0010
0000
0001
0100
0001
0100
0010
0000
1000
0001
1000
0000
,
0001
0000
0000
0000
0000
0000
1000
0000
0100
0000
1000
0000
0100
0000
0000
0000
0000
0000
0010
0000
0001
0000
0010
0000
0001
0000
0000
0000
0000
0000
1000
0000
0010
0000
1000
0000
0010
0000
0000
0100
0000
0000
0001
0000
0000
1000
0000
0000
,
0001
0010
0100
0000
1000
0010
0100
0000
0010
1000
0100
0010
0001
1000
0010
0000
,
1000
0001
0010
0000
0100
0010
0001
0000
0100
0001
0010
0001
1000
0010
0100
0000
,
0001
1000
0100
0010
0100
1000
0001
0100
0001
0100
0010
1000
0100
0010
0001
1000
,
0001
0000
1000
0100
0010
0100
1000
0100
0010
0100
1000
0100
0010
0001
1000
0000
,
2002
0000
0000
0000
,
0000
0000
0000
3003
,
0001
0000
0010
0000
0200
0000
0000
0000
0000
0000
0000
0000
0000
0000
1300
0001
,
1000
0000
0010
0000
0100
0000
0002
0000
0000
0000
0000
0000
0000
0000
1003
0001
,
0020
0000
0000
0100
0230
0000
0000
1000
,
1300
0001
1000
0001
0010
0100
0010
0100
1000
0001
0100
0010
1000
0001
0100
0010
,
1000
0000
0100
0000
0010
0000
2000
0000
0000
0000
0000
0000
0000
0000
3010
0001
,
0100
0000
0000
0010
1000
0010
1000
0000
0000
0002
0000
0000
0000
0000
0000
0000
0000
0000
0013
0000
0000
0100
0000
0000
,
2100
3001
0102
1003
,
2100
0000
3001
0000
0102
0000
1003
0100
1000
0100
0010
0100
0010
0000
0001
0000
,
2001
0000
0000
0000
3001
0010
0100
1000
0002
0000
0000
0000
1003
0010
0100
0001
,
2000
0000
0000
0000
3001
0010
0100
0010
0001
1000
0010
0000
0100
0000
0001
0000
,
1000
0000
0100
0010
0100
0000
0001
0000
1000
0000
0010
0100
0010
0000
0001
0000
,
2000
0000
0001
3010
2000
0000
0001
3100
1000
0010
0100
0001
1000
0100
0010
0000
,
0012
0000
0000
0000
1003
0010
0100
0001
2000
0000
0000
0000
3001
0010
0100
1000
,
0002
0000
0000
0000
1003
0010
0100
0010
1000
0001
0010
0000
0100
0000
1000
0000
,
0002
0000
1000
0103
0002
0000
1000
0013
0001
0100
0010
1000
0001
0010
0100
0000
,
0120
0000
0001
0130
0020
0000
1000
0130
0010
0001
0100
0010
0100
0000
1001
0000
,
2000
0100
0000
0010
0000
0001
0000
0001
0000
0010
0000
3100
1000
0000
0000
0000
,
0002
0100
0000
0010
0000
1000
0000
1000
0000
0010
0000
0103
0001
0000
1000
0001
,
2000
0010
0000
0100
0000
0001
0000
0001
0000
0100
0000
3010
1000
0000
0000
0000
,
0002
0010
0000
0100
0000
1000
0000
0100
0000
0013
0001
0010
0100
0000
1000
0001
,
0200
0010
0000
1000
0000
0010
0000
1000
0000
0310
0100
0001
1000
0000
0001
1000
,
0020
0100
0000
0001
0000
0100
0000
0001
0000
0130
0010
1000
0010
0100
0001
1000
,
0200
1000
0000
0010
0000
0001
0000
0010
0000
1300
0001
0100
0010
1000
0001
0010
,
0200
0000
1000
0301
0200
0000
0001
1300
0100
0010
0001
0100
0010
1000
0100
0000
,
0110
0000
0010
0001
0100
0000
0010
1000
0100
0010
0100
0000
1001
0000
0000
0000
;

//--------------- dance-double - Fred-104 ----------------
#NOTES:
     dance-double:
     Fred-104:
     Easy:
     7:
     :
00000000
00000000
00000000
00000000
,
00000000
00000000
00000000
00000000
,
00000000
00000000
00000000
00000000
,
00010000
00001000
00020000
00000000
00000000
00000000
00000000
00031000
,
00100000
00010000
10000000
00020000
00000000
00000000
00000000
10030000
,
02000000
00000000
00000000
03100000
00002000
00000000
00000000
00013000
,
00000200
00000000
00000000
00000000
00000000
00000000
00000000
00001300
,
00000100
00000010
00000001
00000200
00000000
00000000
00000000
00001300
,
00010000
00100000
01000000
00020000
00000000
00000000
10030000
01000000
,
00200000
00000000
00002000
00303000
,
00022000
00000000
00033000
00000000
,
00001000
00000010
00000001
00000100
,
00001000
00010000
01000000
10000000
,
00100000
00010000
00001000
00000100
,
00000001
00001000
00000001
00000010
,
00000001
00000010
00000100
00001000
,
00000001
00000010
00000001
00000100
,
00001000
00010000
01000000
10000000
,
00100000
01000000
00010000
10000000
,
01000000
00000000
10000000
10000000
00000000
00000000
01000000
01000000
,
00000000
00000000
00100000
00100000
00000000
00000000
00001000
00000000
,
00010000
00000100
00010000
00001000
,
00000010
00000001
00000010
00000100
,
00001000
00000001
00000010
00000100
,
00010000
00001000
00010000
00011000
,
00001000
00010000
00100000
01000000
,
00010000
10000000
01000000
00100000
,
00010000
01000000
00100000
01000000
,
00010000
10000000
01000000
01100000
,
00100000
00000000
00001000
00000000
,
00010000
00000000
00001000
00000000
,
00000010
00000001
00001000
00000100
,
00000010
00000001
00001000
00000010
,
00000100
00001000
00010000
00100000
,
01000000
00010000
10000000
01000000
,
00100000
00010000
10000000
00010000
,
01000000
00100000
10000000
01000000
,
00010000
01000000
10000000
00100000
,
00010000
00001000
00010000
01000000
,
02200000
00000000
00000000
00000000
,
00000000
00000000
00000000
03300000
,
00010000
00000000
10000000
00000000
00010000
00010000
00010000
00000000
,
01000000
00000000
00001000
00000000
00010000
00010000
00010000
00000000
,
00001000
00000100
00000010
00001000
,
00000001
00000100
00001000
00010000
,
00001000
00001000
00010000
00010000
,
00001000
00001000
00010000
00010000
,
00001000
00010000
01000000
00100000
,
00010000
10000000
01000000
01100000
,
10000000
00000000
01000000
00000000
00100000
00100000
00100000
00000000
,
00001000
00000000
00010000
00000000
00001000
00001000
00001000
00000000
,
00010000
00001000
00000100
00000010
,
00001000
00000001
00000010
00000001
,
00001000
00000000
00000001
00000000
00001000
00001000
00001000
00000000
,
00000100
00000000
00000010
00000000
00000100
00000100
00000100
00000000
,
00010000
00001000
00010000
00001000
,
00010000
00100000
10000000
00010000
,
10000000
01000000
00100000
10010000
,
00100000
00001000
00010000
00011000
,
00010000
00001000
00000100
00000110
,
00000001
00000100
00000010
00001001
,
00001000
00000000
00000100
00000000
00000010
00000010
00000010
00000000
,
00000001
00000000
00000100
00000000
00001000
00001000
00001000
00000000
,
00010000
00010000
00010000
00000000
01000000
01000000
01000000
00000000
,
10000000
10000000
10000000
00000000
00010000
00010000
00010000
00000000
,
10000000
00010000
01000000
10010000
;

//--------------- dance-double - Fred-104 ----------------
#NOTES:
     dance-double:
     Fred-104:
     Medium:
     12:
     :
00000000
00000000
00000000
00000000
,
00000000
00000000
00000000
00000000
,
00000000
00000000
00000000
00000000
,
00010000
00000000
00000100
00000000
00000020
00000000
00000000
00000000
00000000
00000000
00000000
00000000
00000000
00000000
00000031
00000100
,
00000010
00000000
00010000
00000000
00001000
00000000
00000200
00000000
00000000
00000000
00000000
00000000
00000000
00000000
00000310
00010000
,
00002000
00000000
00000000
01003000
00200000
00000000
00000000
01300000
,
00002000
00000000
00000000
00000000
00000000
00000000
00000000
00000000
00000000
00000000
00000000
00000000
00003000
00000000
00001000
00010000
,
00001000
00000000
00000010
00000000
00000001
00000000
00002000
00000000
00000000
00000000
00000000
00000000
00000000
00000000
00003100
00000010
,
00000001
00001000
00000100
00020000
00000000
00000000
00031000
00010000
,
00002000
00000000
00020000
00033000
,
20020000
00000000
30030000
00000000
,
10000000
00000000
00000000
10000000
00100000
00000000
00000000
00100000
01000000
00000000
00000000
01000000
00001000
00000000
00000000
00001000
,
00010000
00000000
00000000
00010000
00000010
00000000
00000000
00000010
00001000
00000000
00000000
00001000
00000001
00000000
00000000
00000001
,
00000100
00000000
00000000
00000100
00000010
00000000
00000000
00000010
00010000
00000000
00000000
00010000
00001000
00000000
00000000
00001000
,
00100000
00000000
00000000
00100000
00001000
00000000
00000000
00001000
00010000
00000000
00000000
00000010
00000100
00000000
00000000
00000100
,
00000001
00000000
00000000
00000001
00001000
00000000
00000000
00001000
00000100
00000000
00000000
00000100
00000010
00000000
00000000
00000010
,
00000001
00000000
00000000
00000001
00000100
00000000
00000000
00000100
00001000
00000000
00000000
00001000
00010000
00000000
00000000
00010000
,
00100000
00000000
00000000
00100000
10000000
00000000
00000000
10000000
01000000
00000000
00000000
01000000
10000000
00000000
00000000
10000000
,
00010000
00000000
00000000
00010000
01000000
00000000
00000000
01000000
00100000
00000000
00000000
00100000
10000000
00000000
00000000
00000000
,
01000000
00000000
00010000
00001000
00000000
00000000
00001000
00010000
,
00000000
00000000
00010000
00001000
00000000
00000000
00000010
00000100
,
00000010
00000000
00000000
00000001
00000100
00000000
00000001
00000000
00000010
00000000
00000000
00000000
00001000
00000000
00000000
00000000
,
00010000
00000000
00000000
00100000
10000000
00000000
01000000
00000000
00010000
00000000
00000000
00000000
00001000
00000000
00000000
00000000
,
00000100
00000000
00000000
00000001
00001000
00000000
00000100
00000000
00000010
00000000
00000000
00000000
00001000
00000000
00000000
00000000
,
00010000
00000000
00000000
00100000
10000000
00000000
01000000
00000000
00100000
00000000
00000000
00000000
10010000
00000000
00000000
00000000
,
10000000
00000000
00000000
00100000
00010000
00000000
00001000
00000000
00000010
00000000
00000000
00000000
00000001
00000000
00000000
00000000
,
00001000
00000000
00000000
00000100
00000010
00000000
00000001
00000000
00000100
00000000
00000000
00000000
00001000
00000000
00000000
00000000
,
00010000
00000000
00000000
01000000
10000000
00000000
00010000
00000000
01000000
00000000
00000000
00000000
00001000
00000000
00000000
00000000
,
00010000
00000000
00000000
00001000
00000010
00000000
00001000
00000000
00010000
00000000
00000000
00000000
00110000
00000000
00000000
00000000
,
10000000
00000000
01000000
00000000
00100000
00010000
00100000
00000000
,
00001000
00000000
00010000
00000000
00001000
00000010
00001000
00000000
,
00010000
00000000
00000000
00001000
00100000
00000000
00000000
00010000
10000000
00000000
00000000
10000000
01000000
00000000
00000000
01000000
,
00010000
00000000
00000000
00010000
00001000
00000000
00000000
00001000
00000100
00000000
00000000
00000100
00000001
00000000
00000000
00000001
,
00001000
00000000
00000000
00001000
00000100
00000000
00000000
00000100
00010000
00000000
00000000
00010000
00001000
00000000
00000000
00001000
,
00100000
00000000
00000000
00100000
00010000
00000000
00000000
00010000
01000000
00000000
00000000
01000000
00100000
00000000
10000000
00000000
,
01000000
00000000
00000000
01000000
00010000
00000000
00000000
00010000
00001000
00000000
00000000
00001000
00000100
00000000
00000000
00000100
,
00001000
00000000
00000000
00001000
00010000
00000000
00000000
00010000
00100000
00000000
00000000
00100000
00010000
00000000
00000000
00010000
,
00001000
00000000
00000000
00001000
00000100
00000000
00000000
00000100
00000001
00000000
00000000
00000001
00001000
00000000
00000000
00001000
,
00000010
00000000
00010000
00001000
00000000
00001000
00000000
00100000
00000000
00001000
00000000
00001000
00000000
01000000
00001000
00000000
,
00022000
00000000
00000000
00000000
,
00000000
00000000
00000000
00033000
,
00001000
00000000
00100000
00000000
00010000
00000000
02000000
00000000
00000000
00000000
00000000
00000000
00000000
00000000
03001000
00010000
,
00000100
00000000
00001000
00000000
00000100
00000000
00020000
00000000
00000000
00000000
00000000
00000000
00000000
00000000
00031000
00100000
,
00010000
00000000
01000000
00001000
00010000
00000000
00001000
00000100
,
00000010
00001000
00000100
00000000
00000010
00000001
00001000
00000000
,
00000001
00000000
00000100
00000000
00001000
00000000
00020000
00000000
00000000
00000000
00000000
00000000
00031000
00000000
00010000
00001000
,
00010000
01000000
00100000
00020000
00000000
00000000
10030000
00000000
,
00010000
01000000
00100000
00000000
10000000
01000000
00010000
00000000
,
00001000
00000000
00000000
00000000
00000100
00000000
00000001
00000000
00000010
00000000
00000000
00001000
00010000
00000000
00000010
00000000
,
00001000
00000000
00000000
00000000
00000001
00000000
00000000
00000010
00000100
00000000
00000000
00000000
00000010
00000000
00000001
00000000
,
00000100
00000000
00000000
00000000
00001000
00000000
00000000
00010000
00001000
00000000
00000000
00000000
00100000
00000000
00010000
00000000
,
01000000
00000000
00000000
00000000
00100000
00000000
00000000
10000000
01000000
00000000
00000000
00000000
00100000
00000000
00010000
00000000
,
10000000
00000000
00000000
01000000
00100000
00000000
00000000
00100000
00001000
00000000
00000000
00010000
00001000
00000000
00000100
00000000
,
00000001
00000000
00000000
00000000
00000010
00000000
00000000
00000100
00001000
00000000
00000000
00000000
00000001
00000000
00000100
00000000
,
00001000
00000000
00000000
00000000
00010000
00000000
00000000
01000000
10000000
00000000
00000000
00000000
00010000
00000000
01000000
00000000
,
00100000
00000000
00000000
00000000
10000000
00000000
00000000
01000000
00100000
00000000
00000000
00000000
00010000
00000000
10000000
00000000
,
01000000
00000000
00000000
00100000
00001000
00000000
00000000
00001000
00010000
00000000
00000000
00000010
00000000
00000000
00001000
00000000
,
00000001
00000010
00000000
00000100
00000000
00001000
00000000
00000100
00000000
00000010
00000000
00000001
00000100
00000000
00000000
00000000
,
00001000
00010000
00000000
01000000
00000000
00010000
00000000
00001000
00000000
00010000
00000000
01000000
10000000
00000000
00000000
00000000
,
00010000
01000000
00000000
10000000
00000000
01000000
00000000
00010000
00000000
10000000
00000000
01000000
00010000
00000000
00000000
00000000
,
00001000
00000100
00000000
00000001
00000000
00000100
00000000
00001000
00000000
00000100
00000000
00000001
00001000
00000000
00000000
00000000
,
00000100
00010000
00000000
00001000
00000000
00100000
00000000
00001000
00000000
00010000
00000000
00000100
00001000
00000000
00000000
00000000
,
00000001
00000100
00000000
00001000
00000000
00010000
00000000
00001000
00000000
00000100
00000000
00000001
00001000
00000000
00000000
00000000
,
00000100
00010000
00000000
00001000
00000000
00100000
00000000
00001000
00000000
00010000
00000000
00000100
00000010
00000000
00000000
00000000
,
00000001
00000100
00000000
00001000
00000000
00010000
00000000
01000000
00100000
00010000
10000000
00100000
01000000
00000000
00000000
00000000
,
00001000
00000000
00000000
00001000
00010000
00000000
00000000
00010000
00000010
00000000
00000100
00000000
00001001
00000000
00000000
00000000
;

//--------------- dance-double - Fred-104 ----------------
#NOTES:
     dance-double:
     Fred-104:
     Hard:
     16:
     :
00000000
00000000
00000000
00000000
,
00000000
00000000
00000000
00000000
,
00000000
00000000
00000000
00000000
,
00001000
00000000
00010000
00000000
02000000
00000000
00000000
00000000
00000000
00000000
00000000
00000000
00000000
00000000
03100000
00010000
,
10000000
00000000
01000000
00000000
00100000
00000000
00002000
00000000
00000000
00000000
00000000
00000000
00000000
00000000
00013000
00001000
,
00000200
00000000
00000000
00000310
00002000
00000000
00000000
00003001
,
00000020
00000000
00000000
00000000
00000000
00000000
00000000
00000000
00000000
00000000
00000000
00000000
00000000
00000000
00001030
00010000
,
00001000
00000000
00010000
00000000
00100000
00000000
20000000
00000000
00000000
00000000
00000000
00000000
00000000
00000000
31000000
10000000
,
01000000
00010000
00001000
00000200
00000000
00000000
00000301
00000100
,
00000220
00000330
00022000
00033000
,
02200000
00000000
03300000
00000000
,
01100000
00000000
10000000
01000000
00010000
00000000
00001000
00000100
00000001
00000000
00001000
00000001
00001000
00000000
00000001
00000010
,
00001000
00000000
00010000
00100000
10000000
00000000
00010000
10000000
00010000
00000000
10000000
01000000
00100000
00000000
00001000
00000000
,
00010000
00000000
00001000
00010000
00000100
00000000
00001000
00000001
00000100
00000000
00000001
00000010
00001000
00000000
00010000
01000000
,
10000000
00000000
00010000
10000000
01000000
00000000
10000000
00100000
00010000
00000000
00001000
00000100
00000001
00000000
00000010
00000000
,
00000100
00001000
00000100
00001000
00000100
00000000
00000001
00000010
00000000
00000100
00001000
00000000
00000001
00000100
00000010
00000000
,
00010000
00000010
00001000
00000010
00010000
00000000
00001000
00010000
00000000
00100000
01000000
00000000
00010000
10000000
00100000
00000000
,
10000000
00000000
00010000
10000000
01000000
00000000
10000000
00010000
01000000
00000000
10000000
01000000
00100000
00000000
10000000
00000000
,
01000000
00100000
00010000
00100000
00001000
00000000
00010000
00001000
00000100
00000000
00001000
00000000
00010000
00001000
00010000
00000000
,
00001000
00000000
00000100
00000010
00001000
00000000
00000001
00000100
00001000
00000000
00000100
00000010
00001000
00000000
00000100
00000000
,
00000010
00000000
00000000
00000000
00000000
00000000
00000000
00000000
00000001
00000000
00000000
00000000
00000100
00000000
00000000
00000000
00000010
00000000
00000000
00000000
00000000
00000000
00000000
00000000
00001000
00000000
00000000
00000000
00000001
00000000
00000000
00000000
00000010
00000000
00000000
00000000
00000100
00000000
00000000
00000000
00001000
00000000
00000000
00000000
00000000
00000000
00000000
00000000
00000020
00000030
00000000
00000000
00000000
00000000
00000000
00000000
00000020
00000030
00000000
00000000
00000000
00000000
00000000
00000000
,
00000001
00000000
00000100
00001000
00010000
00000000
00001000
00010000
01000000
00100000
00010000
10000000
00010000
00000000
00100000
00000000
,
00010000
00000000
01000000
00100000
10000000
00000000
00100000
01000000
00010000
10000000
01000000
00100000
00020000
00000000
00000000
00000000
,
10030000
00000000
00100000
01000000
00100000
00000000
10000000
00100000
01000000
00010000
00100000
00010000
00100000
00000000
00001000
00000000
,
00010000
00000000
00001000
00000100
00000010
00000000
00001000
00000100
00000010
00000001
00001000
00000010
00002000
00000000
00000000
00000000
,
00003001
00000000
00000010
00000100
00001000
00000000
00001000
00000100
00000010
00000001
00000100
00000001
00000100
00000000
00000010
00000000
,
00001000
00000000
00000001
00000010
00000100
00000000
00001000
00000100
00010000
00001000
00010000
01000000
00200000
00000000
00000000
00000000
,
00310000
00000000
10000000
00010000
01000000
00000000
00010000
10000000
01000000
10000000
01000000
00100000
01000000
00000000
00010000
00000000
,
00001000
00000000
00000100
00000010
00001000
00000000
00000001
00000010
00000100
00001000
00000001
00001000
00000002
00000000
00000000
00000003
,
00000001
00000100
00000000
00000100
00001000
00000000
00001000
00000100
00000000
00000100
00000001
00000000
00001000
00000000
00000010
00000000
,
00010000
00001000
00000000
00001000
00000010
00000000
00000010
00001000
00000000
00001000
00020000
00000000
00032000
00000000
00003200
00000000
,
00000301
00000000
00000001
00000100
00000010
00000000
00000010
00001000
00000100
00001000
00000100
00000010
00000001
00000000
00001000
00000000
,
00000001
00000000
00000001
00000100
00001000
00000000
00010000
00001000
00010000
01000000
00100000
00010000
00200000
00000000
00000000
00000000
,
01300000
00000000
10000000
00010000
10000000
00000000
00010000
01000000
00010000
01000000
00001000
00010000
00001000
00000000
00000010
00000000
,
00000001
00000000
00000010
00000100
00001000
00000000
00000001
00000100
00000010
00010000
00001000
00100000
00002000
00000000
00000000
00000000
,
00013000
00000000
00001000
00100000
00010000
00000000
01000000
00100000
01000000
00010000
10000000
01000000
00100000
00000000
00001000
00000000
,
00010000
00000000
00010000
00001000
00010000
00000000
00010000
00001000
00000100
00000010
00001000
00000001
00000020
00000000
00000000
00000000
,
00000031
00000000
00001000
00000001
00000010
00000000
00000001
00000100
00000010
00001000
00000001
00000010
00000100
00000000
00010000
00000000
,
00001000
00000000
00010000
01000000
00000000
10000000
00000000
00100000
00000000
00010000
00000000
00001000
00000000
00010000
00001000
00000000
,
00022000
00000000
00000000
00000000
,
00000000
00000000
00000000
00033000
,
00010000
00000000
00001000
00000000
00000200
00000000
00000000
00000000
00000000
00000000
00000000
00000000
00000000
00000000
00000301
00000100
,
00000010
00000000
00001000
00000000
00000100
00000000
00020000
00000000
00000000
00000000
00000000
00000000
00000000
00000000
00031000
00010000
,
00002000
00000000
00000000
00013000
02000000
00000000
00000000
13000000
,
00010000
00100000
01000000
00100000
00001000
00010000
00000010
00001000
00000100
00001000
00000010
00010000
00001000
00100000
00010000
01000000
,
00010000
00000000
10000000
00000000
01000000
00000000
00200000
00000000
00000000
00000000
00000000
00000000
00000000
00000000
00301000
00010000
,
00001000
00000000
00000000
00000100
00000000
00000010
00000100
00000000
00000000
00000002
00000000
00000000
00000000
00000000
00000000
00000000
00000000
00000000
00001003
00000000
00000000
00000000
00000000
00000000
,
00000200
00000010
00000010
00000310
00000002
00000100
00000100
00000103
,
00000110
00000000
00000000
00000000
00011000
00000000
00000000
00000000
00001000
00010000
00000000
01000000
10000000
00000000
00010000
00000000
,
20010000
00000000
00000000
00000000
30010000
00000000
01000000
10000000
02000000
00000000
00000000
00000000
03010000
00000000
00100000
10000000
,
00200000
00000000
00000000
00000000
00310000
00000000
10000000
01000000
00100000
00000000
01000000
00100000
00010000
00000000
01000000
00000000
,
00001000
00000000
00010000
00000100
00010000
00000000
00001000
00000000
01000000
00000000
00001000
00010000
00001000
00000000
00000100
00000000
,
00000010
00000000
00001000
00000010
00000100
00000000
00000001
00000010
00001000
00000000
00000010
00000001
00000100
00000000
00000010
00000000
,
00001002
00000000
00000000
00000000
00001003
00000000
00000100
00000001
00000200
00000000
00000000
00000000
00010300
00000000
00001000
00000010
,
00002000
00000000
00000000
00000000
00013000
00000000
00001000
00000100
00000010
00000000
00001000
00000001
00000010
00000000
00000100
00000000
,
00010000
00000000
00001000
00010000
00100000
00000000
01000000
00000000
00010000
00000000
00100000
10000000
00100000
00000000
00010000
00000000
,
10000000
00000000
01000000
00100000
00010000
00000000
10000000
00100000
00010000
00000000
00001000
00000100
00000000
00000010
00001000
00000000
,
00000001
00000100
00000000
00001000
00000000
00010000
00000000
01000000
00000000
00100000
00000000
00010000
10000000
00000000
00000000
00000000
,
00010000
00100000
00000000
00001000
00000000
00010000
00000000
00001000
00000000
00000100
00000000
00000001
00000010
00000000
00000100
00001000
,
00000001
00000100
00000000
00001000
00000000
00000100
00000000
00000001
00000000
00000100
00000000
00001000
00010000
00000000
00000000
00000000
,
01000000
10000000
00000000
00010000
00000000
01000000
00000000
10000000
00000000
01000000
00000000
00010000
10000000
01000000
00100000
00010000
,
10000000
01000000
00000000
00010000
00000000
00001000
00000000
00000010
00000000
00000001
00000000
00001000
00000001
00000000
00000000
00000000
,
00000001
00000100
00000000
00001000
00000000
00010000
00000000
00100000
00000000
10000000
00000000
00010000
10000000
00000000
00010000
00100000
,
01000000
00100000
00000000
00001000
00000000
00010000
00000000
00001000
00000000
00000010
00000000
00000001
00000010
00000100
00001000
00000000
,
00000001
00000100
00000000
00000010
00001000
00000100
00000000
00010000
00001000
00100000
00010000
01000000
00100000
10000000
00010000
00100000
,
01000000
00000000
10000000
01000000
00010000
00000000
00001000
00000010
00000001
00000000
00001000
00000000
00001001
00000000
00000000
00000000
;

//--------------- dance-double - Fred-104 ----------------
#NOTES:
     dance-double:
     Fred-104:
     Challenge:
     17:
     :
00000000
00000000
00000000
00000000
,
00000000
00000000
00000000
00000000
,
00000000
00000000
00000000
00000000
,
00010000
00000000
00000100
00000000
00000020
00000000
00000000
00000000
00000000
00000000
00000000
00000000
00000000
00000000
00000031
00001000
,
00000001
00000000
00000100
00000000
00001000
00000000
00020000
00000000
00000000
00000000
00000000
00000000
00000000
00000000
00031000
01000000
,
00020000
00000000
00000000
01000000
02030000
00000000
00000000
00001000
,
03002000
00000000
00000000
00000000
00000000
00000000
00000000
00000000
00000000
00000000
00000000
00000000
00000000
00000000
00013000
00001000
,
00010000
00000000
00100000
00000000
01000000
00000000
00020000
00000000
00000000
00000000
00000000
00000000
00000000
00000000
10030000
01000000
,
00010000
00000000
00001000
00010000
00000100
00000000
00000020
00000000
00000000
00000000
00000000
00000000
00000031
00000000
00001000
00000000
,
00000020
00000000
00000000
00000000
00000100
00000200
00000000
00000330
,
00002002
00000000
00000000
00000000
00000000
00000000
00000000
00000000
00000000
00000000
00000000
00000000
00003003
00000000
00000001
00000010
,
00000100
00000000
00000010
00000100
00001000
00000000
00000100
00010000
00001000
00000000
00010000
00001000
00100000
00000000
00010000
00100000
,
01000000
00000000
00000000
00000000
00000000
00000000
00100000
00000000
00000000
01000000
00000000
00000000
10000000
00000000
00000000
00000000
00000000
00000000
00010000
00000000
00000000
10000000
00000000
00000000
00100000
00000000
00000000
00000000
00000000
00000000
10000000
00000000
00000000
00010000
00000000
00000000
00100000
00000000
00000000
00000000
00000000
00000000
01000000
00000000
00100000
00000000
01000000
00000000
,
00200000
00000000
00010000
10300000
00200000
00000000
10000000
00310000
00200000
00000000
00010000
10300000
00100000
00000000
00010000
00001000
,
00000200
00000000
00000001
00001300
00000200
00000000
00001000
00000301
00000200
00000000
00000001
00001300
00000100
00000000
00010000
00001000
,
01000000
00010000
10000000
00010000
00100000
00000000
01000000
00100000
00001000
00010000
00000010
00000000
00001000
00000100
00000010
00000000
,
00000001
00000100
00000010
00001000
00000100
00000000
00000010
00000001
00001000
00000010
00000100
00000000
00001000
00010000
00001000
00000000
,
01000000
00010000
00100000
00001000
00010000
00000000
00000010
00001000
00000100
00010000
00001000
00000000
01000000
00010000
00100000
00000000
,
01000000
10000000
00010000
01000000
00100000
00000000
10000000
01000000
00100000
01000000
00010000
00001000
00010000
00000100
00000010
00000000
,
00000001
00000000
00000100
00000010
00000100
00000000
00000100
00000010
00000100
00000000
00000100
00000010
00000100
00000000
00001000
00000000
,
00010000
00000000
00001000
00100000
00001000
00000000
00001000
00010000
00001000
01000000
00001000
00000000
00010000
00000000
00000100
00000010
,
00000100
00000000
00000010
00000001
00001000
00000000
00000010
00001000
00000001
00000010
00000100
00001000
00000100
00000000
00010000
00000000
,
00001000
00000000
01000000
00010000
00100000
00000000
01000000
00100000
00010000
10000000
00100000
01000000
00020000
00000000
00000000
00000000
,
00130000
00000000
01000000
10000000
00010000
00000000
01000000
00010000
10000000
01000000
00100000
00010000
00100000
00000000
00001000
00000000
,
00010000
00000000
00000010
00001000
00000100
00000000
00000010
00000100
00001000
00000001
00000100
00000010
00001000
00000000
00001100
00000000
,
00000110
00000000
00000010
00000001
00000100
00000000
00000010
00001000
00000100
00000010
00000001
00000100
00000010
00000000
00010000
00000000
,
00011000
00000000
00001000
00010000
00100000
00000000
01000000
00100000
10000000
01000000
00100000
01000000
10000000
00010000
10000000
00010000
,
01000000
00000000
00100000
10000000
01000000
00000000
00100000
00010000
01000000
00100000
10000000
01000000
00100000
00000000
00001000
00000000
,
00011000
00000000
00010000
00001000
00000010
00000000
00000100
00000010
00000001
00001000
00000010
00010000
00001000
00100000
00010000
00000000
,
10000000
00100000
00000000
01000000
00010000
00000000
00001000
00000010
00000000
00000100
00000001
00000000
00001000
00000000
00000100
00000000
,
00000010
00000000
00000000
00000000
00000000
00000000
00000001
00000000
00001000
00000000
00000010
00000000
00001000
00000000
00000010
00000000
00001000
00000000
00000010
00000000
00000000
00000000
00000000
00000000
00001000
00000000
00000000
00000001
00000000
00000000
00000010
00000000
00000000
00000000
00000000
00000000
00000110
00000000
00000000
00000000
00000000
00000000
00000100
00000000
00000000
00001000
00000000
00000000
,
00000001
00000010
00000100
00001000
00000100
00000000
00010000
00001000
00010000
00001000
01000000
00000000
00010000
10000000
00010000
00000000
,
01000000
00000000
00100000
10000000
01000000
00000000
00100000
00010000
01000000
00000000
00100000
00000000
00010000
00001000
00010000
00001000
,
00010000
00000010
00001000
00000010
00000100
00000000
00000010
00001000
00000010
00000100
00000001
00000000
00000010
00000100
00001000
00000000
,
00000100
00000000
00010000
00001000
01000000
00000000
00010000
10000000
01000000
00000000
00100000
00001000
00010000
00001000
00000100
00000000
,
00000001
00001000
00000100
00000000
00000010
00000001
00001000
00000000
00000001
00000010
00000100
00001000
00000100
00010000
00001000
00000000
,
01000000
00010000
10000000
00000000
00010000
00100000
01000000
00000000
00100000
00010000
10000000
00100000
01000000
00100000
10000000
00000000
,
01000000
00100000
00010000
00100000
00001000
00010000
00000010
00001000
00000100
00010000
00000100
00001000
00000010
00000100
00000001
00001000
,
00000001
00000000
00000100
00001000
00000000
00010000
00000000
00001000
00000000
00000010
00000000
00000001
00000000
00000001
00001000
00000000
,
00002002
00000000
00000000
00000000
,
00000000
00000000
00000000
00003003
,
00000001
00000000
00000100
00000000
00002000
00000000
00000000
00000000
00000000
00000000
00000000
00000000
00000000
00000000
00013000
00001000
,
00100000
00000000
00010000
00000000
10000000
00000000
00200000
00000000
00000000
00000000
00000000
00000000
00000000
00000000
01300000
00010000
,
20000000
00000000
00000000
01000000
32000000
00000000
00000000
00010000
,
03010000
00001000
00010000
00000000
00000010
00001000
00000010
00000000
00000100
00000001
00001000
00000100
00000010
00001000
00010000
00001000
,
00010000
00000000
00001000
00000000
01000000
00000000
00020000
00000000
00000000
00000000
00000000
00000000
00000000
00000000
00130000
01000000
,
10000000
00000000
00000000
00010000
01000000
00010000
01000000
00000000
00000000
00200000
00000000
00000000
00000000
00000000
00000000
00000000
00000000
00000000
00310000
00000000
00000000
00001000
00000000
00000000
,
00021000
00030010
00012000
01003000
,
00011000
00000000
00001000
00000000
00001100
00000000
00000100
00000001
00001000
00000100
00001000
00000100
00000010
00000000
00000001
00000000
,
00002001
00000000
00000000
00000000
00003001
00000100
00000010
00000100
00002000
00000000
00000000
00000000
00013000
00100000
01000000
00100000
,
20000000
00000000
00000000
00000000
30010000
00100000
01000000
10000000
00010000
01000000
00100000
00000000
10000000
00000000
00010000
00000000
,
10000000
00000000
01000000
00100000
00001000
00000000
00010000
00000000
00000100
00000000
00000010
00000001
00001000
00000000
00000010
00000000
,
00000100
00000000
00000001
00001000
00000100
00000000
00010000
00001000
01000000
00010000
10000000
00010000
00100000
01000000
10000000
00000000
,
10020000
00000000
00000000
00000000
10030000
00100000
01000000
00100000
00020000
00000000
00000000
00000000
00031000
00000100
00000010
00000100
,
00000002
00000000
00000000
00000000
00001003
00000100
00000010
00000001
00001000
00000010
00000100
00000000
00000001
00000000
00001000
00000000
,
00000100
00000000
00000010
00001000
00010000
00000000
00001000
00100000
00010000
10000000
00100000
01000000
00010000
10000000
01000000
00000000
,
01200000
00000000
00010000
01300000
00200000
00000000
10000000
01300000
00100000
00010000
00100000
00001000
00010000
00000000
00011000
00000000
,
00002000
00010000
00000000
00100000
00000000
01000000
00000000
01000000
00000000
00100000
00000000
00013000
00001000
00000000
00000000
00000000
,
00020000
00001000
00000000
00000010
00000000
00000100
00000000
00000100
00000000
00000010
00000000
00031000
00010000
00000000
00001000
00010000
,
00002000
00010000
00000000
01000000
00000000
00100000
00000000
00100000
00000000
01000000
00000000
00013000
00001000
00000000
00000000
00000000
,
00020000
00001000
00000000
00000100
00000000
00000010
00000000
00000100
00000000
00031000
00010000
00001000
01000000
00000000
00010000
10000000
,
00200000
01000000
00000000
10000000
00000000
01000000
00000000
10000000
00000000
01000000
00000000
10300000
00100000
00000000
10000000
01000000
,
00200000
00010000
00000000
00001000
00000000
00010000
00000000
00001000
00000000
00010000
00000000
00301000
00010000
00000010
00001000
00000010
,
00000200
00000010
00000000
00000001
00000000
00000010
00000000
00000001
00000000
00000010
00000000
00000301
00001000
00000001
00000010
00000100
,
00020000
00000000
00001000
00130000
00020000
00000000
00100000
00031000
00010000
00001000
01000000
00010000
01000000
00100000
10000000
00000000
,
10010000
00000000
00010000
10000000
01000000
00000000
00100000
00001000
00010000
00001000
00010000
00000000
00011000
00000000
00000000
00000000
;
