#TITLE:アイドル;
#ARTIST:Covered by BEMANI Sound Team "HuΣeR × wac" feat. 佐伯伊織;
#TITLETRANSLIT:Idol;
#ARTISTTRANSLIT:Covered by HuMeR × wac feat. Iori Saeki;
#GENRE:IIDX EDITION;
#BANNER:Idol.png;
#BACKGROUND:Idol-bg.png;
#CDTITLE:./CDTitles/bm IIDX 31 EPOLIS.png;
#MUSIC:Idol.ogg;
#SAMPLESTART:56.021;
#SAMPLELENGTH:15;
#BPMS:0=166;
#BGSTAGE:4;

//--------------- dance-single - Fred-104 ----------------
#NOTES:
     dance-single:
     Fred-104:
     Beginner:
     2:
     :
0000
0000
0000
0000
,
0000
0000
0000
0000
,
0000
0000
0000
0000
,
0000
0000
0000
0000
,
0000
0000
0000
0000
,
2000
0000
3000
0000
,
0000
0000
0000
0000
,
0002
0000
0003
0000
,
0000
0000
0000
0000
,
2000
0000
0000
0000
,
0000
0000
3000
0000
,
0002
0000
0000
0000
,
0003
0000
0000
0000
,
1000
0000
0001
0000
,
1000
0000
0000
0000
,
0001
0000
1000
0000
,
0010
0000
0000
0000
,
1000
0000
0001
0000
,
1000
0000
0000
0000
,
0100
0000
0010
0000
,
0001
0000
0000
0000
,
2000
0000
3000
0000
,
0002
0000
0003
0000
,
2000
0000
3000
0000
,
0002
0000
0003
0000
,
0200
0000
0300
0000
,
0020
0000
0030
0000
,
0200
0000
0300
0000
,
0001
0000
0000
0000
,
1000
0000
0000
0000
,
0001
0000
0000
0000
,
1000
0000
0000
0000
,
0100
0000
0100
0000
,
0100
0000
0000
0000
,
0010
0000
0000
0000
,
0001
0000
0000
0000
,
1000
0000
0000
0000
,
0002
0000
0000
0000
,
0000
0000
0003
0000
,
1000
0000
0010
0000
,
1000
0000
0000
0000
,
0001
0000
1000
0000
,
0010
0000
0000
0000
,
1000
0000
0001
0000
,
0100
0000
0000
0000
,
0001
0000
1000
0000
,
0010
0000
0000
0000
,
1000
0000
1000
0000
,
0001
0000
0000
0000
,
0001
0000
0001
0000
,
0100
0000
0000
0000
,
0001
0000
1000
0000
,
0001
0000
0000
0000
,
1000
0000
0001
0000
,
1000
0000
0000
0000
,
0001
0000
0000
0000
,
0000
0000
0000
0000
,
1000
0000
0000
0000
,
0000
0000
0000
0000
,
0001
0000
0000
0000
,
1000
0000
0000
0000
,
0100
0000
0000
0000
,
1000
0000
0000
0000
,
0002
0000
0003
0000
,
2000
0000
3000
0000
,
0002
0000
0003
0000
,
0100
0000
0000
0000
,
0002
0000
0003
0000
,
2000
0000
3000
0000
,
0200
0000
0300
0000
,
1000
0000
0001
0000
,
1001
0000
0000
0000
,
1000
0000
0000
0000
,
0001
0000
0000
0000
,
0100
0000
0000
0000
,
0001
0000
0000
0000
,
1000
0000
0000
0000
,
0001
0000
0000
0000
,
0010
0000
0000
0000
,
0001
0000
0000
0000
,
1000
0000
0000
0000
,
0001
0000
0000
0000
,
1000
0000
0000
0000
,
2002
0000
0000
0000
,
0000
0000
0000
0000
,
0000
0000
0000
0000
,
0000
0000
0000
3003
0000
0000
0000
0000
;

//--------------- dance-single - Fred-104 ----------------
#NOTES:
     dance-single:
     Fred-104:
     Easy:
     4:
     :
0000
0000
0000
0000
,
0000
0000
0000
0000
,
0000
0000
0000
0000
,
0000
0000
0000
0000
,
0000
0000
0000
0000
,
0002
0000
1003
0000
,
0002
0000
0103
0000
,
0002
0000
0013
0000
,
0002
0000
0000
0003
,
2002
0000
0000
0000
,
0000
0000
0000
3003
,
2000
0000
0000
0000
,
3002
0000
0000
0000
,
1003
0000
2000
3000
,
0001
0000
0002
0003
,
1000
0000
2000
3000
,
0001
0000
0002
0003
,
0100
0000
0200
0000
,
0301
1000
0020
0000
,
1030
0001
0200
0000
,
0310
0000
1000
0000
,
0002
0000
0000
0000
,
2003
0000
0000
0000
,
3002
0000
2003
0000
,
3100
1000
0001
0100
,
0020
0000
0000
0000
,
0230
0000
0000
0000
,
0302
0000
2003
0000
,
3001
0000
0010
0000
,
0110
0000
0100
0000
,
1000
0000
0001
1000
,
0100
0000
1000
0000
,
0001
0000
2002
3003
,
1000
0000
0001
0000
,
1000
0001
0100
0000
,
0020
0000
0230
0000
,
0301
1000
0001
1000
,
0200
0000
0320
0030
,
2002
0000
0000
3003
,
0001
0000
0002
0000
,
0013
0000
0020
0000
,
0031
0000
0020
0000
,
0130
0000
1000
0000
,
1000
0010
0200
0000
,
0301
1000
0002
0000
,
0013
0100
0010
0001
,
1000
0001
1001
0000
,
2000
0000
3200
0000
,
0320
0000
0032
0000
,
2003
0000
3002
0000
,
0103
0010
0100
0000
,
0002
0000
2003
0000
,
3200
0000
0320
0000
,
0031
1000
0100
0000
,
1000
0001
1001
0000
,
0002
0000
0000
0000
,
2003
0000
0000
0000
,
3002
0000
0000
0000
,
1003
0001
1001
0000
,
1000
0000
0002
0000
,
0103
0000
0020
0000
,
0130
0000
0002
0000
,
1003
0001
2002
3003
,
2000
0000
3200
0000
,
0320
0000
0032
0000
,
1003
0000
0010
0000
,
0100
0100
0001
1000
,
0002
0000
0023
0000
,
0230
0000
2300
0000
,
3001
0000
1000
0000
,
0001
1000
0002
0003
,
1001
0000
0000
0000
,
0001
0000
0000
0000
,
0100
0000
0010
0000
,
0100
0100
0110
0000
,
0002
0000
0000
0003
,
2000
0000
0000
3000
,
0020
0000
0000
0030
,
0200
0000
0000
0300
,
0001
0000
1000
0000
,
0100
0000
1000
0000
,
0001
0000
0100
0000
,
0001
0000
1000
0000
,
0002
0000
0000
0003
,
2000
0000
0000
3000
,
0001
0000
1000
0000
,
2002
0000
0000
3003
0000
0000
0000
0000
;

//--------------- dance-single - Fred-104 ----------------
#NOTES:
     dance-single:
     Fred-104:
     Medium:
     9:
     :
0000
0000
0000
0000
,
0000
0000
0000
0000
,
0000
0000
0000
0000
,
0000
0000
0000
0000
,
0000
0000
0000
0000
,
0001
0000
1000
0000
,
0001
0010
0100
0000
,
1000
0001
0100
0010
,
0100
0001
0100
0000
0001
1000
0100
0000
,
0110
0000
0010
0000
0011
0000
0001
0001
,
0000
1000
0001
1000
0100
0000
0110
0000
,
1000
0000
0000
1000
0000
0000
2000
0000
0000
0000
3000
0000
0000
0000
0000
0000
,
0001
0000
0000
0001
0000
0000
0002
0000
0000
0000
0003
0000
1001
0000
0000
0000
,
0001
0100
0001
0000
1000
0000
0000
0000
,
0100
1000
0100
0000
0010
0000
0000
0000
,
0001
0100
0001
0000
0001
0010
0001
0000
,
0100
0010
0100
0000
0110
0000
0000
0000
,
0001
0100
0001
0000
1000
0000
0000
0000
,
0100
0010
0100
0000
1000
0000
0000
0000
,
0001
0100
0001
0000
0001
0010
0001
0000
,
1000
0100
1000
0001
1000
0000
1001
0000
,
0001
0000
0000
0001
0000
0000
0002
0000
0000
0000
0003
0000
1000
0000
0000
0000
,
0100
0000
0000
0100
0000
0000
0200
0000
0000
0000
0300
0000
0010
0000
0000
0000
,
0001
0000
0100
0010
1000
0000
0010
0100
,
0001
0000
1000
0100
0010
0000
0001
0000
,
1000
0000
0000
0100
0000
0000
0001
0000
0000
0000
0100
0000
2000
0000
0000
0000
,
3001
0000
0000
0100
0000
0000
1000
0000
0000
0000
0100
0000
0002
0000
0000
0000
,
1003
0100
0010
0000
0001
0000
1000
1000
,
0000
0001
0100
0100
0200
0000
0300
0000
,
1001
0000
0000
0001
0010
0000
0010
0100
,
0000
0100
1000
0000
0001
0000
0100
0000
,
0110
0000
0010
0100
0001
0000
1000
0100
,
0001
0100
1000
0000
0001
1000
0001
0000
,
1000
0000
0001
0010
0000
0100
0000
1000
,
0000
0001
0100
0010
0100
0000
0001
0000
,
1001
0000
0000
0000
0110
0000
0000
0000
1001
0000
0000
0001
0000
0000
0100
0000
,
0000
0010
0100
0000
0001
1000
0100
0000
,
1100
0000
0000
1000
0001
0100
0010
1000
,
0000
0100
0010
0000
2002
0000
3003
0000
,
1000
0000
0010
0000
0110
0000
0100
0001
,
0000
1000
0001
0010
0100
0000
1000
0010
,
0100
0000
0000
0000
0110
0000
0000
0000
0010
0000
0000
1000
0000
0000
0001
0000
,
0000
1000
0100
0000
0010
0000
1001
0000
,
0001
0000
0100
0000
0010
0000
0100
0001
,
0000
1000
0001
0010
0100
0000
1000
0001
,
0100
0000
0110
0000
0010
0000
1000
0001
,
0000
1100
0000
0100
0010
0000
0002
0000
,
2003
0000
3000
0000
0001
0100
0010
0000
,
0200
0000
0300
0000
0010
1000
0100
0000
,
1000
0001
1000
0100
,
0010
0000
0100
0000
1000
0010
1000
0000
,
0002
0003
0100
1000
,
0002
0003
0010
1000
,
0001
0000
0100
0000
0010
0000
0000
1010
,
0000
0001
0000
0010
0100
0000
1000
0000
,
0002
0000
0000
0003
,
1000
0001
0100
0010
,
0200
0000
0000
0000
0000
0000
0301
1000
,
0000
0001
0100
0010
0100
0000
1001
0000
,
1000
0000
0010
0000
1000
0000
0001
1000
,
0000
0100
0000
1000
0001
0000
0100
0000
,
0010
0000
0100
0000
0001
0000
1000
0001
,
0000
0100
0000
0010
0010
0000
1001
0000
,
2000
3000
0100
0001
,
2000
3000
0010
0001
,
1000
0100
0010
0001
,
1000
0001
0200
0300
,
0002
0003
0100
1000
,
0002
0003
0010
1000
,
0001
0000
0010
0000
0100
0000
1000
1000
,
0000
0001
0000
0100
0020
0000
0030
0000
,
1001
0000
0000
0001
0000
0000
0010
0000
,
0100
0000
1000
0001
,
1000
0000
0010
0000
0100
0000
0010
1000
,
0000
0001
0000
1000
0001
0000
1001
0000
,
1000
0100
0000
0010
0000
0001
1000
0000
,
0001
0000
0100
0001
0000
1000
0001
0000
,
0010
0100
0000
1000
0000
0001
0000
0100
,
0010
0000
1000
0001
0000
1000
0100
0000
,
1000
0001
0000
1000
0000
0100
0010
0000
,
0100
0000
1000
0001
0000
0100
0010
0000
,
0100
0001
0100
0000
0010
1000
0010
0000
,
1000
0001
1000
0001
1000
0000
0100
0000
,
0110
0000
0001
0000
,
1000
0000
0100
0000
,
0010
0001
1000
0010
,
2002
0000
0000
3003
0000
0000
0000
0000
;

//--------------- dance-single - Fred-104 ----------------
#NOTES:
     dance-single:
     Fred-104:
     Hard:
     13:
     :
0000
0000
0000
0000
,
0000
0000
0000
0000
,
0000
0000
0000
0000
,
0000
0000
0000
0000
,
0000
0000
0000
0000
,
1000
0010
1000
0001
,
0100
0000
0010
0100
0001
1000
0100
0000
,
0110
0000
0010
0001
1000
0001
0100
0000
,
0001
1000
0010
1000
0001
0010
0100
0000
,
1100
0000
1000
0000
1001
0000
0001
0001
,
0000
0101
0000
0100
0010
1000
1001
0000
,
0001
0000
0000
0001
0000
0000
0002
0000
0000
0000
1003
0000
0000
0000
0010
0000
,
0100
0000
0000
0100
0000
0000
0200
0000
0000
0000
0301
0000
1000
0000
0100
0000
,
0010
0100
1000
0100
0010
0000
0001
1000
,
0010
1000
0001
1000
0100
0000
0010
0100
,
1000
0001
0100
0010
0100
0001
1000
0100
,
0010
0001
0100
0010
2000
0000
3100
1000
,
0001
0100
0010
0100
0001
0000
1000
0100
,
0010
0001
0010
0100
1000
0000
0001
1000
,
0010
0100
0010
1000
0010
0100
0001
1000
,
0100
0010
0001
1000
0020
0000
0130
0001
,
1000
0000
0000
0100
0000
0000
0110
0000
0000
0000
0010
0000
0001
0000
1000
0000
,
0001
0000
0000
0100
0000
0000
0110
0000
0000
0000
0010
0000
1000
0000
0001
0000
,
0010
0000
0100
0000
1000
0000
0001
0100
0001
0000
1000
0000
0100
0000
0010
0001
,
0010
0000
0001
0000
0100
0000
0010
1000
0010
0000
1000
0000
0001
0000
1000
0000
,
0100
0000
0000
0010
0000
0000
0011
0000
0001
0000
1000
0000
0010
0000
0100
0000
,
0001
0000
0000
0010
0000
0000
0110
0000
0100
0000
1000
0001
1000
0000
0010
0000
,
0100
0000
0001
0000
0010
0000
0000
0010
0001
0000
1000
0000
0010
0000
0200
0000
,
0000
0000
0301
1000
0001
0000
1000
0100
1000
0000
0001
0010
0001
0010
0001
0000
,
1001
0000
0000
1000
0100
0000
0010
0100
,
0000
1000
0100
0010
0001
0000
1000
0001
,
0100
0000
0010
0100
0001
0000
1000
0100
,
0010
0000
0100
0000
0010
0000
0001
0000
1000
0001
1000
0001
1000
0000
0010
0000
,
0110
0000
0100
0001
1000
0001
0010
0200
,
0000
0000
1300
0000
0001
0000
0100
0000
0010
0000
1000
0100
1000
0000
0001
0000
,
0011
0000
0000
0000
1010
0000
0000
0000
0011
0000
0000
0001
1000
0000
0010
0000
,
0100
0000
0001
1000
0001
0000
0010
0000
0100
0000
1000
0000
0001
0000
0100
0000
,
0110
0000
0000
0000
0000
0000
1000
0000
0100
0000
0010
0000
0001
1000
0001
0000
,
0000
1000
1000
1000
1001
0000
0001
1000
,
0010
0000
1000
0100
1000
0000
0001
0000
0100
0000
0010
1000
0010
0000
0100
0000
,
0000
0000
0001
1000
0001
0000
0010
0000
0100
0000
0000
0000
1000
0000
0001
0000
,
0100
0000
0010
1000
0010
0000
0100
0000
0001
0000
0000
1000
0000
0000
0100
0000
,
0000
0000
0010
0000
0100
0000
1000
0001
1000
0000
0001
0000
1000
0000
0000
0000
,
0100
0000
0010
0001
0010
0000
0100
0000
1000
0000
0001
0100
0001
0000
1000
0000
,
0000
0000
0100
0000
0010
0000
0001
1000
0001
0000
0100
0000
0010
0000
1000
0000
,
1100
0000
0101
0000
1100
0000
0100
0010
,
0000
0000
0001
1000
0001
0000
0100
0000
0010
0000
1000
0001
1000
0000
0000
0000
,
1001
0000
0001
0010
0100
1000
0001
0100
,
0010
0000
1000
0001
0010
0100
1000
0100
,
0010
0000
0000
0000
1001
0000
0000
0000
0001
0000
0100
0010
0100
0000
0001
0000
,
1000
0000
0100
0010
0100
0000
1000
0000
0001
0000
0100
0000
0010
0000
1000
0000
,
1001
0000
0001
0100
1000
0100
0001
0100
,
0001
0000
0000
0000
1000
0000
0100
0010
0100
0000
1000
0000
0100
0000
1000
0000
,
0001
0100
0001
0100
0010
1000
0001
1000
,
0000
0000
0100
0010
0100
0000
1000
0000
1001
0000
0000
0000
0001
0000
0100
0000
,
0020
0000
1000
0000
1000
0000
1030
0002
,
0000
1003
0100
0010
0002
0000
1003
0001
,
0200
0000
0010
0000
0010
0000
0310
1000
,
0000
0001
1000
0100
0010
0000
1001
0000
,
1000
0100
1000
0000
0001
0000
0100
0000
0010
1000
0010
0000
0100
0000
0001
0000
,
1000
0000
0100
0000
0010
0000
0001
1000
0001
0000
0100
0000
0010
0000
0100
0000
,
0001
1000
0001
0000
0010
0000
0100
0000
1000
0001
1000
0000
0001
0000
0100
0000
,
0010
0000
1000
0000
0001
0010
0001
0000
1000
0000
0001
0000
1001
0000
0000
0000
,
2000
0000
0000
0000
3100
0000
0010
0000
0001
0000
1000
0010
1000
0000
0001
0000
,
0200
0000
0000
0000
0310
0000
1000
0000
0001
0000
0010
0100
0010
0000
0001
0000
,
1000
0000
1100
0000
0001
1000
0010
0100
,
0001
1000
0100
0010
0001
1000
0001
0000
,
2000
0000
0000
0000
3100
0000
1000
0001
1000
0000
0010
0000
0100
0000
0001
0000
,
2000
0000
0000
0000
3100
0000
0010
0001
0010
0000
0100
0000
1000
0000
0001
0000
,
0100
0010
1000
0010
0100
0001
1000
0100
,
0000
0000
0100
0000
0010
0000
0001
1000
0001
0000
1000
0000
1001
0000
0000
0000
,
1100
1000
0001
0001
,
0100
0100
0010
0010
,
0100
0000
0100
0000
0001
1000
0001
1000
,
0000
1100
0000
0001
0101
0000
1001
0000
,
1000
0100
0001
0100
1000
0100
0001
0100
,
1000
0100
0010
0001
0000
1000
0010
0100
,
0001
0100
0010
1000
0010
0001
0010
1000
,
0001
0010
0100
1000
0000
1000
0001
0000
,
0001
0100
1000
0100
0001
0100
1000
0100
,
0001
1000
0100
0010
0000
0010
0100
1000
,
0001
0100
0010
1000
0001
0010
0100
0010
,
0001
0100
0010
1000
0001
0000
1001
0000
,
1000
0000
0001
0000
0100
0010
1000
0010
,
0100
0000
0001
1000
0100
0010
0001
0000
,
1000
0000
1000
0000
1000
0000
0000
0001
0100
0000
0010
0000
0100
0001
1000
0000
,
1100
0000
0000
0101
0000
0000
1001
0000
0000
0000
0000
0000
0000
0000
0000
0000
;

//--------------- dance-single - Fred-104† ----------------
#NOTES:
     dance-single:
     Fred-104†:
     Challenge:
     16:
     :
0000
0000
0000
0000
,
0000
0000
0000
0000
,
0000
0000
0000
0000
,
0000
0000
0000
0000
,
0000
0000
0000
0000
,
0001
0010
0100
1000
0001
0100
0010
0010
,
1000
0100
0010
0001
1000
0001
0100
0000
,
MMMM
0000
0100
0000
0001
1000
0100
0010
,
0001
0100
0010
1000
0100
0010
0001
0000
,
0011
0000
1010
0000
0101
0000
1100
1100
,
0000
0110
0000
1001
1001
0100
0010
0000
,
0001
0000
0000
0001
0000
0000
0001
0000
0000
0000
1000
0000
0000
0000
1000
0000
,
0010
0000
0000
0010
0000
0000
0010
0000
0000
0000
0100
0000
0001
0000
1000
0000
,
0100
0010
0001
1000
0101
1000
0001
0100
,
0010
1000
0001
1000
0110
1000
0010
0100
,
0001
0010
0100
0001
1000
0010
0100
1000
,
0001
0000
0100
0000
1000
0000
0100
0000
0001
1000
0001
1000
0001
0000
1000
0010
,
0100
0000
0001
0000
1000
0000
0100
0010
0001
0000
1000
0000
0010
0000
0100
0000
,
0001
0000
0010
0000
0100
0000
1000
0001
0100
0000
0010
0000
1000
0000
0100
0000
,
0010
0000
0001
0000
1000
0000
0010
0100
0001
0000
0010
0000
0100
0000
0010
0000
,
0002
0100
2003
0010
3001
0100
0110
0000
,
1001
0000
1000
0100
0000
1000
0100
0000
MMMM
0000
0100
0000
0010
0000
0001
0000
,
1001
0000
1000
0010
0000
1000
0010
0000
MMMM
0000
0010
0000
0100
0000
0001
0000
,
1000
0100
0011
MMMM
0001
0100
1010
MMMM
,
2000
0100
3002
0010
1003
0100
0010
0001
,
1001
0000
0001
0010
0000
0100
1000
0001
0100
0000
0010
1000
0010
0000
0100
0000
,
1001
0000
1000
0100
0000
0010
0001
1000
0010
0000
0100
0001
0010
0000
0100
0000
,
0010
0000
0100
0000
1100
0000
0001
1000
0010
0000
0100
0000
0001
0000
1000
0000
,
MMMM
0000
1000
0000
0100
0000
0010
0001
0010
0000
0001
0000
1000
0000
0001
0000
,
0200
0000
1000
1000
0000
0010
0000
0301
,
0000
1000
0100
0010
0001
MMMM
0001
0100
,
0110
0000
1000
0001
0011
0000
0001
1000
,
1010
0000
1000
0000
0001
0000
0100
0000
0010
1000
0100
0010
0001
0000
1000
0000
,
0001
0100
1000
0001
0010
0100
0010
1000
,
0100
0000
0001
0000
1000
0000
0010
0000
0100
1000
0100
1000
0001
0100
0010
0000
,
1010
0000
MMMM
0000
1010
0000
MMMM
0000
1000
0100
0000
0100
0010
0000
0001
0000
,
MMMM
0001
0100
1000
0001
0010
1000
0100
,
0010
0000
0001
1000
0010
0100
0001
0000
0010
0000
0100
0010
0001
1000
0010
0000
,
MMMM
0010
0100
0010
0110
0000
1001
MMMM
,
0001
1000
0010
0000
0100
0000
0001
0000
1000
0100
0010
0000
0002
0000
1000
0000
,
0000
0000
0103
0010
1000
0000
0001
0000
0010
0000
0100
1000
0001
0000
0100
0000
,
0010
1000
0100
0000
0010
0000
0001
0000
1000
0001
0100
0000
0020
0000
1000
0000
,
0000
0000
0130
0000
0001
1000
0100
0010
0001
0000
0100
0010
1000
0010
0100
0000
,
0001
1000
0100
0000
0010
0000
0100
0000
1000
0010
0100
0000
0002
0000
1000
0000
,
0000
0000
0103
0001
1000
0000
0100
0000
0010
0000
0001
1000
0010
0000
0100
0000
,
0001
0010
0100
0000
1000
0000
0001
0000
0100
0010
1000
0000
0010
0000
0100
0000
,
1000
0000
0100
0000
0001
1000
0001
1000
0001
0000
0100
0010
1000
0000
0001
0000
,
1001
0000
0000
0000
MMMM
0000
1000
0100
0010
0000
0100
0010
0001
0000
1000
0000
,
1010
0000
0000
0000
MMMM
0000
0001
0100
0010
0000
0100
0010
1000
0000
0001
0000
,
0020
0000
0000
0000
1000
0000
0000
0000
1030
0000
0010
0001
1000
0000
0001
0000
,
0010
0100
0010
1000
0001
0100
1000
0001
,
1001
0000
0000
0000
MMMM
0000
1000
0010
0100
0000
0010
1000
0100
0000
0010
0000
,
0011
0000
0000
0000
MMMM
0000
0001
0100
0010
0000
0100
0001
0010
0000
0100
0000
,
1000
0001
0100
0000
0010
0000
1000
0000
0100
0010
0001
0000
1000
0000
0020
0000
,
0000
0000
0031
0000
0010
0000
1000
0001
1000
0000
0100
0000
0010
0000
0001
0000
,
0100
0100
0100
0100
,
0010
0010
0010
0010
,
1000
0000
0000
0000
1000
0000
0000
0000
0001
0000
0001
0010
0001
0000
0011
0000
,
0000
1010
0101
1100
0110
MMMM
1001
MMMM
,
0001
1000
0010
1000
0001
0000
0010
0000
0100
1000
0001
0100
0020
0000
1000
0000
,
0000
0000
0130
0001
1000
0000
0100
0000
0010
0000
0001
0010
0100
0000
1000
0000
,
0001
0100
0010
1000
0010
0000
0100
0000
0001
1000
0100
0010
0002
0000
1000
0000
,
0000
0000
0103
0001
1000
0000
0100
0000
0010
0001
0010
0001
0010
0001
1000
0000
,
1001
0000
0000
0000
MMMM
0000
0001
0010
1000
0000
0001
0100
1000
0000
0100
0000
,
0110
0000
0000
0000
MMMM
0000
1000
0010
0001
0000
1000
0100
0001
0000
1000
0000
,
0020
0000
0000
0000
0001
0000
0000
0000
0031
0000
0010
1000
0001
0000
0010
0000
,
0100
1000
0001
1000
0010
0000
0100
0000
0001
1000
0100
1000
0001
0000
0000
0000
,
1001
0000
0000
0000
MMMM
0000
0001
0010
1000
0000
0001
0100
0010
0000
0001
0000
,
1001
0000
0000
0000
MMMM
0000
1000
0010
0100
0000
1000
0001
0010
0000
1000
0000
,
0001
0100
0010
0000
1000
0000
0100
0000
0010
0001
1000
0000
0001
0000
0100
0000
,
MMMM
0000
0100
0000
0010
0000
1000
0001
1000
0000
0001
0000
1001
0000
0000
0000
,
0110
0000
1000
0100
0000
0100
0001
0100
,
1000
0000
0001
0100
1000
0100
1000
0100
,
0001
0000
1000
0100
0001
1000
0010
0001
,
MMMM
0110
MMMM
1001
0100
0010
1001
0000
,
1000
0000
0001
0100
0001
0000
1000
0100
1000
0000
0001
0010
0001
0000
1000
0000
,
0001
0100
0001
0100
0010
0000
1000
0000
0001
0010
0100
1000
0001
0000
0000
0000
,
1000
0000
0001
0010
0001
0000
1000
0010
1000
0000
0001
0100
0001
0000
1000
0000
,
0100
0010
0001
1000
0010
0000
0100
0000
0001
0000
1000
0000
1001
0000
0000
0000
,
1000
0000
0010
1000
0001
0000
0010
0100
1000
0000
0001
1000
0010
0000
0100
0000
,
0001
1000
0100
0010
0001
0000
1000
0000
0010
0100
0001
0100
0010
0000
1000
0000
,
0001
0000
0010
0100
1000
0000
0001
1000
0010
0000
0100
0001
1000
0000
0100
0000
,
0010
0100
0010
0100
1000
0001
0100
0001
1000
0000
0001
0000
1000
0000
0000
0000
,
1001
0000
0000
0000
0001
0010
0001
0010
0100
1000
0100
1000
0001
1000
0001
1000
,
0001
0000
0000
0000
1000
0010
1000
0010
0100
0001
0100
0001
1000
0001
1000
0001
,
1000
0000
0100
0000
0110
0000
0000
0010
0001
0000
1000
0001
0100
0010
1000
0000
,
1100
0000
0000
0001
0100
0010
0110
0000
0000
0000
0000
0000
0000
0000
0000
0000
;

//--------------- dance-double - Fred-104 ----------------
#NOTES:
     dance-double:
     Fred-104:
     Easy:
     4:
     :
00000000
00000000
00000000
00000000
,
00000000
00000000
00000000
00000000
,
00000000
00000000
00000000
00000000
,
00000000
00000000
00000000
00000000
,
00000000
00000000
00000000
00000000
,
00020000
00000000
00031000
00000000
,
00020000
00000000
00030010
00000000
,
00020000
00000000
00031000
00000000
,
00020000
00000000
00000000
00030000
,
00022000
00000000
00000000
00000000
,
00000000
00000000
00000000
00033000
,
00020000
00000000
00000000
00000000
,
00032000
00000000
00000000
00000000
,
00003010
00000000
00000002
00000003
,
00001000
00000000
00000002
00000003
,
00001000
00000000
00000020
00000030
,
00001000
00000000
00000020
00000030
,
00010000
00000000
00002000
00000000
,
00013000
00001000
00200000
00000000
,
00310000
10000000
00200000
00000000
,
10300000
00000000
01000000
00000000
,
00200000
00000000
00000000
00000000
,
00302000
00000000
00000000
00000000
,
00023000
00000000
00032000
00000000
,
00013000
00000100
00001000
00000100
,
00002000
00000000
00000000
00000000
,
00003002
00000000
00000000
00000000
,
00000203
00000000
00000302
00000000
,
00001003
00000000
00000100
00000000
,
00011000
00000000
00010000
00000000
,
00001000
00000000
00100000
00010000
,
10000000
00000000
01000000
00000000
,
00010000
00000000
00022000
00033000
,
00010000
00000000
00001000
00000000
,
00000100
00001000
00000100
00000000
,
00000002
00000000
00002003
00000000
,
00003001
00000100
00000010
00000000
,
00002000
00000000
00000002
00003003
,
00002002
00000000
00000000
00003003
,
00000001
00000000
00002000
00000000
,
00003010
00000000
00020000
00000000
,
00031000
00000000
00020000
00000000
,
00031000
00000000
01000000
00000000
,
00001000
00010000
00002000
00000000
,
00103000
00010000
00200000
00000000
,
00310000
10000000
00100000
10000000
,
01000000
00100000
10010000
00000000
,
20000000
00000000
32000000
00000000
,
03020000
00000000
00032000
00000000
,
00023000
00000000
00032000
00000000
,
00013000
00001000
00000100
00000000
,
00000002
00000000
00002003
00000000
,
00003002
00000000
00000203
00000000
,
00001300
00010000
00001000
00000000
,
00010000
00001000
00011000
00000000
,
00020000
00000000
00000000
00000000
,
00032000
00000000
00000000
00000000
,
00023000
00000000
00000000
00000000
,
00031000
00010000
00011000
00000000
,
00001000
00000000
00020000
00000000
,
01030000
00000000
00200000
00000000
,
00310000
00000000
20000000
00000000
,
31000000
00100000
02200000
03300000
,
20000000
00000000
30200000
00000000
,
00320000
00000000
00032000
00000000
,
00013000
00000000
00001000
00000000
,
00000010
00000000
00000001
00000000
,
00002000
00000000
00003002
00000000
,
00002003
00000000
00003200
00000000
,
00010300
00000000
00001000
00000000
,
00010000
00001000
02000000
03000000
,
10010000
00000000
00000000
00000000
,
10000000
00000000
00000000
00000000
,
01000000
00000000
00010000
00000000
,
00001000
00010000
00011000
00000000
,
00020000
00000000
00000000
00030000
,
00002000
00000000
00000000
00003000
,
00000200
00000000
00000000
00000300
,
00000002
00000000
00000000
00000003
,
00001000
00000000
00000001
00000000
,
00000100
00000000
00000001
00000000
,
00001000
00000000
00000100
00000000
,
00010000
00000000
00001000
00000000
,
00020000
00000000
00000000
00030000
,
00002000
00000000
00000000
00003000
,
00010000
00000000
00000010
00000000
,
00002002
00000000
00000000
00003003
00000000
00000000
00000000
00000000
;

//--------------- dance-double - Fred-104 ----------------
#NOTES:
     dance-double:
     Fred-104:
     Medium:
     9:
     :
00000000
00000000
00000000
00000000
,
00000000
00000000
00000000
00000000
,
00000000
00000000
00000000
00000000
,
00000000
00000000
00000000
00000000
,
00000000
00000000
00000000
00000000
,
00001000
00000000
00010000
00000000
,
00001000
00010000
00100000
00000000
,
01000000
00010000
10000000
01000000
,
00100000
00001000
00010000
00001000
,
00011000
00000000
00010000
00000000
00000010
00000000
00001000
00001000
,
00000000
00000001
00000100
00001000
00010000
00000000
00011000
00000000
,
00001000
00000000
00000000
00001000
00000000
00000000
00002000
00000000
00000000
00000000
00003000
00000000
00000000
00000000
00000000
00000000
,
00010000
00000000
00000000
00010000
00000000
00000000
00020000
00000000
00000000
00000000
00030000
00000000
00011000
00000000
00000000
00000000
,
00001000
00010000
01000000
00000000
00100000
00000000
00000000
00000000
,
00010000
10000000
00010000
00000000
01000000
00000000
00000000
00000000
,
00100000
10000000
00100000
00000000
00100000
01000000
00100000
00000000
,
10000000
01000000
00100000
00000000
00110000
00000000
00000000
00000000
,
00001000
00010000
00001000
00000000
00000100
00000000
00000000
00000000
,
00000001
00001000
00000001
00000000
00000100
00000000
00000000
00000000
,
00000010
00001000
00000010
00000000
00000010
00010000
00000010
00000000
,
00010000
00001000
00010000
00001000
00010000
00000000
00011000
00000000
,
00001000
00000000
00000000
00001000
00000000
00000000
00002000
00000000
00000000
00000000
00003000
00000000
00010000
00000000
00000000
00000000
,
00100000
00000000
00000000
00100000
00000000
00000000
00200000
00000000
00000000
00000000
00300000
00000000
01000000
00000000
00000000
00000000
,
00001000
00000000
00010000
00100000
10000000
00000000
00010000
10000000
,
00100000
00000000
01000000
00001000
00010000
00000000
00001000
00000000
,
00010000
00000000
00000000
00001000
00000000
00000000
00000100
00000000
00000000
00000000
00000010
00000000
00002000
00000000
00000000
00000000
,
00003001
00000000
00000000
00000010
00000000
00000000
00000100
00000000
00000000
00000000
00000010
00000000
00002000
00000000
00000000
00000000
,
00013000
00001000
00010000
00000000
01000000
00000000
00100000
00010000
,
00000000
10000000
00010000
00010000
00020000
00000000
00030000
00000000
,
10010000
00000000
00000000
10000000
01000000
00000000
01000000
00100000
,
00000000
00001000
00010000
00000000
00001000
00000000
00010000
00000000
,
00011000
00000000
00010000
00000010
00010000
00000000
00001000
00010000
,
00000100
00010000
00001000
00000000
00010000
00000010
00010000
00000000
,
00001000
00000000
00010000
00100000
00000000
01000000
00000000
00010000
,
00000000
01000000
00100000
10000000
00010000
00000000
10000000
00000000
,
10010000
00000000
00000000
00000000
01100000
00000000
00000000
00000000
10010000
00000000
00000000
10000000
00000000
00000000
01000000
00000000
,
00000000
00100000
00001000
00000000
00010000
00000010
00001000
00000000
,
00001001
00000000
00000000
00001000
00000100
00000000
00000010
00000001
,
00000000
00000100
00001000
00000000
00022000
00000000
00033000
00000000
,
00001000
00000000
00010000
00000000
00100000
00000000
01000000
00010000
,
00000000
10000000
00100000
10000000
00100000
00000000
10000000
00010000
,
00100000
00000000
00000000
00000000
00001000
00000000
00000000
00000000
00010000
00000000
00000000
00001000
00000000
00000000
00010000
00000000
,
00000000
00000010
00001000
00000000
00000010
00000000
00000100
00000000
,
00000010
00000000
00001000
00000000
00000001
00000000
00000100
00001000
,
00000000
00010000
00001000
00010000
01000000
00000000
10000000
00010000
,
10000000
00000000
00100000
00000000
01000000
00000000
00010000
00100000
,
00000000
00101000
00000000
00001000
00010000
00000000
00002000
00000000
,
00023000
00030000
00001000
00000100
,
00000002
00000003
00000100
00001000
,
00010000
00001000
00010000
00001000
,
00000010
00000000
00000100
00000000
00001000
00000001
00001000
00000000
,
00000002
00000003
00000100
00001000
,
00020000
00030000
00100000
10000000
,
00010000
00000000
10000000
00000000
01000000
00000000
00000000
01100000
,
00000000
00100000
00000000
00001000
00010000
00000000
00001000
00010000
,
00002000
00000000
00000000
00003000
,
00010000
00001000
00010000
00000010
,
00002000
00000000
00000000
00000000
00000000
00000000
00003001
00001000
,
00000000
00000010
00000100
00001000
00010000
00000000
00011000
00000000
,
00001000
00000000
00010000
00000000
01000000
00000000
00100000
00010000
,
00000000
10000000
00000000
00010000
10000000
00000000
01000000
00000000
,
00100000
00000000
00001000
00000000
00010000
00000000
00001000
00010000
,
00000000
00000010
00000000
00010000
00010000
00000000
00011000
00000000
,
00020000
00030000
00001000
00000100
,
00000002
00000003
00000100
00001000
,
00010000
00001000
00000010
00001000
,
00010000
00001000
00020000
00030000
,
00002000
00003000
00010000
00100000
,
02000000
03000000
00010000
10000000
,
01000000
00000000
00100000
00000000
00001000
00000000
00010000
00010000
,
00000000
00000010
00000000
00010000
00002000
00000000
00003000
00000000
,
00011000
00000000
00000000
00010000
00000000
00000000
00000010
00000000
,
00001000
00000000
00000001
00001000
,
00000001
00000000
00000010
00000000
00001000
00000000
00010000
00100000
,
00000000
10000000
00000000
00010000
10000000
00000000
10010000
00000000
,
00010000
10000000
00000000
01000000
00000000
00100000
01000000
00000000
,
00100000
00000000
00001000
00010000
00000000
00000010
00010000
00000000
,
00001000
00010000
00000000
00000010
00000000
00001000
00000000
00000001
,
00001000
00000000
00000100
00000001
00000000
00000100
00001000
00000000
,
00000010
00010000
00000000
00001000
00000000
00010000
00100000
00000000
,
01000000
00000000
00010000
10000000
00000000
01000000
00100000
00000000
,
00001000
00010000
00001000
00000000
00010000
00000010
00010000
00000000
,
00001000
00010000
00001000
00010000
00001000
00000000
00010000
00000000
,
00011000
00000000
00001000
00000000
,
00010000
00000000
00100000
00000000
,
10000000
01000000
00010000
00001000
,
00022000
00000000
00000000
00033000
00000000
00000000
00000000
00000000
;

//--------------- dance-double - Fred-104 ----------------
#NOTES:
     dance-double:
     Fred-104:
     Hard:
     13:
     :
00000000
00000000
00000000
00000000
,
00000000
00000000
00000000
00000000
,
00000000
00000000
00000000
00000000
,
00000000
00000000
00000000
00000000
,
00000000
00000000
00000000
00000000
,
00010000
00001000
00010000
00000010
,
00010000
00000000
00001000
00000000
00000010
00000001
00000010
00000000
,
00000100
00001000
00000100
00010000
,
00001000
00010000
00100000
00000000
01000000
00010000
10000000
00000000
,
11000000
00000000
00100000
00000000
01010000
00000000
00100000
10000000
,
00000000
01000000
00100000
00001000
00010000
00001000
00011000
00000000
,
00010000
00000000
00000000
00000010
00000000
00000000
00002000
00000000
00000000
00000000
00003001
00000000
00000010
00000000
00000100
00000000
,
00001000
00000000
00000000
00000100
00000000
00000000
00020000
00000000
00000000
00000000
00031000
00000000
01000000
00000000
00010000
00000000
,
00100000
01000000
00100000
00010000
00100000
00000000
01000000
10000000
,
00010000
10000000
00100000
00010000
00001000
00000000
00010000
00001000
,
00000100
00000010
00001000
00000001
00000010
00000100
00001000
00000001
,
00000100
00001000
00010000
00001000
00020000
00000000
00130000
01000000
,
00010000
10000000
00010000
00100000
01000000
00000000
10000000
01000000
,
00100000
00001000
00010000
00100000
01000000
00000000
00010000
10000000
,
01000000
00100000
00001000
00010000
00001000
00000010
00000001
00000010
,
00000100
00001000
00000001
00000100
00002000
00000000
00013000
00001000
,
00010000
00000000
00000000
00001000
00000000
00000000
00101000
00000000
00000000
00000000
00001000
00000000
00010000
00000000
00100000
00000000
,
01000000
00000000
00000000
00100000
00000000
00000000
10100000
00000000
00000000
00000000
10000000
00000000
00010000
00000000
10000000
00000000
,
01000000
00100000
00001000
00010000
00100000
01000000
00001000
00010000
,
00001000
00000010
00000001
00000010
00000100
00010000
00001000
00100000
,
00001000
00000000
00000000
00010000
00000000
00000000
00011000
00000000
00001000
00000000
00010000
00000000
01000000
00000000
00100000
00000000
,
00010000
00000000
00000000
10000000
00000000
00000000
10100000
00000000
00100000
00000000
01000000
00000000
00010000
00000000
10000000
00000000
,
01000000
00000000
00100000
00000000
00001000
00000000
00000000
00001000
00010000
00000000
00000010
00000000
00001000
00000000
00000020
00000000
,
00000000
00000000
00000130
00000001
00000100
00000000
00000010
00001000
00000010
00000000
00010000
00001000
00010000
00001000
00010000
00000000
,
00011000
00000000
00000000
00001000
00010000
00000000
01000000
00100000
,
00000000
00010000
10000000
00100000
00010000
00000000
00001000
00010000
,
00001000
00000000
00010000
00000010
00010000
00000000
00001000
00010000
,
00000010
00000000
00001000
00000000
00000001
00000000
00000010
00000000
00000100
00000010
00000100
00000010
00000001
00000000
00001000
00000000
,
00001100
00000000
00001000
00000001
00000100
00001000
00010000
00002000
,
00000000
00000000
00013000
00000000
00100000
00000000
01000000
00000000
00010000
00000000
10000000
00100000
10000000
00000000
01000000
00000000
,
01100000
00000000
00000000
00000000
00110000
00000000
00000000
00000000
00101000
00000000
00000000
00001000
00000000
00000000
00010000
00000000
,
00000010
00000000
00001000
00000010
00001000
00000000
00000001
00000000
00000010
00000000
00000100
00000000
00001000
00000000
00000100
00000000
,
00000110
00000000
00000000
00000001
00000010
00001000
00010000
00001000
,
00000000
00010000
00100000
10000000
10010000
00000000
10000000
01000000
,
10000000
00000000
00010000
01000000
00010000
00000000
10000000
00000000
01000000
00000000
00100000
00010000
00100000
00000000
00001000
00000000
,
00000000
00000000
00010000
00000010
00010000
00000000
00001000
00000000
00010000
00000000
00000000
00000000
00000100
00000000
00001000
00000000
,
00000001
00000000
00000100
00000010
00000100
00000000
00000001
00000000
00001000
00000000
00000000
00000100
00000000
00000000
00000010
00000000
,
00000000
00000001
00000100
00001000
00010000
00100000
10000000
00000000
,
00010000
00000000
10000000
01000000
10000000
00000000
01000000
00000000
00100000
00000000
00001000
00010000
00001000
00000000
01000000
00000000
,
00000000
00000000
00001000
00000000
00010000
00000000
00000010
00001000
00000010
00000000
00000100
00000000
00000001
00000000
00001000
00000000
,
00001100
00000000
00000101
00000000
00001100
00000000
00000001
00000010
,
00000000
00000000
00000100
00001000
00000100
00000000
00010000
00000000
00001000
00000000
01000000
00010000
01000000
00000000
00001000
00000000
,
00011000
00000000
00010000
00001000
00000010
00000001
00001000
00000100
,
00000010
00000000
00000001
00001000
00000001
00000100
00001000
00010000
,
00001000
00000000
00011000
00000000
00001000
00100000
00010000
10000000
,
00100000
00000000
01000000
00010000
01000000
00000000
00100000
00000000
10000000
00000000
01000000
00000000
00100000
00000000
00001000
00000000
,
00011000
00000000
00010000
00001000
00000010
00001000
00010000
00001000
,
00010000
00000000
00000000
00000000
00001000
00000000
00010000
00000010
00010000
00000000
00001000
00000000
00010000
00000000
00000010
00000000
,
00001000
00000010
00001000
00000001
00000010
00000100
00000010
00000001
,
00000000
00000100
00001000
00010000
00100000
01000000
00100000
10000000
,
00020000
00000000
10000000
00000000
10000000
00000000
10030000
02000000
,
00000000
03100000
00001000
00010000
00002000
00000000
00003010
00000100
,
00002000
00000000
00000001
00000000
00000001
00000000
00003001
00000100
,
00000000
00000001
00000010
00000100
00010000
00000000
00011000
00000000
,
00001000
01000000
00001000
00000000
00010000
00000000
00000100
00000000
00001000
00000001
00001000
00000000
00000001
00000000
00000010
00000000
,
00000100
00001000
00010000
00100000
01000000
10000000
00010000
01000000
,
00100000
10000000
00100000
00000000
01000000
00000000
00001000
00000000
00010000
00000100
00010000
00000000
00001000
00000000
00000100
00000000
,
00000001
00000000
00001000
00000000
00000100
00000000
00010000
00000000
00001000
00010000
00001000
00000000
00011000
00000000
00000000
00000000
,
00002000
00000000
00013000
00100000
01000000
00010000
10000000
01000000
,
00200000
00000000
00301000
00010000
00001000
00000100
00000001
00000100
,
00000010
00000000
00001001
00000000
00000001
00000100
00000001
00001000
,
00000100
00010000
00001000
00010000
00000010
00001000
00000010
00000000
,
00020000
00000000
00000000
00000000
00031000
00000000
00100000
00010000
00100000
00000000
00001000
00000000
00010000
00000000
00100000
00000000
,
02000000
00000000
00000000
00000000
03010000
00000000
10000000
01000000
10000000
00000000
00010000
00000000
10000000
00000000
01000000
00000000
,
00100000
00010000
00100000
00001000
00010000
00000010
00001000
00000010
,
00000000
00000000
00000100
00000000
00000001
00000000
00001000
00000100
00001000
00000000
00000001
00000000
00001001
00000000
00000000
00000000
,
00000001
00000001
00000100
00000100
,
00001000
00001000
00010000
00010000
,
01000000
00000000
01000000
00000000
10000000
00010000
10000000
00010000
,
00000000
00101000
00000000
00001000
00011000
00000000
00010010
00000000
,
00010000
00001000
00010000
00001000
00000010
00000001
00001000
00000100
,
00000010
00000001
00001000
00000001
00000100
00001000
00010000
00000000
,
00001000
00010000
00001000
00010000
01000000
00100000
00010000
10000000
,
00100000
01000000
00010000
10000000
01000000
00100000
00001000
00000000
,
00010000
00001000
00000100
00000010
00000100
00000001
00001000
00000100
,
00000010
00000001
00000100
00001000
00010000
00001000
00010000
00000000
,
00001000
00010000
00001000
01000000
00010000
10000000
01000000
00100000
,
00001000
00010000
00100000
01000000
00010000
00100000
00001000
00000000
,
00011000
00000000
00010000
00000000
00000010
00001000
00000001
00001000
,
00000100
00000000
00000010
00000001
00000100
00001000
00010000
00000000
,
00001000
00000000
00001000
00000000
00001000
00000000
00000000
00010000
00001000
00000000
00100000
00000000
00010000
10000000
00010000
00000000
,
01010000
00000000
00000000
10010000
00000000
00000000
10100000
00000000
00000000
00000000
00000000
00000000
00000000
00000000
00000000
00000000
;

//--------------- dance-double - Fred-104† ----------------
#NOTES:
     dance-double:
     Fred-104†:
     Challenge:
     16:
     :
00000000
00000000
00000000
00000000
,
00000000
00000000
00000000
00000000
,
00000000
00000000
00000000
00000000
,
00000000
00000000
00000000
00000000
,
00000000
00000000
00000000
00000000
,
00001000
00010000
00001000
01000000
00010000
00100000
01000000
01000000
,
10000000
00100000
00010000
00001000
00000010
00000001
00001000
00000000
,
0001MMMM
00000000
01000000
00000000
00010000
00100000
01000000
00010000
,
00001000
01000000
00010000
00000100
00000010
00001000
00000001
00000000
,
00000011
00000000
00001010
00000000
00000101
00000000
00001100
00001100
,
00000000
00010100
00000000
01001000
00011000
00001000
01000000
00000000
,
00100000
00000000
00000000
00100000
00000000
00000000
00100000
00000000
00000000
00000000
10000000
00000000
00000000
00000000
01000000
00000000
,
00010000
00000000
00000000
00010000
00000000
00000000
00010000
00000000
00000000
00000000
00001000
00000000
00000100
00000000
00000001
00000000
,
00001000
00000100
00000010
00001000
00011000
00010000
00001000
01000000
,
00010000
10000000
01000000
00100000
00101000
00001000
00010000
00000010
,
00001000
00000100
00000001
00001000
00000010
00000100
00000010
00000001
,
00001000
00000000
00000010
00000000
00000100
00000000
00001000
00000000
00010000
00001000
00010000
00001000
00010000
00000000
00001000
01000000
,
00001000
00000000
00010000
00000000
00100000
00000000
10000000
00010000
10000000
00000000
01000000
00000000
10000000
00000000
00100000
00000000
,
10000000
00000000
01000000
00000000
00010000
00000000
00001000
00010000
00001000
00000000
00010000
00000000
00000010
00000000
00001000
00000000
,
00000100
00000000
00000010
00000000
00000001
00000000
00000100
00000010
00000100
00000000
00001000
00000000
00010000
00000000
01000000
00000000
,
20000000
00000000
00100000
0000MMMM
30020000
00000000
01000000
0000MMMM
10030000
00000000
01000000
00000000
01100000
00000000
00000000
00000000
,
00011000
00000000
00001000
00010000
00000000
00001000
00010000
00000000
MMMMMMMM
00000000
00010000
00000000
00001000
00000000
00000100
00000000
,
00000101
00000000
00000001
00000010
00000000
00000001
00000010
00000000
MMMMMMMM
00000000
00000010
00000000
00001000
00000000
00010000
00000000
,
00001000
00000100
00000110
MMMMMMMM
00000001
00000100
00000110
MMMMMMMM
,
00000002
00000000
00000100
MMMM0000
00002003
00000000
00000010
MMMM0000
00003100
00000000
00000010
00000000
00000001
00000000
00000100
00000000
,
00001000
00010000
00001000
00010000
00000000
00100000
01000000
00000000
MMMMMMMM
00000000
00010000
00100000
01000000
00000000
10000000
00000000
,
00010000
01000000
00010000
01000000
00000000
00100000
00010000
00000000
MMMMMMMM
00000000
00001000
00000010
00000100
00000000
00001000
00000000
,
00000001
00000000
00000100
00000000
00000110
00000000
00001000
00000100
00000010
00000000
00001000
00000000
00010000
00000000
00001000
00000000
,
MMMMMMMM
00000000
00001000
00000000
00010000
00000000
00100000
10000000
00100000
00000000
01000000
00000000
00010000
00000000
10000000
00000000
,
02000000
00000000
00010000
00010000
00000000
00100000
00000000
13000000
,
00000000
01000000
00010000
00001000
00000100
MMMMMMMM
00000100
00000001
,
00001001
MMMMMMMM
00000001
00000100
00001000
MMMMMMMM
00010000
01000000
,
10000000
00000000
00100000
00000000
01000000
00000000
00100000
00000000
00010000
00001000
00010000
00001000
00010000
00000000
00000100
00000000
,
00001000
00000010
00000100
00001000
00000001
00000010
00000100
00000010
,
00001000
00000000
00000001
00000000
00000010
00000000
00001000
00000000
00010000
00001000
01000000
00010000
01000000
00010000
10000000
00000000
,
00020000
00000000
01000000
0000MMMM
20030000
00000000
00100000
0000MMMM
30010000
10000000
00000000
10000000
01000000
00000000
00100000
00000000
,
MMMMMMMM
00100000
00001000
00010000
00001000
00000100
00000001
00001000
,
00001001
00000000
00000001
00000010
00000100
00001000
00000100
00000000
00010000
00000000
00001000
01000000
00010000
01000000
00001000
00000000
,
MMMMMMMM
00001000
00001000
00001000
00011000
00000000
0001MMMM
MMMM1000
,
00010000
00001000
00010000
00000000
00100000
00000000
01000000
00000000
00100000
10000000
00100000
00000000
01000000
00000000
00010000
00000000
,
10000000
00000000
01000000
00100000
01000000
00000000
00010000
00000000
00001000
00000000
00010000
00000000
00000100
00000000
00000010
00000000
,
00000001
00001000
00000001
00000000
00000100
00000000
00001000
00000000
00010000
00001000
00010000
00000000
00000100
00000000
00001000
00000000
,
00000001
00000000
00000100
00000000
00001000
00010000
00001000
00010000
00001000
00000000
01000000
00010000
10000000
00000000
01000000
00100000
,
00010000
00100000
00010000
00000000
00100000
00000000
00001000
00000000
00010000
00000010
00001000
00000000
00000100
00000000
00000010
00000000
,
00000001
00000000
00000100
00000010
00000100
00000000
00001000
00000000
00010000
00000000
00001000
01000000
00010000
00000000
00100000
00000000
,
01000000
10000000
00100000
00000000
10000000
00000000
00100000
00000000
00010000
00001000
00010000
00000000
00000010
00000000
00001000
00000000
,
00000100
00000000
00010000
00000000
00001000
00010000
00001000
01000000
00010000
00000000
MMMMMMMM
00000000
10010000
00000000
00000000
00000000
,
01020000
00000000
0000MMMM
00000000
10030000
00000000
00010000
10000000
01000000
00000000
00010000
00001000
00010000
00000000
00000100
00000000
,
00000120
00000000
MMMM0000
00000000
00000031
00000000
00000100
00001000
00010000
00000000
00001000
00010000
00100000
00000000
10000000
00000000
,
02000000
00000000
00100000
0000MMMM
23000000
00000000
01000000
0000MMMM
30010000
00000000
00100000
00000000
01000000
00000000
00010000
00000000
,
00001000
00000010
00000100
00001000
00000001
00000100
00001000
00010000
,
00012000
00000000
MMMM0000
00000000
00013000
00000000
00001000
00000100
00000010
00000000
00001000
00000100
00000010
00000000
00001000
00000000
,
00021000
00000000
0000MMMM
00000000
00031000
00000000
00010000
00100000
01000000
00000000
00100000
10000000
00010000
00000000
00100000
00000000
,
01000000
10000000
00010000
00000000
01000000
00000000
00100000
00000000
00010000
00001000
00010000
00000000
00000010
00000000
00001000
00000000
,
MMMMMMMM
00000000
00001000
00000000
00001000
00000000
00001000
00000100
00000010
00000000
00000001
00000000
00000100
00000000
00001000
00000000
,
00010000
00010000
00010000
00010000
,
00001000
00001000
00001000
00001000
,
00010000
00000000
00000000
00000000
00010000
00000000
00000000
00000000
00010000
00000000
00010000
00001000
00010000
00000000
00011000
00000000
,
00000000
00101000
00100000
00010000
10010000
MMMMMMMM
10010000
MMMMMMMM
,
10000000
01000000
10000000
01000000
00100000
00000000
00001000
00000000
00010000
00000010
00001000
00000100
00000020
00000000
00000001
00000000
,
MMMM0000
00000000
00000130
00001000
00000001
00000000
00000100
00000000
00001000
00000000
00010000
00001000
01000000
00000000
00010000
00000000
,
01000000
00100000
10000000
01000000
00100000
00000000
00001000
00000000
00010000
00000010
00001000
00000010
00020000
00000000
00001000
00000000
,
0000MMMM
00000000
00130000
01000000
00010000
00000000
10000000
00000000
01000000
00100000
00010000
00100000
00001000
00010000
00001000
00000000
,
00011000
00000000
MMMMMMMM
00000000
00001000
00000000
00010000
00100000
10000000
00000000
00010000
00100000
10000000
00000000
00100000
00000000
,
00110000
00000000
MMMMMMMM
00000000
10000000
00000000
01000000
00010000
00001000
00000000
00010000
00001000
00000100
00000000
00000001
00000000
,
00000020
00000000
00000100
MMMM0000
00000032
00000000
00000100
MMMM0000
00001003
00000000
00000010
00000000
00000100
00000000
00001000
00000000
,
01000000
00010000
00100000
01000000
00010000
00001000
00010000
00000000
,
00011000
00000000
MMMMMMMM
00000000
00010000
00000000
00001000
00000100
00000001
00000000
00001000
00000100
00000001
00000000
00000100
00000000
,
00001100
00000000
MMMMMMMM
00000000
00000001
00000000
00000010
00001000
00010000
00000000
00001000
00010000
00100000
00000000
10000000
00000000
,
00010000
00100000
01000000
00000000
10000000
00000000
00010000
00000000
10000000
00100000
01000000
00000000
00100000
00000000
00010000
00000000
,
MMMMMMMM
00000000
00010000
00000000
00010000
00000000
00001000
00010000
00001000
00000000
00000000
00000000
00011000
00000000
00000000
00000000
,
00000110
00000000
00001000
00000100
00000000
00000001
00000100
00001000
,
00000001
00000000
00000100
00001000
00010000
01000000
10000000
00010000
,
10000000
00000000
00100000
00010000
00001000
00000010
00000100
00000110
,
MMMMMMMM
00011000
MMMMMMMM
01100000
00010000
10000000
01100000
00000000
,
10000000
00000000
01000000
00100000
01000000
00000000
00100000
00001000
00100000
00000000
00001000
00010000
00000010
00000000
00001000
00000000
,
00000100
00000010
00000100
00000010
00000001
00000000
00001000
00000000
00000010
00000100
00000010
00000100
00001000
00000000
00010000
00000000
,
00001000
00000000
01000000
00010000
01000000
00000000
00100000
10000000
00100000
00000000
10000000
01000000
10000000
00000000
01000000
00000000
,
00100000
00001000
00100000
00001000
00010000
00000000
00001000
00000000
00000100
00000000
00000001
00000000
00001001
00000000
00000000
00000000
,
00000001
00000000
00000010
00000100
00001000
00000000
00000010
00000100
00001000
00000000
00010000
00100000
01000000
00000000
00010000
00000000
,
10000000
01000000
00100000
01000000
10000000
00000000
00010000
00000000
01000000
00001000
00010000
00001000
00100000
00000000
00001000
00000000
,
00010000
00000000
00001000
00000100
00000010
00000000
00001000
00000100
00000010
00000000
00000001
00001000
00000010
00000000
00000100
00000000
,
00000001
00000010
00000001
00000000
00000010
00001000
00010000
00000000
00001000
00000000
00000000
00000000
00011000
00000000
00000000
00000000
,
01100000
00000000
00000000
00000000
00010000
00100000
00010000
00000000
10000000
00100000
10000000
00000000
00010000
01000000
00010000
01000000
,
00010000
00000000
00000000
00000000
10000000
01000000
10000000
00000000
01000000
00100000
00010000
00000000
00100000
00001000
00010000
00000010
,
00001000
00000000
00000100
00000000
00000110
00000000
00000000
00000001
00000100
00000000
00001000
00000000
00010000
00000000
00001000
00000000
,
00011000
00000000
00000000
00010010
00000000
00000000
00101000
00000000
00000000
00000000
00000000
00000000
00000000
00000000
00000000
00000000
;
