#TITLE:INVISIBLE STRIX;
#ARTIST:L.E.D.;
#GENRE:NEUROFUNK;
#BANNER:INVISIBLE STRIX.png;
#BACKGROUND:INVISIBLE STRIX-bg.png;
#CDTITLE:./CDTitles/bm IIDX 24 SINOBUZ.png;
#MUSIC:INVISIBLE STRIX.ogg;
#SAMPLESTART:61.305;
#SAMPLELENGTH:15;
#BPMS:0=184,48=92,50=184,202=92,202.5=184,215.5=92,216.5=184;
#STOPS:216.5=0.163,232=0.163,297=1.141;
#TIMESIGNATURES:0=4=4,48=2=4,50=4=4,202=3=4,205=4=4,217=3=4,220=4=4,232=3=4,235=4=4,295=5=4,300=4=4;
#BGSTAGE:26;

//--------------- dance-single - Fred-104 ----------------
#NOTES:
     dance-single:
     Fred-104:
     Beginner:
     5:
     :
0000
0000
0000
0000
,
0000
0000
0000
0000
,
0000
0000
0000
0000
,
0000
0000
0000
0000
,
0000
0000
0000
0000
,
0100
0000
0000
0100
,
0000
0000
0010
0000
,
0010
0000
0000
0100
,
0000
0000
0100
0000
,
0001
0000
0001
0000
,
1000
0000
1000
0000
,
0001
0001
0001
0001
,
1001
0000
1000
0000
,
0010
0000
0000
0100
,
0000
0000
0001
0000
,
0010
0000
0000
0100
,
0000
0000
1000
0000
,
0001
0000
0000
1000
,
0000
0000
0100
0000
,
0010
0000
1001
0000
,
0000
0000
0001
0000
,
0010
0000
0000
1000
,
0000
0000
0100
0000
,
0001
0000
0000
1000
,
0000
0000
0100
0000
,
0010
0000
0000
0001
,
0000
0000
1000
0000
,
0001
0000
1001
0000
,
0000
0000
0000
0000
2000
0000
0000
3000
,
0000
0000
0002
0000
0000
0003
0000
0000
,
1001
0000
1000
0000
,
0100
0000
1000
1000
,
0001
0000
0100
0000
,
0010
0000
0100
0100
,
0001
0000
0010
0000
,
0100
0000
0010
0001
,
0010
0000
0001
0000
,
1000
0000
0000
0000
0000
0000
0000
0000
0002
0000
0000
0003
0000
0000
0002
0000
,
0000
0003
0000
0000
0001
0000
0000
0000
1000
0000
0000
0000
0000
0000
0000
0000
,
0010
0000
1000
0000
,
0100
0000
1000
0000
,
0010
0000
0100
0000
,
0010
0000
1000
0000
,
0010
0000
0001
0000
,
0100
0000
2000
0000
,
0000
0000
0000
0000
,
0000
3000
0001
0000
,
0010
0000
0100
0000
,
0100
0000
1000
0000
,
0001
0000
0010
0000
,
0010
0000
0000
0000
0020
0030
0000
0010
,
0000
0000
0000
0010
0000
0000
0000
0100
,
0000
0000
0000
1000
0000
0000
0000
0001
,
0000
0000
0000
1000
0000
0000
0000
0002
,
0000
0000
0000
0000
0000
0000
0000
0000
2003
3000
0000
0000
0000
0000
0000
0000
0000
0000
0000
0000
0000
0000
0000
0000
0000
0000
0000
0000
0000
0000
0000
0000
1000
0000
0000
0000
0000
0000
0000
0000
0000
0000
0000
0000
0000
0000
0000
0000
0000
0000
0000
0000
0000
0000
0000
0000
0000
0000
0000
0000
0000
0000
0000
0000
,
0001
0000
0010
0000
,
0100
0000
0100
0000
,
1000
0000
0002
0000
,
0003
0000
0000
1000
0000
0000
0000
0001
,
0000
0000
0000
1000
0000
0000
0000
1001
,
0000
0000
0000
0000
0000
0000
0000
0110
,
0000
0000
0000
0000
0000
0000
0000
2002
,
0000
0000
0000
0000
,
0000
0000
0000
0000
,
0000
0000
0000
0000
0000
0000
0000
3003
,
0000
0000
0000
0000
0000
0000
0000
0001
,
0000
0000
0000
0001
0000
0000
0000
1000
,
0000
0000
0000
0010
0000
0000
0000
0100
,
0000
0000
0000
0100
0000
0000
0000
0001
,
0000
0000
0000
1000
0000
0000
0000
0001
,
0000
0000
0000
0010
0000
0000
0000
0010
,
0000
0000
0000
0100
0000
0000
0000
0100
,
0000
0000
0000
1000
0000
0000
0000
0001
,
0000
0000
0000
1000
0000
0000
0000
2002
,
0000
3003
0000
0000
,
0010
0000
0000
0100
,
0000
0000
1001
0000
,
0001
0000
0100
0000
,
0010
0010
0010
0000
,
1000
0000
0001
0000
,
1000
0000
0002
2003
,
3001
0000
0010
0000
,
0100
0100
0100
0000
,
1000
0000
0001
0000
,
1000
0000
0001
0000
,
1000
0000
0010
0000
,
0001
0000
0200
2300
,
3001
0000
1000
0000
,
0001
0000
0010
0000
,
0110
0000
1000
0000
,
0001
0000
1000
0000
,
0002
0000
0000
0003
0000
0000
2000
0000
,
0000
3000
0000
0000
0001
0000
0000
0000
,
2002
0000
0000
0000
,
3003
0000
0000
0000
;

//--------------- dance-single - Fred-104 ----------------
#NOTES:
     dance-single:
     Fred-104:
     Easy:
     8:
     :
0000
0000
0000
0000
,
0000
0000
0000
0000
,
0000
0000
0000
0000
,
0000
0000
0000
0000
,
0000
0000
0000
0000
,
1000
0000
0100
0000
0000
0100
0000
0000
,
0100
0000
0000
0100
0000
0000
0100
0000
,
0010
0000
0001
0000
0000
0001
0000
0000
,
0001
0000
0000
0001
0000
0000
0001
0000
,
1001
0000
0001
0000
0000
0100
0000
0000
,
0110
0000
0000
0010
0000
0000
1000
0000
,
0100
0000
0010
0000
0001
1000
0001
0000
,
2002
0000
0000
3003
0001
0000
0010
0000
,
0000
0100
0000
0000
1000
0000
0000
0010
,
0000
1000
0100
0010
,
0000
0001
0000
0000
1000
0000
0000
0010
,
0000
0100
0010
1000
,
0000
0001
0000
0000
0010
0000
0000
0100
,
0000
1000
0010
0100
,
0000
0001
0000
0000
1001
0000
0000
0000
,
0001
1000
0001
0000
0010
0000
0100
0000
,
0000
1000
0000
0000
0010
0000
0000
1000
,
0000
0100
0010
0100
,
0000
1000
0000
0000
0001
0000
0000
0100
,
0000
0010
0100
0001
,
0000
0010
0000
0000
0100
0000
0000
1000
,
0000
0001
0100
0010
,
0000
0100
0000
0000
1001
0000
0000
0000
,
0001
1000
0001
0000
0200
0300
0000
0200
,
0300
0000
0200
0300
0000
0200
0300
0000
,
0010
0100
0010
0000
1000
0000
0001
0000
,
0010
0001
0010
0100
,
1000
0001
0100
0001
,
0100
0001
0010
0100
,
0010
0001
1000
0010
,
1000
0100
1000
0010
,
0100
0010
1000
0100
,
0010
0000
0000
0000
0001
0000
0000
0000
1000
0000
0000
1000
0000
0000
1000
0000
,
0000
1000
0000
0000
1000
0000
0000
0000
0001
0000
0000
0000
0010
0000
0000
0000
,
0100
1000
0100
0100
,
1000
0001
0100
0001
,
0010
0100
0010
0010
,
0010
0001
1000
0010
,
0100
0010
1000
0001
,
0010
0100
1001
0001
,
0000
0001
0000
0000
1000
0000
0000
0001
,
0000
1000
0100
0010
,
0001
0000
1000
0000
0001
0000
0000
0010
,
0000
0010
0100
0010
,
0001
0000
0100
0000
0010
0000
0000
0100
,
0000
0000
0010
0000
2000
3001
0000
0010
,
0000
0100
0000
0010
0000
0000
0100
0000
,
0000
1000
0000
0010
0000
1000
0000
0100
,
0000
1000
0000
0001
0100
0002
0000
2003
,
3002
0000
0000
0000
0003
0000
0000
0000
2002
3003
0000
0000
0000
0000
0000
0000
0001
0000
0000
0000
0000
0000
0000
0000
0000
0000
0000
0000
0000
0000
0000
0000
0010
0000
0000
0000
0000
0000
0000
0000
0000
0000
0000
0000
0000
0000
0000
0000
0100
0000
0000
0000
0000
0000
0000
0000
0000
0000
0000
0000
0000
0000
0000
0000
,
1000
0000
0000
0010
0000
0000
0100
0000
,
0010
1000
0001
0010
,
0100
1000
0010
0200
,
0300
1001
0000
0001
0000
1000
0000
0010
,
0000
0000
0100
0000
0000
0010
0000
1000
,
0000
0000
0000
0001
0000
0000
0000
1000
,
0000
0100
0000
0010
0000
0001
0000
2002
,
0000
0000
0000
0000
,
0000
0000
0000
0000
,
0000
0000
0000
0000
,
0000
0000
0000
0000
0000
3003
0000
0001
,
0000
0010
0000
0001
0000
1000
0000
0010
,
0000
1000
0000
0100
0000
0010
0001
0010
,
0000
0001
0000
1000
0000
0001
0000
0100
,
0000
0010
0000
1000
0000
0001
0010
0001
,
0000
0010
0000
0100
0000
1000
0000
0001
,
0000
0100
0000
0010
0000
1000
0100
1000
,
0000
0001
0000
0010
0000
0100
0000
1000
,
0000
0001
0000
0100
0010
0100
0000
2002
,
0000
0000
3003
0010
0000
0000
0010
0000
,
1000
0000
0000
0100
0000
0000
0010
0000
,
0000
0001
0000
0000
0220
0000
0330
0000
,
1000
1000
0010
0010
,
0100
0000
0100
0000
0001
0010
0001
0000
,
0010
0010
0100
0100
,
1000
1000
0002
2003
,
3100
0100
0010
0010
,
0001
0000
0001
0000
0100
0010
0100
0000
,
0010
1000
0010
1000
,
0100
0010
0002
2003
,
3001
0100
0010
1000
,
0001
0000
0010
0000
0100
1000
0100
0000
,
1000
0010
0100
0010
,
1000
0000
0100
0000
0020
0000
0032
0003
,
1001
0001
0100
0000
,
0010
1000
0001
0000
,
1001
0000
0000
0110
0000
0000
1001
0000
,
0000
0110
0000
0000
0001
1000
0001
0000
,
2002
0000
0000
0000
,
3003
0000
0000
0000
;

//--------------- dance-single - Fred-104 ----------------
#NOTES:
     dance-single:
     Fred-104:
     Medium:
     12:
     :
0000
0000
0000
0000
,
0000
0000
0000
0000
,
0000
0000
0000
0000
,
0000
0000
0000
0000
,
0000
0000
0000
0000
,
2001
0000
3002
0000
0003
0020
0000
0030
,
0200
0000
0300
0020
0000
0030
0002
0000
,
1003
0000
0200
0000
0300
0002
0000
0003
,
0200
0000
0300
2000
0000
3000
0001
0000
,
1001
0000
0001
0000
0000
0010
0000
0000
,
0110
0000
0000
0100
0000
0000
1000
0000
,
0100
0010
0100
0010
0001
0100
0001
0000
,
2002
0000
0000
3003
1000
0100
1000
0000
,
0010
0100
0000
0010
0100
0000
0001
0100
,
0000
0001
0100
0000
0001
0010
0001
0000
,
1000
0010
0000
1000
0010
0000
0100
0010
,
0000
1000
0010
0000
0100
0001
1000
0000
,
0100
0010
0000
0001
0010
0000
0100
0010
,
0000
0100
0010
0000
0001
1000
0010
0000
,
1000
0001
0000
1000
1001
0000
0000
0000
,
0010
0010
0001
0000
1000
0010
0100
0000
,
0010
1000
0000
0010
1000
0000
0001
1000
,
0000
0100
0010
0000
0001
1000
0001
0000
,
0100
0001
0000
1000
0001
0000
0100
0001
,
0000
1000
0001
0010
0100
0010
0100
0000
,
1000
0010
0000
1000
0100
0000
1000
0001
,
0000
1000
0100
0000
0010
0001
1000
0000
,
0001
1000
0000
0100
0110
0000
0000
0000
,
0001
1000
0001
0000
2000
3000
0000
0200
,
0300
0000
0002
0003
0000
0020
0030
0000
,
1000
0001
1000
0000
0100
0010
0001
0000
,
1000
0001
1000
0000
0010
1000
0010
0000
,
0100
0001
1000
0000
0100
0010
0100
0000
,
0010
0001
1000
0000
0010
1000
0100
0000
,
0010
0001
1000
0000
0001
1000
0010
0000
,
1000
0100
1000
0000
0010
0100
0010
0000
,
1000
0001
0010
0000
0100
1000
0100
0000
,
0010
0000
0001
0000
1000
0000
0000
0000
0001
0000
0000
0101
0000
0000
1000
0000
,
0000
1100
0000
0000
0001
0000
1000
0000
0100
0000
0010
0000
0001
0000
0000
0000
,
0010
0001
1000
0000
0010
0100
0010
0100
,
0010
0000
1000
0000
0001
0010
0100
0000
,
0010
0000
0001
0000
1000
0000
0000
0000
0001
0000
0100
0000
0001
0000
0000
1000
,
0000
0010
0100
0010
1000
0100
0010
0000
,
0001
1000
0010
0000
0100
0001
0100
0001
,
0100
0000
0010
0000
0100
0000
0000
0000
0110
0000
0000
0000
1000
0000
0000
1000
,
0000
0000
0100
0000
0000
0100
0000
0000
0010
0000
0000
0010
0000
0000
0001
0000
,
0000
0001
0000
0000
1000
0000
0001
0000
0100
0000
0010
0000
0100
0000
0000
0000
,
0001
1000
0010
0000
1000
0100
1000
0100
,
0000
0010
0001
0000
1000
0010
0100
0000
,
0010
1000
0001
0000
0010
0100
0010
0100
,
0000
1000
0001
0000
2000
3001
0010
0001
,
0010
0100
0000
1000
0001
1000
0010
0000
,
0100
0010
0000
1000
0100
1000
0000
0001
,
1000
0000
0001
0100
0001
0100
0001
2000
,
3001
0000
0000
0000
0000
0000
0000
0000
2002
3003
0000
0000
0000
0000
0000
0000
1000
0000
0000
0000
0000
0000
0000
0000
0100
0000
0000
0000
0000
0000
0000
0000
0010
0000
0000
0000
0000
0000
0000
0000
0000
0000
0000
0000
0000
0000
0000
0000
0011
0000
0000
0000
0000
0000
0000
0000
0000
0000
0000
0000
0000
0000
0000
0000
,
0001
0100
0001
0100
0000
0001
0010
0000
,
0100
0000
1000
0000
0010
0100
0010
0000
,
1000
0001
1000
0001
0000
0010
0100
1000
,
0000
0001
1000
0001
0010
0001
0000
1000
,
0010
1000
0010
0000
0100
0010
0000
1000
,
0001
1000
0000
0010
0100
0010
0000
1000
,
0100
1000
0100
0010
0001
0010
0000
2002
,
0000
0000
0000
0000
,
0000
0000
0000
0000
,
0000
0000
0000
0000
,
0000
0000
0000
0000
0000
3003
0000
0001
,
0000
0010
0100
0010
0100
0010
0100
1000
,
0000
0001
1000
0001
1000
0001
1000
0010
,
0000
0100
0001
0100
0001
0100
0001
1000
,
0000
0100
0010
0100
0010
0100
0010
0001
,
0000
1000
0001
1000
0001
0100
0010
0100
,
0000
0001
0010
0000
0100
1000
0000
0001
,
0100
0010
0000
1000
0100
0010
0000
0001
,
1000
0001
0100
0010
1000
0100
0000
2002
,
0000
0000
3003
0011
0000
0000
1000
0000
,
0010
0000
0000
0110
0000
0000
0001
0000
,
0000
1000
0000
0000
2002
0000
3003
0000
,
0001
1000
0001
0000
0100
0010
1000
0000
,
0001
1000
0001
0000
1000
0100
0001
0100
,
1000
0100
0010
0000
0001
1000
0001
0000
,
1000
0010
0100
0010
2000
0000
3200
0000
,
0310
0001
0010
0000
0100
1000
0001
0000
,
0100
0010
0100
0000
0001
0100
1000
0100
,
0001
1000
0001
0000
0010
0100
1000
0000
,
0001
0100
0010
1000
0100
0010
0100
0000
,
0010
0001
1000
0000
0010
1000
0100
0000
,
1000
0001
0010
0000
1000
0010
0001
1000
,
0010
0100
0001
0000
0010
0100
1000
0000
,
0010
0100
0001
0100
0010
0100
0001
1000
,
1001
0000
1000
0100
0002
0000
1003
0010
,
0002
0000
0013
0100
2000
0000
3001
0000
,
1001
0000
0000
0110
0000
0000
1010
0000
,
0000
0101
0000
0000
1000
0100
0010
0001
,
2002
0000
0000
0000
,
3003
0000
0000
0000
;

//--------------- dance-single - Fred-104 ----------------
#NOTES:
     dance-single:
     Fred-104:
     Hard:
     15:
     :
0000
0000
0000
0000
,
0000
0000
0000
0000
,
0000
0000
0000
0000
,
0000
0000
0000
0000
,
0000
0000
0000
0000
,
2001
0000
3002
0000
0003
0020
0000
0030
,
0200
0000
0300
2000
0000
3000
0020
0000
,
0230
0000
0302
0000
0003
2000
0000
3000
,
0200
0000
0300
0002
0000
0003
0200
0300
,
0120
0000
2030
0000
3001
2000
0000
3100
,
2100
0000
3001
2000
0000
3010
0200
0000
,
0301
0000
1000
0000
0001
0000
1000
0000
0001
1000
0001
1000
0001
1000
0001
1000
,
0002
0000
0000
0003
0001
0100
0001
0010
,
0010
1000
0010
0010
0001
0100
0100
1000
,
0100
0100
0002
2003
3001
1000
0001
0010
,
0010
0100
0010
0010
0001
0100
0100
0010
,
0100
0200
0320
1030
0002
2003
3010
0010
,
0001
0100
0100
1000
0100
0100
0001
0010
,
0010
2000
3002
0023
0230
2300
3001
0100
,
0100
1000
0100
0100
0101
0000
0000
0000
,
0001
0100
0001
0100
0010
1000
0010
1000
0010
0000
1000
0000
0001
0000
1000
0000
,
0100
0100
0010
0100
0100
1000
0010
0010
,
0100
0002
2003
3002
0023
0230
1300
0001
,
0100
0100
0010
0100
0100
0001
0010
0010
,
0100
0000
2000
0000
3020
0000
0130
0010
0200
0000
0302
0000
1003
0000
0100
0000
,
1000
0010
0020
0230
1300
1000
0100
0010
,
0010
2000
3002
0203
0302
0023
0130
1000
,
0010
0010
1000
0100
0110
0000
0000
0000
,
0001
1000
0001
1000
0010
0100
0010
0100
0002
0000
0003
0000
0000
0000
0002
0000
,
0003
0000
0002
0003
0000
0002
0003
0000
,
1000
0100
1000
0100
0010
0100
0010
0100
1000
0000
0001
0000
1000
0000
0100
0000
,
0001
0100
1000
0001
0100
1000
0100
0001
,
1000
0100
0010
0000
0001
1000
0001
0100
,
0001
0010
1000
0010
0001
0100
0010
0001
,
1000
0100
0010
1000
0001
0010
0100
1000
,
0100
0001
0100
1000
0010
0100
1000
0001
,
0010
0100
0001
0000
1000
0001
0010
0100
,
1000
0000
0010
0000
0100
0000
0001
0000
0011
0000
0000
1010
0000
0000
0101
0000
,
0000
1000
0100
0000
0010
0000
0001
1000
0001
0000
0010
0000
0100
0000
1000
0001
,
1000
0000
0010
0000
0100
0000
0010
1000
0010
0000
0100
0000
0100
0000
0001
0000
,
0100
0000
0100
0000
0020
0000
0000
0000
1030
0000
0001
0000
0010
0000
0100
0010
,
0100
0000
1000
0000
0001
0000
0100
0010
0100
0000
0001
0000
0001
0000
0010
0001
,
0000
0010
0001
0000
1000
0000
0010
0100
0010
0000
1000
0000
0100
0000
0010
0001
,
0010
0000
0100
0000
1000
0000
0001
1000
0001
0000
1000
0000
0010
0000
0100
0010
,
0100
0010
0100
0000
0101
0000
0000
0000
1001
0000
0000
0000
1000
0000
0000
0100
,
0000
0000
0001
0000
0000
0010
0000
0000
1000
0000
0000
0100
0000
0000
0010
0000
,
0000
0001
0000
0000
0010
0000
0001
1000
0001
0000
0100
0000
1000
0000
1000
0000
,
0100
0000
0001
0000
1000
0000
0100
0010
0100
0010
0100
0000
0010
0000
0001
1000
,
0001
0000
0100
0000
0010
1000
0010
0000
1000
0000
0100
0000
0001
0000
0001
0000
,
0100
0000
0010
0000
0100
0000
1000
0001
1000
0001
1000
0000
0001
0000
0100
0010
,
0100
0000
0001
0000
0010
0100
0010
0000
0220
0330
1001
0000
1000
0100
1000
0000
,
0001
0000
0010
0100
0010
0000
0001
1000
0001
0000
0100
0000
0010
1000
0010
0000
,
0100
0000
0001
1000
0001
0000
1000
0000
0100
0000
0010
0000
0001
1000
0001
0000
,
0100
0000
0010
1000
0010
0000
0100
0001
0100
0000
0001
0000
1000
0000
0200
0320
,
0032
0000
0000
0000
2003
0000
0000
0000
3002
0003
0000
0000
0000
0000
0000
0000
1001
0000
0000
0000
0000
0000
0000
0000
1000
0000
0000
0000
0100
0000
0000
0000
1000
0000
0000
0000
0000
0000
0000
0000
0001
0000
0000
0000
0000
0000
0000
0000
1000
0000
0000
0000
0100
0000
0000
0000
1000
0000
0000
0000
0000
0000
0000
0000
,
0001
0100
0001
0000
1000
0000
0001
0100
0001
0000
1000
0000
0001
0100
0001
0000
,
1000
0000
0010
0000
0100
0000
0001
1000
0001
0000
0010
0000
0001
1000
0001
0000
,
1000
0010
1000
0000
0001
0000
0010
0001
0010
0000
0001
0000
1000
0010
2000
0000
,
3000
0000
0011
0000
0001
1000
0001
0000
1000
0000
0010
0100
0010
0000
1000
0100
,
1000
0000
0001
0000
1000
0010
1000
0000
0001
0000
0010
0100
0010
0000
0001
0000
,
1000
0010
0001
0010
0100
0001
1000
0100
,
0100
0000
0010
0000
0010
0000
0001
1000
0001
1000
0010
0100
0010
0100
0002
0000
,
0000
0000
0000
0000
,
0000
0000
0000
0000
,
0000
0000
0000
0000
,
0000
0000
0000
0000
0000
0003
0000
1000
,
0100
0010
0100
1000
0100
0010
0001
1000
,
0010
0100
1000
0100
0010
1000
0001
1000
,
0000
0001
0010
0100
0001
0100
0010
0001
,
1000
0010
0100
0001
0010
0100
0010
0001
,
0000
1000
0100
0001
0100
0010
0001
1000
,
0010
0100
0001
1000
0100
1000
0001
0010
,
0100
1000
0001
0100
0010
1000
0001
0010
,
0100
0000
1000
0000
0001
0000
1000
0000
0001
1000
0001
0000
0000
0000
2002
0000
,
0000
0000
3003
1100
0000
0000
0101
0000
,
0011
0000
0000
1010
0000
0000
0110
0000
,
0000
0000
2002
0000
0000
0000
3003
0000
1000
0010
1000
0010
0100
0001
0100
0001
,
1000
0100
0010
0001
1000
0010
0100
0010
,
1000
0000
0001
0000
0010
0000
0100
1000
0200
0000
2300
0000
3020
0000
0230
0000
,
0301
0010
0100
0010
0100
1000
0001
0100
,
0010
1000
0100
0010
0002
0000
2003
0000
,
3010
1000
0100
0010
0100
1000
0001
0100
,
0010
0000
1000
0000
0001
0000
0100
0001
0200
0000
0302
0000
0023
0000
0230
0000
,
0310
0001
1000
0010
0100
0010
1000
0100
,
0010
0000
0001
0000
1000
0000
0001
0100
0001
0000
1000
0010
1000
0000
0100
0000
,
0010
0000
0001
0000
1000
0000
0010
0100
0010
0000
1000
0000
0001
0000
0010
0000
,
0100
0000
1000
0000
0010
0000
0100
0001
0200
0000
0320
0000
2030
0000
3002
0000
,
0013
0000
0100
0000
0010
0000
0001
1000
0001
0000
0100
0000
0010
0000
1000
0000
,
0001
0000
0010
0100
0010
0000
0001
1000
0002
0000
0000
0000
0203
0000
0300
0000
,
0110
0000
1000
0100
0020
0000
0031
1000
,
0010
0001
1000
0100
0020
0000
1030
0001
,
1001
0000
0000
0110
0000
0000
1100
0000
,
0000
0000
0101
0000
0000
0000
0000
0000
0001
0010
0001
0010
0100
1000
0100
1000
,
0002
0000
0000
0000
,
0003
0000
0000
0000
;

//--------------- dance-double - Fred-104 ----------------
#NOTES:
     dance-double:
     Fred-104:
     Easy:
     8:
     :
00000000
00000000
00000000
00000000
,
00000000
00000000
00000000
00000000
,
00000000
00000000
00000000
00000000
,
00000000
00000000
00000000
00000000
,
00000000
00000000
00000000
00000000
,
00010000
00000000
10000000
00000000
00000000
10000000
00000000
00000000
,
01000000
00000000
00000000
01000000
00000000
00000000
00010000
00000000
,
00001000
00000000
00000100
00000000
00000000
00000100
00000000
00000000
,
00000001
00000000
00000000
00000001
00000000
00000000
00001000
00000000
,
00001001
00000000
00000001
00000000
00000000
00000010
00000000
00000000
,
00000110
00000000
00000000
00010000
00000000
00000000
00001000
00000000
,
00010000
00000100
00000010
00000001
,
00002002
00000000
00000000
00003003
00000001
00000000
00000100
00000000
,
00000000
00000010
00000000
00000000
00000100
00000000
00000000
00001000
,
00000000
00010000
00001000
00100000
,
00000000
00010000
00000000
00000000
10000000
00000000
00000000
01000000
,
00000000
00100000
00001000
00010000
,
00000000
00001000
00000000
00000000
01000000
00000000
00000000
00001000
,
00000000
00010000
00001000
00000100
,
00000000
00000001
00000000
00000000
00001001
00000000
00000000
00000000
,
00001000
00000001
00001000
00000000
00000001
00000000
00000010
00000000
,
00000000
00000100
00000000
00000000
00000010
00000000
00000000
00001000
,
00000000
00010000
01000000
10000000
,
00000000
00010000
00000000
00000000
01000000
00000000
00000000
00100000
,
00000000
00010000
00001000
00010000
,
00000000
00001000
00000000
00000000
01000000
00000000
00000000
00010000
,
00000000
00100000
01000000
10000000
,
00000000
00010000
00000000
00000000
10010000
00000000
00000000
00000000
,
10000000
01000000
00100000
00000000
00002000
00003000
00000000
00002000
,
00003000
00000000
00020000
00030000
00000000
00020000
00030000
00000000
,
00001000
00010000
00001000
00000000
00010000
00000000
00001000
00000000
,
00010000
00000100
00010000
00000100
,
00001000
00000100
00000010
00000001
,
00001000
00000100
00000010
00001000
,
00010000
01000000
00100000
00010000
,
01000000
00100000
00010000
00001000
,
00010000
00000010
00001000
00000010
,
00010000
00000000
00000000
00000000
00001000
00000000
00000000
00000000
00010000
00000000
00000000
00010000
00000000
00000000
00010000
00000000
,
00000000
00010000
00000000
00000000
00010000
00000000
00000000
00000000
00001000
00000000
00000000
00000000
00100000
00000000
00000000
00000000
,
01000000
10000000
01000000
00100000
,
00010000
01000000
00100000
00010000
,
00001000
01000000
00001000
00010000
,
00001000
00000010
00000001
00000010
,
00000100
00010000
00001000
00010000
,
00000100
00000010
00001001
00000001
,
00000000
00000100
00000000
00000000
00001000
00000000
00000000
00010000
,
00000000
00001000
00010000
00100000
,
01000000
00000000
00100000
00000000
10000000
00000000
00000000
01000000
,
00000000
00010000
01000000
10000000
,
00010000
00000000
10000000
00000000
00100000
00000000
00000000
00010000
,
00000000
00000000
00001000
00000000
00020000
00031000
00000000
00010000
,
00000000
00000010
00000000
00010000
00000000
00000000
00001000
00000000
,
00000000
00000100
00000000
00000001
00000000
00000010
00000000
00000100
,
00000000
00010000
00000000
00001000
00010000
00002000
00000000
00023000
,
00032000
00000000
00000000
00000000
00000000
00000000
00000000
00000000
00023000
00030000
00000000
00000000
00000000
00000000
00000000
00000000
00010000
00000000
00000000
00000000
00000000
00000000
00000000
00000000
00000000
00000000
00000000
00000000
00000000
00000000
00000000
00000000
00100000
00000000
00000000
00000000
00000000
00000000
00000000
00000000
00000000
00000000
00000000
00000000
00000000
00000000
00000000
00000000
01000000
00000000
00000000
00000000
00000000
00000000
00000000
00000000
00000000
00000000
00000000
00000000
00000000
00000000
00000000
00000000
,
10000000
00000000
00000000
00100000
00000000
00000000
01000000
00000000
,
00100000
10000000
01000000
00100000
,
00001000
00010000
00001000
02000000
,
03000000
01100000
00000000
10000000
00000000
01000000
00000000
00010000
,
00000000
00000000
00001000
00000000
00000000
00000100
00000000
00000001
,
00000000
00000000
00000000
00000010
00000000
00000000
00000000
00001000
,
00000000
00010000
00000000
00000100
00000000
00000010
00000000
00002002
,
00000000
00000000
00000000
00000000
,
00000000
00000000
00000000
00000000
,
00000000
00000000
00000000
00000000
,
00000000
00000000
00000000
00000000
00000000
00003003
00000000
00000001
,
00000000
00000010
00000000
00000001
00000000
00000100
00000000
00001000
,
00000000
00010000
00000000
00001000
00000000
01000000
00010000
01000000
,
00000000
00001000
00000000
00010000
00000000
01000000
00000000
00100000
,
00000000
01000000
00000000
10000000
00000000
01000000
00100000
00001000
,
00000000
00010000
00000000
00001000
00000000
00010000
00000000
00000010
,
00000000
00001000
00000000
00000001
00000000
00000010
00000100
00000010
,
00000000
00000001
00000000
00000100
00000000
00001000
00000000
00010000
,
00000000
00001000
00000000
00010000
00000000
00001000
00000000
00022000
,
00000000
00000000
00033000
00001000
00000000
00000000
00010000
00000000
,
00100000
00000000
00000000
00100000
00000000
00000000
10000000
00000000
,
00000000
01000000
00000000
00000000
02200000
00000000
03300000
00000000
,
00010000
00010000
00100000
00100000
,
01000000
00000000
01000000
00000000
10000000
00100000
00010000
00000000
,
00001000
00001000
00010000
00010000
,
00000100
00000100
00002000
00003002
,
00000013
00000010
00000100
00000100
,
00010000
00000000
00010000
00000000
00001000
00010000
00001000
00000000
,
00010000
00010000
00001000
00001000
,
00000100
00000001
00000020
00000230
,
00010300
00010000
00001000
00001000
,
00010000
00000000
01000000
00000000
00100000
00010000
00100000
00000000
,
01000000
10000000
00100000
00010000
,
00001000
00000000
00010000
00000000
00002000
00000000
00023000
00030000
,
00011000
00010000
00001000
00000000
,
01000000
00010000
10000000
01000000
,
11000000
00000000
00000000
01010000
00000000
00000000
00011000
00000000
,
00000000
00001010
00000000
00000000
00000011
00000000
00000000
00000000
,
00002002
00000000
00000000
00000000
,
00003003
00000000
00000000
00000000
;

//--------------- dance-double - Fred-104 ----------------
#NOTES:
     dance-double:
     Fred-104:
     Medium:
     12:
     :
00000000
00000000
00000000
00000000
,
00000000
00000000
00000000
00000000
,
00000000
00000000
00000000
00000000
,
00000000
00000000
00000000
00000000
,
00000000
00000000
00000000
00000000
,
00001002
00000000
00000203
00000000
00000300
00002000
00000000
00003000
,
00020000
00000000
00030000
00200000
00000000
00300000
02000000
00000000
,
03020000
00000000
20030000
00000000
30000000
02000000
00000000
03000000
,
00020000
00000000
00030000
00002000
00000000
00003000
00020000
00030000
,
00011000
00000000
00010000
00000000
00000000
00000010
00000000
00000000
,
00001010
00000000
00000000
00000001
00000000
00000000
00001000
00000000
,
00000010
00000001
00000010
00000100
00001000
00010000
01000000
00100000
,
00220000
00000000
00000000
00330000
10000000
01000000
10000000
00000000
,
00010000
01000000
00000000
00010000
01000000
00000000
00001000
00010000
,
00000000
00000010
00010000
00000000
00001000
00010000
00001000
00000000
,
00010000
00000100
00000000
00010000
00000100
00000000
00001000
00000001
,
00000000
00000010
00000100
00000000
00001000
00000010
00000100
00000000
,
00001000
00010000
00000000
00001000
00010000
00000000
01000000
00100000
,
00000000
00010000
10000000
00000000
00100000
10000000
01000000
00000000
,
00100000
00001000
00000000
00010000
00011000
00000000
00000000
00000000
,
00010000
00010000
00001000
00000000
00010000
00001000
00000100
00000000
,
00000001
00000100
00000000
00000010
00000100
00000000
00000010
00001000
,
00000000
00000001
00000010
00000000
00000100
00010000
00001000
00000000
,
00010000
00100000
00000000
01000000
00100000
00000000
10000000
00010000
,
00000000
00100000
01000000
10000000
01000000
00100000
01000000
00000000
,
00100000
00001000
00000000
00000010
00000100
00000000
00001000
00000010
,
00000000
00001000
00000001
00000000
00000100
00001000
00010000
00000000
,
00001000
01000000
00000000
00001000
00011000
00000000
00000000
00000000
,
01000000
00100000
01000000
00000000
00020000
00030000
00000000
00200000
,
00300000
00000000
20000000
30000000
00000000
02000000
03000000
00000000
,
00010000
10000000
00010000
00000000
10000000
01000000
00010000
00000000
,
00001000
00010000
00001000
00000000
00010000
00000100
00000010
00000000
,
00000100
00001000
00000001
00000000
00000100
00000010
00000100
00000000
,
00001000
00010000
00100000
00000000
01000000
00010000
00100000
00000000
,
01000000
00100000
00010000
00000000
01000000
00100000
00010000
00000000
,
00001000
00010000
00001000
00000000
00010000
00000010
00000100
00000000
,
00000010
00001000
00000100
00000000
00000010
00000001
00000100
00000000
,
00001000
00000000
00010000
00000000
00001000
00000000
00000000
00000000
00010000
00000000
00000000
00010010
00000000
00000000
00001000
00000000
,
00000000
00101000
00000000
00000000
00010000
00000000
00001000
00000000
00010000
00000000
00001000
00000000
01000000
00000000
00000000
00000000
,
00010000
00100000
01000000
00000000
10000000
01000000
10000000
00100000
,
00010000
00001000
00010000
00000000
00001000
00010000
00000010
00000000
,
00001000
00000000
00000010
00000000
00000100
00000000
00000000
00000000
00000010
00000000
00001000
00000000
00000100
00000000
00000000
00000010
,
00000000
00000001
00000100
00001000
00010000
00001000
00010000
00000000
,
00001000
01000000
00010000
00000000
01000000
00001000
00010000
00001000
,
00100000
00000000
01000000
00000000
00100000
00000000
00000000
00000000
10010000
00000000
00000000
00000000
10000000
00000000
00000000
01000000
,
00000000
00000000
00100000
00000000
00000000
00010000
00000000
00000000
00001000
00000000
00000000
00000100
00000000
00000000
00000010
00000000
,
00000000
00000001
00000000
00000000
00001000
00000000
00000000
00000000
00000001
00000000
00000010
00000000
00000000
00000000
00000100
00000000
,
00010000
00000000
00001000
00010000
00001000
01000000
00010000
01000000
,
00000000
00100000
01000000
00000000
00100000
10000000
00000000
01000000
,
00100000
00000000
00001000
00010000
00000010
00001000
00000010
00000100
,
00000000
00000010
00001000
00000000
00000002
00000013
00000100
00000010
,
00000001
00000010
00000000
00000100
00010000
00000100
00010000
00000000
,
00001000
01000000
00000000
00010000
00100000
00000000
01000000
00100000
,
00000000
00001000
00010000
00100000
01000000
00010000
10000000
02000000
,
03100000
00011000
00010000
00001000
00000010
00000100
00000010
00000000
,
00000001
00000010
00000000
00000100
00010000
00000000
00001000
00010000
,
00001000
00100000
00010000
00000000
10000000
00010000
00100000
00000000
,
00010000
01000000
00100000
00010000
00001000
01000000
00001000
00010000
,
00000000
00011000
00000000
00010000
00000100
00000010
00000000
00000001
,
00000100
00001000
00010000
00000000
00100000
01000000
00000000
00010000
,
10000000
00010000
00000000
10000000
01000000
00100000
00000000
00001000
,
00010000
00001000
00000000
00010000
00000010
00010000
00000000
00022000
,
00000000
00000000
00000000
00000000
,
00000000
00000000
00000000
00000000
,
00000000
00000000
00000000
00000000
,
00000000
00000000
00000000
00000000
00000000
00033000
00000000
00010000
,
00000000
00000100
00001000
00000100
00001000
00000100
00000010
00000100
,
00000000
00000010
00000001
00001000
00000001
00000100
00000001
00000100
,
00000000
00001000
00010000
00001000
00010000
01000000
00100000
01000000
,
00000000
10000000
00010000
01000000
00100000
00010000
00000000
00001000
,
00010000
00001000
00010000
00000010
00010000
00001000
00000000
00010000
,
00000100
00001000
00000001
00001000
00000100
00000010
00000000
00000001
,
00001000
00000010
00000100
00001000
00010000
00001000
00010000
01000000
,
10000000
01000000
00100000
00010000
00000000
10000000
00000000
02020000
,
00000000
00000000
03030000
00011000
00000000
00000000
00010000
00000000
,
00001000
00000000
00000000
00001010
00000000
00000000
00001000
00000000
,
00000000
00000001
00000000
00000000
00002002
00000000
00003003
00000000
,
00000001
00000100
00001000
00000000
00010000
01000000
10000000
00000000
,
00010000
10000000
00100000
00000000
10000000
00010000
00100000
01000000
,
10000000
00100000
00010000
00000000
00001000
00000010
00000001
00000000
,
00001000
00000010
00000100
00000010
00002000
00000000
00003200
00000000
,
00000310
00000001
00000100
00000000
00001000
00010000
00001000
00000000
,
00010000
01000000
00100000
00000000
00010000
01000000
00100000
00010000
,
00001000
00010000
00001000
00000000
00010000
00000100
00001000
00000000
,
00000001
00000100
00000001
00001000
00000100
00000010
00000100
00000000
,
00001000
00000001
00000010
00000000
00000100
00010000
00001000
00000000
,
00010000
00100000
01000000
00010000
00100000
00010000
00100000
01000000
,
00100000
00010000
00100000
00000000
00001000
00010000
00001000
00000000
,
00010000
00001000
00000100
00000001
00000020
00000000
00000230
00000300
,
00001100
00000000
00000001
00000100
00002000
00000000
00013000
00100000
,
20000000
00000000
31000000
00100000
00002000
00000000
00013000
00000000
,
00011000
00000000
00000000
00010010
00000000
00000000
00101000
00000000
,
00000000
00011000
00000000
00000000
00010000
00010000
00001000
00001000
,
00022000
00000000
00000000
00000000
,
00033000
00000000
00000000
00000000
;

//--------------- dance-double - Fred-104 ----------------
#NOTES:
     dance-double:
     Fred-104:
     Hard:
     16:
     :
00000000
00000000
00000000
00000000
,
00000000
00000000
00000000
00000000
,
00000000
00000000
00000000
00000000
,
00000000
00000000
00000000
00000000
,
00000000
00000000
00000000
00000000
,
00012000
00000000
00023000
00000000
00030000
00002000
00000000
00003000
,
00000200
00000000
00000300
00000002
00000000
00000003
00002000
00000000
,
00003200
00000000
00000320
00000000
00000030
00000002
00000000
00000003
,
00000200
00000000
00000300
00002000
00000000
00003000
00020000
00030000
,
00012000
00000000
00023000
00000000
00130000
20000000
00000000
30010000
,
10020000
00000000
10030000
02000000
00000000
03010000
00002000
00000000
,
00013000
00000000
00010000
00000000
00001000
00000000
00001000
00000000
00010000
00001000
00010000
00001000
00010000
00001000
00010000
00001000
,
00020000
00000000
00000000
00030000
00010000
00000010
00001000
00000100
,
00000100
00000001
00000010
00000010
00010000
00000100
00000100
00000001
,
00000010
00002000
00013000
00020000
00031000
00010000
00100000
01000000
,
01000000
10000000
00100000
00100000
00001000
00010000
00010000
01000000
,
00100000
20000000
30020000
10030000
02000000
03200000
00301000
00010000
,
00010000
00000010
00010000
00010000
00001000
00010000
00010000
00000100
,
00001000
00000200
00000310
00000020
00000032
00000203
00001300
00010000
,
00100000
10000000
01000000
00010000
00011000
00000000
00000000
00000000
,
00000010
00001000
00000010
00001000
00000001
00001000
00000001
00001000
00000100
00000000
00000010
00000000
00001000
00000000
00010000
00000000
,
00001000
00010000
00010000
01000000
00001000
00001000
00000100
00010000
,
00010000
02000000
03001000
00002000
00023000
00032000
00003100
00000001
,
00001000
00000100
00000100
00000001
00000010
00000010
00001000
00000100
,
00000100
00000000
00000002
00000000
00000023
00000000
00000130
00000010
00000200
00000000
00020300
00000000
00031000
00000000
00100000
00000000
,
00001000
00010000
00020000
02030000
03001000
00001000
00000010
00010000
,
00010000
00200000
00302000
00023000
00032000
00003200
00000310
00000001
,
00001000
00010000
00000100
00001000
00001001
00000000
00000000
00000000
,
00000001
00000100
00000001
00000100
00000010
00001000
00000010
00001000
00000002
00000000
00000003
00000000
00000000
00000000
00020000
00000000
,
00030000
00000000
00002000
00003000
00000000
20000000
30000000
00000000
,
00001000
00010000
00001000
00010000
00000010
00010000
00000010
00010000
00001000
00000000
00010000
00000000
00100000
00000000
01000000
00000000
,
10000000
00010000
00001000
00010000
00001000
00000010
00000100
00001000
,
00000001
00000100
00000010
00000000
00001000
00000100
00000010
00001000
,
00010000
01000000
00100000
00010000
01000000
00100000
00010000
00001000
,
00000100
00000001
00000010
00000100
00001000
00000010
00000100
00001000
,
00010000
00100000
01000000
00010000
00100000
01000000
00100000
01000000
,
00010000
00001000
00010000
00000000
00001000
00010000
00000100
00000010
,
00000001
00000000
00000100
00000000
00001000
00000000
00010000
00000000
00011000
00000000
00000000
00101000
00000000
00000000
00010010
00000000
,
00000000
00010000
00001000
00000000
01000000
00000000
00010000
10000000
00010000
00000000
01000000
00000000
00100000
00000000
00010000
00000000
,
00001000
00000000
00000100
00000000
00000001
00000000
00001000
00000100
00001000
00000000
00000100
00000000
00000010
00000000
00001000
00000000
,
00010000
01000000
00200000
00000000
00310000
01000000
10000000
01000000
,
00100000
00000000
10000000
00000000
00010000
00000000
00100000
00010000
00100000
00000000
01000000
00000000
00010000
00000000
00001000
00000010
,
00000000
00000100
00001000
00000000
00000001
00000000
00000100
00000010
00000100
00000000
00000010
00000000
00000100
00000000
00001000
00000000
,
00010000
00000000
00100000
00000000
10000000
00000000
01000000
10000000
01000000
00000000
00010000
00000000
00001000
00000000
00000010
00000000
,
00000100
00000000
00010000
00000000
00011000
00000000
00000000
00000000
01100000
00000000
00000000
00000000
10000000
00000000
00000000
01000000
,
00000000
00000000
00010000
00000000
00000000
00001000
00000000
00000000
00000010
00000000
00000000
00000001
00000000
00000000
00000100
00000000
,
00000000
00001000
00000000
00000000
00010000
00000000
00001000
00010000
00001000
00000000
00010000
00000000
00100000
00000000
10000000
00000000
,
00010000
00000000
00100000
00000000
01000000
00000000
10000000
00000000
00100000
10000000
00100000
00000000
01000000
00000000
00001000
00010000
,
00001000
00000000
00000010
00000000
00000100
00001000
00000100
00000000
00010000
00000000
00001000
00000000
00000100
00000000
00000010
00000000
,
00000001
00000000
00001000
00000000
00010000
00000000
00001000
00000000
01000000
00010000
01000000
00000000
00001000
00000000
00010000
00000100
,
00010000
00000000
00001000
00000000
00100000
00010000
00200000
00000000
00302000
00003000
00011000
00000000
00010000
00000100
00010000
00000000
,
00000100
00000000
00001000
00000001
00001000
00000000
00000010
00000100
00000010
00000000
00000100
00000000
00001000
00010000
00001000
00000000
,
00010000
00000000
01000000
00100000
01000000
00000000
10000000
00000000
00100000
00000000
00010000
00000000
00001000
00010000
00001000
00000000
,
00000010
00000000
00000001
00001000
00000001
00000000
00001000
00000010
00001000
00000000
00000010
00000000
00020000
00000000
00032000
00023000
,
00032000
00000000
00000000
00000000
00023000
00000000
00030000
00000000
00022000
00033000
00000000
00000000
00000000
00000000
00000000
00000000
01100000
00000000
00000000
00000000
00000000
00000000
00000000
00000000
00010000
00000000
00000000
00000000
10000000
00000000
00000000
00000000
00010000
00000000
00000000
00000000
00000000
00000000
00000000
00000000
01000000
00000000
00000000
00000000
00000000
00000000
00000000
00000000
00010000
00000000
00000000
00000000
10000000
00000000
00000000
00000000
00010000
00000000
00000000
00000000
00000000
00000000
00000000
00000000
,
10000000
01000000
10000000
00000000
00010000
00000000
10000000
00100000
10000000
00000000
00010000
00000000
10000000
01000000
10000000
00000000
,
01000000
00100000
00001000
00000010
00000001
00000010
00000100
00001000
,
00000001
00000100
00000001
00000000
00001000
00000000
00000001
00000010
00000001
00000000
00001000
00000000
00000001
00000100
00000002
00000000
,
00000003
00000000
00011000
00000000
00010000
00000010
00010000
00000000
00001000
00000000
00010000
00000100
00010000
00000000
00001000
01000000
,
00001000
00000000
00010000
00000000
00001000
00100000
00001000
00000000
00010000
00000000
00001000
01000000
00001000
00000000
00010000
00000000
,
00001000
00000010
00000100
00000001
00001000
00010000
00000000
00001000
,
00010000
00000000
00100000
00000000
10000000
00000000
00010000
00100000
00010000
00100000
01000000
10000000
01000000
10000000
02000000
00000000
,
00000000
00000000
00000000
00000000
,
00000000
00000000
00000000
00000000
,
00000000
00000000
00000000
00000000
,
00000000
00000000
00000000
00000000
00000000
03000000
00000000
10000000
,
00100000
01000000
00100000
00010000
00001000
00000100
00000001
00001000
,
00000100
00000010
00001000
00010000
01000000
00100000
00010000
01000000
,
00000000
00001000
00010000
00100000
01000000
10000000
00010000
00001000
,
00010000
00001000
00000010
00000100
00000001
00001000
00010000
00001000
,
00000000
00010000
00001000
00000010
00000100
00000010
00000001
00001000
,
00000100
00000010
00001000
00010000
01000000
00100000
00010000
00001000
,
00000001
00001000
00000010
00000100
00001000
00010000
00100000
10000000
,
01000000
00100000
00001000
00010000
00000100
00000010
00000001
00002002
,
00000000
00000000
00003003
00000101
00000000
00000000
00001100
00000000
,
00011000
00000000
00000000
00110000
00000000
00000000
10100000
00000000
,
00000000
00000000
20020000
00000000
00000000
00000000
30030000
00000000
10000000
01000000
10000000
01000000
00100000
00010000
00100000
00010000
,
10000000
00100000
00010000
00001000
00000100
00000010
00001000
00000100
,
00000010
00000001
00000100
00001000
00020000
00230000
02300000
23000000
,
30010000
00001000
00000100
00000010
00010000
00001000
00000100
00000001
,
00000010
00000100
00010000
00001000
02000000
00000000
03020000
00000000
,
10030000
01000000
00100000
01000000
00010000
00001000
00000010
00000001
,
00001000
00000010
00000100
00001000
00020000
00032000
00003002
00000203
,
00000310
00000001
00001000
00000100
00000010
00001000
00010000
01000000
,
10000000
00000000
01000000
00000000
00010000
00000000
00001000
00010000
00001000
00000000
00010000
00000010
00010000
00000000
00001000
00000000
,
01000000
00001000
00010000
00100000
01000000
10000000
00010000
00001000
,
00000100
00000001
00001000
00000100
00000020
00000032
00000023
00002030
,
00013000
01000000
00100000
10000000
00100000
00010000
00100000
01000000
,
00001000
00000000
00000100
00000000
00000010
00000000
00000001
00000000
00001000
00000000
00000010
00000100
00000010
00000000
00001000
00000000
,
00001001
00000000
00000001
00000100
00002000
00000000
00013000
00100000
,
10000000
01000000
00010000
00001000
00020000
00000000
00032000
00013000
,
00011000
00000000
00000000
00010010
00000000
00000000
01001000
00000000
,
00000000
00000000
00011000
00000000
00000000
00000000
00000000
00000000
00010000
00001000
00010000
00001000
00000010
00000100
00000010
00000100
,
00000020
00000000
00000000
00000000
,
00000030
00000000
00000000
00000000
;
