#TITLE:IN THE NAME OF LOVE;
#ARTIST:Y&Co. feat. Erica;
#GENRE:EUROBEAT;
#BANNER:IN THE NAME OF LOVE.png;
#BACKGROUND:IN THE NAME OF LOVE-bg.png;
#CDTITLE:./CDTitles/jubeat.png;
#MUSIC:IN THE NAME OF LOVE.ogg;
#SAMPLESTART:50.712;
#SAMPLELENGTH:15;
#BPMS:0=155;
#BGSTAGE:17;

//--------------- dance-single - Fred-104 ----------------
#NOTES:
     dance-single:
     Fred-104:
     Beginner:
     2:
     :
0000
0000
0000
0000
,
0000
0000
0000
0000
,
0000
0000
0000
0000
,
0000
0000
0000
0000
,
0000
0000
0000
0000
,
0001
0000
0000
0000
,
0010
0000
0000
0000
,
0010
0000
0000
0000
,
0001
0000
0000
0000
,
1000
0000
0000
0000
,
0010
0000
0000
0000
,
0010
0000
0000
0000
,
0001
0000
0000
0000
,
0001
0000
0000
0000
,
0100
0000
0000
0000
,
0100
0000
0000
0000
,
1000
0000
0000
0000
,
0001
0000
0001
0000
,
1000
0000
1000
0000
,
0001
0000
0010
0000
,
0001
0000
0001
0000
,
1000
0000
1000
0000
,
0001
0000
0001
0000
,
1000
0000
0000
0000
,
0000
0000
0000
0000
,
0001
0000
0001
0000
,
0100
0000
0000
0000
,
1000
0000
1000
0000
,
0100
0000
0000
0000
,
0001
0000
0001
0000
,
1000
0000
0000
0000
,
0001
0000
0000
0000
,
0000
0000
0000
0000
,
1000
0000
0100
0000
,
1000
0000
0000
0000
,
0001
0000
1000
0000
,
0001
0000
0000
0000
,
0100
0000
0010
0000
,
0100
0000
0000
0000
,
0001
0000
1000
0000
,
0001
0000
0000
0000
,
0010
0000
0100
0000
,
0010
0000
0000
0000
,
0100
0000
1000
0000
,
0100
0000
0000
0000
,
1000
0000
0001
0000
,
1000
0000
0000
0000
,
0001
0000
1000
0000
,
0001
0000
0000
0000
,
0001
0000
0000
0000
,
0010
0000
0000
0000
,
0010
0000
0000
0000
,
1000
0000
0000
0000
,
1000
0000
0000
0000
,
0100
0000
0000
0000
,
0100
0000
0000
0000
,
0001
0000
0000
0000
,
1000
0000
0000
0000
,
0100
0000
1000
0000
,
0100
0000
0000
0000
,
0010
0000
0001
0000
,
0001
0000
0001
0000
,
1000
0000
0000
0000
,
0001
0000
0100
0000
,
0001
0000
0000
0000
,
1000
0000
0000
0000
,
0001
0000
0000
0000
;

//--------------- dance-single - Fred-104 ----------------
#NOTES:
     dance-single:
     Fred-104:
     Easy:
     5:
     :
0000
0000
0000
0000
,
0000
0000
0000
0000
,
0000
0000
0000
0000
,
0000
0000
0000
0000
,
0000
0000
0000
0000
,
1000
0000
1000
0000
,
0100
0100
0010
0000
,
0001
0001
1000
1000
,
2002
0000
3003
0000
,
0001
0000
0010
0000
,
0100
0000
1000
1000
,
1000
0000
0001
0000
,
0100
0000
0010
0010
,
0010
0000
0100
0000
,
0001
0000
1000
1000
,
0100
0000
0001
0000
,
0100
0000
1000
1000
,
0002
0000
0103
0000
,
0010
0010
0010
0000
,
0200
0000
0301
0000
,
0001
0000
1000
0000
,
0200
0000
0310
0000
,
0010
0000
0001
0000
,
1000
0000
0001
0000
,
1001
0000
0000
0000
,
0001
0001
0001
0000
,
0100
0000
0010
0000
,
1000
1000
1000
0000
,
0001
0000
0010
0000
,
0100
0100
0100
0000
,
0010
0000
0001
0000
,
1000
0000
2002
0000
,
0000
0000
3003
0000
,
0001
0000
0010
0000
,
1000
0000
1000
0000
,
0010
0000
0001
0000
,
0001
0000
1000
0000
,
0010
0000
0100
0000
,
0001
0000
1000
0000
,
0100
0000
0010
0010
,
0010
0000
1001
0000
,
1000
0000
0100
0000
,
0001
0000
0001
0000
,
0100
0000
1000
0000
,
0001
0000
0100
0000
,
0010
0000
1000
0000
,
0100
0000
1000
0000
,
0001
0000
1000
0000
,
2002
0000
0000
3003
,
1000
0000
0010
0000
,
0100
0000
0001
0001
,
0001
0000
1000
0000
,
0100
0000
0010
0010
,
0010
0000
0100
0000
,
1000
0000
0001
0001
,
0100
0000
1000
0000
,
0100
0000
0001
0001
,
1000
0000
0100
0000
,
0001
0000
0010
0000
,
1000
0000
1000
0000
,
0001
0001
0001
0000
,
1000
0000
0010
0000
,
0001
0000
0100
0000
,
1000
0000
0001
0000
,
0100
0100
0100
0000
,
0010
1000
0100
0010
,
0001
0000
0000
2002
0000
0000
3003
0000
;

//--------------- dance-single - Fred-104 ----------------
#NOTES:
     dance-single:
     Fred-104:
     Medium:
     9:
     :
0000
0000
0000
0000
,
0000
0000
0000
0000
,
0000
0000
0000
0000
,
0000
0000
0000
0000
,
0000
0000
0000
0000
,
0001
1000
0001
0001
,
0100
0010
0100
0000
0010
1000
0010
0000
,
1000
0001
1000
0000
0100
0010
0001
0000
,
2002
0000
0000
0000
0000
0000
0000
0000
0000
3003
0000
0000
0000
0000
0000
0000
,
0001
0000
0000
0000
1000
0000
0000
0010
0000
0000
1000
0000
0001
0000
0000
0000
,
0010
0000
0000
0000
0100
0000
0000
1000
0000
1000
0000
1000
0000
1000
0000
0000
,
0001
0000
0000
0000
0100
0000
0000
0010
0000
0000
0100
0000
0100
0000
0000
0000
,
0001
0000
0010
0000
0100
1000
0100
0000
,
1000
0000
0000
0000
0001
0000
0000
0100
0000
0000
0010
0000
0010
0000
0000
0000
,
0100
0000
0001
0000
1000
0000
0000
0100
0000
0100
0000
0100
0000
0100
0000
0000
,
0010
0000
0000
0000
0100
0000
0000
1000
0000
0000
0001
0000
0001
0000
0000
0000
,
0100
0000
0010
0000
0100
0000
0000
0001
0000
0001
0000
0001
0000
0000
1000
0000
,
0100
0000
0010
0000
0001
0001
0000
1000
,
0000
0001
0001
0000
0100
0000
0010
0000
,
0100
0000
0001
0000
1000
1000
0000
0100
,
0000
0010
0010
0000
0001
1000
0001
0000
,
0100
0100
0000
0010
0000
0100
0000
0001
,
0000
0100
0000
0001
0000
1000
0000
0100
,
0000
1000
0000
2002
0000
3003
0000
0001
,
0000
0010
0010
0000
0100
0100
0000
1000
,
1000
0002
0203
0310
,
0100
0001
0100
0000
0001
1000
0001
0000
,
0010
0200
2300
3001
,
0100
0000
0010
0010
0000
1001
0000
0000
,
2000
3002
0023
0230
,
1300
0010
1000
0000
0001
0100
0001
0000
,
0010
0000
0010
0000
0100
0100
0000
2002
,
0000
0000
3003
0000
,
0001
0001
0000
1000
0000
0001
0000
0100
,
0000
0010
0010
0000
1001
0000
0000
0000
,
1000
1000
0000
0100
0000
0010
0000
0001
,
0000
0100
0100
0000
1001
0000
0000
0000
,
1000
0010
0000
0001
0000
0010
0010
0000
,
1000
0001
0000
0010
0000
1000
1000
0000
,
0010
0010
0000
0001
0000
0100
0010
0100
,
0001
1000
0000
2002
0000
0000
3003
0000
,
1000
0100
0000
0001
0000
0100
0000
1000
,
0000
0001
0001
0000
0110
0000
0000
0000
,
0001
0001
0000
0100
0000
1000
0000
0100
,
0000
0001
0001
0000
0110
0000
0000
0000
,
1000
0100
0000
0010
0000
0001
1000
0000
,
0001
0100
0000
0010
0000
1000
0001
0000
,
0010
0000
0010
0100
0010
0000
0001
0000
,
0100
0100
0000
2002
0000
0000
3003
0000
,
1000
0000
0000
0000
0001
0000
0000
0010
0000
0000
0001
0000
1000
0000
0000
0000
,
0010
0000
0000
0000
0100
0000
0000
0001
0000
0001
0000
0001
0000
0001
0000
0000
,
1000
0000
0000
0000
0100
0000
0000
0010
0000
0000
0100
0000
0100
0000
0000
0000
,
1000
0000
0010
0000
0100
0001
0100
0000
,
0001
0000
0000
0000
1000
0000
0000
0100
0000
0000
0010
0000
0010
0000
0000
0000
,
0100
0000
1000
0000
0001
0000
0000
0100
0000
0100
0000
0100
0000
0100
0000
0000
,
0010
0000
0000
0000
0100
0000
0000
0001
0000
0000
1000
0000
1000
0000
0000
0000
,
0100
0000
0010
0000
0100
0000
0000
1000
0000
1000
0000
1000
0000
0000
0001
0000
,
0010
0000
0000
0000
0001
0000
0000
1000
0000
0000
1000
0000
0001
0000
0000
0000
,
1000
0000
0010
0000
0100
0000
0000
0001
0000
1000
0000
0001
0000
0010
0000
0000
,
0100
0000
0000
0000
1000
0000
0000
0001
0000
0000
0001
0000
1000
0000
0000
0000
,
0010
0000
0100
0000
0001
0000
0000
1000
0000
1000
0000
0000
0001
0000
0000
0000
,
1001
0000
1001
0000
1000
0001
0100
0010
,
1000
0000
0001
0000
0010
0000
0000
0100
0000
0100
0000
0100
0000
1000
0000
0000
,
0001
0000
0100
0000
1000
0100
0001
0000
,
1000
0000
0001
0000
1000
0000
0000
0001
0000
0100
0000
0001
0000
0000
1000
0000
,
0001
0001
0000
0000
1000
1000
0000
0000
,
0100
0010
0000
2002
0000
3000
0003
0000
;

//--------------- dance-single - Fred-104 ----------------
#NOTES:
     dance-single:
     Fred-104:
     Hard:
     12:
     :
0000
0000
0000
0000
,
0000
0000
0000
0000
,
0000
0000
0000
0000
,
0000
0000
0000
0000
,
0000
0000
0000
0000
,
1000
0000
0010
0000
1000
0010
0000
0100
,
0000
0001
1000
0100
0010
0001
1000
0000
,
0001
0100
0001
0000
0100
0010
1000
0001
,
2000
0000
0000
0000
0000
0000
0000
0000
0000
3000
0000
0000
0000
0000
0000
0000
,
1000
0000
0001
0000
1000
0000
0000
0010
0000
0000
0100
0000
0001
0000
1000
0000
,
0001
1000
0001
0000
0010
0000
0100
0010
0000
0001
0000
0010
0000
0001
0000
1000
,
0001
0000
0100
0000
0010
0000
0000
1000
0000
0000
0001
0000
0100
0000
0001
0000
,
1000
0100
1000
0000
0001
0000
0010
0100
0000
1000
0000
0100
0000
1000
0000
0001
,
0100
0000
0010
0000
1000
0000
0000
0001
0000
0000
0100
0000
0001
0000
1000
0000
,
0100
1000
0100
0000
0010
0000
0001
1000
0000
0001
0000
0010
0000
0001
0000
1000
,
0001
0000
0100
0000
0001
0000
0000
0100
0000
0000
0010
0000
1000
0000
0001
0000
,
1000
0001
1000
0000
0001
0000
0010
0100
0000
1000
0000
0100
0000
1000
0001
0000
,
1000
0000
0200
0000
0301
0100
0000
0110
,
0000
0010
0002
0000
1003
0002
0000
0000
,
0103
0000
0020
0000
0031
0010
0000
0110
,
0000
0100
0001
0100
0001
1000
0200
0000
,
0310
0200
0000
2300
0000
3002
0000
0203
,
0000
2300
0000
3200
0000
0302
0000
2003
,
0000
3200
0000
0020
0000
0330
0001
0001
,
0000
1000
1000
0000
0010
0010
0000
0100
,
0001
0200
0320
2030
,
3001
0000
0010
0000
0100
0000
0010
0000
0001
0000
0000
0001
0000
0000
0001
0000
,
1000
0020
0032
0013
,
0110
0000
0100
0101
0000
2002
0000
3003
,
2000
3200
0320
0032
,
1003
0000
0010
0000
0100
0000
0001
1000
0000
0000
0001
0000
0100
0000
0000
0000
,
0110
0000
1010
0000
0001
0011
0000
2002
,
0000
0000
0000
0000
3003
0000
1000
0001
,
0100
0010
0000
1000
0000
0001
1000
0001
,
0010
1000
0020
0000
0130
1000
1001
0000
,
0001
0100
0000
0010
0000
1000
0001
0010
,
0100
0010
2000
0000
3010
0001
1001
0000
,
1000
0100
1000
0010
0100
0001
2000
0000
,
3001
0010
1000
0001
0100
1000
0002
0000
,
1003
0010
1000
0001
0010
0100
1000
0001
,
0100
0000
0100
0000
0000
0000
0110
0000
0000
0000
1000
0001
1000
0000
0010
0000
,
0100
0001
0000
0010
0000
0100
1000
0001
,
0100
0010
0002
0000
0013
1000
1001
0000
,
0001
1000
0000
0100
0000
0001
0100
0010
,
1000
0010
0002
0000
1003
0001
1001
0000
,
0001
0010
0100
1000
0001
0100
0020
0000
,
1030
0010
0001
1000
0100
0001
2000
0000
,
3001
1000
0001
0010
0100
0000
1100
0000
,
0001
0101
0000
2002
0000
0000
3003
0000
,
0001
0000
0010
0000
0100
0000
0000
0010
0000
0000
0100
0000
1000
0000
0001
0000
,
1000
0001
1000
0000
0010
0000
0100
0001
0000
0100
0000
0010
0000
0100
0000
0001
,
1000
0000
0100
0000
0010
0000
0000
0001
0000
0000
1000
0000
0001
0100
0001
0000
,
0100
0010
0100
0000
0001
0000
1000
0100
0000
1000
0000
0100
0000
1000
0000
0001
,
0010
0000
0100
0000
1000
0000
0000
0001
0000
0000
0100
0000
0010
0000
1000
0000
,
0001
1000
0001
0000
0010
0000
0100
1000
0000
0100
0000
1000
0000
0001
0000
1000
,
0010
0000
0100
0000
0010
0000
0000
1000
0000
0000
0001
0000
1000
0000
0100
0000
,
0010
0100
0010
0000
0100
0000
1000
0001
0000
0100
0000
0001
0000
0100
0010
0000
,
1000
0000
0001
0000
0010
0000
0000
0100
0000
0000
1000
0000
0001
0000
0100
0000
,
0010
1000
0010
0000
0100
0000
0001
1000
0000
0100
0000
1000
0000
0001
0100
0000
,
0010
0000
1000
0000
0001
0000
0000
0010
0000
0000
0100
0000
1000
0000
0001
0000
,
0100
0010
0100
0000
0010
0000
1000
0001
0000
1000
0000
0001
0020
0000
0000
0000
,
0031
0000
0000
0001
1000
0000
0000
1000
0001
0000
0100
0000
0010
1000
0010
0000
,
1000
0000
0001
0000
0010
0100
0010
0100
0000
1000
0000
0100
0000
1000
0000
0001
,
1000
0000
0001
0000
0100
0000
0000
0010
0000
0000
1000
0000
0100
0000
0010
0000
,
0001
0010
0001
0010
0001
0000
1000
0010
0000
0100
0000
0001
0000
0010
0001
0000
,
1000
0100
0000
0100
0010
0001
0000
0001
,
0100
0010
0000
2002
0000
0003
3000
0000
;

//--------------- dance-double - Fred-104 ----------------
#NOTES:
     dance-double:
     Fred-104:
     Easy:
     5:
     :
00000000
00000000
00000000
00000000
,
00000000
00000000
00000000
00000000
,
00000000
00000000
00000000
00000000
,
00000000
00000000
00000000
00000000
,
00000000
00000000
00000000
00000000
,
00010000
00000000
00001000
00000000
,
00010000
00000100
00001000
00000000
,
00000010
00010000
00001000
00000000
,
00022000
00000000
00033000
00000000
,
00010000
00000000
00001000
00000000
,
00000010
00000010
00000001
00000000
,
00001000
00000000
00000001
00000000
,
00000100
00001000
00010000
00000000
,
00001000
00000000
01000000
00000000
,
00100000
00100000
01000000
00000000
,
00010000
00000000
10000000
00000000
,
01000000
01000000
00010000
00001000
,
00020000
00000000
00030010
00000000
,
00001000
00001000
00001000
00000000
,
00000002
00000000
00000013
00000000
,
00000100
00000100
00010000
00000000
,
00002000
00000000
00013000
00000000
,
00001000
00000000
01000000
00000000
,
00010000
00000000
10000000
00000000
,
10010000
00000000
00000000
00000000
,
10000000
01000000
01000000
00000000
,
00010000
00000000
00001000
00000000
,
00010000
00010000
00010000
00000000
,
00001000
00000000
00000010
00000000
,
00000001
00000001
00000001
00000000
,
00001000
00000000
00000010
00000000
,
00010000
00000000
00022000
00000000
,
00000000
00000000
00033000
00000000
,
00001000
00000000
00010000
00000000
,
00100000
00000000
10000000
00000000
,
00010000
00000000
10000000
00000000
,
01000000
00000000
00010000
00000000
,
00001000
00000000
00010000
00000000
,
00000010
00000000
00001000
00000000
,
00000100
00000000
00000010
00000010
,
00000010
00000000
00001001
00000000
,
00000001
00000000
00000100
00000000
,
00001000
00000000
00010000
00000000
,
00100000
00000000
00010000
00000000
,
00001000
00000000
00010000
00000000
,
01000000
00000000
10000000
00000000
,
00010000
00000000
01000000
00000000
,
00001000
00000000
00010000
00000000
,
00022000
00000000
00000000
00033000
,
00001000
00000000
00010000
00000000
,
00100000
00100000
10000000
00000000
,
00010000
00000000
10000000
00000000
,
01000000
00010000
00001000
00000000
,
00010000
00000000
00000100
00000000
,
00000010
00000010
00000100
00000000
,
00001000
00000000
00000001
00000000
,
00000100
00000100
00001000
00010000
,
00001000
00000000
00010000
00000000
,
00100000
00000000
10000000
00000000
,
01000000
00000000
00010000
00000000
,
00001000
00001000
00001000
00000000
,
00000010
00000000
00000001
00000000
,
00000100
00000000
00001000
00000000
,
00010000
00000000
00001000
00000000
,
00100000
00000000
00001000
00000000
,
00010000
00000010
00001000
00000100
,
00010000
00000000
00000000
00022000
00000000
00000000
00033000
00000000
;

//--------------- dance-double - Fred-104 ----------------
#NOTES:
     dance-double:
     Fred-104:
     Medium:
     9:
     :
00000000
00000000
00000000
00000000
,
00000000
00000000
00000000
00000000
,
00000000
00000000
00000000
00000000
,
00000000
00000000
00000000
00000000
,
00000000
00000000
00000000
00000000
,
00001000
00010000
00100000
10000000
,
01000000
00010000
01000000
00000000
00010000
00001000
00010000
00000000
,
00000100
00001000
00000001
00000000
00001000
00000010
00010000
00000000
,
00022000
00000000
00000000
00000000
00000000
00000000
00000000
00000000
00000000
00033000
00000000
00000000
00000000
00000000
00000000
00000000
,
00010000
00000000
00000000
00000000
00001000
00000000
00000000
00010000
00000000
00000000
00000100
00000000
00000100
00000000
00000000
00000000
,
00000010
00000000
00000000
00000000
00000001
00000000
00000000
00001000
00000000
00001000
00000000
00001000
00000000
00000000
00000000
00000000
,
00000010
00000000
00000000
00000000
00000100
00000000
00000000
00001000
00000000
00000000
00010000
00000000
00010000
00000000
00000000
00000000
,
00001000
00000000
01000000
00000000
00010000
00100000
00010000
00000000
,
10000000
00000000
00000000
00000000
01000000
00000000
00000000
00010000
00000000
00000000
00001000
00000000
00001000
00000000
00000000
00000000
,
00010000
00000000
00000010
00000000
00001000
00000000
00000000
00000001
00000000
00000001
00000000
00000001
00000000
00000001
00000000
00000000
,
00000010
00000000
00000000
00000000
00000100
00000000
00000000
00001000
00000000
00000000
00000100
00000000
00000100
00000000
00000000
00000000
,
00010000
00000000
00001000
00000000
00010000
00000000
00000000
00000010
00000000
00000010
00000000
00000010
00000000
00000000
00010000
00000000
,
00001000
00000000
00100000
00000000
00010000
00010000
00000000
10000000
,
00000000
00100000
00100000
00000000
01000000
00000000
00010000
00000000
,
10000000
00000000
01000000
00000000
00010000
00010000
00000000
00001000
,
00000000
00010000
00010000
00000000
00000100
00000000
00000010
00000000
,
00000001
00000001
00000000
00001000
00000000
00000010
00000000
00001000
,
00000000
00000010
00000000
00000100
00000000
00001000
00000000
00010000
,
00000000
00001000
00000000
00022000
00000000
00033000
00000000
00001000
,
00000000
00010000
00010000
00000000
00000100
00000100
00000000
00000010
,
00000010
00000002
00002003
00003001
,
00000100
00000000
00001000
00000000
00010000
00001000
00010000
00000000
,
00001000
00200000
02300000
13000000
,
00010000
00000000
01000000
01000000
00000000
20020000
00000000
30030000
,
20000000
32000000
03020000
00032000
,
00013000
00001000
00010000
00000000
00000100
00001000
00000100
00000000
,
00000010
00000000
00000100
00000000
00010000
00001000
00000000
00022000
,
00000000
00000000
00033000
00000000
,
00001000
00010000
00000000
00100000
00000000
10000000
00000000
00010000
,
00000000
00100000
00100000
00000000
11000000
00000000
00000000
00000000
,
00010000
00010000
00000000
10000000
00000000
01000000
00000000
00010000
,
00000000
00001000
00001000
00000000
00011000
00000000
00000000
00000000
,
00010000
00001000
00000000
00000100
00000000
00000001
00001000
00000000
,
00000100
00000010
00000000
00000001
00000000
00001000
00000010
00000000
,
00000100
00001000
00000000
00010000
00000000
00001000
01000000
00000000
,
00100000
00100000
00000000
20020000
00000000
00000000
30030000
00000000
,
10000000
10000000
00000000
00100000
00000000
00010000
00000000
00001000
,
00000000
00010000
01000000
00010000
00001000
00000000
00000000
00000000
,
00010000
00010000
00000000
00001000
00000000
00000100
00000000
00000001
,
00000000
00000010
00001000
00000010
00000001
00000000
00000000
00000000
,
00001000
00000001
00000000
00000100
00000000
00001000
00010000
00000000
,
00001000
01000000
00000000
00010000
00000000
10000000
01000000
00000000
,
00100000
00000000
00100000
00001000
00010000
00000000
00001000
00000000
,
00010000
00010000
00000000
00022000
00000000
00000000
00033000
00000000
,
00001000
00000000
00000000
00000000
00010000
00000000
00000000
00001000
00000000
00000000
01000000
00000000
01000000
00000000
00000000
00000000
,
00100000
00000000
00000000
00000000
10000000
00000000
00000000
00010000
00000000
00010000
00000000
00010000
00000000
00000000
00000000
00000000
,
00100000
00000000
00000000
00000000
01000000
00000000
00000000
00010000
00000000
00000000
00001000
00000000
00001000
00000000
00000000
00000000
,
00010000
00000000
00000100
00000000
00001000
00000010
00001000
00000000
,
00000001
00000000
00000000
00000000
00000100
00000000
00000000
00001000
00000000
00000000
00010000
00000000
00010000
00000000
00000000
00000000
,
00001000
00000000
00100000
00000000
00010000
00000000
00000000
10000000
00000000
10000000
00000000
10000000
00000000
10000000
00000000
00000000
,
00100000
00000000
00000000
00000000
01000000
00000000
00000000
00010000
00000000
00000000
01000000
00000000
01000000
00000000
00000000
00000000
,
00001000
00000000
00010000
00000000
00001000
00000000
00000000
00100000
00000000
00100000
00000000
00100000
00000000
00000000
00001000
00000000
,
00010000
00000000
00000100
00000000
00000010
00000001
00000010
00000000
,
00000001
00001000
00000010
00000000
00000100
00001000
00010000
00000000
,
00001000
00000000
01000000
00000000
00010000
00100000
01000000
00000000
,
10000000
00000000
00010000
00000000
01000000
00000000
00000000
00001000
00000000
00001000
00000000
00000000
00010000
00000000
00000000
00000000
,
00011000
00000000
00011000
00000000
00001000
00010000
00000100
00000000
,
00001000
00000001
00000100
00000100
00000010
00001000
00000100
00000000
,
00000010
00000010
00000001
00000001
00000100
00001000
00010000
00000000
,
00001000
00000000
00010000
00000000
00001000
00000000
00000000
00100000
00000000
00010000
00000000
00100000
00000000
00000000
00001000
00000000
,
00010000
00001000
00000000
00000000
01000000
00010000
00000000
00000000
,
00100000
01000000
00000000
20020000
00000000
00030000
30000000
00000000
;

//--------------- dance-double - Fred-104 ----------------
#NOTES:
     dance-double:
     Fred-104:
     Hard:
     12:
     :
00000000
00000000
00000000
00000000
,
00000000
00000000
00000000
00000000
,
00000000
00000000
00000000
00000000
,
00000000
00000000
00000000
00000000
,
00000000
00000000
00000000
00000000
,
00010000
00001000
00010000
00000000
00000010
00010000
00000100
00000000
,
00000010
00000100
00001000
00000000
00000010
00000100
00001000
00000000
,
00010000
00001000
00100000
00010000
01000000
00100000
00010000
00001000
,
00020000
00000000
00000000
00000000
00000000
00000000
00000000
00000000
00000000
00030000
00000000
00000000
00000000
00000000
00000000
00000000
,
00001000
00000000
00010000
00000000
00100000
00000000
00000000
10000000
00000000
00000000
00010000
00000000
10000000
00000000
01000000
00000000
,
00100000
00000000
00001000
00000000
00010000
00000000
00000100
00001000
00000000
00000001
00000000
00001000
00000000
00000001
00000000
00001000
,
00000100
00000000
00000010
00000000
00001000
00000000
00000000
00010000
00000000
00000000
00001000
00000000
00100000
00000000
00010000
00000000
,
01000000
00100000
01000000
00000000
00010000
00000000
10000000
01000000
00000000
00100000
00000000
01000000
00000000
00100000
00000000
00001000
,
00010000
00000000
00000100
00000000
00001000
00000000
00000000
00000001
00000000
00000000
00000100
00000000
00000010
00000000
00001000
00000000
,
00000100
00000000
00000010
00000000
00000001
00000000
00001000
00000010
00000000
00001000
00000000
00000010
00000000
00010000
00000000
00001000
,
00010000
00000000
00001000
00000000
01000000
00000000
00000000
00010000
00000000
00000000
00100000
00000000
01000000
00000000
00010000
00000000
,
00001000
00010000
00001000
00000000
00100000
00000000
00010000
10000000
00000000
00100000
00000000
01000000
00000000
00010000
10000000
00000000
,
01000000
00000000
00020000
00000000
00031000
00010000
00000000
00011000
,
00000000
00001000
00000200
00000000
00000301
00000010
00000200
00000000
,
00001300
00000000
00000020
00000000
00000130
00001000
00000000
00011000
,
00000000
00010000
01000000
00100000
10000000
00100000
00020000
00000000
,
10030000
00200000
00000000
00320000
00000000
00032000
00000000
00023000
,
00000000
02030000
00000000
03020000
00000000
00032000
00000000
00003020
,
00000000
00000032
00000000
00002000
00000000
00003003
00000001
00000001
,
00000000
00000100
00000100
00000000
00001000
00001000
00000000
00010000
,
00002000
00100000
00000010
00013000
,
00001000
00000000
00010000
00000000
00100000
00000000
10000000
00000000
01000000
00000000
00000000
00100000
00000000
00000000
00001000
00000000
,
00020000
00000100
01000000
00031000
,
00011000
00000000
00010000
00010100
00000000
00002002
00000000
00003003
,
00002000
00000010
00000001
00000100
,
00013000
00000000
00100000
00000000
00001000
00000000
00010000
00001000
00000000
00000000
01000000
00000000
00010000
00000000
10000000
00000000
,
01000000
00000000
01100000
00000000
00001000
00010000
00000000
00022000
,
00000000
00000000
00000000
00000000
00033000
00000000
00010000
00000100
,
00001000
00000001
00000000
00000100
00000000
00001000
00000100
00000001
,
00000010
00000100
00020000
00000000
00031000
00010000
00011000
00000000
,
00001000
00100000
00000000
00010000
00000000
10000000
00100000
00010000
,
00100000
10000000
02000000
00000000
03010000
00001000
00011000
00000000
,
00010000
00001000
00000100
00000010
00000000
00001000
00000002
00000000
,
00000013
00000100
00001000
00000010
00000000
00010000
00002000
00000000
,
00013000
01000000
00100000
10000000
00100000
00010000
10000000
00100000
,
00010000
00000000
00010000
00000000
00000000
00000000
00011000
00000000
00000000
00000000
00001000
00010000
00001000
00000000
00010000
00000000
,
00000010
00001000
00000000
00000100
00000000
00000001
00000100
00000010
,
00000001
00001000
00000010
00000000
00010000
00001000
00011000
00000000
,
00001000
01000000
00000000
00100000
00000000
00010000
00100000
01000000
,
00010000
10000000
02000000
00000000
03100000
00001000
00011000
00000000
,
00001000
00010000
00000100
00000010
00000000
00000001
00002000
00000000
,
00003010
00000100
00001000
00010000
00000000
00001000
02000000
00000000
,
03100000
10000000
01000000
00100000
01000000
00000000
01010000
00000000
,
00010000
00011000
00000000
00022000
00000000
00000000
00033000
00000000
,
00010000
00000000
00001000
00000000
00000010
00000000
00000000
00000001
00000000
00000000
00001000
00000000
00000001
00000000
00000100
00000000
,
00000010
00000000
00010000
00000000
00001000
00000000
01000000
00010000
00000000
10000000
00000000
00010000
00000000
10000000
00000000
00010000
,
01000000
00000000
00100000
00000000
00010000
00000000
00000000
00001000
00000000
00000000
00010000
00000000
00000010
00000000
00001000
00000000
,
00000100
00000010
00000100
00000000
00001000
00000000
00000001
00000100
00000000
00000010
00000000
00000100
00000000
00000010
00000000
00010000
,
00001000
00000000
01000000
00000000
00010000
00000000
00000000
10000000
00000000
00000000
01000000
00000000
00100000
00000000
00010000
00000000
,
01000000
00000000
00100000
00000000
10000000
00000000
00010000
00100000
00000000
00010000
00000000
00100000
00000000
00001000
00000000
00010000
,
00001000
00000000
00010000
00000000
00000100
00000000
00000000
00001000
00000000
00000000
00000010
00000000
00000100
00000000
00001000
00000000
,
00010000
00001000
00010000
00000000
00000010
00000000
00001000
00000001
00000000
00000010
00000000
00000100
00000000
00001000
00000001
00000000
,
00001000
00000000
00000010
00000000
00000100
00000000
00000000
00000001
00000000
00000000
00001000
00000000
00000100
00000000
00010000
00000000
,
00001000
00010000
00001000
00000000
01000000
00000000
00010000
10000000
00000000
01000000
00000000
00100000
00000000
00001000
00010000
00000000
,
00001000
00000000
00010000
00000000
00001000
00000000
00000000
00000010
00000000
00000000
00000100
00000000
00000010
00000000
00000001
00000000
,
00001000
00000010
00001000
00000000
00000010
00000000
00010000
00001000
00000000
01000000
00000000
00001000
00020000
00000000
00000000
00000000
,
00031000
00000000
00000000
00001000
00010000
00000000
00000000
00010000
00001000
00000000
01000000
00000000
00010000
10000000
00010000
00000000
,
00100000
00000000
01000000
00000000
10000000
01000000
10000000
01000000
00000000
00100000
00000000
00001000
00000000
00010000
00000000
00000010
,
00010000
00000000
00001000
00000000
00010000
00000000
00000000
00000100
00000000
00000000
00000010
00000000
00000001
00000000
00001000
00000000
,
00000010
00000100
00000010
00000100
00000010
00000000
00000100
00001000
00000000
00010000
00000000
00001000
00000000
00100000
00010000
00000000
,
01000000
00100000
00000000
00100000
10000000
01000000
00000000
01000000
,
00010000
00001000
00000100
00000202
00000000
00000300
00000003
00000000
;
