#VERSION:0.83;
#TITLE:IN BETWEEN(Fred-Special);
#ARTIST:BEMANI Sound Team "L.E.D.-G" feat. Mayumi Morinaga;
#ARTISTTRANSLIT:L.E.D.-G feat. Mayumi Morinaga;
#BANNER:IN BETWEEN(Fred-Special).png;
#BACKGROUND:IN BETWEEN(Fred-Special)-bg.png;
#MUSIC:IN BETWEEN(Fred-Special).ogg;
#CDTITLE:./CDTitles/DDR A.png;
#SAMPLESTART:86.607;
#SAMPLELENGTH:15;
#BPMS:0=159.5,4=160,72=20,73=40,74=80,76=160;
#STOPS:184=1.125,213=1.125;
#SCROLLS:0=1,72.125=1.125,72.25=1.25,72.375=1.375,72.5=1.5,72.625=1.625,72.75=1.75,72.875=1.875,73=1,73.125=1.125,73.25=1.25,73.375=1.375,73.5=1.5,73.625=1.625,73.75=1.75,73.875=1.875,74=1,74.25=1.125,74.5=1.25,74.75=1.375,75=1.5,75.25=1.625,75.5=1.75,75.75=1.875,76=1;
#TIMESIGNATURES:0=4=4,184=1=4,185=4=4,213=1=4,214=4=4;
#BGSTAGE:31;

//--------------- dance-single - Fred-104 ----------------
#NOTEDATA:;
#STEPSTYPE:dance-single;
#DESCRIPTION:Fred-104;
#DIFFICULTY:Challenge;
#METER:18;
#CREDIT:Fred-104;
#NOTES:
0000
0000
0000
0000
,
0000
0000
0000
0000
,
0000
0000
0000
0000
,
0000
0000
0000
0000
,
0000
0000
0000
0000
,
0000
0000
0000
0000
0000
0000
0000
0000
0000
0000
0000
0000
0000
0000
0000
0000
0000
0000
0000
0000
0000
0001
1000
0010
,
1000
0010
0100
0001
1000
0010
0100
0001
,
1000
0000
0100
0000
0010
0000
1000
0000
0001
0000
0100
0000
0010
0000
0001
1000
,
0001
0000
0000
0000
0000
0000
0100
0000
0000
0000
0000
0000
0010
0000
0000
0000
0000
0000
1000
0000
0100
0000
0010
0000
0100
0000
0000
0000
0000
0000
1000
0000
0000
0000
0000
0000
0001
0000
0000
0100
0000
0000
0010
0000
0000
1000
0000
0000
,
1100
0000
1010
0101
,
1000
0010
0100
0000
0001
1000
0100
0000
0010
0000
0001
0100
0000
0100
1000
0000
,
0001
1000
0010
0000
0100
0001
1000
0000
0001
0000
0100
1000
0000
0100
0001
1000
,
0001
1000
0100
0000
0010
0001
1000
0000
0100
0000
1000
0010
0000
0010
0001
0000
,
1000
0000
0010
0000
0100
0000
0001
0000
1100
0000
0000
0101
0000
0000
0100
0010
,
0110
0000
1000
0000
0001
0100
0010
0001
0010
0000
0100
0001
0000
1000
0001
0000
,
1000
0100
0010
1000
0010
0100
1000
0001
1000
0000
0001
0100
0000
1000
0100
0010
,
1000
0000
0100
0000
0010
0000
0001
1000
1001
0000
0000
0110
0000
0000
1001
0000
,
0000
0000
1100
0000
0100
0000
0010
0001
0011
0000
0000
1010
0000
0000
0101
0000
,
2002
0000
0000
3003
,
0101
0000
0000
0000
0100
0000
0010
0000
1000
0000
0000
0000
0001
0010
1000
0000
,
0010
0001
0100
0020
0001
0000
0130
0000
,
0001
0000
1000
0000
0100
0000
0010
0000
0001
0000
0000
0000
1000
0010
0100
0000
,
1000
0000
0100
0001
1000
0000
0200
0000
0001
0000
0000
0000
1300
0000
0000
0000
,
0001
0000
0100
0000
0002
0000
0010
0000
0103
0000
0000
0000
0010
1000
0001
0000
,
0101
0100
1000
0200
0001
0000
0310
0000
,
2000
0000
0010
0000
0000
0000
3100
1000
0001
0000
0000
0000
1000
0100
0001
0000
,
0100
0000
0010
0001
0100
0010
0001
1000
0200
0000
0000
0000
0302
0000
0000
0000
,
1003
0000
1000
0000
0100
0000
0010
0001
1000
0000
0010
0000
0100
0000
0010
1000
,
0001
0000
1000
0000
0010
0000
0100
1000
0001
0000
0010
0000
1000
0000
0001
0000
,
1000
0000
0100
0000
0100
0000
0001
1000
0001
0000
0100
0000
0100
0000
1000
0001
,
1000
0000
0010
0000
0010
0000
0001
0100
0010
0010
0001
0000
0100
0000
0100
0000
,
0010
0000
1000
0000
1100
0000
0100
0010
0001
0000
1000
0000
1001
0000
0001
0100
,
1000
0000
0100
0000
0110
0000
0010
1000
0001
0000
0100
0000
1000
0000
0100
0000
,
0001
0000
0000
0000
0000
0000
0000
0000
0000
0000
0000
0000
0000
0000
0000
0000
0000
0000
0000
0000
0000
0000
0000
0000
0010
0000
0000
0000
0000
0000
0000
0000
0000
0000
0000
0000
0000
0000
0000
0000
0000
0000
0000
0000
0000
0000
0000
0000
0011
0000
0000
0000
0000
0000
0000
0000
0000
0000
0000
0000
0000
0000
0000
0000
0000
0000
0000
0000
0000
0000
0000
0000
0001
0000
0000
0000
0000
0000
0000
0000
0000
0000
0000
0000
0100
0000
0000
0000
0000
0000
0000
0000
0000
0000
0000
0000
0010
0000
0000
0000
0000
0000
0000
0000
0000
0000
0000
0000
1000
0000
0000
0000
0000
0000
0000
0000
0000
0000
0000
0000
0001
0000
0000
0000
0000
0000
0000
0000
0000
0000
0000
0000
0000
0000
0000
0000
0000
0000
0000
0000
0000
0000
0000
0000
1100
0000
0000
0000
0000
0000
0000
0000
0000
0000
0000
0000
0000
0000
0000
0000
0000
0000
0000
0000
0000
0000
0000
0000
0200
0300
0000
0000
0000
0000
0000
0000
0000
0000
0000
0000
0200
0300
0000
0000
0000
0000
0000
0000
0000
0000
0000
0000
,
0001
0000
0000
0000
0000
0000
0000
0000
0000
0000
0000
0000
0020
0030
0000
0000
0000
0000
0000
0000
0000
0000
0000
0000
0020
0030
0000
0000
0000
0000
0000
0000
0000
0000
0000
0000
1000
0000
0000
0000
0000
0000
0000
0000
0000
0000
0000
0000
0001
0000
0000
0000
0000
0000
0000
0000
0000
0000
0000
0000
0200
0300
0000
0000
0000
0000
0000
0000
0000
0000
0000
0000
0200
0300
0000
0000
0000
0000
0000
0000
0000
0000
0000
0000
1000
0000
0000
0000
0000
0000
0000
0000
0000
0000
0000
0000
0001
0000
0000
0000
0000
0000
0000
0000
0000
0000
0000
0000
0020
0030
0000
0000
0000
0000
0000
0000
0000
0000
0000
0000
0020
0030
0000
0000
0000
0000
0000
0000
0000
0000
0000
0000
1000
0000
0000
0000
0000
0000
0000
0000
0000
0000
0000
0000
0001
0000
0000
0000
0000
0000
0000
0000
0000
0000
0000
0000
0010
0000
0000
0000
0000
0000
0000
0000
0000
0000
0000
0000
0100
0000
0000
0000
0000
0000
0000
0000
0000
0000
0000
0000
1000
0000
0000
0000
0000
0000
0000
0000
0000
0000
0000
0000
,
1001
0000
0000
0000
,
0000
0000
0000
0000
0000
0000
0010
0100
0110
0000
0000
1100
0000
0000
0001
1000
,
1001
0000
0000
0000
,
0000
0000
0000
0000
1000
0100
0100
0100
1000
0000
0001
0000
1000
0010
0010
0010
,
1000
0000
0000
0000
,
0000
0000
0000
0000
0000
0000
0100
0010
1010
0000
0000
0011
0000
0000
1100
0000
,
0101
0000
0000
0000
,
0000
0000
0000
0000
0000
0000
0001
0100
0010
0001
0000
1000
0000
0100
0000
0001
,
1000
0000
0000
1000
0010
0000
0000
0010
0100
0000
0000
0100
0001
0000
0001
0100
,
1000
0000
0000
0100
0001
0000
0000
1000
0001
0000
0100
1000
0001
0000
0010
0100
,
0001
0100
1000
0001
0010
0100
0001
0010
0100
0001
1000
0010
0001
1000
0100
0010
,
0002
0003
0000
0000
0000
0000
0000
0000
0000
0000
0000
0000
0000
0000
0000
0000
1000
0000
0000
0000
0000
0000
0000
0000
0100
0000
0000
0000
0010
0000
0000
0000
0000
0000
0000
0000
0001
0000
0000
0000
1000
0000
0000
0000
0000
0000
0000
0000
0010
0000
0000
0000
0000
0000
0000
0000
0100
0000
0000
0000
0010
0000
0000
0000
,
1000
0000
0001
0010
0100
0000
1000
0010
0000
0100
0010
0000
1000
0100
0100
0100
,
2000
0000
3002
0000
1003
0000
0001
0100
0000
0010
1000
0000
0001
0000
1000
0100
,
0001
0000
1000
0010
0001
0000
0010
0100
0000
0001
1000
0000
0010
0000
0001
0000
,
2002
0000
0000
0000
0000
0000
3003
0000
0000
0001
1000
0010
0100
0000
0000
0000
0000
0000
0101
0000
0000
0100
0000
0000
,
1000
0000
0100
0000
0001
0000
1000
0001
0100
0000
0010
0000
1000
0100
0010
0000
,
0001
0000
0000
0000
0000
0000
0000
0000
0000
0000
0000
0000
0200
0300
0000
0000
0000
0000
0000
0000
0000
0000
0000
0000
0200
0300
0000
0000
0000
0000
0000
0000
0000
0000
0000
0000
1000
0000
0000
0000
0000
0000
0000
0000
0000
0000
0000
0000
0010
0000
0000
0000
0000
0000
0000
0000
0000
0000
0000
0000
0100
0000
0000
0000
0000
0000
0000
0000
0000
0000
0000
0000
1000
0000
0000
0000
0000
0000
0000
0000
0000
0000
0000
0000
0100
0000
0000
0000
0000
0000
0000
0000
0000
0000
0000
0000
0010
0000
0000
0000
0000
0000
0000
0000
0000
0000
0000
0000
1000
0000
0000
0000
0000
0000
0000
0000
0000
0000
0000
0000
0100
0000
0000
0000
0000
0000
0000
0000
0000
0000
0000
0000
0001
0000
0000
0000
0000
0000
0000
0000
0000
0000
0000
0000
0100
0000
0000
0000
0000
0000
0000
0000
0000
0000
0000
0000
0010
0000
0000
0000
0000
0000
0000
0000
0000
0000
0000
0000
0001
0000
0000
0000
0000
0000
0000
0000
0000
0000
0000
0000
1000
0000
0000
0000
0000
0000
0000
0000
0000
0000
0000
0000
,
0010
0000
0000
0000
0001
0000
0000
0000
0010
0000
0000
0000
0100
0000
0000
0000
0002
0003
0000
0000
0000
0000
0000
0000
0000
0000
0000
0000
0000
0000
0000
0000
1100
0000
0000
0000
0000
0000
0000
0000
0110
0000
0000
0000
0000
0000
0000
0000
0001
0000
0000
0000
0000
0000
0000
0000
0100
0000
0000
0000
0000
0000
0000
0000
,
1010
0000
1001
0000
0001
0000
1000
0000
0001
0100
0010
0001
1000
0100
0001
1000
,
0010
0100
1000
0001
0010
1000
0001
1000
1001
0000
1100
0000
0010
0000
0100
0000
,
0101
0000
1010
0000
0010
0000
0100
0000
0001
1000
0100
0001
0100
1000
0010
0100
,
0010
0000
0000
0000
0000
0000
0000
0000
0000
0000
0000
0000
0001
0000
0000
0000
0000
0000
0000
0000
0000
0000
0000
0000
0010
0000
0000
0000
0000
0000
0000
0000
0000
0000
0000
0000
1000
0000
0000
0000
0000
0000
0000
0000
0000
0000
0000
0000
0001
0000
0000
0000
0000
0000
0000
0000
0000
0000
0000
0000
0100
0000
0000
0000
0000
0000
0000
0000
0000
0000
0000
0000
0010
0000
0000
0000
0000
0000
0000
0000
0000
0000
0000
0000
0000
0000
0000
0000
0000
0000
0000
0000
0000
0000
0000
0000
0000
0000
0000
0000
0000
0000
0000
0000
0000
0000
0000
0000
0000
0000
0000
0000
0000
0000
0000
0000
0000
0000
0000
0000
0000
0000
0000
0000
0000
0000
0000
0000
0000
0000
0000
0000
0000
0000
0000
0000
0000
0000
0000
0000
0000
0000
0000
0000
1000
0000
0000
0000
0000
0000
0000
0000
0000
0000
0000
0000
0020
0030
0000
0000
0000
0000
0000
0000
0000
0000
0000
0000
0020
0030
0000
0000
0000
0000
0000
0000
0000
0000
0000
0000
0001
0000
0000
0000
0000
0000
0000
0000
0000
0000
0000
0000
,
1000
0000
1001
0000
0000
0000
1010
0000
0101
0000
0000
1100
0000
0000
0101
0000
,
0001
0000
0010
0000
0100
0000
1000
0000
0001
0100
0010
0001
1000
0100
0001
1000
,
0010
0000
0000
0001
0000
0000
1000
0000
0000
0100
0000
0000
0010
0000
0000
1000
0000
0000
0100
0000
0000
0010
0000
0000
0001
0000
0000
0000
0000
0000
1000
0000
0100
0000
0010
0000
0001
0000
0000
0000
0000
0000
0100
0000
0010
0000
1000
0000
,
0001
0000
1001
0000
,
0000
0000
0000
0000
0000
0000
0000
0000
0000
0000
0000
0000
0000
0000
0100
0010
,
0110
0000
0000
0000
0000
0000
0000
0000
0000
1001
0000
0000
0000
0000
0000
0000
0000
0000
0001
0000
0100
0000
0010
0000
1000
0000
0000
0000
0000
0000
0010
0000
0000
0000
0000
0000
0100
0000
0000
0000
0000
0000
1000
0000
0000
0000
0000
0000
,
0100
0001
0010
0001
0011
1010
0101
1100
,
1001
0000
0000
0000
0000
0000
0000
0000
0000
1000
0001
0100
0001
0000
0000
1000
0000
0000
0100
0000
0000
0010
0000
0000
,
0001
0000
1000
0000
0001
0000
0100
1000
0100
0000
0001
0000
0010
0000
0100
0000
,
1000
0000
0000
0000
0000
0000
0000
0000
0000
0000
0000
0000
0200
0300
0000
0000
0000
0000
0000
0000
0000
0000
0000
0000
0200
0300
0000
0000
0000
0000
0000
0000
0000
0000
0000
0000
0000
0000
0000
0000
0000
0000
0000
0000
0000
0000
0000
0000
0001
0000
0000
0000
0000
0000
0000
0000
0000
0000
0000
0000
0000
0000
0000
0000
0000
0000
0000
0000
0000
0000
0000
0000
0020
0030
0000
0000
0000
0000
0000
0000
0000
0000
0000
0000
0020
0030
0000
0000
0000
0000
0000
0000
0000
0000
0000
0000
1000
0000
0000
0000
0000
0000
0000
0000
0000
0000
0000
0000
0100
0000
0000
0000
0000
0000
0000
0000
0000
0000
0000
0000
0010
0000
0000
0000
0000
0000
0000
0000
0000
0000
0000
0000
1000
0000
0000
0000
0000
0000
0000
0000
0000
0000
0000
0000
0001
0000
0000
0000
0000
0000
0000
0000
0000
0000
0000
0000
0100
0000
0000
0000
0000
0000
0000
0000
0000
0000
0000
0000
1000
0000
0000
0000
0000
0000
0000
0000
0000
0000
0000
0000
0001
0000
0000
0000
0000
0000
0000
0000
0000
0000
0000
0000
,
0100
0010
0001
1000
0100
0001
1000
0001
1001
0000
0000
0000
0000
0000
0000
0000
,
0011
0000
0000
0000
0000
0000
0000
0000
0000
1010
0000
0000
0000
0000
0000
0000
0000
0000
0001
0000
0100
0000
1000
0000
0200
0000
0000
0000
0000
0000
0000
0000
0000
0000
0000
0000
0000
0000
0000
0000
0000
0000
0000
0000
0000
0000
0000
0000
,
0000
0000
0300
0000
;

//--------------- dance-double - Fred-104 ----------------
#NOTEDATA:;
#STEPSTYPE:dance-double;
#DESCRIPTION:Fred-104;
#DIFFICULTY:Challenge;
#METER:17;
#CREDIT:Fred-104;
#NOTES:
00000000
00000000
00000000
00000000
,
00000000
00000000
00000000
00000000
,
00000000
00000000
00000000
00000000
,
00000000
00000000
00000000
00000000
,
00000000
00000000
00000000
00000000
,
00000000
00000000
00000000
00000000
00000000
00000000
00000000
00000000
00000000
00000000
00000000
00000000
00000000
00000000
00000000
00000000
00000000
00000000
00000000
00000000
00000000
00010000
00001000
00010000
,
00001000
00010000
00001000
00000010
00000001
00000001
00000100
00000100
,
00000010
00000010
00001000
00001000
00000100
00010000
00001000
01000000
,
00010000
00000000
00000000
00000000
00000000
00000000
00010000
00000000
00000000
00000000
00000000
00000000
10000000
00000000
00000000
00000000
00000000
00000000
10000000
00000000
01000000
00000000
00100000
00000000
00010000
00000000
00000000
00000000
00000000
00000000
10000000
00000000
00000000
00000000
00000000
00000000
00010000
00000000
00000000
10000000
00000000
00000000
00010000
00000000
00000000
10000000
00000000
00000000
,
10010000
00000000
00011000
00001001
,
00001000
00000010
00000100
00000000
00000001
00001000
00000100
00000000
00000020
00000000
00000000
00000230
00000000
00000000
00002300
00000000
,
00003001
00000100
00000010
00000000
00001000
00000010
00010000
00000000
00002000
00000000
00000000
00023000
00000000
00000000
00130000
10000000
,
00010000
00000000
10000000
01000000
00100000
00000000
00010000
10000000
02000000
00000000
00000000
23000000
00000000
00000000
30020000
00000000
,
01030000
00000000
00100000
00000000
00010000
00000000
00001000
00000000
00011000
00000000
00000000
00010010
00000000
00000000
00010000
00001000
,
00011000
00000000
00010000
00000000
00001000
00000010
00000100
00000000
00001000
00000000
00000001
00000100
00000000
00000100
00001000
00000000
,
00000100
00000010
00000001
00000000
00000100
00000010
00001000
00000000
00000001
00000000
00000010
00000100
00000000
00001000
00000001
00000010
,
00000100
00000000
00010000
00000000
00001000
00000000
00010000
00001000
00011000
00000000
00000000
01001000
00000000
00000000
00011000
00000000
,
00000000
00000000
00110000
00000000
00010000
00000000
01000000
00100000
10100000
00000000
00000000
01010000
00000000
00000000
11000000
00000000
,
20020000
00000000
00000000
30030000
,
00011000
00000000
00000000
00000000
00010000
00000000
00001000
00000000
00000010
00000000
00000000
00000000
00000100
00001000
00000001
00000000
,
00001000
00000100
00000001
00000200
00001000
00000000
00001300
00000000
,
00000001
00000000
00000010
00000000
00000100
00000000
00010000
00000000
00001000
00000000
00000000
00000000
00010000
00001000
00000010
00000000
,
00001000
00000000
00010000
00001000
00000100
00000000
00002000
00000000
00010000
00000000
00000000
00000000
00013000
00000000
00000000
00000000
,
00001000
00000000
00100000
00000000
00020000
00000000
01000000
00000000
10030000
00000000
00000000
00000000
00010000
10000000
01000000
00000000
,
00100000
00001000
00000010
00002000
00010000
00000000
00013000
00000000
,
00000200
00000000
00001000
00000000
00000000
00000000
00000310
00000001
00001000
00000000
00000000
00000000
00000001
00000010
00000100
00000000
,
00000001
00000000
00000100
00000010
00000001
00001000
00000010
00000100
00000001
00000000
00001000
00000000
00000010
00000000
00000000
00000000
,
00010000
00000000
00001000
00000000
00010000
00000000
00001000
00100000
00010000
00000000
01000000
00000000
00100000
00000000
10000000
01000000
,
00010000
00000000
01000000
00000000
10000000
00000000
00010000
01000000
00001000
00000000
00010000
00000000
00001000
00000000
00000010
00000000
,
00000100
00000000
00001000
00000000
00000001
00000000
00001000
00000001
00000100
00000000
00000010
00000000
00000100
00000000
00001000
00000100
,
00000010
00000000
00001000
00000000
00000001
00000000
00000010
00000100
00001000
00000100
00000010
00000000
00000001
00000000
00000010
00000000
,
00001000
00000000
00010000
00000000
00011000
00000000
00001000
00100000
00010000
00000000
10000000
00000000
11000000
00000000
01000000
00100000
,
00010000
00000000
01000000
00000000
01010000
00000000
00001000
00010000
00000100
00000000
00001000
00000000
00010000
00000000
00001000
00000000
,
00000100
00000000
00001000
00000000
00001001
00000000
00000001
00000010
00000100
00001000
00000010
00000000
00000110
00000000
00000100
00000010
,
00001000
00000001
00000010
00000100
00010000
00001000
00100000
00010000
00100000
01000000
10000000
00010000
01000000
00001000
00010000
00001000
,
00011000
00000000
00000000
00000000
,
00000000
00000000
00000000
00000000
00000000
00000000
00000001
00000100
00000101
00000000
00000000
00001100
00000000
00000000
00010000
00001000
,
00011000
00000000
00000000
00000000
,
00000000
00000000
00000000
00000000
00000000
00000000
00000000
00000000
00000000
00000000
00000000
00000000
00000000
00000000
00000000
00000000
00000000
00000000
00000000
00000000
00000000
00000000
00000000
00000000
00000000
00000000
00000000
00000000
00000000
00000000
00000000
00000000
00000000
00000000
00000000
00000000
00000000
00000000
00000000
00000000
00000000
00000000
00000000
00000000
00000000
00000000
00000000
00000000
00001000
00000000
00000000
00000000
00000000
00000000
00000000
00000000
00000000
00000000
00000000
00000000
00020000
00030000
00000000
00000000
00000000
00000000
00000000
00000000
00000000
00000000
00000000
00000000
00020000
00030000
00000000
00000000
00000000
00000000
00000000
00000000
00000000
00000000
00000000
00000000
00100000
00000000
00000000
00000000
00000000
00000000
00000000
00000000
00000000
00000000
00000000
00000000
00001000
00000000
00000000
00000000
00000000
00000000
00000000
00000000
00000000
00000000
00000000
00000000
00000000
00000000
00000000
00000000
00000000
00000000
00000000
00000000
00000000
00000000
00000000
00000000
00010000
00000000
00000000
00000000
00000000
00000000
00000000
00000000
00000000
00000000
00000000
00000000
00000000
00000000
00000000
00000000
00000000
00000000
00000000
00000000
00000000
00000000
00000000
00000000
00001000
00000000
00000000
00000000
00000000
00000000
00000000
00000000
00000000
00000000
00000000
00000000
00020000
00030000
00000000
00000000
00000000
00000000
00000000
00000000
00000000
00000000
00000000
00000000
00020000
00030000
00000000
00000000
00000000
00000000
00000000
00000000
00000000
00000000
00000000
00000000
01000000
00000000
00000000
00000000
00000000
00000000
00000000
00000000
00000000
00000000
00000000
00000000
,
00001000
00000000
00000000
00000000
,
00000000
00000000
00000000
00000000
00000000
00000000
01000000
00100000
10100000
00000000
00000000
01100000
00000000
00000000
01001000
00000000
,
00011000
00000000
00000000
00000000
,
00000000
00000000
00000000
00000000
00000000
00000000
00010000
00001000
00000100
00000001
00000000
00001000
00000000
00000100
00000000
00000010
,
00000001
00000000
00000000
00000000
00000100
00000000
00000000
00000000
00001000
00000000
00000000
00000000
00010000
00000000
00001000
00010000
,
00001000
00000000
00000000
00000000
00010000
00000000
00000000
00000000
00100000
00000000
01000000
00010000
10000000
00000000
00010000
10000000
,
00010000
01000000
00100000
00010000
00001000
00000100
00000010
00001000
00000100
00001000
00000001
00000100
00000010
00001000
00000010
00010000
,
00002000
00003000
00000000
00000000
00000000
00000000
00000000
00000000
00000000
00000000
00000000
00000000
00000000
00000000
00000000
00000000
00010000
00000000
00000000
00000000
00000000
00000000
00000000
00000000
00000010
00000000
00000000
00000000
00001000
00000000
00000000
00000000
00000000
00000000
00000000
00000000
00001000
00000000
00000000
00000000
00010000
00000000
00000000
00000000
00000000
00000000
00000000
00000000
00001000
00000000
00000000
00000000
00000000
00000000
00000000
00000000
00100000
00000000
00000000
00000000
00001000
00000000
00000000
00000000
,
00010000
00000000
00001000
00000000
01000000
00000000
00010000
00100000
00000000
00100000
01000000
00000000
10000000
01000000
00010000
01000000
,
20000000
00000000
30020000
00000000
10030000
00000000
01000000
00100000
00000000
00100000
00001000
00000000
00010000
00000000
00000100
00001000
,
00000100
00000000
00010000
00000000
00001000
00000000
00000100
00000010
00000000
00001000
00000001
00000000
00000010
00000000
00000100
00000000
,
00000220
00000000
00000000
00000000
00000000
00000000
00000330
00000000
00000000
00000010
00000001
00001000
00000001
00000000
00000000
00000000
00000000
00000000
00000110
00000000
00000000
00000010
00000000
00000000
,
00010000
00000000
00001000
00000000
00010000
00000000
00000010
00001000
00000100
00000000
00010000
00000000
00001000
01000000
00100000
00000000
,
10000000
00010000
00100000
00000000
00010000
01000000
00100000
00010000
00001000
00000100
00000010
00001000
00000100
00000010
00000001
00000100
,
00000010
00000000
00000000
00000000
00001000
00000000
00000000
00000000
00000100
00000000
00000000
00000000
00010000
00000000
00000000
00000000
00002000
00003000
00000000
00000000
00000000
00000000
00000000
00000000
00000000
00000000
00000000
00000000
00000000
00000000
00000000
00000000
01001000
00000000
00000000
00000000
00000000
00000000
00000000
00000000
00011000
00000000
00000000
00000000
00000000
00000000
00000000
00000000
00001000
00000000
00000000
00000000
00000000
00000000
00000000
00000000
00100000
00000000
00000000
00000000
00000000
00000000
00000000
00000000
,
00110000
00000000
01100000
00000000
10000000
00000000
00010000
00000000
10000000
01000000
00100000
00000000
00010000
00100000
01000000
00000000
,
00100000
00001000
00010000
00000000
00000010
00001000
00000001
00000000
00000011
00000000
00000110
00000000
00001000
00000000
00000010
00000000
,
00001010
00000000
00010010
00000000
00010000
00000000
00001000
00000000
00100000
00001000
00010000
00000000
00000010
00010000
00001000
00000000
,
01000000
00000000
00000000
00000000
00000000
00000000
00000000
00000000
00000000
00000000
00000000
00000000
00001000
00000000
00000000
00000000
00000000
00000000
00000000
00000000
00000000
00000000
00000000
00000000
00010000
00000000
00000000
00000000
00000000
00000000
00000000
00000000
00000000
00000000
00000000
00000000
00000000
00000000
00000000
00000000
00000000
00000000
00000000
00000000
00000000
00000000
00000000
00000000
00000100
00000000
00000000
00000000
00000000
00000000
00000000
00000000
00000000
00000000
00000000
00000000
00010000
00000000
00000000
00000000
00000000
00000000
00000000
00000000
00000000
00000000
00000000
00000000
00001000
00000000
00000000
00000000
00000000
00000000
00000000
00000000
00000000
00000000
00000000
00000000
00000000
00000000
00000000
00000000
00000000
00000000
00000000
00000000
00000000
00000000
00000000
00000000
00000000
00000000
00000000
00000000
00000000
00000000
00000000
00000000
00000000
00000000
00000000
00000000
00000000
00000000
00000000
00000000
00000000
00000000
00000000
00000000
00000000
00000000
00000000
00000000
00000000
00000000
00000000
00000000
00000000
00000000
00000000
00000000
00000000
00000000
00000000
00000000
00000000
00000000
00000000
00000000
00000000
00000000
00000000
00000000
00000000
00000000
00000000
00000000
00001000
00000000
00000000
00000000
00000000
00000000
00000000
00000000
00000000
00000000
00000000
00000000
00020000
00030000
00000000
00000000
00000000
00000000
00000000
00000000
00000000
00000000
00000000
00000000
00020000
00030000
00000000
00000000
00000000
00000000
00000000
00000000
00000000
00000000
00000000
00000000
01000000
00000000
00000000
00000000
00000000
00000000
00000000
00000000
00000000
00000000
00000000
00000000
,
00001000
00000000
00011000
00000000
00000000
00000000
00010010
00000000
00011000
00000000
00000000
00101000
00000000
00000000
01001000
00000000
,
00001000
00000000
00010000
00000000
01000000
00000000
10000000
00000000
00100000
01000000
10000000
01000000
00010000
10000000
01000000
00100000
,
00001000
00000000
00000000
00010000
00000000
00000000
00000100
00000000
00000000
00001000
00000000
00000000
00000100
00000000
00000000
00000010
00000000
00000000
00000001
00000000
00000000
00001000
00000000
00000000
00000001
00000000
00000000
00000000
00000000
00000000
00001000
00000000
00000100
00000000
00000010
00000000
00000001
00000000
00000000
00000000
00000000
00000000
00000100
00000000
00000010
00000000
00001000
00000000
,
00000001
00000000
00011000
00000000
,
00000000
00000000
00000000
00000000
00000000
00000000
00000000
00000000
00000000
00000000
00000000
00000000
00000000
00000000
01000000
00100000
,
01100000
00000000
00000000
00000000
00000000
00000000
00000000
00000000
00000000
10010000
00000000
00000000
00000000
00000000
00000000
00000000
00000000
00000000
00010000
00000000
10000000
00000000
00100000
00000000
01000000
00000000
00000000
00000000
00000000
00000000
00100000
00000000
00000000
00000000
00000000
00000000
10000000
00000000
00000000
00000000
00000000
00000000
01000000
00000000
00000000
00000000
00000000
00000000
,
00001000
00000100
00000010
00000001
00000011
00000110
00001100
00001010
,
00001001
00000000
00000000
00000000
00000000
00000000
00000000
00000000
00000000
00000001
00000100
00000001
00000100
00000000
00000000
00000010
00000000
00000000
00001000
00000000
00000000
00010000
00000000
00000000
,
01000000
00000000
00100000
00000000
00010000
00000000
10000000
00100000
01000000
00000000
00100000
00000000
00010000
00000000
00100000
00000000
,
10000000
00010000
00100000
00000000
01000000
00000000
00100000
00010000
10000000
01000000
00100000
01000000
00010000
00001000
00000010
00000100
,
00001000
00000010
00000100
00001000
00000001
00000010
00001000
00000001
00000100
00000000
00000000
00000000
00000000
00000000
00000000
00000000
,
00000110
00000000
00000000
00000000
00000000
00000000
00000000
00000000
00000000
00011000
00000000
00000000
00000000
00000000
00000000
00000000
00000000
00000000
00010000
00000000
00001000
00000000
00100000
00000000
00002000
00000000
00000000
00000000
00000000
00000000
00000000
00000000
00000000
00000000
00000000
00000000
00000000
00000000
00000000
00000000
00000000
00000000
00000000
00000000
00000000
00000000
00000000
00000000
,
00000000
00000000
00003000
00000000
;
