#VERSION:0.83;
#TITLE:IMPACT;
#ARTIST:USAO feat. 光吉猛修;
#ARTISTTRANSLIT:USAO feat. Takenobu Mitsuyoshi;
#BANNER:IMPACT.png;
#BACKGROUND:IMPACT-bg.png;
#CDTITLE:./CDTitles/CHUNITHM NEW.png;
#MUSIC:IMPACT.ogg;
#SAMPLESTART:101.714;
#SAMPLELENGTH:15;
#BPMS:0=210,108=105,124=210,328=105,332=210;
#STOPS:215.875=1.143;
#BGSTAGE:14;

//--------------- dance-single - Fred-104 ----------------
#NOTEDATA:;
#STEPSTYPE:dance-single;
#DESCRIPTION:Fred-104;
#DIFFICULTY:Beginner;
#METER:5;
#CREDIT:Fred-104;
#NOTES:
0000
0000
0000
0000
,
0000
0000
0000
0000
,
0000
0000
0000
0000
,
1000
0000
0000
0000
,
0001
0000
0000
0000
,
1000
0000
0100
0000
,
1000
1000
1000
0000
,
0001
0000
0000
0000
,
1000
0000
0000
0000
,
0010
0000
0100
0000
,
0001
0001
0001
0000
,
1000
0000
0100
0000
,
1000
0000
1000
0000
,
0001
0000
1000
0000
,
0001
0001
0001
0000
,
0010
0000
0100
0000
,
1000
0000
0001
0000
,
0200
0000
0000
0300
,
0020
0000
0000
0030
,
1000
1000
1000
0000
,
0001
0000
1000
0000
,
0100
0000
0100
0000
,
0020
0000
0030
0000
,
0001
0000
0001
0000
,
1000
0000
1000
0000
,
0001
0001
0001
0000
,
2000
0000
3000
0000
,
0001
0000
0010
0000
,
1000
0000
0100
0000
,
0001
0001
1000
1000
,
0001
1000
1001
0000
,
1000
0000
1000
0000
,
0001
0000
0001
0000
,
0100
0100
0100
0000
,
0010
0010
0010
0000
,
1000
0000
1000
0000
,
0001
0000
0020
0030
,
0100
0000
0100
0000
,
1000
0000
0002
0003
,
0001
0000
1000
0000
,
0001
0000
0100
0000
,
0001
0000
1000
0000
,
1000
0000
0000
0000
,
0001
0000
0000
0000
,
1000
0000
0000
0000
,
0001
0000
0001
0000
,
1000
1000
1000
1000
,
1001
0000
0000
0000
,
0000
0000
0000
0000
,
0000
0000
0000
0000
,
0000
0000
0000
0000
,
0001
0000
0000
0000
,
1000
0000
0000
0000
,
0001
0000
0000
0000
,
0000
0000
0000
0000
,
1000
0000
0001
0000
,
0100
0000
0000
0000
,
0002
0000
0000
0003
,
0000
1000
0000
1000
,
0000
0001
0000
0001
,
0000
1000
0000
0010
,
0020
0000
0000
0030
,
1000
0000
0000
0000
,
0001
0000
0000
0000
,
1000
0000
0000
0000
,
0100
0000
0000
0000
,
0010
0000
0000
0000
,
0001
0000
0001
0000
,
0001
0000
0000
0000
,
2000
0000
0000
3000
,
0001
0000
0000
0000
,
1000
0000
1000
0000
,
0001
0000
0000
0000
,
0100
0000
0000
0000
,
0100
0000
0000
0000
,
0001
0000
0000
0000
,
0001
0000
0001
0000
,
0002
0000
0000
0003
,
1000
0000
0000
0000
,
0001
0000
0000
0000
,
1000
0000
0001
0000
,
2002
0000
0000
0000
,
3003
0000
0000
0000
,
0001
0000
0001
0000
,
0010
0000
0000
0000
,
0100
0000
0100
0000
,
0010
0000
0000
0000
,
0001
0000
0001
0000
,
1000
0000
0000
0000
,
0010
0000
0010
0000
,
1000
0000
1000
0000
,
0001
0000
0000
0000
,
1000
0000
0100
0100
,
0100
0000
0010
0000
,
0001
0000
1000
1000
,
1000
0000
0001
0000
,
1000
0000
0001
0000
,
0100
0000
0000
0000
,
0002
0000
0000
0003
,
0000
1000
0000
1000
,
0000
0100
0000
0100
,
0000
0010
0000
0010
,
0000
0001
0000
0001
,
0001
0000
1000
0000
,
0001
0000
0010
0000
,
0200
0000
0000
0300
,
0020
0000
0000
0030
,
0001
0000
0001
0000
,
1000
0000
0000
0000
,
0010
0000
1000
0000
,
1000
0000
0000
0000
,
0001
0000
0001
0000
,
1000
0000
1000
0000
,
0001
0000
0001
0000
,
1001
0000
0000
0000
,
1000
0000
0001
0000
,
0010
0000
0010
0000
,
0002
0003
0001
0000
,
1000
1000
1000
0000
,
0001
0000
0000
0000
,
1000
0000
0000
0000
,
0001
0000
1000
0000
,
0001
0001
0001
0001
,
1001
0000
0000
0000
;

//--------------- dance-single - Fred-104 ----------------
#NOTEDATA:;
#STEPSTYPE:dance-single;
#DESCRIPTION:Fred-104;
#DIFFICULTY:Easy;
#METER:10;
#CREDIT:Fred-104;
#NOTES:
0000
0000
0000
0000
,
0000
0000
0000
0000
,
0000
0000
0000
0000
,
1000
0100
0010
0000
,
0001
1000
0010
0010
,
0100
0000
0001
0000
,
1000
0100
0001
0100
,
1000
0000
0010
0000
,
0100
0000
0001
0000
,
1000
0100
0010
0001
,
0100
0010
0100
0000
0001
1000
0001
0000
,
1001
0000
0000
1000
0000
0001
0000
0100
,
0000
0010
0100
0000
,
0001
0001
0000
0010
0000
0100
0000
1000
,
0000
0000
0001
0000
0100
0010
0100
0000
,
0001
0001
1000
1000
,
0100
0100
0010
0010
,
0001
0101
1000
1100
,
0002
0000
2000
3003
,
1000
1001
0001
0000
,
0010
0100
0100
1000
,
0001
0001
0100
0010
,
0100
0001
1001
0000
,
1000
0100
0001
0100
,
1000
0001
0100
0000
,
0001
1000
0001
0000
0100
0010
1000
0000
,
0002
0000
2000
3003
,
1000
0000
0100
0000
0010
0010
0010
0000
,
0001
0000
1000
0000
0010
0010
0010
0100
,
0001
0000
1000
0000
0100
0000
1000
1000
,
0001
0100
0110
1001
,
0001
0000
1000
0000
,
0010
0000
0100
0000
,
0001
0001
1000
1000
,
0200
0000
0020
0330
,
0001
0000
0010
0100
,
1000
0000
0001
0000
1000
0001
1000
0000
,
0100
0000
0010
0000
,
0001
1000
0020
0230
,
0301
0000
1000
0000
0100
0010
0200
0000
,
0320
0000
0130
0000
1000
0001
1000
0000
,
0001
0000
0100
0010
0100
0000
0001
0000
,
1000
1000
0001
0100
,
0110
0000
0100
0000
,
0001
1000
0100
0010
,
0001
1000
0010
0100
,
0001
0010
0001
0000
1000
0010
1000
0000
,
1001
0000
0000
0000
,
0000
0000
0000
0000
,
0000
0000
0000
0000
,
0000
0000
0000
0000
,
0001
0000
0000
0000
,
1000
0000
0000
0000
,
0001
0000
1000
0000
,
0001
0000
0010
0000
0000
0100
0100
0000
,
1000
0001
0100
0000
,
0010
0000
1000
0000
0000
0100
0100
0000
,
1000
0010
0100
0001
,
1000
0100
1000
0100
,
0001
0100
0001
0100
,
1000
0001
0100
0010
,
1000
0001
1000
0001
1000
0000
1001
0000
,
0001
0010
0100
0000
,
1000
0010
0100
0000
,
0001
0100
0010
0000
,
1000
0100
0010
0000
,
0001
1000
0010
0010
,
0100
0001
1000
1000
,
0100
0010
0001
1000
,
0001
0001
1000
1001
,
1000
0000
0100
0010
,
0001
1000
0010
0000
,
0100
0000
0010
0100
,
0001
1000
0010
0000
,
0100
0100
0001
0001
,
1000
0100
0010
0000
,
0001
0010
0100
1000
,
1001
0001
0100
0010
,
0110
0100
0001
0001
,
1000
1000
0100
0100
,
0010
0100
1000
0010
,
0100
0001
0100
0000
0010
1000
0010
0000
,
2002
0000
0000
0000
0000
0000
0000
3003
,
1000
0100
0010
0000
,
0001
1000
0010
0100
,
0001
0000
0000
1000
0000
0010
0000
1000
,
0000
0001
0010
0010
,
0100
1000
0010
0100
,
0010
1000
0100
0010
,
0001
2000
3002
0103
,
0010
0100
0010
0000
1000
0000
1001
0000
,
0001
0010
1000
0000
,
0001
0100
1000
0000
,
0001
0010
0100
0000
,
1000
0010
0100
0000
,
0010
1000
0100
0010
,
0100
1000
0010
0000
,
0100
0001
1000
0100
,
0010
0010
0001
0000
1000
0000
1001
0000
,
0001
0000
0000
0100
0010
0000
0100
0000
,
0001
1000
0100
0000
0010
0000
0000
0000
,
0100
0000
0000
1000
0010
0000
0100
0000
,
0001
1000
0100
0000
0010
0000
0001
0000
,
1000
0100
1000
0010
,
0100
0010
0100
0000
0001
0000
1000
0000
,
0100
0000
0010
0000
0001
0000
1000
0001
,
0100
0010
0100
0101
,
0001
0000
0000
1000
0000
1000
0000
0100
,
0000
0010
0100
1000
,
0001
0001
0000
0100
0000
0010
0000
1000
,
0000
0000
0001
0000
0010
0100
1000
0000
,
0001
0000
0000
0100
0000
0010
0100
0000
,
0001
1000
0001
0000
1000
0000
0100
0000
,
0010
0000
0100
1000
0100
0000
1000
0000
,
0002
0000
0203
0000
0310
1000
0010
0000
,
1001
0000
1100
0000
1000
0001
0100
0000
,
0010
0100
0010
0000
1000
0000
0001
0000
,
0010
0010
0010
0000
0100
0000
1000
0000
,
0001
1000
0001
0000
1000
0000
1001
0000
,
0001
0100
0110
0000
,
1000
0100
0110
0000
,
0001
0010
1000
0010
,
0001
0010
0100
0000
1000
0010
0100
0000
,
1001
0000
0000
0000
;

//--------------- dance-single - Fred-104 ----------------
#NOTEDATA:;
#STEPSTYPE:dance-single;
#DESCRIPTION:Fred-104;
#DIFFICULTY:Medium;
#METER:14;
#CREDIT:Fred-104;
#NOTES:
0000
0000
0000
0000
,
0000
0000
0000
0000
,
0000
0000
0000
0000
,
0001
0101
1000
1100
,
0110
0000
0011
0000
1001
0000
0001
1000
,
0001
1000
0010
1000
,
0001
0100
0010
0000
1000
0000
0001
0000
,
0010
0010
0100
0100
,
1000
1000
0001
0001
,
1000
0100
1000
0000
0001
0100
0001
0000
,
1000
0010
0100
0001
1000
0001
1000
0000
,
0011
0000
0001
1000
0000
1010
0000
0101
,
0000
1000
0010
0100
0001
0000
1000
0100
,
0010
0001
0000
0011
0000
1010
0000
0011
,
0000
1000
0001
0000
1000
0100
1000
1000
,
0001
0010
0100
0000
0100
0010
0001
0000
,
1000
0010
0100
0010
1000
1000
0001
0001
,
0010
0000
0110
0000
1000
0001
0100
0000
,
0001
0000
0100
0010
0100
0000
1001
0000
,
0110
1001
0001
0100
,
0010
1000
0001
0000
1001
0000
1000
0001
,
0010
0001
0100
0001
0010
0100
1000
0000
,
0001
0100
0010
0000
1010
0000
1001
0000
,
0001
0100
0001
0100
0010
1000
0001
0000
,
1000
0100
1000
0100
0010
0001
1000
0000
,
0001
0100
0010
1000
0010
0100
0001
0000
,
2000
0000
0002
3003
,
0001
0010
1010
0010
0001
0100
1100
0100
,
0001
1000
0001
0000
1000
0000
0100
0010
0001
1000
0000
0010
0000
0100
0010
0000
,
1000
0000
1100
0000
0001
0000
0101
0000
1000
0000
1001
0000
0001
1000
0001
1000
,
0010
0000
0110
0000
0100
0000
0101
0000
0011
0000
0110
0000
2002
0000
0000
3003
,
1100
0000
0001
1000
0010
0100
0001
0000
,
0100
0000
0100
0000
0010
1000
0010
1000
,
0001
0100
0001
1000
0100
0010
0001
1000
,
0010
0100
0010
0100
0002
0000
0000
0003
,
1001
0000
1000
0100
0010
0000
0011
0000
,
0101
0000
1010
0000
0001
0001
1000
1000
,
0100
0000
0010
0100
1000
0000
1001
0000
,
0110
0000
1000
0100
0020
0000
0032
0000
,
1003
0000
0001
1000
0010
0100
0020
0030
,
2200
3300
0101
0000
1000
0100
0010
0001
,
0100
0000
0010
1000
0001
0010
0100
0000
,
1100
0101
0011
1010
,
1000
0100
1000
0000
0001
0100
0001
0000
,
1000
0100
0010
0001
0010
0100
1000
0000
,
0001
0100
0001
0100
0010
1000
0010
1000
,
0001
0010
0100
1000
0010
0100
0001
0000
,
1001
0000
0000
0000
,
0000
0000
0000
0000
,
0000
0000
0000
0000
,
0000
0000
0000
0000
,
1000
0000
0000
0000
,
0001
0000
0000
0000
,
1000
0000
0001
0000
,
1000
0000
1100
0000
0000
0010
0001
0000
,
1000
0000
0001
0000
0100
0010
0100
0000
,
0010
0000
1010
0000
0000
1000
0100
0000
,
0010
0000
0100
0000
1000
0001
1000
0000
,
0001
0011
0010
0110
,
0100
1100
1000
1010
,
0110
0101
1100
0011
,
1000
0100
0010
0001
1000
0000
1001
0000
,
0001
0100
0001
0000
1000
0100
0010
0000
,
0100
1000
0001
0000
0100
0100
0100
0000
,
0010
1000
0010
0000
0100
0001
1000
0000
,
0100
0010
0001
0000
1000
0010
0100
0010
,
1000
0001
0010
0000
0100
0010
0001
0000
,
1000
0010
0100
0000
0010
1000
1000
0000
,
0110
0000
0001
0010
0100
1000
0001
0000
,
0011
0101
1010
1100
,
1001
0000
0001
0100
0010
0000
0110
0000
,
1000
0100
0010
0100
1000
0000
0001
0100
,
0010
0000
0100
0001
1000
0000
1001
0000
,
0001
0010
0100
1000
0001
0100
0010
0000
,
0100
0000
0001
1000
0100
0010
0100
0000
,
0010
0001
1000
0000
0010
0100
0001
0000
,
1000
0100
0001
0000
1000
0010
0001
0000
,
1001
0000
0001
1000
0010
0100
0001
0000
,
1100
0000
0100
0010
0001
0000
0011
0000
,
1010
0000
0101
0000
1100
0000
0001
1000
,
0001
0010
0001
0010
0100
1000
0100
1000
,
0001
0100
0010
1000
0001
0010
0100
0000
,
2200
0000
0000
0000
0000
0000
0000
3300
,
1000
0000
0000
0000
0001
0000
1000
0000
0010
0000
0000
0100
0000
0000
0100
0000
,
0001
0000
1000
0100
0010
0100
1000
0001
,
0100
0000
0010
0100
0000
0001
1000
0100
,
0000
0010
0001
0000
1000
0000
1001
0000
,
0001
0000
0100
0001
0000
1000
0001
0010
,
0000
0100
0010
0000
0001
0000
1000
0010
,
0100
0002
2003
3100
,
1000
0100
0001
0100
1000
0100
0010
0000
,
0001
0010
0100
0000
1000
0001
0100
0000
,
0010
1000
0001
0000
0011
0000
0010
0100
,
1000
0001
0100
0000
0010
1000
0010
0000
,
0100
0001
1000
0000
0200
0000
0320
0000
,
0032
0003
1001
0000
0001
1000
0100
0000
,
0010
0100
1000
0000
1000
0010
0200
0302
,
1003
0000
0100
0100
0010
0000
0011
0000
,
0001
0100
0000
1000
0000
0100
0002
0000
,
1003
0000
0100
0010
0001
0000
1000
0000
,
0010
1000
0200
0000
0010
0000
0310
0001
,
1000
0000
0001
1000
0010
0000
0100
0000
,
0001
0010
0200
0000
1000
0000
1300
0001
,
0100
0010
0100
0000
0010
1000
0001
0000
,
1000
0100
0010
0000
0011
0000
0001
1000
,
0001
0000
0100
0000
0110
0000
0010
1000
,
0001
0010
0100
1000
0001
1000
0001
0000
,
1000
1000
1000
0100
0000
0010
0000
0001
,
0000
1000
0010
0000
0100
0000
0100
0001
,
1000
1000
0000
0001
0000
0010
0100
0010
,
0001
0000
0000
0001
0000
0000
0010
0000
0100
0000
0000
1000
0000
0000
1000
0000
,
0001
0000
0100
0001
0000
0100
0010
1000
,
0001
0010
0200
0000
1000
0000
1300
0001
,
1000
0000
0001
0100
0010
1000
0001
0000
,
2000
0000
3200
0000
0310
0001
0010
0000
,
0011
0000
1001
0000
0001
1000
0010
0000
,
1000
0100
0010
0000
0010
0001
1000
0000
,
0001
0001
0001
0000
0100
0010
0100
0000
,
0001
1000
0001
0000
1000
0000
1001
0000
,
1000
0100
0110
0010
,
0001
1000
1001
0001
,
0100
0001
0100
0000
0010
1000
0010
0000
,
1000
0100
0010
0001
1000
0010
0100
0000
,
1001
0000
0000
0000
;

//--------------- dance-single - Fred-104 ----------------
#NOTEDATA:;
#STEPSTYPE:dance-single;
#DESCRIPTION:Fred-104;
#DIFFICULTY:Hard;
#METER:16;
#CREDIT:Fred-104;
#NOTES:
0000
0000
0000
0000
,
0000
0000
0000
0000
,
0000
0000
0000
0000
,
0001
0010
0000
0100
1000
0000
0000
0000
0001
0000
0000
0000
0100
0000
0000
0000
,
0010
0000
1000
0000
0001
0000
0100
1000
,
0100
0000
0010
1000
0001
0010
0100
0010
,
0100
1000
0001
0000
0100
0000
1001
0000
,
0001
0010
0100
1000
0100
0010
0001
1000
,
0010
0100
0010
1000
0001
0010
0100
0010
,
0001
0000
0100
0000
0010
0000
1000
0000
0001
1000
0001
1000
0001
1000
0001
1000
,
0100
0010
0001
0100
0010
1000
1001
0000
,
1100
0000
0100
0010
0000
0011
0000
1001
,
0000
0000
1000
0000
0010
0000
0100
0001
0100
0000
0000
0000
0001
0000
1000
0000
,
0100
0110
0000
0011
0000
1010
0000
0101
,
0000
1100
1001
0000
1000
0100
0010
0010
,
0001
1000
0010
0100
0001
1000
0100
0010
,
0100
0000
1000
0000
0010
0000
1000
0001
1000
0000
1000
0000
0100
0000
0100
0000
,
0010
0000
0000
0000
0011
0000
0000
0000
0001
0000
1000
0000
0010
0100
0010
0100
,
0002
0100
1003
1001
,
0110
0000
1001
0001
1000
0010
0100
0010
,
1000
0100
0010
0000
0011
0000
0001
1000
,
0010
0100
1000
0100
0010
1000
0100
0010
,
0001
1000
0010
0000
0110
0000
1001
0000
,
0001
0100
1000
0100
0001
1000
0001
0000
,
1000
0100
0001
0100
1000
0010
0001
0010
,
1000
0000
0001
0000
0010
0000
0100
0000
1000
0100
1000
0100
1000
0100
1000
0100
,
0010
0001
1000
0010
0100
0001
1001
0000
,
1100
0100
0110
0010
0011
0001
1001
1000
,
0001
0100
2000
0000
3200
0000
0301
1000
0100
0010
0001
0100
0010
1000
0002
0000
,
0013
0000
0110
0000
1000
0000
0100
0010
0000
0001
1000
0000
0010
0100
0010
0100
,
0001
0000
1001
0000
1000
0000
0100
0010
0011
0000
1010
0000
0220
0000
0000
0330
,
1001
0000
1000
0100
0010
0001
2000
0000
,
0010
0000
0001
0000
3100
0010
0001
1000
,
0010
0100
0010
0100
0001
1000
0001
1000
,
0100
0010
0100
0010
0100
0010
0100
0010
0001
1000
0001
1000
0001
0000
0100
0000
,
0110
0000
0010
1000
1001
0000
1100
0000
,
0110
0000
0000
0000
0011
0000
0001
0000
1000
0010
1000
0000
0001
0100
0001
0000
,
1000
0000
0100
0010
0011
0000
1001
0000
,
0101
0000
0001
1000
0220
0330
2002
3003
,
1010
0000
0010
0100
0101
0000
2200
3300
,
0200
0300
0020
0030
1001
0000
0000
0000
0001
0000
0001
0000
1000
0000
1000
0001
,
0100
0000
0000
0000
0010
0000
1000
0000
0001
0000
0010
0100
1000
0000
0001
0000
,
0101
1100
0011
1010
,
1000
0001
1000
0010
0100
0001
1000
0000
,
0100
0010
0001
1000
0010
0100
0001
0000
,
1000
0100
0010
0001
1000
0010
0100
0010
,
0100
0001
0100
0000
0010
1000
0010
0000
1000
0001
1000
0001
1000
0000
0000
0000
,
1001
0000
0000
0000
,
0000
0000
0000
0000
,
0000
0000
0000
0000
,
0000
0000
0000
0000
,
1000
0000
0000
0000
,
0100
0000
0000
0000
,
0010
0000
0001
0000
,
1001
0000
0001
0000
0000
0010
0010
0000
,
0110
0000
1000
0000
0010
0100
0001
0000
,
1001
0000
1000
0000
0000
0010
0010
0000
,
0100
0000
0101
0000
1000
0100
0010
0000
,
0001
0011
1000
1010
,
0001
0101
1000
1100
,
0011
1010
0101
1100
,
0001
0100
1000
0100
0010
0000
0110
0000
,
1000
0001
1000
0100
0010
0001
1000
0000
,
0001
0100
0010
0000
1000
1000
1001
0000
,
0001
1000
0100
0010
0100
1000
0010
0000
,
0100
0000
0001
0000
1000
0000
0000
0000
0100
0000
0010
0000
0001
0010
0001
0010
,
0100
1000
0001
0100
0010
1000
0001
0010
,
0100
0010
0001
1000
0010
0100
0101
0000
,
0110
0000
1000
0100
0001
0100
1000
0001
,
0101
1010
0011
1100
,
1001
0000
0001
0100
0010
0000
1001
0000
,
1000
0000
0100
0000
0010
0100
0010
0100
0010
0000
0001
0000
1000
0000
0001
0000
,
0101
0000
0000
0000
0001
1000
0001
0000
0010
0000
0100
0000
1000
0000
0001
0000
,
0100
0000
0010
0000
0100
0000
1000
0000
0100
0000
0001
0000
1000
0001
1000
0001
,
1000
0000
0000
0000
0100
0000
0010
0001
0010
0000
0100
0000
1000
0000
0000
0000
,
0001
0000
0100
0000
0010
1000
0010
0000
0100
0000
0001
0000
1000
0000
0000
0000
,
0001
0100
1000
0001
0010
1000
0001
0000
,
0110
0000
1000
0001
0100
0010
1000
0000
,
1001
0000
0001
0010
0010
0000
0110
0000
,
1100
0000
0000
0000
0101
0000
0000
0000
1001
0000
0000
0000
0001
0000
0100
0010
,
0100
0001
1000
0100
0010
0100
1000
0001
,
0100
0010
0100
0000
0001
1000
0001
0000
0010
0100
0010
0100
1000
0000
0001
0000
,
2002
0000
0000
0000
0000
0000
3003
0000
0001
1000
0100
0010
0001
0100
0020
0000
,
1030
0001
0100
0010
0100
0001
1000
0100
,
0010
0000
0001
0000
1000
0000
0010
0100
0010
0000
1000
0000
0001
0000
0010
0000
,
0001
0100
1000
0200
0000
0310
1000
0010
,
0100
0000
0001
0000
1000
0000
0100
0000
0010
0001
0000
0001
1000
0000
0001
0000
,
0100
0010
0100
0001
1000
0100
0001
0100
,
0010
0100
1000
0001
0100
0000
0001
0001
,
0001
1000
0020
0100
0230
0001
0301
0000
,
1000
0000
0100
0000
0001
0000
0100
0000
0010
0001
0000
0001
1000
0000
0000
0000
,
0001
0000
0100
0000
0110
0000
0000
0000
1000
0000
0001
0100
0001
0000
1000
0000
,
0100
0000
0010
0000
0001
0000
0000
0000
1001
0000
0000
0000
0001
0000
0100
0010
,
0100
0000
0001
0000
1000
0000
0000
0000
0100
0000
0010
0001
0010
0000
0100
0000
,
1000
0000
0001
0000
0101
0000
0000
0000
1000
0100
0000
0100
0010
0001
0010
0001
,
1000
0001
0000
0001
0100
0000
0000
0000
0010
0000
1000
0000
0001
0000
0010
0000
,
0100
0001
0100
0000
1000
0001
0200
0320
,
1030
0000
0000
0000
0001
0000
0001
0010
0100
0000
0000
0000
0110
0000
0000
0000
,
1000
0100
0001
1000
0010
0001
1000
0000
,
0001
0100
0010
0100
0001
1000
0100
0010
,
0001
0200
0010
0000
1000
0000
0301
1000
,
0100
0010
0001
1000
0010
0100
0001
1000
,
0100
0000
0020
0000
1000
0000
0000
0000
0031
1000
0000
1000
0010
0000
1000
0000
,
0001
0010
0100
1000
0001
0100
0010
1000
,
0100
0001
1000
0010
0001
0010
0100
1000
,
1001
0000
0001
0100
0110
0000
1000
0001
,
0010
0000
0100
1000
0100
0000
0010
0001
1000
0000
0010
0100
0001
0000
0000
0000
,
1000
0000
1000
0100
1000
0000
0100
0000
0001
0000
0100
0000
0010
0000
0001
0000
,
1000
0020
0100
0000
0031
0010
1000
0001
,
1000
0000
0001
0100
0001
0000
0010
0000
0100
0000
0010
0000
1000
0000
0010
0000
,
0001
0000
0000
0011
0000
0000
1000
0000
0010
0000
0000
0101
0000
0000
0010
1000
,
0001
0000
0000
0000
0010
0000
0010
0100
2000
0000
3002
0000
0203
0000
0320
0000
,
1030
0200
0001
0000
1000
0000
0310
0001
,
1000
0000
0000
0000
0001
0000
0100
0000
0110
0000
0010
1000
0010
0000
1000
0000
,
0001
0000
0010
0100
1000
0000
0001
1000
0010
0000
0100
0000
0101
0000
0000
0000
,
0110
0000
1000
0100
0010
0100
0001
0100
,
1000
0001
0010
0000
0100
1000
0001
0001
,
0001
0000
0100
0010
0100
0000
0001
0000
1000
0000
0100
0000
0010
0000
0001
0000
,
0100
0000
0020
0000
1000
0000
0000
0000
0130
0001
0000
0001
1000
0000
0100
0000
,
0110
0000
0010
0001
1000
0000
0001
0100
,
1000
0000
0100
0000
0001
0000
0000
0000
0110
0000
0000
0000
1000
0100
1000
0100
,
0010
0001
1000
0010
0100
0001
1000
0100
,
0010
0000
0100
0000
1000
0000
0010
0000
0100
0001
0100
0001
1000
0000
0000
0000
,
1001
0000
0000
0000
;

//--------------- dance-single - Fred-104 ----------------
#NOTEDATA:;
#STEPSTYPE:dance-single;
#DESCRIPTION:Fred-104;
#DIFFICULTY:Challenge;
#METER:17;
#CREDIT:Fred-104;
#NOTES:
0000
0000
0000
0000
,
0000
0000
0000
0000
,
0000
0000
0000
0000
,
0001
0010
0000
0010
0100
0000
0000
0000
1000
0000
0000
0000
1010
0000
0000
0000
,
0001
0000
0011
0000
0010
0000
0100
1000
,
0001
0000
0000
0000
1000
0000
0010
0000
0001
0000
0010
0000
1000
0001
1000
0000
,
0001
0100
0010
0000
1000
0001
1001
0000
,
1000
0100
0010
0001
1000
0010
0100
0000
,
0001
0000
0100
0000
0010
0000
0100
0000
0001
0000
0010
0000
0100
1000
0100
1000
,
0001
0000
1000
0000
0100
0000
0010
0000
0001
1000
0010
1000
0001
1000
0010
1000
,
0001
0010
0100
1000
0001
0010
0100
1000
0001
0000
1000
0000
1001
0000
0000
0000
,
2001
0000
3002
0023
0130
0020
1030
0020
,
0031
0000
2000
0000
3020
0000
0130
0001
0100
0000
0000
0000
0001
0000
0020
0000
,
0031
0002
1003
0020
0031
0020
0130
0020
,
1030
0000
0002
0000
0023
0000
0000
0000
0130
0000
1000
0000
0001
1000
0001
1000
,
0001
0000
0010
0000
0100
0000
1000
0000
0010
0100
0000
0010
1000
0000
0001
0000
,
0010
0000
0100
0000
0010
0000
0001
1000
0010
0000
0010
0000
0100
0000
0100
0000
,
0001
0000
1000
0000
0100
0000
0010
0000
0100
0000
1000
0000
0001
1000
0001
1000
,
0010
0000
0000
0010
0100
0000
0000
0100
0001
0000
0000
0000
1001
0000
0000
0000
,
1100
0000
0000
0000
0101
0000
0001
0000
1000
0000
0100
0000
0010
0000
0001
1000
,
0010
0200
0001
0000
1000
0000
0301
1000
,
0100
0000
0001
0000
0100
0000
1000
0000
0001
0010
0000
0001
1000
0000
0001
0000
,
0010
0000
0010
0000
0100
0000
0100
0000
0010
0000
0010
0001
1000
0000
0001
0000
,
0100
0010
0001
0010
0100
0010
1000
0000
,
0001
0000
0010
0000
0100
0000
1000
0000
0001
0100
0001
0100
0010
1000
0001
1000
,
0010
0000
0100
0000
0001
0000
1000
0000
0100
1000
0001
1000
0010
0100
0001
1000
,
0200
0000
0020
0330
,
2100
0000
3010
0000
0102
0000
0013
0000
1000
0100
0010
0000
0012
0000
1003
0000
,
0001
0010
2000
0000
3001
0000
0100
0010
0001
0100
0010
0001
1000
0100
0002
0000
,
1003
0000
1100
0000
0001
0000
0101
0100
0000
0010
1010
0000
0001
0001
0001
0001
,
0010
0000
0110
0000
1000
0000
1001
1000
1010
0000
0011
0000
2002
0000
0000
3003
,
0001
1000
0100
0010
0001
1000
1010
0000
,
0101
0000
0000
0000
1100
0000
0000
0000
0011
0000
0000
0001
0100
0010
0100
0010
,
1000
0001
0010
0100
1000
0001
0100
0010
,
1000
0100
1000
0100
0010
0001
0010
0001
1000
0010
0100
0001
1000
0000
0000
0000
,
0110
0000
0001
1000
1010
0000
0101
0000
,
1001
0000
0000
0000
1100
0000
0000
0000
0010
0001
0010
0001
0010
0100
0010
0100
,
0010
0000
0110
0010
0001
0000
0101
0000
,
1010
0000
0011
0000
2200
3300
2002
3003
,
1100
0000
0100
0010
0011
0000
2002
3003
,
0020
0000
0000
0030
0200
0000
0000
0300
1001
0000
0000
0000
0000
0000
0000
0000
0001
0000
0000
0000
0001
0000
0000
0000
0010
0000
0000
0000
0010
0000
0100
0000
,
1000
0000
0000
0000
0000
0000
0101
0000
0000
0100
0000
0000
0001
0000
0000
1000
0001
1000
0001
0000
0000
0010
0000
0000
,
0011
0000
0000
0000
2010
0000
0000
3000
1100
0000
0000
0000
0101
0000
0000
0000
,
0001
1000
0010
0100
0010
1000
0001
0010
,
0100
0001
0100
1000
0001
0100
1000
0000
,
0100
0010
1000
0001
0010
0100
1000
0001
,
1000
0010
0100
0010
1000
0010
0100
0010
1000
0001
0010
0100
1000
0000
0000
0000
,
1001
0000
0000
0000
,
0000
0000
0000
0000
,
0000
0000
0000
0000
,
0000
0000
0000
0000
,
1000
0000
0000
0000
,
0010
0000
0000
0000
,
0001
0000
0100
0000
,
1000
0000
1010
0000
0001
1000
0100
0000
,
0010
0000
0011
0000
0001
1000
0010
0010
,
0100
0000
0101
0000
1000
0100
0010
0000
,
0001
0000
1000
0000
0010
0000
0100
0000
1000
0000
0100
0000
0001
1000
0001
1000
,
0001
1000
1001
0001
0100
0010
1010
1000
,
0001
0000
0010
0000
0110
0000
0100
0000
1000
0000
0001
0000
0100
0010
0100
0010
,
0100
0010
1010
1000
0001
0010
0110
0100
,
1000
0000
0001
0100
0010
0000
1001
0000
,
0011
0001
1000
0010
0100
0001
1000
0000
,
0001
0010
0100
0000
1000
0010
0110
0000
,
1001
1000
0100
0010
0001
1000
0010
0000
,
1000
0000
0100
0000
0110
0000
0000
0000
0010
0000
0001
0000
1000
0010
1000
0010
,
0100
0001
1000
0001
0010
1000
0010
0000
,
0100
0010
0001
0100
0010
1000
1001
0000
,
0110
0000
0001
0100
1000
0100
0001
0000
,
0011
1010
1100
0101
,
1001
0000
1000
0100
0010
0001
0011
0000
,
0001
0000
0100
0000
0010
1000
0010
1000
0001
0000
1000
0000
0100
0000
0010
0000
,
0110
0000
0000
0000
0001
0000
1000
0001
1000
0010
0100
0001
1000
0000
0010
0000
,
1000
0000
0100
0000
0001
0000
0100
0000
0010
0000
0001
0000
1000
0001
1000
0001
,
0010
0000
0000
0000
0001
0000
1000
0010
0100
0001
1000
0000
0001
0000
0010
0000
,
0100
0000
1000
0000
0100
1000
0100
0010
0100
0000
0010
0000
0001
0000
1000
0000
,
0010
0100
1000
0001
0010
0100
0001
0000
,
2001
0000
3002
0000
2003
0000
3002
0003
,
1001
0000
0001
0100
0110
0000
1010
0000
,
0101
0000
0000
0000
1100
0000
0000
0000
0011
0000
0000
0000
1001
0000
1000
0001
,
0100
0010
1000
0001
0010
0100
0010
0001
,
1000
0010
1000
0010
0100
0001
0100
0001
1000
0100
0010
0001
1000
0100
0010
0000
,
2002
0000
0000
0000
0000
0000
0000
0000
0000
0000
0000
0000
3003
0000
0000
0000
0001
0010
0001
0000
1000
0000
0001
0100
0001
1000
0100
0010
0002
0000
0000
0000
,
1003
0000
0001
0000
0100
0000
0010
0000
1000
0000
0001
0010
0100
0000
0010
0000
,
0001
0000
1000
0000
0010
0000
0100
0001
1000
0000
0010
0000
0100
0000
0100
0000
,
0200
0301
2000
3200
0301
0200
0320
0230
,
2300
0000
3020
0000
0230
0000
0302
0000
1003
0001
0000
0001
1000
0000
0100
0000
,
0010
0000
0001
0000
1000
0000
0010
0000
0100
0000
0010
1000
0001
0000
0010
0000
,
0100
0010
0001
1000
0010
0100
0010
0010
,
0010
1000
0200
0010
0320
0001
0031
1000
,
0001
0000
0100
0000
1000
0000
0100
0000
0001
1000
0000
0100
0010
0000
0000
0000
,
0001
0000
0001
0000
1001
0000
1000
0000
0001
0100
0000
0010
1000
0000
0100
0000
,
0010
0000
0001
0000
1001
0000
0000
0000
1000
0000
0001
0000
0010
0000
0010
0001
,
0100
0000
0001
0000
1000
0000
0010
0000
0100
0001
0000
1000
0100
0000
0010
0000
,
0001
0000
1000
0000
1010
0000
0000
0000
0001
0010
0000
0100
1000
0100
1000
0100
,
0010
0001
0000
0001
1000
0000
0000
0000
0002
0000
2003
0000
3020
0000
0130
0000
,
0002
0023
0230
0301
0200
0310
0002
2003
,
3010
0000
0000
0000
0100
0000
0100
0001
0010
0000
0000
0000
0110
0000
0000
0000
,
1000
0000
0100
0000
0001
0000
0100
0000
0010
0001
0010
0001
1000
0000
0000
0000
,
0001
0000
0010
0000
0100
0000
1000
0001
0100
0000
0010
0000
1000
0000
0000
0000
,
0001
0020
0100
0000
0001
0000
0130
1000
,
0001
0000
0100
0000
0010
0000
1000
0001
0010
0000
0100
0000
0010
0000
0000
0000
,
0001
0000
1000
0000
0200
0000
0000
0000
0310
0100
0000
1000
0010
0000
0100
0000
,
0001
1000
0100
0001
0100
0010
0001
1000
,
0010
0000
0100
0000
1000
0000
0100
0000
0001
0000
1000
0000
0100
0010
0100
0010
,
0001
0000
0001
0100
0110
0000
1000
0100
,
0110
0000
0010
0001
0010
0000
0001
1000
0001
0000
0100
0010
1000
0000
0000
0000
,
1001
0000
0001
1000
0002
0000
0023
0000
0130
0000
0020
0000
1030
0000
0020
0000
,
0031
2000
3020
0000
0130
0100
0001
0001
,
1000
0000
0100
0010
0100
0000
0002
0000
0103
0000
2000
0000
3001
0000
0200
0000
,
0301
0000
1000
0100
0010
0000
0001
0000
0100
0010
0000
1000
0002
0000
1003
0001
,
1000
0000
0000
0000
0101
0000
0001
1000
0100
0000
0010
0000
0011
0000
0001
0000
,
1000
0020
0001
0000
0100
0000
1030
0001
,
1000
0000
0100
0000
0010
0000
0001
0000
0100
0000
0010
1000
0001
0000
1000
0000
,
0010
0000
0100
0001
1000
0000
0001
0010
0100
0000
1000
0100
0010
0000
0000
0000
,
0011
0000
1001
1000
0010
0100
1000
0001
,
0010
1000
0001
0000
1000
0010
0100
0100
,
0100
0000
0000
0001
1000
0001
1000
0000
0000
0002
0000
0000
1003
0000
0000
0200
0000
0000
0301
0000
0000
0200
0000
0000
,
0310
0000
0002
0000
2003
0000
0000
0000
3001
0100
0000
0010
1000
0000
0001
0000
,
0011
0000
0100
1000
1010
0000
0001
1000
,
0100
0000
0010
0000
0100
0000
0000
0000
1100
0000
0000
0000
0001
1000
0001
1000
,
0020
0130
0001
1000
0200
0310
0100
1000
,
0002
0000
0103
0000
2000
0000
3100
0000
0010
1000
0010
1000
0001
0000
0000
0000
,
1001
0000
0000
0000
;

//--------------- dance-double - Fred-104 ----------------
#NOTEDATA:;
#STEPSTYPE:dance-double;
#DESCRIPTION:Fred-104;
#DIFFICULTY:Easy;
#METER:10;
#CREDIT:Fred-104;
#NOTES:
00000000
00000000
00000000
00000000
,
00000000
00000000
00000000
00000000
,
00000000
00000000
00000000
00000000
,
00010000
10000000
00100000
00000000
,
10000000
01000000
00100000
00100000
,
00001000
00000000
00010000
00000000
,
00001000
00010000
00100000
00010000
,
00001000
00000000
00010000
00000000
,
00000010
00000000
00010000
00000000
,
00001000
00010000
00000010
00001000
,
00000001
00000100
00001000
00010000
,
00011000
00000000
00000000
00001000
00000000
00100000
00000000
00001000
,
00000000
00010000
00001000
00000000
,
01000000
01000000
00000000
00010000
00000000
10000000
00000000
01000000
,
00000000
00000000
00100000
00000000
00001000
00010000
00001000
00000000
,
00010000
00010000
00001000
00001000
,
00000100
00000100
00000001
00000001
,
00001000
00000010
00010000
00001000
,
02000000
00000000
00200000
03300000
,
10000000
10010000
00010000
00000000
,
00100000
01000000
00100000
00001000
,
00010000
00010000
00001000
00010000
,
00000010
00001000
00001001
00000000
,
00000001
00000100
00001000
00010000
,
00100000
10000000
01000000
00010000
,
00001000
00000010
00000001
00001000
,
00000002
00000000
00002000
00003003
,
00000001
00000000
00000100
00000000
00001000
00001000
00001000
00000000
,
00010000
00000000
00100000
00000000
01000000
01000000
01000000
00010000
,
10000000
00000000
01000000
00000000
00100000
00000000
00001000
00001000
,
00010000
00001000
00011000
01001000
,
00001000
00000000
00010000
00000000
,
00100000
00000000
01000000
00000000
,
00010000
10000000
01000000
00100000
,
00002000
00000000
00020000
00033000
,
00010000
00000000
00001000
00000100
,
00000010
00000000
00001000
00000000
00000001
00000010
00000001
00000000
,
00000010
00000000
00000100
00000000
,
00010000
00001000
00020000
00032000
,
00013000
00000000
00100000
00000000
01000000
00100000
02000000
00000000
,
03020000
00000000
10030000
00000000
01000000
00100000
01000000
00000000
,
00100000
00000000
00001000
00010000
00001000
00000000
00010000
00000000
,
00001000
00010000
00000010
00001000
,
00001001
00000000
00000001
00000000
,
00000100
00000000
00001000
00000000
,
00010000
01000000
10000000
01000000
,
00100000
00001000
00010000
00000000
00000010
00001000
00000001
00000000
,
00001001
00000000
00000000
00000000
,
00000000
00000000
00000000
00000000
,
00000000
00000000
00000000
00000000
,
00000000
00000000
00000000
00000000
,
00000001
00000000
00000000
00000000
,
00000010
00000000
00000000
00000000
,
00001000
00000000
00010000
00000000
,
00001000
00000000
00010000
00000000
00000000
00001000
00001000
00000000
,
00010000
01000000
10000000
00000000
,
01000000
00000000
00100000
00000000
00000000
00001000
00001000
00000000
,
00010000
00001000
00000100
00001000
,
00010000
00001000
00000100
00001000
,
00010000
00001000
00000100
00000001
,
00001000
00000100
00000010
00000001
,
00000100
00000010
00000100
00000010
00000100
00000000
00001001
00000000
,
00000001
00000100
00001000
00000000
,
00010000
00100000
10000000
00000000
,
10000000
01000000
00010000
00000000
,
00001000
00000010
00000001
00000000
,
00001000
00000001
00000010
00000010
,
00000100
00010000
00001000
00001000
,
00010000
00100000
01000000
00010000
,
10000000
01000000
00100000
00110000
,
10000000
00000000
00100000
10000000
,
01000000
00100000
00001000
00000000
,
00010000
00000000
00001000
00000100
,
00001000
00010000
00001000
00000000
,
00010000
00010000
00001000
00001000
,
00010000
00000010
00010000
00000000
,
00001000
00010000
00100000
01000000
,
01010000
00010000
10000000
01000000
,
01100000
00000000
00001000
00000000
,
00010000
00000000
00001000
00000000
,
00010000
00001000
00000010
00000100
,
00001000
00000001
00001000
00000000
00000010
00000100
00000010
00000000
,
00002002
00000000
00000000
00000000
00000000
00000000
00000000
00003003
,
00000001
00000100
00001000
00000000
,
00010000
00100000
01000000
00100000
,
10000000
00000000
00000000
01000000
00000000
00100000
00000000
00001000
,
00000000
00010000
00001000
00001000
,
00010000
00001000
00000100
00000010
,
00001000
00010000
01000000
00100000
,
10000000
02000000
03200000
00301000
,
00010000
00001000
00010000
00000000
00001000
00000000
00011000
00000000
,
00001000
00010000
00100000
00000000
,
01000000
00010000
10000000
00000000
,
01000000
00010000
00001000
00000000
,
00000100
00000001
00000010
00000000
,
00000100
00010000
00001000
00100000
,
00001000
00010000
00001000
00000000
,
10000000
01000000
00100000
00001000
,
00010000
00010000
00001000
00000000
00010000
00000000
00011000
00000000
,
00001000
00000000
00000000
01000000
00010000
00000000
10000000
00000000
,
01000000
00100000
00001000
00000000
00010000
00000000
00000000
00000000
,
00001000
00000000
00000000
00010000
00000010
00000000
00001000
00000000
,
00000100
00000010
00000001
00000000
00000100
00000000
00001000
00000000
,
00010000
00001000
00010000
01000000
,
00100000
01000000
00100000
00000000
00010000
00000000
10000000
00000000
,
00100000
00000000
00010000
00000000
00001000
00000000
00010000
00001000
,
00010000
00001000
00010000
00011000
,
00010000
00000000
00000000
00000010
00000000
00000010
00000000
00001000
,
00000000
00000001
00000010
00000100
,
00010000
00010000
00000000
00001000
00000000
01000000
00000000
00001000
,
00000000
00000000
00010000
00000000
00001000
00100000
00010000
00000000
,
10000000
00000000
00000000
00100000
00000000
01000000
00001000
00000000
,
00010000
00000100
00010000
00000000
00001000
00000000
00010000
00000000
,
00000100
00000000
00001000
00000100
00000010
00000000
00000001
00000000
,
00000200
00000000
00002300
00000000
00013000
00001000
00010000
00000000
,
00011000
00000000
01001000
00000000
00001000
01000000
00010000
00000000
,
10000000
01000000
00100000
00000000
00001000
00000000
00010000
00000000
,
00001000
00001000
00001000
00000000
00010000
00000000
00001000
00000000
,
00000100
00000010
00001000
00000000
00000100
00000000
00000110
00000000
,
00000001
00000100
00000110
00000000
,
00010000
00001000
00101000
00000000
,
00001000
00010000
00100000
10000000
,
01000000
00000000
00010000
00000000
00001000
00010000
00001000
00000000
,
00011000
00000000
00000000
00000000
;

//--------------- dance-double - Fred-104 ----------------
#NOTEDATA:;
#STEPSTYPE:dance-double;
#DESCRIPTION:Fred-104;
#DIFFICULTY:Medium;
#METER:14;
#CREDIT:Fred-104;
#NOTES:
00000000
00000000
00000000
00000000
,
00000000
00000000
00000000
00000000
,
00000000
00000000
00000000
00000000
,
00001000
00001010
00000001
00000101
,
00001000
00000000
00001100
00000000
00000100
00000000
00010000
00001000
,
00010000
00001000
00010000
00100000
,
01000000
00010000
10000000
00000000
01000000
00000000
00100000
00000000
,
00001000
00001000
00010000
00010000
,
01000000
01000000
00100000
00100000
,
00010000
10000000
00100000
00000000
01000000
00001000
00010000
00000000
,
00001000
00000010
00000001
00000010
00000100
00010000
00001000
00000000
,
00011000
00000000
00001000
00010000
00000000
00101000
00000000
00010010
,
00000000
00001000
00010000
00100000
01000000
00000000
00010000
10000000
,
01000000
00100000
00000000
00110000
00000000
00101000
00000000
00011000
,
00000000
00010000
00000010
00000000
00001000
00000001
00000100
00000100
,
00000001
00000010
00000100
00000000
00010000
00001000
00010000
00000000
,
00001000
00010000
00100000
10000000
00100000
10000000
01000000
01000000
,
00100000
00000000
00110000
00000000
00001000
00010000
00001000
00000000
,
00010000
00100000
10000000
10010000
,
11000000
01010000
10000000
01000000
,
00010000
00001000
00011000
00000000
00010010
00000000
00001000
00010000
,
00100000
01000000
00010000
10000000
01000000
00010000
00001000
00000000
,
00010000
00001000
00000010
00000000
00000011
00000000
00001001
00000000
,
00000001
00000100
00001000
00000000
00010000
01000000
10000000
00000000
,
10000000
00100000
00010000
00000000
00001000
00000010
00000001
00000000
,
00000001
00000010
00000100
00010000
00001000
00100000
00010000
10000000
,
00020000
00000000
20000000
30030000
,
10000000
01000000
01100000
00000000
00001000
00010000
00010010
00000000
,
00010000
00001000
00010000
00000000
00000100
00000000
00001000
00000100
00000010
00000001
00000000
00000100
00000000
00001000
00010000
00000000
,
00001000
00000000
01001000
00000000
00010000
00000000
00010100
00000000
00001000
00000000
00011000
00000000
00001000
00010000
00100000
10000000
,
00100000
00000000
01010000
00000000
10000000
00000000
01100000
00000000
00001000
00000000
00010000
00000000
00022000
00000000
00000000
00033000
,
00010010
00000000
00010000
00001000
00000100
00000001
00001000
00000000
,
00000100
00000000
00000100
00000000
00000010
00000001
00001000
00000001
,
00000100
00001000
00010000
01000000
10000000
00010000
00100000
01000000
,
10000000
01000000
10000000
01000000
00200000
00000000
00000000
00300000
,
00011000
00000000
00001000
00010000
00001000
00000000
01001000
00000000
,
00010100
00000000
00011000
00000000
00010000
00010000
00001000
00001000
,
00010000
00000000
00000100
00001000
00000001
00000000
00000110
00000000
,
00001001
00000000
00000001
00000100
00002000
00000000
00023000
00000000
,
00031000
00000000
00010000
00001000
00000100
00000001
00000020
00000030
,
00000220
00000330
00001001
00000000
00000001
00000100
00001000
00010000
,
00001000
00000000
00010000
01000000
00100000
00010000
00100000
00000000
,
01100000
11000000
01010000
10010000
,
10000000
00100000
00010000
00001000
,
00010000
00001000
00000100
00000001
,
00001000
00000100
00000010
00000001
00001000
00000010
00000100
00001000
,
00010000
00100000
10000000
00010000
00100000
00000000
01000000
00000000
,
10010000
00000000
00000000
00000000
,
00000000
00000000
00000000
00000000
,
00000000
00000000
00000000
00000000
,
00000000
00000000
00000000
00000000
,
10000000
00000000
00000000
00000000
,
01000000
00000000
00000000
00000000
,
00010000
00000000
00001000
00000000
,
00010000
00000000
00011000
00000000
00000000
00001000
00001000
00000000
,
01000000
00000000
00010000
00000000
10000000
01000000
00100000
00000000
,
00001000
00000000
00011000
00000000
00000000
00010000
00010000
00000000
,
00001000
00000000
00010000
00000000
00000100
00001000
00000100
00000000
,
00001000
00000001
00001000
00000000
00001000
00000010
00001000
00000000
,
00000100
00010000
00000100
00000000
00000100
00001000
00000100
00000000
,
00010000
00001000
00010000
00000000
00010000
00000010
00010000
00000000
,
00001000
00010000
00100000
10000000
00010000
00000000
10010000
00000000
,
10000000
01000000
00100000
00000000
00001000
00010000
00001000
00000000
,
00010000
00000100
00001000
00000000
00000100
00000100
00000100
00000000
,
00000010
00000001
00001000
00000000
00000010
00000100
00001000
00000000
,
00010000
00100000
10000000
00000000
00010000
10000000
00010000
10000000
,
01000000
00100000
00001000
00000000
00010000
00000100
00001000
00000000
,
00000100
00000010
00000001
00000000
00000100
00000010
00000100
00000000
,
00001001
00000000
00000001
00000010
00001000
00010000
00001000
00000000
,
00011000
01010000
11000000
10010000
,
11000000
01000000
00100000
00001000
,
00010000
00001000
00000010
00001000
00010000
00000000
00001000
01000000
,
00001000
00010000
00100000
01100000
,
00010000
10000000
01000000
00100000
00001000
00010000
00001000
00000000
,
00010000
00000000
00001000
00000010
00000100
00001000
00000001
00000000
,
00000100
00000010
00001000
00000000
00000001
00000010
00000100
00000000
,
00010000
00001000
00000100
00000010
,
00011000
00000000
00001000
00010000
01000000
00100000
00010000
00000000
,
10100000
00000000
00100000
10000000
01000000
00000000
01100000
00000000
,
00101000
00000000
00011000
00000000
00010010
00000000
00010000
00001000
,
00010000
00001000
00000100
00000010
00001000
00000100
00000010
00000001
,
00000100
00001000
00010000
00100000
01000000
00010000
10000000
00000000
,
02200000
00000000
00000000
00000000
00000000
00000000
00000000
03300000
,
00010000
00000000
00000000
00000000
10000000
00000000
01000000
00000000
00100000
00000000
00000000
00001000
00000000
00000000
00001000
00000000
,
00010000
00000000
00001000
00010000
00000010
00001000
00000001
00000010
,
00000100
00000000
00010000
00001000
00000000
00000100
00000001
00001000
,
00000000
00000100
00000010
00000000
00000001
00000000
00001001
00000000
,
00000001
00000000
00000100
00001000
00000000
00010000
00100000
01000000
,
00000000
00100000
10000000
00000000
01000000
00000000
00100000
00001000
,
00010000
00002000
00023000
00031000
,
00010000
00001000
00010000
00001000
00000100
00000001
00000100
00000000
,
00000001
00001000
00000100
00000000
00010000
00001000
01000000
00000000
,
00010000
00100000
01000000
00000000
11000000
00000000
10000000
00100000
,
00010000
00001000
00010000
00000000
00001000
00010000
00000100
00000000
,
00010000
00000100
00001000
00000000
00000200
00000000
00000320
00000000
,
00000032
00000003
00001001
00000000
00000001
00000100
00001000
00000000
,
00010000
01000000
10000000
00000000
01000000
00100000
00002000
00023000
,
00031000
00000000
00010000
00010000
00001000
00000000
00011000
00000000
,
00001000
00010000
00000000
00100000
00000000
10000000
00020000
00000000
,
01030000
00000000
00001000
00010000
00001000
00000000
00000010
00000000
,
00000001
00000010
00000200
00000000
00001000
00000000
00001300
00000010
,
00010000
00000000
00001000
01000000
00010000
00000000
10000000
00000000
,
01000000
00100000
00002000
00000000
00010000
00000000
00013000
00001000
,
00010000
00100000
01000000
00000000
00100000
10000000
00010000
00000000
,
10000000
01000000
00100000
00000000
00101000
00000000
00001000
00010000
,
00001000
00000000
00010000
00000000
00010010
00000000
00001000
00010000
,
00001000
00010000
00000100
00001000
00000001
00000100
00000010
00000000
,
00000100
00000100
00000100
00000001
00000000
00001000
00000000
00000100
,
00000000
00010000
00001000
00000000
00010000
00000000
00001000
00010000
,
00100000
00100000
00000000
01000000
00000000
00010000
10000000
01000000
,
00100000
00000000
00000000
00001000
00000000
00000000
00000010
00000000
00000100
00000000
00000000
00001000
00000000
00000000
00000001
00000000
,
00000100
00000000
00001000
00010000
00000000
00001000
00010000
01000000
,
10000000
00100000
02000000
00000000
00100000
00000000
03100000
10000000
,
01000000
00000000
00100000
00001000
00010000
00001000
00000010
00000000
,
00000002
00000203
00001300
00010000
,
00011000
00000000
01001000
00000000
00001000
00010000
01000000
00000000
,
00100000
00010000
10000000
00000000
00100000
00010000
00001000
00000000
,
00010000
00010000
00010000
00000000
00001000
00010000
00000010
00000000
,
00001000
00000001
00000010
00000000
00000100
00000000
00001100
00000000
,
00000001
00000100
00000110
00010000
,
00001000
01000000
01100000
00010000
,
10000000
01000000
00010000
00000000
00001000
00000010
00000001
00000000
,
00001000
00000001
00000100
00001000
00010000
00100000
10000000
00000000
,
10010000
00000000
00000000
00000000
;

//--------------- dance-double - Fred-104 ----------------
#NOTEDATA:;
#STEPSTYPE:dance-double;
#DESCRIPTION:Fred-104;
#DIFFICULTY:Hard;
#METER:16;
#CREDIT:Fred-104;
#NOTES:
00000000
00000000
00000000
00000000
,
00000000
00000000
00000000
00000000
,
00000000
00000000
00000000
00000000
,
10000000
00010000
00000000
00010000
10000000
00000000
00000000
00000000
01000000
00000000
00000000
00000000
00100000
00000000
00000000
00000000
,
00001000
00000000
00010000
00000000
00001000
00000000
00000100
00000001
,
00001000
00000000
00000100
00000010
00000001
00000100
00001000
00010000
,
00001000
01000000
00100000
00000000
10000000
00000000
10010000
00000000
,
10000000
01000000
00100000
00000000
00001000
00010000
00001000
00000000
,
00010000
00001000
00000100
00000001
00001000
00000100
00000010
00000000
,
00000001
00001000
00000010
00000100
00001000
00010000
00100000
10000000
,
00010000
00100000
01000000
00010000
00001000
00010000
00011000
00000000
,
00010010
00000000
00010000
00000100
00000000
00001100
00000000
00001001
,
00000000
00000000
00000001
00000000
00000100
00000000
00001000
00010000
00001000
00000000
00000000
00000000
00010000
00000000
01000000
00000000
,
00100000
00110000
00000000
10100000
00000000
01010000
00000000
11000000
,
00000000
00100000
00110000
00000000
00100000
00001000
00010000
00010000
,
00000010
00001000
00000100
00000010
00000001
00000100
00001000
00010000
,
00001000
00000000
00100000
00000000
00010000
00000000
10000000
01000000
10000000
00000000
00010000
00000000
01000000
00000000
00001000
00000000
,
00010000
00000000
00000000
00000000
00011000
00000000
00000000
00000000
00010000
00000000
00001000
00000000
00000100
00000001
00000100
00000001
,
00002000
00000100
00003001
00001001
,
00001100
00000000
00000101
00000001
00001000
00000010
00000100
00001000
,
00010000
00100000
10000000
00100000
01000000
00000000
00001000
00010000
,
00001000
00100000
00010000
00001000
00010000
00100000
00001000
00010000
,
00001000
00000100
00000010
00000000
00000110
00000000
00001001
00000000
,
00000001
00000100
00001000
00010000
01000000
10000000
01000000
00000000
,
10000000
00010000
01000000
00001000
00010000
00000100
00000010
00000001
,
00001000
00000000
00000010
00000000
00000100
00000000
00001000
00000000
00010000
00001000
00010000
00001000
00010000
00001000
00010000
00001000
,
00020000
00000000
00002000
00033000
,
00012000
00103000
00021000
00030010
00012000
00103000
00021000
00031000
,
01000000
00010000
20000000
00000000
32000000
00000000
03100000
00001000
00010000
00001000
00000010
00000100
00001000
00000010
00000200
00000000
,
00000301
00000000
00000101
00000000
00001000
00000000
00000100
00000010
00000000
00001000
00010000
00000000
00001000
00010000
00100000
01000000
,
00010000
00000000
01010000
00000000
10000000
00000000
01000000
00100000
00001000
00000000
00010000
00000000
00022000
00000000
00000000
00033000
,
00010000
00001000
00000100
00000001
00001000
00000100
00000020
00000000
,
00000001
00000000
00000000
00000000
00000100
00000000
00000000
00000000
00001000
00000000
00000000
00000000
00000031
00001000
00000001
00001000
,
00000001
00001000
00000010
00010000
00001000
00100000
00010000
10000000
,
01000000
00100000
01000000
00100000
00001000
00010000
00001000
00010000
00001000
00000000
01000000
00000000
00001000
00000000
00010000
00000000
,
00011000
00000000
00001000
01000000
01010000
00000000
10100000
00000000
,
11000000
00000000
00000000
00000000
00110000
00000000
00000000
00000000
00100000
00000000
00001000
00000000
00010000
00001000
00010000
00001000
,
00010000
00000000
00001000
00010000
00010100
00000000
01001000
00000000
,
00011000
00000000
00010000
00000100
00002200
00003300
00000202
00000303
,
00001001
00000000
00000001
00000100
00000110
00000000
00022000
00033000
,
02000000
03000000
00200000
00300000
10010000
00000000
00000000
00000000
10000000
00000000
10000000
00000000
00010000
00000000
00010000
10000000
,
01000000
00000000
00000000
00000000
00100000
00000000
00001000
00000000
00010000
00000000
00000010
00001000
00000010
00000000
00010000
00000000
,
00011000
00010010
00011000
01001000
,
00010000
00001000
00000100
00000001
00001000
00000100
00000010
00000000
,
00000001
00000100
00000010
00000100
00001000
00010000
00100000
00000000
,
01000000
00010000
10000000
00010000
00100000
00001000
00010000
00100000
,
01000000
00010000
01000000
00010000
10000000
01000000
10000000
01000000
00100000
00000000
00000000
00000000
00001000
00000000
00000000
00000000
,
00011000
00000000
00000000
00000000
,
00000000
00000000
00000000
00000000
,
00000000
00000000
00000000
00000000
,
00000000
00000000
00000000
00000000
,
10000000
00000000
00000000
00000000
,
00100000
00000000
00000000
00000000
,
01000000
00000000
00001000
00000000
,
00010000
00001000
00000010
00000100
00001000
00000001
00000100
00000000
,
00000010
00001000
00000001
00000010
00001000
00010000
00001000
00000000
,
00010000
00100000
01000000
00001000
00010000
01000000
10000000
00000000
,
01000000
00100000
00001000
00010000
00100000
01000000
00010000
10000000
,
01000000
00011000
00000100
00011000
,
00100000
00011000
00000010
00011000
,
00001000
00010000
00100000
00000000
01000000
00010000
10000000
00000000
,
01000000
00100000
00001000
00010000
00001000
00000000
00011000
00000000
,
00010000
00000100
00001000
00000001
00000100
00001000
00010000
00000000
,
00100000
01000000
00010000
00000000
10000000
01000000
01100000
00000000
,
10000000
00100000
00010000
00001000
00000100
00000010
00000100
00000000
,
00000001
00000000
00001000
00000000
00000100
00000000
00000000
00000000
00010000
00000000
00010000
00000000
00001000
00010000
00001000
00010000
,
00001000
00010000
00100000
01000000
00100000
10000000
00010000
10000000
,
01000000
00100000
00001000
00010000
00000010
00001000
00001001
00000000
,
00000110
00000000
00000001
00000100
00001000
00010000
00001000
00000000
,
00011000
00010100
00011000
00101000
,
00011000
00000000
00001000
00010000
00100000
00000000
10000000
00000000
,
01000000
00000000
00100000
00000000
00001000
00010000
00001000
00000000
00000010
00000000
00000100
00000000
00001000
00000000
00010000
00000000
,
00100000
00000000
01000000
10000000
00100000
00010000
00001000
00000000
,
00010000
00000000
00001000
00000000
00000100
00000000
00000001
00000000
00000010
00000000
00000100
00000000
00001000
00000001
00001000
00000001
,
00000100
00000000
00000000
00000000
00000010
00000000
00001000
00000001
00001000
00000000
00000100
00000000
00010000
00000000
00000000
00000000
,
00001000
00010000
01000000
00100000
00001000
00010000
00100000
10000000
,
00010000
00100000
01000000
00010000
00001000
00000010
00000100
00000000
,
00001100
00000000
00000001
00000100
00000010
00001000
00000001
00000000
,
00001001
00000000
00000001
00000100
00001000
00010000
00011000
00000000
,
00101000
00000000
00000000
00000000
00010010
00000000
00000000
00000000
00011000
00000000
00000000
00000000
00001000
00000000
01000000
00010000
,
10000000
00010000
00100000
01000000
00010000
00001000
00000010
00000100
,
00001000
00000001
00001000
00000000
00000001
00000100
00000001
00000000
00001000
00000100
00001000
00000100
00010000
00000000
00001000
00000000
,
00022000
00000000
00000000
00000000
00000000
00000000
00033000
00000000
00001000
00010000
01000000
00100000
00010000
10000000
00200000
00000000
,
10300000
00010000
00100000
10000000
00100000
01000000
00010000
00001000
,
00000010
00000100
00000001
00000100
00001000
00000001
00000100
00000010
,
00001000
00000010
00000100
00002000
00000000
00013000
00100000
01000000
,
00010000
00000000
10000000
00000000
01000000
00000000
00100000
00000000
00001000
00010000
00000000
00010000
00001000
00000000
00010000
00000000
,
00000100
00000010
00001000
00010000
01000000
00100000
00010000
01000000
,
00100000
00010000
00001000
00000100
00000010
00000000
00001000
00001000
,
00001000
00000001
00000020
00000000
00000230
00000000
00001300
00000000
,
00000100
00000000
00010000
00000000
00001000
00000000
00010000
00000000
00100000
01000000
00000000
01000000
00010000
00000000
00000000
00000000
,
10000000
00000000
01000000
00000000
01100000
00000000
00000000
00000000
00100000
00000000
00001000
00010000
00001000
00000000
01000000
00000000
,
00001000
00010000
00000100
00000010
00000100
00001000
00010000
00100000
,
01000000
10000000
00010000
01000000
00100000
00010000
00001000
00000100
,
00000010
00000000
00001000
00000000
00001001
00000000
00000000
00000000
00000001
00000010
00000000
00000010
00000100
00001000
00000100
00001000
,
00000100
00010000
00000000
00010000
00001000
00000000
00000000
00000000
00010000
00000000
00001000
00000000
00000100
00000000
00000001
00000000
,
00000100
00001000
00010000
00000000
00001000
00010000
02000000
03200000
,
00310000
00000000
00000000
00000000
00100000
00000000
00001000
00010000
00001000
00000000
00000000
00000000
00011000
00000000
00000000
00000000
,
00010000
00000010
00010000
00011000
,
00001000
00010000
01000000
00100000
00010000
10000000
00100000
00000000
,
10000000
02000000
00100000
00000000
10000000
00000000
03100000
00010000
,
10000000
00100000
00010000
00001000
00000100
00000010
00001000
00000000
,
00000001
00000020
00001000
00000000
00000100
00000000
00000031
00001000
,
00000010
00000100
00001000
00010000
00001000
01000000
00010000
00100000
,
01000000
00100000
00010000
10000000
01000000
00010000
00001000
00010000
,
00011000
00000000
00001000
00010000
00010010
00000000
01001000
00000000
,
00001000
00000000
00100000
00010000
10000000
00000000
00100000
01000000
00010000
00000000
10000000
01000000
00100000
00000000
00000000
00000000
,
00001000
00000000
00001000
00010000
00001000
00000000
00010000
00000000
00001000
00000000
00000100
00000000
00000001
00000000
00001000
00000000
,
00000100
00000020
00001000
00000000
00000031
00001000
00000100
00000010
,
00000001
00000000
00001000
00000100
00001000
00000000
00000010
00000000
00000100
00000000
00001000
00000000
00010000
00000000
00100000
00000000
,
10000000
00000000
00000000
11000000
00000000
00000000
00100000
00000000
00001000
00000000
00000000
00010010
00000000
00000000
00010000
00001000
,
00010000
00000000
00000000
00000000
00001000
00000000
00001000
00100000
00010000
00000000
10000000
00000000
00010000
00000000
01000000
00000000
,
00100000
20000000
01000000
00000000
00010000
00000000
31000000
00100000
,
00001000
00000000
00000000
00000000
00010000
00000000
00001000
00000000
00011000
00000000
00010000
00001000
00010000
00000000
00000100
00000000
,
00001000
00000000
00000100
00000010
00000001
00000000
00001000
00000001
00000100
00000000
00001000
00000000
00010000
00000000
00000000
00000000
,
00011000
00000000
00001000
00010000
01000000
10000000
00010000
10000000
,
00100000
01000000
00010000
00000000
00100000
00001000
00010000
00001000
,
00000010
00000000
00000001
00001000
00000001
00000000
00000010
00000000
00000100
00000000
00010000
00000000
00001000
00000000
00000000
00000000
,
00010000
00000000
00001000
00000000
00020000
00000000
00000000
00000000
00031000
00010000
00000000
00001000
01000000
00000000
00000000
00000000
,
01010000
00000000
10000000
01000000
00100000
00000000
00001000
00010000
,
00000010
00000000
00010000
00000000
00001000
00000000
00000000
00000000
00011000
00000000
00000000
00000000
00010000
00000100
00010000
00000100
,
00001000
00000100
00000010
00000001
00000100
00001000
00010000
00100000
,
10000000
00000000
01000000
00000000
00010000
00000000
00001000
00000000
00000100
00000001
00000100
00000001
00001000
00000000
00000000
00000000
,
00001001
00000000
00000000
00000000
;

//--------------- dance-double - Fred-104 ----------------
#NOTEDATA:;
#STEPSTYPE:dance-double;
#DESCRIPTION:Fred-104;
#DIFFICULTY:Challenge;
#METER:18;
#CREDIT:Fred-104;
#NOTES:
00000000
00000000
00000000
00000000
,
00000000
00000000
00000000
00000000
,
00000000
00000000
00000000
00000000
,
00010000
00001000
00000000
00001000
00000100
00000000
00000000
00000000
00000001
00000000
00000000
00000000
00000110
00000000
00000000
00000000
,
00001000
00000000
00001001
00000000
00000001
00000000
00000100
00001000
,
00010000
00000000
00000000
00000000
00100000
00000000
01000000
00000000
00010000
00000000
10000000
00000000
01000000
10000000
01000000
00000000
,
00100000
00000000
00001000
00000000
00010000
00001000
00011000
00000000
,
00010000
00001000
00000010
00000000
00000100
00001000
00000001
00000000
,
00001000
00000010
00000100
00001000
00010000
00100000
01000000
00010000
,
00100000
00000000
01000000
00000000
00100000
00000000
00001000
00000000
00010000
00000100
00001000
00000100
00000010
00000001
00001000
00000010
,
00010000
00001000
00100000
00001000
00010000
00001000
01000000
00001000
00010000
00000000
00000000
00000000
00011000
00000000
00000000
00000000
,
00012000
00000000
00023000
00230000
01300000
00020000
00130000
02000000
,
13000000
00000000
02000000
00000000
03020000
00000000
00031000
00010000
00001000
00000000
00000000
00000000
00010000
00000000
00002000
00000000
,
00013000
00020000
00031000
00000200
00000310
00000002
00001003
00020000
,
00031000
00000000
02000000
00000000
03200000
00000000
00000000
00000000
10300000
00000000
01000000
00000000
00100000
00001000
00100000
00001000
,
00010000
00000000
00001000
00000000
00000100
00000000
00000010
00000000
00010000
00001000
00000000
00010000
00100000
00000000
01000000
00000000
,
00001000
00000000
00100000
00000000
01000000
00000000
00100000
00001000
00010000
00000000
00010000
00000000
00001000
00000000
00001000
00000000
,
00010000
00000000
00001000
00000000
00000010
00000000
00000100
00000000
00001000
00000000
00000100
00000000
00010000
00001000
00100000
00001000
,
00010000
00000000
00000000
00010000
00000010
00000000
00000000
00000010
00001000
00000000
00000000
00000000
00001001
00000000
00000000
00000000
,
00000110
00000000
00000000
00000000
00011000
00000000
00010000
00000000
00001000
00000000
01000000
00000000
00010000
00000000
10000000
01000000
,
00100000
00002000
00010000
00000000
01000000
00000000
00013000
00001000
,
00000100
00000000
00000001
00000000
00001000
00000000
00000100
00000000
00000010
00000001
00000000
00000100
00001000
00000000
00010000
00000000
,
00001000
00000000
00001000
00000000
00010000
00000000
00000000
00000000
00011000
00000000
00000000
00000000
00100000
00000000
00010000
10000000
,
00100000
10000000
01000000
00010000
00001000
00000100
00000001
00000000
,
00001000
00000000
00000010
00000000
00000100
00000000
00001000
00000000
00010000
00001000
00010000
00000000
00001000
01000000
00010000
01000000
,
00100000
00000000
10000000
00000000
01000000
00000000
00010000
00000000
00001000
00010000
00000010
00010000
00001000
00010000
00000010
00010000
,
00002000
00000000
00020000
00033000
,
00021000
00000000
00030010
00000000
00000201
00000000
00000310
00000000
00001000
00000001
00000010
00000000
00000110
00000000
00000100
00000000
,
00001000
00000001
00000200
00000000
00000320
00000000
00000031
00000010
00000100
00001000
00010000
00100000
10000000
00010000
00200000
00000000
,
01300000
00000000
21000000
00000000
30010000
00000000
00100000
01000000
00000000
00010000
00001000
00000000
00010000
00010000
00001000
00001000
,
00010000
00000000
00011000
00000000
00000110
00000000
00000001
00000100
00000110
00000000
00001010
00000000
00002002
00000000
00000000
00003003
,
00000001
00000010
00001000
00010000
00100000
10000000
00010000
00000000
,
11000000
00000000
00000000
00000000
01010000
00000000
00000000
00000000
11000000
00000000
00000000
10000000
01000000
00100000
00010000
00100000
,
00001000
00010000
00001000
00000100
00000010
00001000
00000100
00000010
,
00000001
00001000
00000001
00001000
00000010
00000100
00000010
00000100
00000001
00001000
00000100
00010000
00001000
00000000
00000000
00000000
,
00011000
00000000
00001000
01000000
01010000
00000000
10010000
00000000
,
11000000
00000000
00000000
00000000
00110000
00000000
00000000
00000000
00100000
00001000
00010000
00001000
00100000
00001000
00010000
00001000
,
00010000
00000000
00011000
00010000
00000010
00000000
00001001
00000000
,
00001100
00000000
00000101
00000000
00000022
00000033
00002020
00003030
,
00001001
00000000
00000001
00000100
00001000
00010000
02000000
03000000
,
20000000
00000000
00000000
30000000
00020000
00000000
00000000
00030000
10010000
00000000
00000000
00000000
00000000
00000000
00000000
00000000
10000000
00000000
00000000
00000000
10000000
00000000
00000000
00000000
10000000
00000000
00000000
00000000
10000000
00000000
01000000
00000000
,
00100000
00000000
00000000
00000000
00000000
00000000
00001000
00000000
00000000
00000100
00000000
00000000
00000010
00000000
00000000
00001000
00000001
00001000
00000001
00000000
00000000
00000010
00000000
00000000
,
00000110
00011000
01100000
10010000
,
00010000
10000000
00100000
00010000
00001000
00010000
01000000
00000000
,
00100000
00001000
00010000
00001000
00000100
00000001
00001000
00000000
,
00000001
00000010
00000100
00001000
00010000
00100000
01000000
10000000
,
00010000
01000000
00010000
00100000
00001000
00010000
00000010
00001000
00000100
00010000
00001000
00100000
00001000
00000000
00000000
00000000
,
00011000
00000000
00000000
00000000
,
00000000
00000000
00000000
00000000
,
00000000
00000000
00000000
00000000
,
00000000
00000000
00000000
00000000
,
00000001
00000000
00000000
00000000
,
00010000
00000000
00000000
00000000
,
00001000
00000000
10000000
00000000
,
00000001
00000000
00001001
00000000
00000001
00000100
00001000
00000000
,
00010000
00000000
00011000
00000000
00001000
00010000
01000000
10000000
,
00100000
01100000
01000000
00001000
,
00010000
00000000
00001000
00000000
00010000
00000000
00000010
00000000
00001000
00000000
00000001
00000000
00000010
00000100
00000010
00000100
,
00000010
00000001
00001001
00001000
00000100
00010000
00011000
00001000
,
01000000
00000000
00010000
00000000
10010000
00000000
10000000
00000000
01000000
00000000
00100000
00000000
00001000
00010000
00001000
00010000
,
00001000
00010000
00010010
00000010
00001000
00000001
00000011
00000010
,
00000100
00000000
00010000
00001000
00010000
00000000
00011000
00000000
,
00001000
00010000
00100000
10000000
00010000
00100000
01000000
00010000
,
00001000
00000010
00000100
00000000
00001000
00000001
00000101
00000000
,
00001000
00000100
00000010
00001000
00010000
01000000
00100000
00010000
,
00100000
00000000
01000000
00000000
11000000
00000000
00000000
00000000
10000000
00000000
00010000
00000000
01000000
00100000
10000000
00100000
,
01000000
00010000
10000000
01000000
00010000
00001000
00000100
00000000
,
00000010
00001000
00000001
00000010
00000100
00010000
00011000
00000000
,
01001000
00000000
01000000
00000000
00010000
10000000
01000000
00000000
,
11000000
00110000
00001010
00000101
,
00001001
00000000
00000001
00000100
00001000
00010000
00001000
00000000
,
00010000
00000000
01000000
00000000
00100000
00010000
00100000
00000000
01000000
00000000
10000000
00000000
00010000
00000000
01000000
00000000
,
01010000
00000000
00000000
00000000
01000000
00000000
00001000
00010000
00000100
00010000
00001000
00000000
00000010
00000000
00000100
00000000
,
00001000
00000000
00000100
00000000
00010000
00000000
01000000
00000000
00100000
00000000
00010000
00000000
10000000
00100000
01000000
00100000
,
10000000
00000000
00000000
00000000
00010000
00000000
01000000
00100000
10000000
01000000
10000000
00000000
00010000
00000000
10000000
00000000
,
00100000
01000000
00100000
00010000
00001000
00000100
00000001
00001000
,
00000010
00010000
00100000
01000000
00001000
00100000
01000000
00000000
,
00012000
00000000
00023000
00000000
00032000
00000000
00023000
00030000
,
00011000
00000000
00010000
00000010
00001010
00000000
00001001
00000000
,
00000101
00000000
00000000
00000000
00001100
00000000
00000000
00000000
00000110
00000000
00000000
00000000
00000001
00000000
00001000
00000010
,
00000100
00001000
00010000
00100000
01000000
00100000
10000000
00010000
,
00100000
00010000
00100000
00001000
00010000
00000010
00001000
00000001
00000010
00000100
00001000
00000100
00010000
00000000
00001000
00000000
,
00022000
00000000
00000000
00000000
00000000
00000000
00000000
00000000
00000000
00000000
00000000
00000000
00033000
00000000
00000000
00000000
00010000
00000000
00001000
00000000
00000100
00000000
00000001
00000000
00001000
00000100
00001000
00000100
00000020
00000000
00000000
00000000
,
00000130
00000000
00001000
00000000
00000010
00000000
00000100
00000000
00001000
00000000
00010000
00100000
01000000
00000000
00010000
00000000
,
00100000
01000000
00100000
00001000
00000010
00000100
00001000
00001000
,
00002000
00003010
00000200
00002300
00013000
00200000
02300000
03020000
,
00230000
00000000
00302000
00000000
00203000
00000000
02300000
00000000
03010000
00001000
00000000
00001000
00010000
00000000
00000010
00000000
,
00001000
00000000
00000100
00000000
00000010
00000000
00000100
00000000
00010000
00000000
00001000
01000000
00010000
00000000
01000000
00000000
,
00001000
00010000
01000000
00100000
00001000
00010000
00001000
00000010
,
00001000
00010000
00002000
00100000
00203000
00010000
00310000
01000000
,
00001000
00000000
00000100
00000000
00000010
00000000
00010000
00000000
00001000
00010000
00000000
01000000
00010000
00000000
00000000
00000000
,
00001000
00000000
00001000
00000000
00011000
00000000
00010000
00000000
00000010
00001000
00000000
00000010
00000100
00000000
00000010
00000000
,
00001000
00000000
00000001
00000000
00000011
00000000
00000000
00000000
00000001
00000000
00000100
00000000
00001000
00000000
00010000
00001000
,
00010000
00000000
01000000
00000000
00100000
00000000
00010000
00000000
01000000
00100000
00000000
00010000
00001000
00000000
00010000
00000000
,
00001000
00000000
00010000
00000000
00011000
00000000
00000000
00000000
00010000
00001000
00000000
00000010
00000100
00000001
00000100
00000010
,
00000001
00001000
00000000
00001000
00000010
00000000
00000000
00000000
00002000
00000000
00003020
00000000
00000230
00000000
00001300
00000000
,
00020000
00230000
02300000
03100000
00020000
00031000
00000200
00000320
,
00010030
00000000
00000000
00000000
00001000
00000000
00001000
00100000
00010000
00000000
00000000
00000000
01100000
00000000
00000000
00000000
,
10000000
00000000
01000000
00000000
00010000
00000000
00001000
00000000
00000100
00000001
00000100
00000001
00000010
00000000
00000000
00000000
,
00000100
00000000
00001000
00000000
00000010
00000000
00010000
00001000
00010000
00000000
00100000
00000000
01000000
00000000
00000000
00000000
,
00010000
00200000
01000000
00000000
00010000
00000000
01300000
10000000
,
00010000
00000000
01000000
00000000
00100000
00000000
00010000
00001000
00000100
00000000
00000010
00000000
00010000
00000000
00000000
00000000
,
00001000
00000000
00020000
00000000
00000010
00000000
00000000
00000000
00031000
00010000
00000000
00010000
00001000
00000000
01000000
00000000
,
00010000
10000000
01000000
00001000
00000100
00000010
00000001
00001000
,
00000010
00000100
00010000
01000000
00100000
10000000
00010000
00010000
,
10010000
00000000
10000000
01000000
01100000
00000000
00011000
00000000
,
00000110
00000000
00001000
00000001
00000100
00000000
00000010
00001000
00000001
00000000
00000010
00001000
00010000
00000000
00000000
00000000
,
00011000
00000000
00001000
01000000
00001000
00000000
00020000
00000000
00031000
00000000
00000020
00000000
00001030
00000000
00020000
00000000
,
00031000
02000000
03020000
00000000
00130000
00100000
01000000
01000000
,
10000000
00000000
00100000
01000000
00010000
00000000
02000000
00000000
03100000
00000000
00020000
00000000
00031000
00000000
00000200
00000000
,
00000310
00000000
00001000
00000100
00000010
00000000
00000001
00000000
00001000
00000010
00000000
00010000
00002000
00000000
00013000
00001000
,
00010000
00000000
00000000
00000000
00001000
00000000
00010000
00100000
10000000
00000000
00010000
00100000
10000000
00000000
00100000
00000000
,
00010000
02000000
10000000
00000000
00100000
00000000
03010000
10000000
,
01000000
00000000
00100000
00000000
00001000
00000000
00010000
00000000
00000100
00000000
00000010
00000100
00001000
00000000
00000001
00000000
,
00000100
00000000
00000001
00000010
00000100
00000000
00010000
00001000
01000000
00000000
00010000
10000000
00100000
00000000
00000000
00000000
,
01100000
00000000
10000000
00100000
00010000
00001000
00000010
00000100
,
00001000
00000010
00000100
00000000
00000001
00001000
00000100
00000100
,
00000100
00000000
00000000
00010000
00001000
00010000
00001000
00000000
00000000
00020000
00000000
00000000
00130000
00000000
00000000
20000000
00000000
00000000
30010000
00000000
00000000
00200000
00000000
00000000
,
01300000
00000000
00020000
00000000
00032000
00000000
00000000
00000000
00013000
00001000
00000000
00000100
00000001
00000000
00000010
00000000
,
00000110
00000000
00001000
00000100
00000110
00000000
00000001
00000100
,
00001000
00000000
00010000
00000000
00001000
00000000
00000000
00000000
00011000
00000000
00000000
00000000
00001000
01000000
00010000
01000000
,
00002000
00013000
00100000
10000000
02000000
03100000
00001000
00010000
,
00000200
00000000
00000310
00000000
00000002
00000000
00000103
00000000
00001000
00010000
00000100
00010000
00001000
00000000
00000000
00000000
,
00011000
00000000
00000000
00000000
;
